osu file format v14

[General]
AudioFilename: audio.mp3
AudioLeadIn: 0
PreviewTime: 84627
Countdown: 0
SampleSet: Soft
StackLeniency: 0.7
Mode: 3
LetterboxInBreaks: 0
SpecialStyle: 0
WidescreenStoryboard: 0

[Editor]
Bookmarks: 31002,54127,99555
DistanceSpacing: 1
BeatDivisor: 4
GridSize: 8
TimelineZoom: 2.4

[Metadata]
Title:Lost Civilization
TitleUnicode:Lost Civilization
Artist:Laur vs CK
ArtistUnicode:Laur vs CK
Creator:Valentrixe
Version:Extinct
Source:Arcaea
Tags:
BeatmapID:1235852
BeatmapSetID:584113

[Difficulty]
HPDrainRate:8.5
CircleSize:4
OverallDifficulty:8.5
ApproachRate:5
SliderMultiplier:1.4
SliderTickRate:1

[Events]
//Background and Video events
0,0,"bg.jpg",0,0
//Break Periods
//Storyboard Layer 0 (Background)
//Storyboard Layer 1 (Fail)
//Storyboard Layer 2 (Pass)
//Storyboard Layer 3 (Foreground)
//Storyboard Sound Samples

[TimingPoints]
413,285.714285714286,4,2,0,10,1,0
40413,285.714285714286,3,2,0,10,1,0
84984,-100,3,2,0,10,0,1
96127,-100,3,2,0,10,0,0
96984,-100,3,2,0,10,0,1
110698,300,3,2,0,10,1,0
110698,-95.2380952380952,3,2,0,10,0,0
112498,315.789473684211,3,2,0,10,1,0
112498,-90.9090909090909,3,2,0,10,0,0
114392,324.324324324324,3,2,0,10,1,0
114392,-88.4955752212389,3,2,0,10,0,0
116337,342.857142857143,3,2,0,10,1,0
116337,-83.3333333333333,3,2,0,10,0,0
117365,428.571428571429,3,2,0,10,1,0
117365,-66.6666666666667,3,2,0,10,0,0
117793,500,3,2,0,10,1,0
117793,-57.1428571428571,3,2,0,10,0,0
118293,750,3,2,0,10,1,0
118293,-38.1679389312977,3,2,0,10,0,0
119043,800,5,2,0,10,1,0
119043,-35.7142857142857,5,2,0,10,0,0

[HitObjects]
64,192,1555,5,0,0:0:0:0:
320,192,1555,1,0,0:0:0:0:
448,192,1555,1,0,0:0:0:0:
192,192,2413,1,0,0:0:0:0:
64,192,2413,1,0,0:0:0:0:
192,192,2555,1,0,0:0:0:0:
64,192,2555,1,0,0:0:0:0:
448,192,2698,1,0,0:0:0:0:
192,192,2698,1,0,0:0:0:0:
320,192,3270,1,0,0:0:0:0:
448,192,3270,1,0,0:0:0:0:
448,192,3413,1,0,0:0:0:0:
192,192,3413,1,0,0:0:0:0:
192,192,3555,1,0,0:0:0:0:
320,192,3555,1,0,0:0:0:0:
64,192,3698,1,0,0:0:0:0:
320,192,3698,1,0,0:0:0:0:
192,192,3841,1,0,0:0:0:0:
448,192,3841,1,0,0:0:0:0:
64,192,3841,1,0,0:0:0:0:
64,192,4698,1,0,0:0:0:0:
192,192,4698,1,0,0:0:0:0:
64,192,4841,1,0,0:0:0:0:
448,192,4841,1,0,0:0:0:0:
192,192,4984,1,0,0:0:0:0:
448,192,4984,1,0,0:0:0:0:
64,192,5555,1,0,0:0:0:0:
192,192,5555,1,0,0:0:0:0:
448,192,5841,1,0,0:0:0:0:
192,192,5841,1,0,0:0:0:0:
448,192,6127,1,0,0:0:0:0:
320,192,6127,1,0,0:0:0:0:
192,192,6127,1,0,0:0:0:0:
320,192,6984,1,0,0:0:0:0:
448,192,6984,1,0,0:0:0:0:
320,192,7127,1,0,0:0:0:0:
448,192,7127,1,0,0:0:0:0:
320,192,7270,1,0,0:0:0:0:
64,192,7270,1,0,0:0:0:0:
320,192,7841,1,0,0:0:0:0:
448,192,7841,1,0,0:0:0:0:
320,192,7984,1,0,0:0:0:0:
64,192,7984,1,0,0:0:0:0:
64,192,8127,1,0,0:0:0:0:
192,192,8127,1,0,0:0:0:0:
448,192,8270,1,0,0:0:0:0:
192,192,8270,1,0,0:0:0:0:
448,192,8413,1,0,0:0:0:0:
64,192,8413,1,0,0:0:0:0:
320,192,8413,1,0,0:0:0:0:
64,192,8984,1,0,0:0:0:0:
320,192,8984,1,0,0:0:0:0:
448,192,9079,1,0,0:0:0:0:
192,192,9174,1,0,0:0:0:0:
64,192,9174,1,0,0:0:0:0:
448,192,9270,1,0,0:0:0:0:
64,192,9365,1,0,0:0:0:0:
320,192,9365,1,0,0:0:0:0:
192,192,9460,1,0,0:0:0:0:
448,192,9555,1,0,0:0:0:0:
320,192,9555,1,0,0:0:0:0:
64,192,9841,1,0,0:0:0:0:
320,192,9841,1,0,0:0:0:0:
448,192,9936,1,0,0:0:0:0:
192,192,10032,1,0,0:0:0:0:
64,192,10032,1,0,0:0:0:0:
448,192,10127,1,0,0:0:0:0:
320,192,10174,1,0,0:0:0:0:
192,192,10222,1,0,0:0:0:0:
448,192,10270,1,0,0:0:0:0:
320,192,10317,1,0,0:0:0:0:
64,192,10365,1,0,0:0:0:0:
192,192,10413,1,0,0:0:0:0:
320,192,10460,1,0,0:0:0:0:
448,192,10508,1,0,0:0:0:0:
192,192,10555,1,0,0:0:0:0:
64,192,10627,1,0,0:0:0:0:
192,192,10698,1,0,0:0:0:0:
448,192,10698,1,0,0:0:0:0:
320,192,10698,1,0,0:0:0:0:
64,192,10770,1,0,0:0:0:0:
320,192,10841,1,0,0:0:0:0:
192,192,10913,1,0,0:0:0:0:
448,192,10984,1,0,0:0:0:0:
320,192,11055,1,0,0:0:0:0:
64,192,11127,1,0,0:0:0:0:
192,192,11198,1,0,0:0:0:0:
448,192,11270,1,0,0:0:0:0:
320,192,11341,1,0,0:0:0:0:
192,192,11413,1,0,0:0:0:0:
64,192,11484,1,0,0:0:0:0:
320,192,11555,1,0,0:0:0:0:
448,192,11555,1,0,0:0:0:0:
64,192,11627,1,0,0:0:0:0:
320,192,11698,1,0,0:0:0:0:
448,192,11698,1,0,0:0:0:0:
64,192,11770,1,0,0:0:0:0:
448,192,11841,1,0,0:0:0:0:
192,192,11841,1,0,0:0:0:0:
320,192,11913,1,0,0:0:0:0:
64,192,11984,1,0,0:0:0:0:
192,192,12055,1,0,0:0:0:0:
448,192,12127,1,0,0:0:0:0:
320,192,12198,1,0,0:0:0:0:
64,192,12270,1,0,0:0:0:0:
192,192,12341,1,0,0:0:0:0:
320,192,12413,1,0,0:0:0:0:
448,192,12413,1,0,0:0:0:0:
64,192,12484,1,0,0:0:0:0:
192,192,12555,1,0,0:0:0:0:
320,192,12555,1,0,0:0:0:0:
448,192,12627,1,0,0:0:0:0:
64,192,12698,1,0,0:0:0:0:
192,192,12698,1,0,0:0:0:0:
448,192,12770,1,0,0:0:0:0:
320,192,12841,1,0,0:0:0:0:
64,192,12841,1,0,0:0:0:0:
192,192,12913,1,0,0:0:0:0:
64,192,12984,1,0,0:0:0:0:
320,192,12984,1,0,0:0:0:0:
448,192,12984,1,0,0:0:0:0:
192,192,13055,1,0,0:0:0:0:
448,192,13127,1,0,0:0:0:0:
320,192,13198,1,0,0:0:0:0:
64,192,13270,1,0,0:0:0:0:
192,192,13341,1,0,0:0:0:0:
320,192,13413,1,0,0:0:0:0:
448,192,13484,1,0,0:0:0:0:
192,192,13555,1,0,0:0:0:0:
64,192,13627,1,0,0:0:0:0:
320,192,13698,1,0,0:0:0:0:
448,192,13770,1,0,0:0:0:0:
64,192,13841,1,0,0:0:0:0:
192,192,13841,1,0,0:0:0:0:
448,192,13913,1,0,0:0:0:0:
192,192,13984,1,0,0:0:0:0:
64,192,13984,1,0,0:0:0:0:
448,192,14055,1,0,0:0:0:0:
192,192,14127,1,0,0:0:0:0:
320,192,14127,1,0,0:0:0:0:
64,192,14198,1,0,0:0:0:0:
320,192,14270,1,0,0:0:0:0:
192,192,14341,1,0,0:0:0:0:
448,192,14413,1,0,0:0:0:0:
320,192,14484,1,0,0:0:0:0:
192,192,14555,1,0,0:0:0:0:
320,192,14627,1,0,0:0:0:0:
192,192,14698,1,0,0:0:0:0:
448,192,14698,1,0,0:0:0:0:
64,192,14770,1,0,0:0:0:0:
448,192,14841,1,0,0:0:0:0:
320,192,14913,1,0,0:0:0:0:
64,192,14984,1,0,0:0:0:0:
192,192,14984,1,0,0:0:0:0:
320,192,15055,1,0,0:0:0:0:
448,192,15127,1,0,0:0:0:0:
192,192,15198,1,0,0:0:0:0:
448,192,15270,1,0,0:0:0:0:
64,192,15270,1,0,0:0:0:0:
320,192,15270,1,0,0:0:0:0:
192,192,15413,1,0,0:0:0:0:
448,192,15413,1,0,0:0:0:0:
192,192,15555,1,0,0:0:0:0:
64,192,15555,1,0,0:0:0:0:
320,192,15698,1,0,0:0:0:0:
64,192,15698,1,0,0:0:0:0:
320,192,15841,1,0,0:0:0:0:
448,192,15841,1,0,0:0:0:0:
64,192,15913,1,0,0:0:0:0:
192,192,15984,1,0,0:0:0:0:
448,192,15984,1,0,0:0:0:0:
320,192,16055,1,0,0:0:0:0:
192,192,16127,1,0,0:0:0:0:
64,192,16127,1,0,0:0:0:0:
320,192,16198,1,0,0:0:0:0:
448,192,16270,1,0,0:0:0:0:
64,192,16270,1,0,0:0:0:0:
192,192,16341,1,0,0:0:0:0:
320,192,16413,1,0,0:0:0:0:
448,192,16413,1,0,0:0:0:0:
64,192,16484,1,0,0:0:0:0:
192,192,16484,1,0,0:0:0:0:
320,192,16555,1,0,0:0:0:0:
448,192,16555,1,0,0:0:0:0:
192,192,16627,1,0,0:0:0:0:
64,192,16627,1,0,0:0:0:0:
320,192,16698,1,0,0:0:0:0:
448,192,16698,1,0,0:0:0:0:
192,192,16770,1,0,0:0:0:0:
64,192,16770,1,0,0:0:0:0:
320,192,16841,1,0,0:0:0:0:
448,192,16841,1,0,0:0:0:0:
192,192,16913,1,0,0:0:0:0:
64,192,16913,1,0,0:0:0:0:
320,192,16984,1,0,0:0:0:0:
448,192,16984,1,0,0:0:0:0:
192,192,17055,1,0,0:0:0:0:
64,192,17055,1,0,0:0:0:0:
320,192,17127,1,0,0:0:0:0:
448,192,17127,1,0,0:0:0:0:
192,192,17198,1,0,0:0:0:0:
64,192,17198,1,0,0:0:0:0:
448,192,17270,1,0,0:0:0:0:
320,192,17305,1,0,0:0:0:0:
192,192,17341,1,0,0:0:0:0:
64,192,17377,1,0,0:0:0:0:
448,192,17413,1,0,0:0:0:0:
320,192,17448,1,0,0:0:0:0:
192,192,17484,1,0,0:0:0:0:
64,192,17520,1,0,0:0:0:0:
320,192,17555,1,0,0:0:0:0:
448,192,17555,1,0,0:0:0:0:
192,192,17627,1,0,0:0:0:0:
64,192,17698,1,0,0:0:0:0:
192,192,17770,1,0,0:0:0:0:
320,192,17841,1,0,0:0:0:0:
448,192,17913,1,0,0:0:0:0:
64,192,17984,1,0,0:0:0:0:
192,192,18055,1,0,0:0:0:0:
320,192,18127,1,0,0:0:0:0:
448,192,18198,1,0,0:0:0:0:
320,192,18270,1,0,0:0:0:0:
192,192,18341,1,0,0:0:0:0:
64,192,18413,1,0,0:0:0:0:
448,192,18484,1,0,0:0:0:0:
320,192,18555,1,0,0:0:0:0:
192,192,18627,1,0,0:0:0:0:
64,192,18746,1,0,0:0:0:0:
192,192,18793,1,0,0:0:0:0:
320,192,18841,1,0,0:0:0:0:
448,192,18889,1,0,0:0:0:0:
192,192,18936,1,0,0:0:0:0:
320,192,18984,1,0,0:0:0:0:
448,192,19032,1,0,0:0:0:0:
192,192,19079,1,0,0:0:0:0:
64,192,19127,1,0,0:0:0:0:
320,192,19174,1,0,0:0:0:0:
192,192,19222,1,0,0:0:0:0:
64,192,19270,1,0,0:0:0:0:
448,192,19270,1,0,0:0:0:0:
320,192,19317,1,0,0:0:0:0:
192,192,19365,1,0,0:0:0:0:
64,192,19413,1,0,0:0:0:0:
448,192,19460,1,0,0:0:0:0:
320,192,19508,1,0,0:0:0:0:
192,192,19555,1,0,0:0:0:0:
448,192,19603,1,0,0:0:0:0:
320,192,19651,1,0,0:0:0:0:
64,192,19698,1,0,0:0:0:0:
192,192,19746,1,0,0:0:0:0:
320,192,19793,1,0,0:0:0:0:
64,192,19841,1,0,0:0:0:0:
192,192,19841,1,0,0:0:0:0:
448,192,19841,1,0,0:0:0:0:
320,192,19913,1,0,0:0:0:0:
448,192,19984,1,0,0:0:0:0:
192,192,20055,1,0,0:0:0:0:
64,192,20127,1,0,0:0:0:0:
320,192,20127,1,0,0:0:0:0:
448,192,20198,1,0,0:0:0:0:
192,192,20270,1,0,0:0:0:0:
320,192,20341,1,0,0:0:0:0:
64,192,20413,1,0,0:0:0:0:
448,192,20413,1,0,0:0:0:0:
192,192,20484,1,0,0:0:0:0:
320,192,20555,1,0,0:0:0:0:
448,192,20555,1,0,0:0:0:0:
64,192,20627,1,0,0:0:0:0:
192,192,20698,1,0,0:0:0:0:
448,192,20698,1,0,0:0:0:0:
320,192,20770,1,0,0:0:0:0:
192,192,20841,1,0,0:0:0:0:
64,192,20841,1,0,0:0:0:0:
320,192,20913,1,0,0:0:0:0:
64,192,20984,1,0,0:0:0:0:
448,192,20984,1,0,0:0:0:0:
192,192,21055,1,0,0:0:0:0:
320,192,21127,1,0,0:0:0:0:
64,192,21198,1,0,0:0:0:0:
192,192,21270,1,0,0:0:0:0:
448,192,21270,1,0,0:0:0:0:
320,192,21341,1,0,0:0:0:0:
64,192,21413,1,0,0:0:0:0:
192,192,21484,1,0,0:0:0:0:
448,192,21555,1,0,0:0:0:0:
320,192,21555,1,0,0:0:0:0:
64,192,21627,1,0,0:0:0:0:
192,192,21698,1,0,0:0:0:0:
320,192,21770,1,0,0:0:0:0:
64,192,21841,1,0,0:0:0:0:
448,192,21841,1,0,0:0:0:0:
192,192,21913,1,0,0:0:0:0:
64,192,21984,1,0,0:0:0:0:
192,192,22055,1,0,0:0:0:0:
64,192,22127,1,0,0:0:0:0:
448,192,22127,1,0,0:0:0:0:
320,192,22198,1,0,0:0:0:0:
192,192,22270,1,0,0:0:0:0:
64,192,22341,1,0,0:0:0:0:
320,192,22413,1,0,0:0:0:0:
448,192,22413,1,0,0:0:0:0:
192,192,22484,1,0,0:0:0:0:
64,192,22555,1,0,0:0:0:0:
320,192,22627,1,0,0:0:0:0:
192,192,22698,1,0,0:0:0:0:
448,192,22698,1,0,0:0:0:0:
64,192,22770,1,0,0:0:0:0:
320,192,22841,1,0,0:0:0:0:
448,192,22841,1,0,0:0:0:0:
192,192,22913,1,0,0:0:0:0:
64,192,22984,1,0,0:0:0:0:
320,192,22984,1,0,0:0:0:0:
448,192,23055,1,0,0:0:0:0:
192,192,23127,1,0,0:0:0:0:
64,192,23127,1,0,0:0:0:0:
320,192,23198,1,0,0:0:0:0:
192,192,23270,1,0,0:0:0:0:
448,192,23270,1,0,0:0:0:0:
64,192,23341,1,0,0:0:0:0:
320,192,23413,1,0,0:0:0:0:
192,192,23484,1,0,0:0:0:0:
448,192,23555,1,0,0:0:0:0:
64,192,23555,1,0,0:0:0:0:
320,192,23627,1,0,0:0:0:0:
192,192,23698,1,0,0:0:0:0:
448,192,23770,1,0,0:0:0:0:
192,192,23841,1,0,0:0:0:0:
320,192,23841,1,0,0:0:0:0:
64,192,23913,1,0,0:0:0:0:
192,192,23984,1,0,0:0:0:0:
320,192,24055,1,0,0:0:0:0:
448,192,24127,1,0,0:0:0:0:
64,192,24127,1,0,0:0:0:0:
192,192,24198,1,0,0:0:0:0:
320,192,24270,1,0,0:0:0:0:
64,192,24341,1,0,0:0:0:0:
192,192,24413,1,0,0:0:0:0:
320,192,24413,1,0,0:0:0:0:
448,192,24484,1,0,0:0:0:0:
64,192,24555,1,0,0:0:0:0:
192,192,24627,1,0,0:0:0:0:
320,192,24698,1,0,0:0:0:0:
448,192,24698,1,0,0:0:0:0:
192,192,24770,1,0,0:0:0:0:
64,192,24841,1,0,0:0:0:0:
320,192,24913,1,0,0:0:0:0:
448,192,24984,1,0,0:0:0:0:
192,192,24984,1,0,0:0:0:0:
64,192,25055,1,0,0:0:0:0:
320,192,25127,1,0,0:0:0:0:
448,192,25127,1,0,0:0:0:0:
192,192,25198,1,0,0:0:0:0:
64,192,25270,1,0,0:0:0:0:
320,192,25270,1,0,0:0:0:0:
448,192,25341,1,0,0:0:0:0:
192,192,25413,1,0,0:0:0:0:
64,192,25413,1,0,0:0:0:0:
320,192,25484,1,0,0:0:0:0:
448,192,25555,1,0,0:0:0:0:
64,192,25555,1,0,0:0:0:0:
192,192,25627,1,0,0:0:0:0:
320,192,25698,1,0,0:0:0:0:
448,192,25770,1,0,0:0:0:0:
192,192,25841,1,0,0:0:0:0:
64,192,25841,1,0,0:0:0:0:
320,192,25913,1,0,0:0:0:0:
448,192,25984,1,0,0:0:0:0:
192,192,26055,1,0,0:0:0:0:
320,192,26127,1,0,0:0:0:0:
64,192,26127,1,0,0:0:0:0:
448,192,26198,1,0,0:0:0:0:
320,192,26270,1,0,0:0:0:0:
192,192,26341,1,0,0:0:0:0:
64,192,26413,1,0,0:0:0:0:
448,192,26413,1,0,0:0:0:0:
320,192,26484,1,0,0:0:0:0:
448,192,26555,1,0,0:0:0:0:
320,192,26627,1,0,0:0:0:0:
448,192,26698,1,0,0:0:0:0:
64,192,26698,1,0,0:0:0:0:
192,192,26770,1,0,0:0:0:0:
320,192,26841,1,0,0:0:0:0:
448,192,26913,1,0,0:0:0:0:
192,192,26984,1,0,0:0:0:0:
64,192,26984,1,0,0:0:0:0:
320,192,27055,1,0,0:0:0:0:
448,192,27127,1,0,0:0:0:0:
192,192,27198,1,0,0:0:0:0:
320,192,27270,1,0,0:0:0:0:
64,192,27270,1,0,0:0:0:0:
448,192,27341,1,0,0:0:0:0:
192,192,27413,1,0,0:0:0:0:
64,192,27413,1,0,0:0:0:0:
448,192,27484,1,0,0:0:0:0:
320,192,27555,1,0,0:0:0:0:
192,192,27555,1,0,0:0:0:0:
64,192,27627,1,0,0:0:0:0:
320,192,27698,1,0,0:0:0:0:
448,192,27698,1,0,0:0:0:0:
64,192,27770,1,0,0:0:0:0:
192,192,27841,1,0,0:0:0:0:
448,192,27841,1,0,0:0:0:0:
320,192,27913,1,0,0:0:0:0:
64,192,27984,1,0,0:0:0:0:
192,192,28055,1,0,0:0:0:0:
320,192,28127,1,0,0:0:0:0:
448,192,28127,1,0,0:0:0:0:
192,192,28198,1,0,0:0:0:0:
64,192,28270,1,0,0:0:0:0:
320,192,28341,1,0,0:0:0:0:
448,192,28413,1,0,0:0:0:0:
192,192,28413,1,0,0:0:0:0:
64,192,28484,1,0,0:0:0:0:
320,192,28555,1,0,0:0:0:0:
448,192,28555,1,0,0:0:0:0:
192,192,28627,1,0,0:0:0:0:
64,192,28627,1,0,0:0:0:0:
448,192,28698,1,0,0:0:0:0:
320,192,28734,1,0,0:0:0:0:
192,192,28770,1,0,0:0:0:0:
64,192,28805,1,0,0:0:0:0:
320,192,28841,1,0,0:0:0:0:
448,192,28841,1,0,0:0:0:0:
192,192,28913,1,0,0:0:0:0:
320,192,28984,1,0,0:0:0:0:
64,192,28984,1,0,0:0:0:0:
448,192,28984,1,0,0:0:0:0:
192,192,29055,1,0,0:0:0:0:
64,192,29127,1,0,0:0:0:0:
320,192,29198,1,0,0:0:0:0:
448,192,29270,1,0,0:0:0:0:
192,192,29270,1,0,0:0:0:0:
64,192,29341,1,0,0:0:0:0:
320,192,29413,1,0,0:0:0:0:
192,192,29484,1,0,0:0:0:0:
64,192,29555,1,0,0:0:0:0:
448,192,29555,1,0,0:0:0:0:
320,192,29627,1,0,0:0:0:0:
192,192,29698,1,0,0:0:0:0:
64,192,29698,1,0,0:0:0:0:
320,192,29770,1,0,0:0:0:0:
448,192,29841,1,0,0:0:0:0:
192,192,29841,1,0,0:0:0:0:
64,192,29913,1,0,0:0:0:0:
320,192,29984,1,0,0:0:0:0:
448,192,29984,1,0,0:0:0:0:
192,192,30055,1,0,0:0:0:0:
64,192,30127,1,0,0:0:0:0:
320,192,30127,1,0,0:0:0:0:
448,192,30198,1,0,0:0:0:0:
64,192,30270,1,0,0:0:0:0:
192,192,30341,1,0,0:0:0:0:
448,192,30413,1,0,0:0:0:0:
320,192,30413,1,0,0:0:0:0:
192,192,30484,1,0,0:0:0:0:
64,192,30555,1,0,0:0:0:0:
320,192,30627,1,0,0:0:0:0:
64,192,30698,1,0,0:0:0:0:
448,192,30698,1,0,0:0:0:0:
192,192,30770,1,0,0:0:0:0:
320,192,30841,1,0,0:0:0:0:
448,192,30913,1,0,0:0:0:0:
64,192,30984,1,0,0:0:0:0:
192,192,30984,1,0,0:0:0:0:
320,192,31055,1,0,0:0:0:0:
192,192,31127,1,0,0:0:0:0:
320,192,31198,1,0,0:0:0:0:
448,192,31270,1,0,0:0:0:0:
192,192,31270,1,0,0:0:0:0:
64,192,31341,1,0,0:0:0:0:
320,192,31413,1,0,0:0:0:0:
192,192,31484,1,0,0:0:0:0:
448,192,31555,1,0,0:0:0:0:
64,192,31555,1,0,0:0:0:0:
320,192,31627,1,0,0:0:0:0:
192,192,31698,1,0,0:0:0:0:
64,192,31770,1,0,0:0:0:0:
320,192,31841,1,0,0:0:0:0:
448,192,31841,1,0,0:0:0:0:
192,192,31913,1,0,0:0:0:0:
320,192,31984,1,0,0:0:0:0:
64,192,31984,1,0,0:0:0:0:
448,192,32055,1,0,0:0:0:0:
192,192,32127,1,0,0:0:0:0:
64,192,32127,1,0,0:0:0:0:
320,192,32198,1,0,0:0:0:0:
192,192,32270,1,0,0:0:0:0:
448,192,32270,1,0,0:0:0:0:
64,192,32341,1,0,0:0:0:0:
320,192,32413,1,0,0:0:0:0:
448,192,32413,1,0,0:0:0:0:
192,192,32484,1,0,0:0:0:0:
64,192,32555,1,0,0:0:0:0:
320,192,32627,1,0,0:0:0:0:
448,192,32698,1,0,0:0:0:0:
64,192,32698,1,0,0:0:0:0:
192,192,32770,1,0,0:0:0:0:
320,192,32841,1,0,0:0:0:0:
448,192,32913,1,0,0:0:0:0:
192,192,32984,1,0,0:0:0:0:
64,192,32984,1,0,0:0:0:0:
320,192,33055,1,0,0:0:0:0:
448,192,33127,1,0,0:0:0:0:
192,192,33198,1,0,0:0:0:0:
320,192,33270,1,0,0:0:0:0:
64,192,33270,1,0,0:0:0:0:
448,192,33341,1,0,0:0:0:0:
192,192,33413,1,0,0:0:0:0:
64,192,33413,1,0,0:0:0:0:
320,192,33484,1,0,0:0:0:0:
192,192,33555,1,0,0:0:0:0:
448,192,33555,1,0,0:0:0:0:
64,192,33555,1,0,0:0:0:0:
320,192,33627,1,0,0:0:0:0:
448,192,33698,1,0,0:0:0:0:
192,192,33770,1,0,0:0:0:0:
320,192,33841,1,0,0:0:0:0:
64,192,33841,1,0,0:0:0:0:
448,192,33913,1,0,0:0:0:0:
192,192,33984,1,0,0:0:0:0:
64,192,34055,1,0,0:0:0:0:
192,192,34127,1,0,0:0:0:0:
320,192,34198,1,0,0:0:0:0:
64,192,34270,1,0,0:0:0:0:
448,192,34270,1,0,0:0:0:0:
192,192,34341,1,0,0:0:0:0:
320,192,34413,1,0,0:0:0:0:
192,192,34484,1,0,0:0:0:0:
64,192,34555,1,0,0:0:0:0:
448,192,34555,1,0,0:0:0:0:
320,192,34627,1,0,0:0:0:0:
192,192,34698,1,0,0:0:0:0:
64,192,34770,1,0,0:0:0:0:
320,192,34841,1,0,0:0:0:0:
448,192,34841,1,0,0:0:0:0:
192,192,34913,1,0,0:0:0:0:
64,192,34984,1,0,0:0:0:0:
320,192,35055,1,0,0:0:0:0:
192,192,35127,1,0,0:0:0:0:
448,192,35198,1,0,0:0:0:0:
320,192,35270,1,0,0:0:0:0:
192,192,35270,1,0,0:0:0:0:
64,192,35341,1,0,0:0:0:0:
320,192,35413,1,0,0:0:0:0:
192,192,35484,1,0,0:0:0:0:
64,192,35555,1,0,0:0:0:0:
448,192,35555,1,0,0:0:0:0:
320,192,35591,1,0,0:0:0:0:
192,192,35627,1,0,0:0:0:0:
448,192,35663,1,0,0:0:0:0:
320,192,35698,1,0,0:0:0:0:
64,192,35734,1,0,0:0:0:0:
192,192,35770,1,0,0:0:0:0:
320,192,35805,1,0,0:0:0:0:
448,192,35841,1,0,0:0:0:0:
64,192,35841,1,0,0:0:0:0:
192,192,35913,1,0,0:0:0:0:
320,192,35984,1,0,0:0:0:0:
448,192,35984,1,0,0:0:0:0:
64,192,36055,1,0,0:0:0:0:
448,192,36127,1,0,0:0:0:0:
192,192,36127,1,0,0:0:0:0:
320,192,36198,1,0,0:0:0:0:
192,192,36270,1,0,0:0:0:0:
64,192,36270,1,0,0:0:0:0:
320,192,36341,1,0,0:0:0:0:
64,192,36413,1,0,0:0:0:0:
448,192,36413,1,0,0:0:0:0:
192,192,36484,1,0,0:0:0:0:
320,192,36555,1,0,0:0:0:0:
448,192,36555,1,0,0:0:0:0:
64,192,36627,1,0,0:0:0:0:
320,192,36698,1,0,0:0:0:0:
192,192,36698,1,0,0:0:0:0:
448,192,36770,1,0,0:0:0:0:
64,192,36841,1,0,0:0:0:0:
192,192,36841,1,0,0:0:0:0:
320,192,36913,1,0,0:0:0:0:
64,192,36984,1,0,0:0:0:0:
448,192,36984,1,0,0:0:0:0:
192,192,37055,1,0,0:0:0:0:
320,192,37127,1,0,0:0:0:0:
448,192,37163,1,0,0:0:0:0:
192,192,37198,1,0,0:0:0:0:
320,192,37234,1,0,0:0:0:0:
448,192,37270,1,0,0:0:0:0:
64,192,37270,1,0,0:0:0:0:
192,192,37341,1,0,0:0:0:0:
320,192,37413,1,0,0:0:0:0:
64,192,37448,1,0,0:0:0:0:
192,192,37484,1,0,0:0:0:0:
320,192,37520,1,0,0:0:0:0:
448,192,37555,1,0,0:0:0:0:
64,192,37555,1,0,0:0:0:0:
192,192,37627,1,0,0:0:0:0:
320,192,37698,1,0,0:0:0:0:
192,192,37770,1,0,0:0:0:0:
64,192,37770,1,0,0:0:0:0:
448,192,37841,1,0,0:0:0:0:
320,192,37913,1,0,0:0:0:0:
64,192,37984,1,0,0:0:0:0:
192,192,37984,1,0,0:0:0:0:
320,192,38055,1,0,0:0:0:0:
448,192,38127,1,0,0:0:0:0:
64,192,38127,1,0,0:0:0:0:
192,192,38127,1,0,0:0:0:0:
448,192,38413,1,0,0:0:0:0:
448,192,38698,1,0,0:0:0:0:
448,192,38984,1,0,0:0:0:0:
64,192,39127,128,0,39270:0:0:0:0:
320,192,39270,128,0,40413:0:0:0:0:
64,192,40413,1,0,0:0:0:0:
192,192,40413,1,0,0:0:0:0:
448,192,40413,1,0,0:0:0:0:
320,192,40555,1,0,0:0:0:0:
448,192,40627,1,0,0:0:0:0:
64,192,40698,1,0,0:0:0:0:
192,192,40698,1,0,0:0:0:0:
320,192,40841,1,0,0:0:0:0:
192,192,40984,1,0,0:0:0:0:
64,192,40984,1,0,0:0:0:0:
448,192,41127,1,0,0:0:0:0:
192,192,41127,1,0,0:0:0:0:
320,192,41270,1,0,0:0:0:0:
64,192,41270,1,0,0:0:0:0:
448,192,41270,1,0,0:0:0:0:
192,192,41413,1,0,0:0:0:0:
320,192,41555,1,0,0:0:0:0:
448,192,41555,1,0,0:0:0:0:
192,192,41698,1,0,0:0:0:0:
64,192,41841,1,0,0:0:0:0:
320,192,41841,1,0,0:0:0:0:
192,192,41984,1,0,0:0:0:0:
448,192,42127,1,0,0:0:0:0:
320,192,42127,1,0,0:0:0:0:
64,192,42127,1,0,0:0:0:0:
192,192,42270,1,0,0:0:0:0:
64,192,42341,1,0,0:0:0:0:
320,192,42413,1,0,0:0:0:0:
448,192,42413,1,0,0:0:0:0:
192,192,42555,1,0,0:0:0:0:
320,192,42698,1,0,0:0:0:0:
448,192,42698,1,0,0:0:0:0:
64,192,42841,1,0,0:0:0:0:
320,192,42841,1,0,0:0:0:0:
192,192,42984,1,0,0:0:0:0:
448,192,42984,1,0,0:0:0:0:
64,192,42984,1,0,0:0:0:0:
320,192,43127,1,0,0:0:0:0:
192,192,43270,1,0,0:0:0:0:
64,192,43270,1,0,0:0:0:0:
320,192,43413,1,0,0:0:0:0:
448,192,43555,1,0,0:0:0:0:
64,192,43555,1,0,0:0:0:0:
192,192,43698,1,0,0:0:0:0:
320,192,43841,1,0,0:0:0:0:
448,192,43841,1,0,0:0:0:0:
64,192,43841,1,0,0:0:0:0:
192,192,43984,1,0,0:0:0:0:
64,192,44055,1,0,0:0:0:0:
320,192,44127,1,0,0:0:0:0:
448,192,44127,1,0,0:0:0:0:
192,192,44270,1,0,0:0:0:0:
320,192,44413,1,0,0:0:0:0:
448,192,44413,1,0,0:0:0:0:
64,192,44555,1,0,0:0:0:0:
192,192,44555,1,0,0:0:0:0:
192,192,44698,1,0,0:0:0:0:
448,192,44698,1,0,0:0:0:0:
320,192,44698,1,0,0:0:0:0:
320,192,44841,1,0,0:0:0:0:
192,192,44984,1,0,0:0:0:0:
64,192,44984,1,0,0:0:0:0:
192,192,45127,1,0,0:0:0:0:
448,192,45127,1,0,0:0:0:0:
320,192,45270,1,0,0:0:0:0:
448,192,45270,1,0,0:0:0:0:
192,192,45413,1,0,0:0:0:0:
64,192,45413,1,0,0:0:0:0:
64,192,45555,1,0,0:0:0:0:
448,192,45555,1,0,0:0:0:0:
320,192,45555,1,0,0:0:0:0:
320,192,45698,1,0,0:0:0:0:
448,192,45770,1,0,0:0:0:0:
192,192,45841,1,0,0:0:0:0:
64,192,45841,1,0,0:0:0:0:
320,192,45984,1,0,0:0:0:0:
64,192,46127,1,0,0:0:0:0:
192,192,46127,1,0,0:0:0:0:
320,192,46270,1,0,0:0:0:0:
448,192,46270,1,0,0:0:0:0:
448,192,46413,1,0,0:0:0:0:
192,192,46413,1,0,0:0:0:0:
64,192,46413,1,0,0:0:0:0:
64,192,46555,1,0,0:0:0:0:
192,192,46698,1,0,0:0:0:0:
320,192,46698,1,0,0:0:0:0:
192,192,46841,1,0,0:0:0:0:
448,192,46841,1,0,0:0:0:0:
320,192,46984,1,0,0:0:0:0:
448,192,46984,1,0,0:0:0:0:
192,192,47127,1,0,0:0:0:0:
64,192,47127,1,0,0:0:0:0:
320,192,47270,128,0,47698:0:0:0:0:
448,192,47270,1,0,0:0:0:0:
64,192,47270,1,0,0:0:0:0:
192,192,47413,1,0,0:0:0:0:
64,192,47484,1,0,0:0:0:0:
448,192,47555,1,0,0:0:0:0:
192,192,47555,1,0,0:0:0:0:
64,192,47698,1,0,0:0:0:0:
448,192,47841,128,0,48127:0:0:0:0:
192,192,47841,1,0,0:0:0:0:
64,192,47984,1,0,0:0:0:0:
320,192,47984,1,0,0:0:0:0:
320,192,48127,128,0,48413:0:0:0:0:
192,192,48127,1,0,0:0:0:0:
64,192,48127,1,0,0:0:0:0:
448,192,48270,1,0,0:0:0:0:
192,192,48413,1,0,0:0:0:0:
64,192,48413,1,0,0:0:0:0:
320,192,48555,1,0,0:0:0:0:
192,192,48698,128,0,48984:0:0:0:0:
448,192,48698,1,0,0:0:0:0:
320,192,48841,1,0,0:0:0:0:
64,192,48984,128,0,49270:0:0:0:0:
448,192,48984,1,0,0:0:0:0:
320,192,48984,1,0,0:0:0:0:
192,192,49127,1,0,0:0:0:0:
448,192,49198,1,0,0:0:0:0:
320,192,49270,1,0,0:0:0:0:
192,192,49270,1,0,0:0:0:0:
448,192,49413,1,0,0:0:0:0:
320,192,49555,128,0,49698:0:0:0:0:
192,192,49555,1,0,0:0:0:0:
448,192,49698,128,0,49841:0:0:0:0:
64,192,49698,1,0,0:0:0:0:
320,192,49841,128,0,50270:0:0:0:0:
64,192,49841,1,0,0:0:0:0:
192,192,49841,1,0,0:0:0:0:
448,192,49984,1,0,0:0:0:0:
192,192,50127,1,0,0:0:0:0:
64,192,50127,1,0,0:0:0:0:
448,192,50270,1,0,0:0:0:0:
64,192,50413,128,0,50484:0:0:0:0:
192,192,50413,1,0,0:0:0:0:
320,192,50555,1,0,0:0:0:0:
448,192,50698,128,0,50984:0:0:0:0:
64,192,50698,1,0,0:0:0:0:
192,192,50698,1,0,0:0:0:0:
320,192,50841,1,0,0:0:0:0:
64,192,50913,1,0,0:0:0:0:
320,192,50984,128,0,51270:0:0:0:0:
192,192,50984,1,0,0:0:0:0:
64,192,51127,1,0,0:0:0:0:
192,192,51270,128,0,51555:0:0:0:0:
448,192,51270,1,0,0:0:0:0:
320,192,51413,1,0,0:0:0:0:
448,192,51413,1,0,0:0:0:0:
448,192,51555,128,0,51841:0:0:0:0:
64,192,51555,1,0,0:0:0:0:
320,192,51555,1,0,0:0:0:0:
192,192,51698,1,0,0:0:0:0:
64,192,51841,1,0,0:0:0:0:
320,192,51841,1,0,0:0:0:0:
192,192,51984,128,0,52127:0:0:0:0:
64,192,51984,1,0,0:0:0:0:
448,192,52127,128,0,52413:0:0:0:0:
320,192,52127,1,0,0:0:0:0:
192,192,52270,1,0,0:0:0:0:
64,192,52270,1,0,0:0:0:0:
64,192,52413,128,0,53270:0:0:0:0:
320,192,52413,1,0,0:0:0:0:
192,192,52413,1,0,0:0:0:0:
448,192,52555,1,0,0:0:0:0:
192,192,52627,1,0,0:0:0:0:
320,192,52698,1,0,0:0:0:0:
448,192,52698,1,0,0:0:0:0:
320,192,52841,1,0,0:0:0:0:
192,192,52984,1,0,0:0:0:0:
448,192,52984,1,0,0:0:0:0:
192,192,53127,1,0,0:0:0:0:
320,192,53127,1,0,0:0:0:0:
320,192,53270,1,0,0:0:0:0:
448,192,53270,1,0,0:0:0:0:
192,192,53270,1,0,0:0:0:0:
448,192,53413,1,0,0:0:0:0:
64,192,53413,1,0,0:0:0:0:
192,192,53555,1,0,0:0:0:0:
64,192,53555,1,0,0:0:0:0:
192,192,53698,1,0,0:0:0:0:
448,192,53698,1,0,0:0:0:0:
320,192,53841,1,0,0:0:0:0:
448,192,53841,1,0,0:0:0:0:
320,192,53984,1,0,0:0:0:0:
192,192,53984,1,0,0:0:0:0:
448,192,54127,1,0,0:0:0:0:
64,192,54127,128,0,54698:0:0:0:0:
192,192,54127,128,0,54270:0:0:0:0:
320,192,54270,128,0,54413:0:0:0:0:
192,192,54413,128,0,54555:0:0:0:0:
448,192,54413,1,0,0:0:0:0:
320,192,54555,128,0,54698:0:0:0:0:
448,192,54698,128,0,54984:0:0:0:0:
192,192,54698,128,0,54841:0:0:0:0:
320,192,54841,128,0,54984:0:0:0:0:
64,192,54841,1,0,0:0:0:0:
192,192,54984,128,0,55555:0:0:0:0:
64,192,54984,1,0,0:0:0:0:
320,192,55270,1,0,0:0:0:0:
448,192,55270,1,0,0:0:0:0:
448,192,55555,128,0,55841:0:0:0:0:
64,192,55555,1,0,0:0:0:0:
64,192,55841,128,0,56413:0:0:0:0:
192,192,55841,1,0,0:0:0:0:
320,192,55841,128,0,55984:0:0:0:0:
192,192,55984,128,0,56127:0:0:0:0:
320,192,56127,128,0,56270:0:0:0:0:
448,192,56127,1,0,0:0:0:0:
448,192,56270,128,0,56413:0:0:0:0:
320,192,56413,128,0,56555:0:0:0:0:
192,192,56413,128,0,56555:0:0:0:0:
64,192,56555,128,0,56698:0:0:0:0:
448,192,56555,128,0,56698:0:0:0:0:
320,192,56698,128,0,57270:0:0:0:0:
192,192,56698,1,0,0:0:0:0:
448,192,56984,1,0,0:0:0:0:
64,192,56984,1,0,0:0:0:0:
192,192,57270,1,0,0:0:0:0:
64,192,57270,128,0,57413:0:0:0:0:
448,192,57555,128,0,58127:0:0:0:0:
64,192,57555,1,0,0:0:0:0:
320,192,57555,128,0,57698:0:0:0:0:
192,192,57698,128,0,57841:0:0:0:0:
64,192,57841,128,0,57984:0:0:0:0:
320,192,57841,1,0,0:0:0:0:
320,192,57984,128,0,58127:0:0:0:0:
64,192,58127,128,0,58270:0:0:0:0:
192,192,58127,128,0,58270:0:0:0:0:
320,192,58270,128,0,58413:0:0:0:0:
448,192,58270,128,0,58413:0:0:0:0:
192,192,58413,128,0,58984:0:0:0:0:
64,192,58413,1,0,0:0:0:0:
448,192,58698,128,0,58841:0:0:0:0:
320,192,58698,1,0,0:0:0:0:
320,192,58841,128,0,58984:0:0:0:0:
64,192,58841,1,0,0:0:0:0:
64,192,58984,128,0,59270:0:0:0:0:
448,192,58984,128,0,59127:0:0:0:0:
320,192,59127,128,0,59270:0:0:0:0:
192,192,59127,1,0,0:0:0:0:
448,192,59270,128,0,59841:0:0:0:0:
192,192,59270,128,0,59413:0:0:0:0:
64,192,59413,128,0,59555:0:0:0:0:
320,192,59555,128,0,59698:0:0:0:0:
192,192,59555,1,0,0:0:0:0:
192,192,59698,128,0,59841:0:0:0:0:
320,192,59841,128,0,59984:0:0:0:0:
64,192,59841,128,0,59984:0:0:0:0:
192,192,59984,128,0,60127:0:0:0:0:
448,192,59984,128,0,60127:0:0:0:0:
320,192,60127,128,0,60413:0:0:0:0:
64,192,60127,1,0,0:0:0:0:
64,192,60413,128,0,60555:0:0:0:0:
448,192,60413,1,0,0:0:0:0:
192,192,60555,128,0,60698:0:0:0:0:
320,192,60555,1,0,0:0:0:0:
320,192,60698,128,0,60841:0:0:0:0:
448,192,60698,1,0,0:0:0:0:
192,192,60841,128,0,60984:0:0:0:0:
64,192,60841,1,0,0:0:0:0:
64,192,60984,1,0,0:0:0:0:
448,192,60984,128,0,61555:0:0:0:0:
320,192,60984,128,0,61127:0:0:0:0:
192,192,61127,128,0,61270:0:0:0:0:
320,192,61270,128,0,61413:0:0:0:0:
64,192,61270,1,0,0:0:0:0:
192,192,61413,128,0,61555:0:0:0:0:
64,192,61555,128,0,61841:0:0:0:0:
320,192,61555,128,0,61698:0:0:0:0:
448,192,61698,128,0,61841:0:0:0:0:
192,192,61698,1,0,0:0:0:0:
192,192,61841,128,0,62413:0:0:0:0:
320,192,61841,1,0,0:0:0:0:
320,192,62127,1,0,0:0:0:0:
64,192,62127,1,0,0:0:0:0:
448,192,62413,128,0,62698:0:0:0:0:
320,192,62413,1,0,0:0:0:0:
320,192,62698,128,0,63270:0:0:0:0:
64,192,62698,1,0,0:0:0:0:
192,192,62698,128,0,62841:0:0:0:0:
64,192,62841,128,0,62984:0:0:0:0:
192,192,62984,128,0,63127:0:0:0:0:
448,192,62984,1,0,0:0:0:0:
448,192,63127,128,0,63270:0:0:0:0:
192,192,63270,128,0,63413:0:0:0:0:
64,192,63270,128,0,63413:0:0:0:0:
320,192,63413,128,0,63555:0:0:0:0:
448,192,63413,128,0,63555:0:0:0:0:
64,192,63555,1,0,0:0:0:0:
192,192,63555,128,0,64127:0:0:0:0:
320,192,63841,1,0,0:0:0:0:
448,192,63841,1,0,0:0:0:0:
448,192,64127,128,0,64270:0:0:0:0:
64,192,64127,1,0,0:0:0:0:
192,192,64413,128,0,64698:0:0:0:0:
64,192,64413,1,0,0:0:0:0:
320,192,64413,128,0,64555:0:0:0:0:
448,192,64555,128,0,64698:0:0:0:0:
64,192,64698,128,0,64984:0:0:0:0:
320,192,64698,128,0,64841:0:0:0:0:
192,192,64841,128,0,64984:0:0:0:0:
448,192,64984,128,0,65270:0:0:0:0:
320,192,64984,128,0,65127:0:0:0:0:
64,192,65127,1,0,0:0:0:0:
192,192,65127,128,0,65270:0:0:0:0:
64,192,65270,128,0,65555:0:0:0:0:
320,192,65270,1,0,0:0:0:0:
448,192,65555,1,0,0:0:0:0:
192,192,65555,128,0,65698:0:0:0:0:
320,192,65698,128,0,65841:0:0:0:0:
64,192,65698,128,0,65841:0:0:0:0:
448,192,65841,128,0,66127:0:0:0:0:
192,192,65841,128,0,65984:0:0:0:0:
320,192,65984,128,0,66127:0:0:0:0:
64,192,65984,1,0,0:0:0:0:
64,192,66127,1,0,0:0:0:0:
192,192,66127,1,0,0:0:0:0:
320,192,66270,1,0,0:0:0:0:
448,192,66341,1,0,0:0:0:0:
192,192,66413,1,0,0:0:0:0:
64,192,66413,1,0,0:0:0:0:
320,192,66555,1,0,0:0:0:0:
192,192,66698,1,0,0:0:0:0:
64,192,66698,1,0,0:0:0:0:
448,192,66841,1,0,0:0:0:0:
192,192,66841,1,0,0:0:0:0:
320,192,66984,1,0,0:0:0:0:
448,192,66984,1,0,0:0:0:0:
64,192,66984,1,0,0:0:0:0:
320,192,67127,1,0,0:0:0:0:
192,192,67127,1,0,0:0:0:0:
192,192,67270,1,0,0:0:0:0:
448,192,67270,1,0,0:0:0:0:
320,192,67413,1,0,0:0:0:0:
448,192,67413,1,0,0:0:0:0:
320,192,67555,1,0,0:0:0:0:
64,192,67555,1,0,0:0:0:0:
192,192,67698,1,0,0:0:0:0:
64,192,67698,1,0,0:0:0:0:
448,192,67841,128,0,68698:0:0:0:0:
192,192,67841,128,0,67984:0:0:0:0:
320,192,67841,1,0,0:0:0:0:
320,192,67984,128,0,68127:0:0:0:0:
192,192,68127,128,0,68270:0:0:0:0:
64,192,68127,1,0,0:0:0:0:
64,192,68270,128,0,68413:0:0:0:0:
192,192,68413,128,0,68555:0:0:0:0:
320,192,68413,1,0,0:0:0:0:
64,192,68555,128,0,68698:0:0:0:0:
320,192,68698,128,0,69555:0:0:0:0:
192,192,68698,128,0,68984:0:0:0:0:
64,192,68984,128,0,69127:0:0:0:0:
448,192,68984,1,0,0:0:0:0:
192,192,69127,128,0,69270:0:0:0:0:
448,192,69270,128,0,69555:0:0:0:0:
64,192,69270,1,0,0:0:0:0:
64,192,69555,128,0,70413:0:0:0:0:
192,192,69555,128,0,69698:0:0:0:0:
320,192,69698,128,0,69841:0:0:0:0:
192,192,69841,128,0,69984:0:0:0:0:
320,192,69984,128,0,70127:0:0:0:0:
448,192,69984,1,0,0:0:0:0:
448,192,70127,128,0,70270:0:0:0:0:
192,192,70127,1,0,0:0:0:0:
320,192,70270,128,0,70413:0:0:0:0:
192,192,70270,1,0,0:0:0:0:
192,192,70413,128,0,71270:0:0:0:0:
448,192,70413,128,0,70698:0:0:0:0:
320,192,70698,128,0,70841:0:0:0:0:
448,192,70841,128,0,70984:0:0:0:0:
64,192,70841,1,0,0:0:0:0:
64,192,70984,128,0,71270:0:0:0:0:
320,192,70984,1,0,0:0:0:0:
448,192,71270,128,0,72127:0:0:0:0:
320,192,71270,128,0,71413:0:0:0:0:
192,192,71413,128,0,71555:0:0:0:0:
64,192,71555,128,0,71698:0:0:0:0:
192,192,71698,128,0,71841:0:0:0:0:
320,192,71698,1,0,0:0:0:0:
320,192,71841,128,0,71984:0:0:0:0:
64,192,71841,1,0,0:0:0:0:
192,192,71984,128,0,72127:0:0:0:0:
64,192,72127,128,0,72984:0:0:0:0:
320,192,72127,128,0,72413:0:0:0:0:
192,192,72413,128,0,72555:0:0:0:0:
320,192,72555,128,0,72698:0:0:0:0:
448,192,72555,1,0,0:0:0:0:
448,192,72698,128,0,72984:0:0:0:0:
320,192,72984,128,0,73841:0:0:0:0:
192,192,72984,128,0,73127:0:0:0:0:
64,192,73127,128,0,73270:0:0:0:0:
192,192,73270,128,0,73413:0:0:0:0:
64,192,73413,128,0,73555:0:0:0:0:
448,192,73413,1,0,0:0:0:0:
192,192,73555,128,0,73698:0:0:0:0:
448,192,73555,1,0,0:0:0:0:
64,192,73698,128,0,73841:0:0:0:0:
448,192,73698,1,0,0:0:0:0:
448,192,73841,128,0,74698:0:0:0:0:
192,192,73841,128,0,74127:0:0:0:0:
320,192,74127,128,0,74270:0:0:0:0:
192,192,74270,128,0,74413:0:0:0:0:
64,192,74413,128,0,74698:0:0:0:0:
192,192,74698,128,0,75555:0:0:0:0:
320,192,74698,128,0,74841:0:0:0:0:
448,192,74841,128,0,74984:0:0:0:0:
64,192,74984,1,0,0:0:0:0:
320,192,74984,128,0,75127:0:0:0:0:
448,192,75127,128,0,75270:0:0:0:0:
320,192,75270,128,0,75413:0:0:0:0:
64,192,75270,1,0,0:0:0:0:
448,192,75413,128,0,75555:0:0:0:0:
320,192,75555,128,0,76413:0:0:0:0:
64,192,75555,128,0,75841:0:0:0:0:
192,192,75841,128,0,75984:0:0:0:0:
448,192,75841,1,0,0:0:0:0:
64,192,75984,128,0,76127:0:0:0:0:
192,192,76127,128,0,76413:0:0:0:0:
448,192,76127,1,0,0:0:0:0:
64,192,76413,128,0,77270:0:0:0:0:
448,192,76413,128,0,76555:0:0:0:0:
320,192,76555,128,0,76698:0:0:0:0:
192,192,76698,128,0,76841:0:0:0:0:
320,192,76841,128,0,76984:0:0:0:0:
448,192,76984,128,0,77127:0:0:0:0:
192,192,76984,1,0,0:0:0:0:
192,192,77127,128,0,77270:0:0:0:0:
320,192,77127,1,0,0:0:0:0:
448,192,77270,128,0,77841:0:0:0:0:
320,192,77270,128,0,77841:0:0:0:0:
192,192,77341,1,0,0:0:0:0:
64,192,77413,1,0,0:0:0:0:
192,192,77484,1,0,0:0:0:0:
64,192,77555,1,0,0:0:0:0:
192,192,77627,1,0,0:0:0:0:
64,192,77698,1,0,0:0:0:0:
192,192,77770,1,0,0:0:0:0:
64,192,77841,1,0,0:0:0:0:
192,192,77913,1,0,0:0:0:0:
64,192,77984,1,0,0:0:0:0:
192,192,78055,1,0,0:0:0:0:
320,192,78127,1,0,0:0:0:0:
448,192,78127,1,0,0:0:0:0:
64,192,78127,1,0,0:0:0:0:
192,192,78198,1,0,0:0:0:0:
448,192,78270,1,0,0:0:0:0:
320,192,78341,1,0,0:0:0:0:
64,192,78413,1,0,0:0:0:0:
192,192,78413,1,0,0:0:0:0:
320,192,78484,1,0,0:0:0:0:
192,192,78555,1,0,0:0:0:0:
64,192,78627,1,0,0:0:0:0:
448,192,78698,1,0,0:0:0:0:
320,192,78698,1,0,0:0:0:0:
64,192,78770,1,0,0:0:0:0:
192,192,78841,1,0,0:0:0:0:
448,192,78913,1,0,0:0:0:0:
320,192,78984,1,0,0:0:0:0:
64,192,78984,1,0,0:0:0:0:
192,192,79055,1,0,0:0:0:0:
320,192,79127,1,0,0:0:0:0:
192,192,79198,1,0,0:0:0:0:
64,192,79270,1,0,0:0:0:0:
448,192,79270,1,0,0:0:0:0:
320,192,79341,1,0,0:0:0:0:
192,192,79413,1,0,0:0:0:0:
64,192,79484,1,0,0:0:0:0:
320,192,79555,1,0,0:0:0:0:
448,192,79555,1,0,0:0:0:0:
64,192,79627,1,0,0:0:0:0:
192,192,79698,1,0,0:0:0:0:
320,192,79770,1,0,0:0:0:0:
448,192,79841,1,0,0:0:0:0:
64,192,79841,1,0,0:0:0:0:
192,192,79913,1,0,0:0:0:0:
320,192,79984,1,0,0:0:0:0:
448,192,80055,1,0,0:0:0:0:
192,192,80127,1,0,0:0:0:0:
64,192,80127,1,0,0:0:0:0:
448,192,80198,1,0,0:0:0:0:
320,192,80270,1,0,0:0:0:0:
64,192,80270,1,0,0:0:0:0:
192,192,80341,1,0,0:0:0:0:
320,192,80413,1,0,0:0:0:0:
448,192,80413,1,0,0:0:0:0:
192,192,80484,1,0,0:0:0:0:
64,192,80555,1,0,0:0:0:0:
320,192,80555,1,0,0:0:0:0:
448,192,80627,1,0,0:0:0:0:
192,192,80698,1,0,0:0:0:0:
64,192,80698,1,0,0:0:0:0:
320,192,80770,1,0,0:0:0:0:
448,192,80770,1,0,0:0:0:0:
192,192,80841,1,0,0:0:0:0:
64,192,80841,1,0,0:0:0:0:
320,192,80913,1,0,0:0:0:0:
448,192,80913,1,0,0:0:0:0:
192,192,80984,1,0,0:0:0:0:
64,192,80984,1,0,0:0:0:0:
320,192,81055,1,0,0:0:0:0:
448,192,81055,1,0,0:0:0:0:
192,192,81127,1,0,0:0:0:0:
64,192,81127,1,0,0:0:0:0:
320,192,81198,1,0,0:0:0:0:
448,192,81198,1,0,0:0:0:0:
64,192,81270,1,0,0:0:0:0:
192,192,81305,1,0,0:0:0:0:
320,192,81341,1,0,0:0:0:0:
448,192,81377,1,0,0:0:0:0:
64,192,81413,1,0,0:0:0:0:
192,192,81448,1,0,0:0:0:0:
320,192,81484,1,0,0:0:0:0:
448,192,81520,1,0,0:0:0:0:
64,192,81555,1,0,0:0:0:0:
192,192,81555,1,0,0:0:0:0:
448,192,81841,1,0,0:0:0:0:
320,192,81913,1,0,0:0:0:0:
192,192,81984,1,0,0:0:0:0:
64,192,82055,1,0,0:0:0:0:
192,192,82127,1,0,0:0:0:0:
320,192,82198,1,0,0:0:0:0:
448,192,82270,1,0,0:0:0:0:
64,192,82341,1,0,0:0:0:0:
192,192,82413,1,0,0:0:0:0:
448,192,82484,1,0,0:0:0:0:
320,192,82555,1,0,0:0:0:0:
192,192,82627,1,0,0:0:0:0:
64,192,82698,1,0,0:0:0:0:
448,192,82746,1,0,0:0:0:0:
320,192,82793,1,0,0:0:0:0:
192,192,82841,1,0,0:0:0:0:
64,192,82889,1,0,0:0:0:0:
448,192,82936,1,0,0:0:0:0:
320,192,82984,1,0,0:0:0:0:
192,192,83032,1,0,0:0:0:0:
64,192,83079,1,0,0:0:0:0:
448,192,83127,1,0,0:0:0:0:
320,192,83174,1,0,0:0:0:0:
192,192,83222,1,0,0:0:0:0:
64,192,83270,1,0,0:0:0:0:
448,192,83270,128,0,84127:0:0:0:0:
320,192,84127,1,0,0:0:0:0:
64,192,84163,1,0,0:0:0:0:
192,192,84198,1,0,0:0:0:0:
320,192,84270,1,0,0:0:0:0:
192,192,84341,1,0,0:0:0:0:
320,192,84413,1,0,0:0:0:0:
192,192,84484,1,0,0:0:0:0:
320,192,84555,1,0,0:0:0:0:
192,192,84627,1,0,0:0:0:0:
320,192,84698,1,0,0:0:0:0:
448,192,84698,1,0,0:0:0:0:
192,192,84770,1,0,0:0:0:0:
320,192,84841,1,0,0:0:0:0:
64,192,84841,1,0,0:0:0:0:
448,192,84913,1,0,0:0:0:0:
64,192,84984,1,0,0:0:0:0:
192,192,84984,1,0,0:0:0:0:
320,192,84984,1,0,0:0:0:0:
448,192,85055,1,0,0:0:0:0:
192,192,85127,1,0,0:0:0:0:
320,192,85198,1,0,0:0:0:0:
64,192,85270,1,0,0:0:0:0:
448,192,85270,1,0,0:0:0:0:
192,192,85341,1,0,0:0:0:0:
320,192,85413,1,0,0:0:0:0:
64,192,85484,1,0,0:0:0:0:
192,192,85555,1,0,0:0:0:0:
320,192,85555,1,0,0:0:0:0:
64,192,85627,1,0,0:0:0:0:
192,192,85698,1,0,0:0:0:0:
320,192,85770,1,0,0:0:0:0:
64,192,85841,1,0,0:0:0:0:
192,192,85841,1,0,0:0:0:0:
448,192,85841,1,0,0:0:0:0:
320,192,85913,1,0,0:0:0:0:
448,192,85984,1,0,0:0:0:0:
192,192,86055,1,0,0:0:0:0:
320,192,86127,1,0,0:0:0:0:
64,192,86127,1,0,0:0:0:0:
448,192,86198,1,0,0:0:0:0:
320,192,86270,1,0,0:0:0:0:
192,192,86341,1,0,0:0:0:0:
64,192,86413,1,0,0:0:0:0:
448,192,86413,1,0,0:0:0:0:
320,192,86484,1,0,0:0:0:0:
192,192,86555,1,0,0:0:0:0:
448,192,86627,1,0,0:0:0:0:
192,192,86698,1,0,0:0:0:0:
64,192,86698,1,0,0:0:0:0:
320,192,86698,1,0,0:0:0:0:
448,192,86770,1,0,0:0:0:0:
64,192,86841,1,0,0:0:0:0:
192,192,86913,1,0,0:0:0:0:
320,192,86984,1,0,0:0:0:0:
448,192,86984,1,0,0:0:0:0:
64,192,87055,1,0,0:0:0:0:
192,192,87127,1,0,0:0:0:0:
320,192,87198,1,0,0:0:0:0:
64,192,87270,1,0,0:0:0:0:
448,192,87270,1,0,0:0:0:0:
192,192,87341,1,0,0:0:0:0:
320,192,87413,1,0,0:0:0:0:
448,192,87413,1,0,0:0:0:0:
192,192,87484,1,0,0:0:0:0:
448,192,87555,1,0,0:0:0:0:
64,192,87555,1,0,0:0:0:0:
320,192,87555,1,0,0:0:0:0:
192,192,87627,1,0,0:0:0:0:
64,192,87698,1,0,0:0:0:0:
320,192,87770,1,0,0:0:0:0:
448,192,87841,1,0,0:0:0:0:
192,192,87841,1,0,0:0:0:0:
64,192,87913,1,0,0:0:0:0:
320,192,87984,1,0,0:0:0:0:
192,192,88055,1,0,0:0:0:0:
64,192,88127,1,0,0:0:0:0:
448,192,88127,1,0,0:0:0:0:
320,192,88198,1,0,0:0:0:0:
192,192,88270,1,0,0:0:0:0:
64,192,88270,1,0,0:0:0:0:
320,192,88341,1,0,0:0:0:0:
448,192,88413,1,0,0:0:0:0:
192,192,88413,1,0,0:0:0:0:
64,192,88413,1,0,0:0:0:0:
320,192,88484,1,0,0:0:0:0:
448,192,88555,1,0,0:0:0:0:
192,192,88627,1,0,0:0:0:0:
320,192,88698,1,0,0:0:0:0:
64,192,88698,1,0,0:0:0:0:
448,192,88770,1,0,0:0:0:0:
64,192,88841,1,0,0:0:0:0:
192,192,88913,1,0,0:0:0:0:
448,192,88984,1,0,0:0:0:0:
320,192,88984,1,0,0:0:0:0:
192,192,89055,1,0,0:0:0:0:
64,192,89127,1,0,0:0:0:0:
320,192,89127,1,0,0:0:0:0:
448,192,89198,1,0,0:0:0:0:
320,192,89270,1,0,0:0:0:0:
192,192,89270,1,0,0:0:0:0:
64,192,89270,1,0,0:0:0:0:
448,192,89341,1,0,0:0:0:0:
320,192,89413,1,0,0:0:0:0:
192,192,89484,1,0,0:0:0:0:
448,192,89555,1,0,0:0:0:0:
64,192,89555,1,0,0:0:0:0:
320,192,89627,1,0,0:0:0:0:
192,192,89698,1,0,0:0:0:0:
64,192,89770,1,0,0:0:0:0:
448,192,89841,1,0,0:0:0:0:
320,192,89841,1,0,0:0:0:0:
64,192,89913,1,0,0:0:0:0:
192,192,89984,1,0,0:0:0:0:
448,192,89984,1,0,0:0:0:0:
320,192,90055,1,0,0:0:0:0:
448,192,90127,1,0,0:0:0:0:
192,192,90127,1,0,0:0:0:0:
64,192,90127,1,0,0:0:0:0:
320,192,90198,1,0,0:0:0:0:
64,192,90270,1,0,0:0:0:0:
192,192,90341,1,0,0:0:0:0:
320,192,90413,1,0,0:0:0:0:
448,192,90413,1,0,0:0:0:0:
192,192,90484,1,0,0:0:0:0:
64,192,90555,1,0,0:0:0:0:
320,192,90627,1,0,0:0:0:0:
192,192,90698,1,0,0:0:0:0:
448,192,90698,1,0,0:0:0:0:
64,192,90770,1,0,0:0:0:0:
320,192,90841,1,0,0:0:0:0:
192,192,90913,1,0,0:0:0:0:
64,192,90984,1,0,0:0:0:0:
320,192,90984,1,0,0:0:0:0:
448,192,90984,1,0,0:0:0:0:
192,192,91055,1,0,0:0:0:0:
64,192,91127,1,0,0:0:0:0:
320,192,91198,1,0,0:0:0:0:
192,192,91270,1,0,0:0:0:0:
448,192,91270,1,0,0:0:0:0:
64,192,91341,1,0,0:0:0:0:
448,192,91413,1,0,0:0:0:0:
320,192,91484,1,0,0:0:0:0:
448,192,91555,1,0,0:0:0:0:
192,192,91555,1,0,0:0:0:0:
64,192,91591,1,0,0:0:0:0:
320,192,91627,1,0,0:0:0:0:
192,192,91663,1,0,0:0:0:0:
448,192,91698,1,0,0:0:0:0:
64,192,91698,1,0,0:0:0:0:
320,192,91770,1,0,0:0:0:0:
192,192,91770,1,0,0:0:0:0:
448,192,91841,1,0,0:0:0:0:
64,192,91841,1,0,0:0:0:0:
320,192,91913,1,0,0:0:0:0:
192,192,91984,1,0,0:0:0:0:
64,192,92055,1,0,0:0:0:0:
320,192,92127,1,0,0:0:0:0:
448,192,92127,1,0,0:0:0:0:
64,192,92198,1,0,0:0:0:0:
192,192,92270,1,0,0:0:0:0:
320,192,92341,1,0,0:0:0:0:
64,192,92413,1,0,0:0:0:0:
448,192,92413,1,0,0:0:0:0:
192,192,92484,1,0,0:0:0:0:
320,192,92555,1,0,0:0:0:0:
448,192,92627,1,0,0:0:0:0:
320,192,92698,1,0,0:0:0:0:
192,192,92698,1,0,0:0:0:0:
64,192,92698,1,0,0:0:0:0:
448,192,92770,1,0,0:0:0:0:
192,192,92841,1,0,0:0:0:0:
64,192,92913,1,0,0:0:0:0:
320,192,92984,1,0,0:0:0:0:
448,192,92984,1,0,0:0:0:0:
192,192,93055,1,0,0:0:0:0:
64,192,93127,1,0,0:0:0:0:
320,192,93198,1,0,0:0:0:0:
448,192,93270,1,0,0:0:0:0:
64,192,93270,1,0,0:0:0:0:
192,192,93341,1,0,0:0:0:0:
320,192,93413,1,0,0:0:0:0:
448,192,93484,1,0,0:0:0:0:
192,192,93555,1,0,0:0:0:0:
320,192,93555,1,0,0:0:0:0:
64,192,93555,1,0,0:0:0:0:
448,192,93627,1,0,0:0:0:0:
192,192,93698,1,0,0:0:0:0:
320,192,93770,1,0,0:0:0:0:
448,192,93841,1,0,0:0:0:0:
64,192,93841,1,0,0:0:0:0:
192,192,93913,1,0,0:0:0:0:
448,192,93984,1,0,0:0:0:0:
320,192,94055,1,0,0:0:0:0:
192,192,94127,1,0,0:0:0:0:
64,192,94127,1,0,0:0:0:0:
320,192,94198,1,0,0:0:0:0:
448,192,94270,1,0,0:0:0:0:
192,192,94341,1,0,0:0:0:0:
64,192,94413,1,0,0:0:0:0:
320,192,94413,1,0,0:0:0:0:
448,192,94413,1,0,0:0:0:0:
192,192,94484,1,0,0:0:0:0:
64,192,94555,1,0,0:0:0:0:
320,192,94627,1,0,0:0:0:0:
192,192,94698,1,0,0:0:0:0:
448,192,94698,1,0,0:0:0:0:
64,192,94770,1,0,0:0:0:0:
448,192,94841,1,0,0:0:0:0:
320,192,94913,1,0,0:0:0:0:
192,192,94984,1,0,0:0:0:0:
64,192,94984,1,0,0:0:0:0:
320,192,95055,1,0,0:0:0:0:
192,192,95127,1,0,0:0:0:0:
64,192,95127,1,0,0:0:0:0:
320,192,95198,1,0,0:0:0:0:
192,192,95270,1,0,0:0:0:0:
64,192,95270,1,0,0:0:0:0:
448,192,95270,1,0,0:0:0:0:
320,192,95341,1,0,0:0:0:0:
448,192,95413,1,0,0:0:0:0:
64,192,95484,1,0,0:0:0:0:
320,192,95555,1,0,0:0:0:0:
192,192,95555,1,0,0:0:0:0:
64,192,95627,1,0,0:0:0:0:
192,192,95698,1,0,0:0:0:0:
320,192,95770,1,0,0:0:0:0:
448,192,95841,1,0,0:0:0:0:
64,192,95841,1,0,0:0:0:0:
192,192,95913,1,0,0:0:0:0:
320,192,95984,1,0,0:0:0:0:
448,192,96055,1,0,0:0:0:0:
64,192,96127,1,0,0:0:0:0:
192,192,96127,1,0,0:0:0:0:
320,192,96127,1,0,0:0:0:0:
448,192,96198,1,0,0:0:0:0:
64,192,96270,1,0,0:0:0:0:
320,192,96270,1,0,0:0:0:0:
192,192,96341,1,0,0:0:0:0:
64,192,96413,1,0,0:0:0:0:
192,192,96448,1,0,0:0:0:0:
320,192,96484,1,0,0:0:0:0:
448,192,96520,1,0,0:0:0:0:
64,192,96555,1,0,0:0:0:0:
192,192,96555,1,0,0:0:0:0:
320,192,96627,1,0,0:0:0:0:
448,192,96627,1,0,0:0:0:0:
64,192,96698,1,0,0:0:0:0:
192,192,96698,1,0,0:0:0:0:
320,192,96770,1,0,0:0:0:0:
448,192,96841,1,0,0:0:0:0:
64,192,96913,1,0,0:0:0:0:
448,192,96984,1,0,0:0:0:0:
192,192,96984,1,0,0:0:0:0:
320,192,96984,1,0,0:0:0:0:
64,192,97055,1,0,0:0:0:0:
192,192,97127,1,0,0:0:0:0:
320,192,97198,1,0,0:0:0:0:
64,192,97270,1,0,0:0:0:0:
448,192,97270,1,0,0:0:0:0:
192,192,97341,1,0,0:0:0:0:
320,192,97413,1,0,0:0:0:0:
64,192,97484,1,0,0:0:0:0:
192,192,97555,1,0,0:0:0:0:
448,192,97555,1,0,0:0:0:0:
320,192,97627,1,0,0:0:0:0:
64,192,97698,1,0,0:0:0:0:
192,192,97770,1,0,0:0:0:0:
448,192,97841,1,0,0:0:0:0:
320,192,97841,1,0,0:0:0:0:
64,192,97841,1,0,0:0:0:0:
192,192,97913,1,0,0:0:0:0:
320,192,97984,1,0,0:0:0:0:
448,192,98055,1,0,0:0:0:0:
192,192,98127,1,0,0:0:0:0:
320,192,98127,1,0,0:0:0:0:
448,192,98198,1,0,0:0:0:0:
192,192,98270,1,0,0:0:0:0:
64,192,98341,1,0,0:0:0:0:
320,192,98413,1,0,0:0:0:0:
192,192,98413,1,0,0:0:0:0:
448,192,98484,1,0,0:0:0:0:
320,192,98555,1,0,0:0:0:0:
192,192,98627,1,0,0:0:0:0:
64,192,98698,1,0,0:0:0:0:
448,192,98698,1,0,0:0:0:0:
320,192,98698,1,0,0:0:0:0:
192,192,98770,1,0,0:0:0:0:
64,192,98841,1,0,0:0:0:0:
320,192,98913,1,0,0:0:0:0:
64,192,98984,1,0,0:0:0:0:
448,192,98984,1,0,0:0:0:0:
192,192,99055,1,0,0:0:0:0:
320,192,99127,1,0,0:0:0:0:
448,192,99198,1,0,0:0:0:0:
64,192,99270,1,0,0:0:0:0:
192,192,99270,1,0,0:0:0:0:
448,192,99341,1,0,0:0:0:0:
320,192,99413,1,0,0:0:0:0:
192,192,99484,1,0,0:0:0:0:
320,192,99555,1,0,0:0:0:0:
448,192,99555,1,0,0:0:0:0:
64,192,99555,128,0,100413:0:0:0:0:
192,192,99627,1,0,0:0:0:0:
448,192,99698,1,0,0:0:0:0:
320,192,99770,1,0,0:0:0:0:
192,192,99841,1,0,0:0:0:0:
448,192,99841,1,0,0:0:0:0:
320,192,99913,1,0,0:0:0:0:
192,192,99984,1,0,0:0:0:0:
448,192,100055,1,0,0:0:0:0:
192,192,100127,1,0,0:0:0:0:
320,192,100127,1,0,0:0:0:0:
320,192,100270,1,0,0:0:0:0:
448,192,100270,1,0,0:0:0:0:
320,192,100413,1,0,0:0:0:0:
448,192,100413,1,0,0:0:0:0:
192,192,100413,1,0,0:0:0:0:
64,192,100484,1,0,0:0:0:0:
320,192,100555,1,0,0:0:0:0:
192,192,100627,1,0,0:0:0:0:
448,192,100698,1,0,0:0:0:0:
64,192,100698,1,0,0:0:0:0:
320,192,100770,1,0,0:0:0:0:
192,192,100841,1,0,0:0:0:0:
320,192,100913,1,0,0:0:0:0:
448,192,100984,1,0,0:0:0:0:
64,192,100984,1,0,0:0:0:0:
192,192,101055,1,0,0:0:0:0:
320,192,101127,1,0,0:0:0:0:
448,192,101127,1,0,0:0:0:0:
192,192,101198,1,0,0:0:0:0:
448,192,101270,1,0,0:0:0:0:
64,192,101270,1,0,0:0:0:0:
320,192,101270,1,0,0:0:0:0:
192,192,101341,1,0,0:0:0:0:
64,192,101413,1,0,0:0:0:0:
320,192,101484,1,0,0:0:0:0:
448,192,101555,1,0,0:0:0:0:
64,192,101555,1,0,0:0:0:0:
192,192,101627,1,0,0:0:0:0:
320,192,101698,1,0,0:0:0:0:
64,192,101770,1,0,0:0:0:0:
192,192,101841,1,0,0:0:0:0:
448,192,101841,1,0,0:0:0:0:
320,192,101913,1,0,0:0:0:0:
192,192,101984,1,0,0:0:0:0:
64,192,101984,1,0,0:0:0:0:
448,192,102055,1,0,0:0:0:0:
192,192,102127,1,0,0:0:0:0:
64,192,102127,1,0,0:0:0:0:
320,192,102127,1,0,0:0:0:0:
448,192,102198,1,0,0:0:0:0:
320,192,102270,1,0,0:0:0:0:
192,192,102341,1,0,0:0:0:0:
64,192,102413,1,0,0:0:0:0:
320,192,102413,1,0,0:0:0:0:
448,192,102484,1,0,0:0:0:0:
64,192,102555,1,0,0:0:0:0:
192,192,102627,1,0,0:0:0:0:
320,192,102698,1,0,0:0:0:0:
448,192,102698,1,0,0:0:0:0:
192,192,102770,1,0,0:0:0:0:
64,192,102841,1,0,0:0:0:0:
448,192,102913,1,0,0:0:0:0:
192,192,102984,1,0,0:0:0:0:
64,192,102984,1,0,0:0:0:0:
320,192,102984,1,0,0:0:0:0:
448,192,103055,1,0,0:0:0:0:
320,192,103127,1,0,0:0:0:0:
192,192,103198,1,0,0:0:0:0:
64,192,103270,1,0,0:0:0:0:
448,192,103270,1,0,0:0:0:0:
320,192,103341,1,0,0:0:0:0:
192,192,103413,1,0,0:0:0:0:
320,192,103484,1,0,0:0:0:0:
448,192,103555,1,0,0:0:0:0:
64,192,103555,1,0,0:0:0:0:
192,192,103591,1,0,0:0:0:0:
320,192,103627,1,0,0:0:0:0:
448,192,103663,1,0,0:0:0:0:
192,192,103698,1,0,0:0:0:0:
64,192,103698,1,0,0:0:0:0:
320,192,103770,1,0,0:0:0:0:
448,192,103770,1,0,0:0:0:0:
192,192,103841,1,0,0:0:0:0:
64,192,103841,1,0,0:0:0:0:
320,192,103913,1,0,0:0:0:0:
448,192,103984,1,0,0:0:0:0:
192,192,104055,1,0,0:0:0:0:
64,192,104127,1,0,0:0:0:0:
320,192,104127,1,0,0:0:0:0:
448,192,104198,1,0,0:0:0:0:
64,192,104270,1,0,0:0:0:0:
192,192,104341,1,0,0:0:0:0:
448,192,104413,1,0,0:0:0:0:
320,192,104413,1,0,0:0:0:0:
64,192,104484,1,0,0:0:0:0:
192,192,104555,1,0,0:0:0:0:
320,192,104627,1,0,0:0:0:0:
64,192,104698,1,0,0:0:0:0:
192,192,104698,1,0,0:0:0:0:
448,192,104698,1,0,0:0:0:0:
320,192,104770,1,0,0:0:0:0:
448,192,104841,1,0,0:0:0:0:
192,192,104913,1,0,0:0:0:0:
320,192,104984,1,0,0:0:0:0:
64,192,104984,1,0,0:0:0:0:
448,192,105055,1,0,0:0:0:0:
192,192,105127,1,0,0:0:0:0:
64,192,105198,1,0,0:0:0:0:
448,192,105270,1,0,0:0:0:0:
320,192,105270,1,0,0:0:0:0:
192,192,105341,1,0,0:0:0:0:
448,192,105413,1,0,0:0:0:0:
320,192,105484,1,0,0:0:0:0:
448,192,105555,1,0,0:0:0:0:
192,192,105555,1,0,0:0:0:0:
64,192,105555,1,0,0:0:0:0:
320,192,105627,1,0,0:0:0:0:
192,192,105698,1,0,0:0:0:0:
320,192,105770,1,0,0:0:0:0:
64,192,105841,1,0,0:0:0:0:
448,192,105841,1,0,0:0:0:0:
192,192,105913,1,0,0:0:0:0:
320,192,105984,1,0,0:0:0:0:
64,192,106055,1,0,0:0:0:0:
448,192,106127,1,0,0:0:0:0:
192,192,106127,1,0,0:0:0:0:
320,192,106198,1,0,0:0:0:0:
192,192,106270,1,0,0:0:0:0:
64,192,106270,1,0,0:0:0:0:
320,192,106341,1,0,0:0:0:0:
448,192,106413,1,0,0:0:0:0:
192,192,106413,1,0,0:0:0:0:
64,192,106413,1,0,0:0:0:0:
192,192,106698,1,0,0:0:0:0:
320,192,106698,1,0,0:0:0:0:
448,192,106698,1,0,0:0:0:0:
192,192,106984,1,0,0:0:0:0:
64,192,106984,1,0,0:0:0:0:
320,192,106984,1,0,0:0:0:0:
320,192,107127,1,0,0:0:0:0:
448,192,107127,1,0,0:0:0:0:
448,192,107270,1,0,0:0:0:0:
192,192,107270,1,0,0:0:0:0:
64,192,107270,1,0,0:0:0:0:
320,192,107341,1,0,0:0:0:0:
192,192,107413,1,0,0:0:0:0:
64,192,107413,1,0,0:0:0:0:
320,192,107484,1,0,0:0:0:0:
448,192,107555,1,0,0:0:0:0:
64,192,107555,1,0,0:0:0:0:
192,192,107627,1,0,0:0:0:0:
320,192,107698,1,0,0:0:0:0:
448,192,107770,1,0,0:0:0:0:
192,192,107841,1,0,0:0:0:0:
64,192,107841,1,0,0:0:0:0:
320,192,107913,1,0,0:0:0:0:
448,192,107984,1,0,0:0:0:0:
64,192,108055,1,0,0:0:0:0:
192,192,108127,1,0,0:0:0:0:
320,192,108127,1,0,0:0:0:0:
448,192,108127,1,0,0:0:0:0:
64,192,108198,1,0,0:0:0:0:
192,192,108270,1,0,0:0:0:0:
320,192,108341,1,0,0:0:0:0:
448,192,108413,1,0,0:0:0:0:
64,192,108413,1,0,0:0:0:0:
192,192,108448,1,0,0:0:0:0:
320,192,108484,1,0,0:0:0:0:
448,192,108520,1,0,0:0:0:0:
64,192,108555,1,0,0:0:0:0:
192,192,108555,1,0,0:0:0:0:
448,192,108627,1,0,0:0:0:0:
320,192,108627,1,0,0:0:0:0:
192,192,108698,1,0,0:0:0:0:
64,192,108698,1,0,0:0:0:0:
320,192,108770,1,0,0:0:0:0:
448,192,108841,1,0,0:0:0:0:
64,192,108913,1,0,0:0:0:0:
192,192,108984,1,0,0:0:0:0:
448,192,108984,1,0,0:0:0:0:
320,192,108984,1,0,0:0:0:0:
64,192,109055,1,0,0:0:0:0:
448,192,109127,1,0,0:0:0:0:
192,192,109127,1,0,0:0:0:0:
320,192,109198,1,0,0:0:0:0:
64,192,109270,1,0,0:0:0:0:
192,192,109270,1,0,0:0:0:0:
448,192,109341,1,0,0:0:0:0:
64,192,109413,1,0,0:0:0:0:
320,192,109413,1,0,0:0:0:0:
192,192,109484,1,0,0:0:0:0:
320,192,109555,1,0,0:0:0:0:
448,192,109555,1,0,0:0:0:0:
192,192,109627,1,0,0:0:0:0:
320,192,109698,1,0,0:0:0:0:
64,192,109698,1,0,0:0:0:0:
448,192,109770,1,0,0:0:0:0:
192,192,109841,1,0,0:0:0:0:
64,192,109841,1,0,0:0:0:0:
448,192,109913,1,0,0:0:0:0:
320,192,109913,1,0,0:0:0:0:
192,192,109984,1,0,0:0:0:0:
64,192,109984,1,0,0:0:0:0:
320,192,110055,1,0,0:0:0:0:
448,192,110055,1,0,0:0:0:0:
192,192,110127,1,0,0:0:0:0:
64,192,110163,1,0,0:0:0:0:
448,192,110198,1,0,0:0:0:0:
320,192,110234,1,0,0:0:0:0:
64,192,110270,1,0,0:0:0:0:
192,192,110270,1,0,0:0:0:0:
448,192,110341,1,0,0:0:0:0:
320,192,110341,1,0,0:0:0:0:
64,192,110413,1,0,0:0:0:0:
192,192,110448,1,0,0:0:0:0:
448,192,110484,1,0,0:0:0:0:
320,192,110520,1,0,0:0:0:0:
192,192,110555,1,0,0:0:0:0:
64,192,110591,1,0,0:0:0:0:
320,192,110627,1,0,0:0:0:0:
448,192,110663,1,0,0:0:0:0:
192,192,110698,1,0,0:0:0:0:
64,192,110698,1,0,0:0:0:0:
320,192,110848,1,0,0:0:0:0:
64,192,110998,1,0,0:0:0:0:
448,192,110998,1,0,0:0:0:0:
192,192,111148,1,0,0:0:0:0:
320,192,111298,1,0,0:0:0:0:
192,192,111448,1,0,0:0:0:0:
448,192,111448,1,0,0:0:0:0:
64,192,111598,1,0,0:0:0:0:
320,192,111748,1,0,0:0:0:0:
192,192,111898,1,0,0:0:0:0:
448,192,111898,1,0,0:0:0:0:
64,192,112048,1,0,0:0:0:0:
320,192,112198,1,0,0:0:0:0:
448,192,112348,1,0,0:0:0:0:
64,192,112348,1,0,0:0:0:0:
192,192,112498,1,0,0:0:0:0:
320,192,112655,1,0,0:0:0:0:
448,192,112813,1,0,0:0:0:0:
64,192,112813,1,0,0:0:0:0:
192,192,112971,1,0,0:0:0:0:
320,192,113129,1,0,0:0:0:0:
448,192,113287,1,0,0:0:0:0:
192,192,113287,1,0,0:0:0:0:
64,192,113445,1,0,0:0:0:0:
448,192,113603,1,0,0:0:0:0:
320,192,113761,1,0,0:0:0:0:
192,192,113761,1,0,0:0:0:0:
448,192,113919,1,0,0:0:0:0:
320,192,114076,1,0,0:0:0:0:
192,192,114234,1,0,0:0:0:0:
64,192,114234,1,0,0:0:0:0:
320,192,114392,1,0,0:0:0:0:
448,192,114392,1,0,0:0:0:0:
64,192,114392,1,0,0:0:0:0:
192,192,114554,1,0,0:0:0:0:
320,192,114716,1,0,0:0:0:0:
448,192,114716,1,0,0:0:0:0:
192,192,114878,1,0,0:0:0:0:
64,192,115040,1,0,0:0:0:0:
320,192,115202,1,0,0:0:0:0:
192,192,115202,1,0,0:0:0:0:
448,192,115364,1,0,0:0:0:0:
320,192,115527,1,0,0:0:0:0:
192,192,115689,1,0,0:0:0:0:
64,192,115689,1,0,0:0:0:0:
448,192,115851,1,0,0:0:0:0:
320,192,116013,1,0,0:0:0:0:
192,192,116175,1,0,0:0:0:0:
448,192,116175,1,0,0:0:0:0:
320,192,116337,1,0,0:0:0:0:
192,192,116508,1,0,0:0:0:0:
64,192,116679,1,0,0:0:0:0:
448,192,116679,1,0,0:0:0:0:
192,192,116851,1,0,0:0:0:0:
320,192,117022,1,0,0:0:0:0:
448,192,117194,1,0,0:0:0:0:
64,192,117194,1,0,0:0:0:0:
192,192,117365,1,0,0:0:0:0:
320,192,117579,1,0,0:0:0:0:
448,192,117793,1,0,0:0:0:0:
64,192,117793,1,0,0:0:0:0:
192,192,118011,1,0,0:0:0:0:
320,192,118293,1,0,0:0:0:0:
448,192,118621,1,0,0:0:0:0:
64,192,118621,1,0,0:0:0:0:
320,192,119043,1,0,0:0:0:0:
192,192,119043,1,0,0:0:0:0:
64,192,119043,128,0,123043:0:0:0:0:
64,192,123143,1,0,0:0:0:0:
