osu file format v14

[General]
AudioFilename: audio.mp3
AudioLeadIn: 0
PreviewTime: 148339
Countdown: 0
SampleSet: Normal
StackLeniency: 0.7
Mode: 1
LetterboxInBreaks: 0
WidescreenStoryboard: 1

[Editor]
DistanceSpacing: 1.4
BeatDivisor: 4
GridSize: 32
TimelineZoom: 2.5

[Metadata]
Title:Megaera
TitleUnicode:Megaera
Artist:Laur feat. Risa Yuzuki
ArtistUnicode:Laur feat. Risa Yuzuki
Creator:Hana Hayashi
Version:Raph's Oni
Source:
Tags:Luminaria 「AMARTIA」 KiTA dubstep drumstep metal raphalge 柚木梨沙 japanese
BeatmapID:3617333
BeatmapSetID:1766625

[Difficulty]
HPDrainRate:5
CircleSize:5
OverallDifficulty:5
ApproachRate:5
SliderMultiplier:1.4
SliderTickRate:1

[Events]
//Background and Video events
0,0,"392101-raiden-shogun-genshin-impact-game-4k-pc-wallpaper.jpg",0,20
//Break Periods
//Storyboard Layer 0 (Background)
//Storyboard Layer 1 (Fail)
//Storyboard Layer 2 (Pass)
//Storyboard Layer 3 (Foreground)
//Storyboard Layer 4 (Overlay)
//Storyboard Sound Samples

[TimingPoints]
8,333.333333333333,4,1,0,75,1,8
1342,333.333333333333,4,1,0,75,1,8
12008,333.333333333333,6,1,0,75,1,0
16007,333.333333333333,7,1,0,75,1,0
17924,-100,4,1,0,75,0,0
18340,333.333333333333,4,1,0,100,1,1
18340,-100,4,1,0,100,0,1
34339,-100,4,1,0,100,0,0
69006,-100,4,1,0,100,0,1
90339,-100,4,1,0,100,0,0
93006,-100,4,1,0,100,0,1
103506,-100,4,1,0,75,0,0
103673,-100,4,1,0,100,0,1
114339,-100,4,1,0,75,0,0
149006,-100,4,1,0,100,0,1
170339,-100,4,1,0,100,0,0
173006,-100,4,1,0,100,0,1
177673,-100,4,1,0,100,0,0
179673,-100,4,1,0,100,0,1
182339,-100,4,1,0,100,0,0
195673,-100,4,1,0,100,0,1
203673,-100,4,1,0,100,0,0
206339,-100,4,1,0,100,0,1
218339,-100,4,1,0,100,0,0
219673,333.333333333333,4,1,0,75,1,8
221006,333.333333333333,4,1,0,75,1,0
233006,-100,4,1,0,100,0,1
243672,-100,4,1,0,100,0,0
246339,-100,4,1,0,100,0,1
251005,-100,4,1,0,100,0,0
253005,-100,4,1,0,100,0,1
255673,705.882352941176,5,1,0,100,1,8
255673,-47.1698113207547,4,1,0,100,0,0
258850,705.882352941176,4,1,0,75,1,0

[HitObjects]
300,190,1342,5,12,0:0:0:0:
317,258,1675,1,0,0:0:0:0:
317,258,2008,1,8,0:0:0:0:
317,258,2342,1,8,0:0:0:0:
351,213,2508,1,0,0:0:0:0:
351,213,2842,1,8,0:0:0:0:
348,220,3175,1,0,0:0:0:0:
347,221,3342,1,8,0:0:0:0:
343,228,3508,1,8,0:0:0:0:
334,230,3675,1,0,0:0:0:0:
341,229,3842,1,0,0:0:0:0:
339,230,4008,1,12,0:0:0:0:
269,281,4342,1,8,0:0:0:0:
269,281,4675,1,0,0:0:0:0:
296,268,5008,1,8,0:0:0:0:
296,268,5175,1,0,0:0:0:0:
296,268,5508,1,8,0:0:0:0:
285,269,5842,1,0,0:0:0:0:
285,269,6008,1,8,0:0:0:0:
281,272,6175,1,8,0:0:0:0:
280,272,6342,1,0,0:0:0:0:
281,302,6508,1,8,0:0:0:0:
273,305,6675,1,4,0:0:0:0:
267,306,7008,1,8,0:0:0:0:
275,350,7175,1,0,0:0:0:0:
291,331,7342,1,8,0:0:0:0:
291,331,7675,1,0,0:0:0:0:
291,331,7842,1,8,0:0:0:0:
282,308,8008,1,0,0:0:0:0:
291,331,8175,1,8,0:0:0:0:
275,302,8508,1,8,0:0:0:0:
275,302,8675,1,0,0:0:0:0:
275,302,8842,1,0,0:0:0:0:
275,302,9008,1,8,0:0:0:0:
275,302,9175,1,8,0:0:0:0:
275,302,9342,1,4,0:0:0:0:
270,303,9675,1,8,0:0:0:0:
267,303,9842,1,0,0:0:0:0:
267,303,10008,1,8,0:0:0:0:
270,302,10342,1,8,0:0:0:0:
270,297,10508,1,0,0:0:0:0:
270,296,10675,1,0,0:0:0:0:
269,298,10842,1,8,0:0:0:0:
293,328,11175,1,0,0:0:0:0:
293,328,11342,1,8,0:0:0:0:
293,328,11508,1,0,0:0:0:0:
293,328,11675,1,8,0:0:0:0:
423,230,12008,1,0,0:0:0:0:
423,230,12120,1,0,0:0:0:0:
423,230,12231,1,0,0:0:0:0:
423,230,12342,1,0,0:0:0:0:
359,298,12674,1,12,0:0:0:0:
256,192,14007,12,0,15674,0:0:0:0:
289,266,16008,5,0,0:0:0:0:
279,250,16091,1,0,0:0:0:0:
263,238,16174,1,0,0:0:0:0:
262,237,16258,1,0,0:0:0:0:
258,237,16341,1,8,0:0:0:0:
251,235,16508,1,8,0:0:0:0:
246,237,16674,1,0,0:0:0:0:
246,237,16758,1,0,0:0:0:0:
165,178,16841,1,0,0:0:0:0:
246,237,17008,1,8,0:0:0:0:
251,159,17174,1,0,0:0:0:0:
251,159,17258,1,8,0:0:0:0:
241,162,17424,1,0,0:0:0:0:
240,156,17508,1,8,0:0:0:0:
288,230,17591,1,0,0:0:0:0:
288,230,17674,1,0,0:0:0:0:
288,230,17758,1,8,0:0:0:0:
339,296,17923,1,0,0:0:0:0:
290,252,18007,1,8,0:0:0:0:
290,252,18174,1,8,0:0:0:0:
281,243,18340,1,4,0:0:0:0:
257,247,18674,1,8,0:0:0:0:
272,258,18841,1,8,0:0:0:0:
272,258,18924,1,0,0:0:0:0:
267,253,19007,1,0,0:0:0:0:
256,240,19174,1,8,0:0:0:0:
261,237,19341,1,0,0:0:0:0:
255,239,19424,1,0,0:0:0:0:
266,240,19507,1,8,0:0:0:0:
266,240,19591,1,8,0:0:0:0:
251,219,19674,1,0,0:0:0:0:
245,208,19841,1,8,0:0:0:0:
246,208,20007,1,0,0:0:0:0:
285,241,20174,1,8,0:0:0:0:
284,240,20257,1,8,0:0:0:0:
333,251,20339,1,0,0:0:0:0:
266,157,20507,1,0,0:0:0:0:
287,254,20589,1,0,0:0:0:0:
283,235,20674,1,8,0:0:0:0:
283,235,20839,1,8,0:0:0:0:
283,235,21007,1,4,0:0:0:0:
241,242,21339,1,8,0:0:0:0:
244,234,21507,1,0,0:0:0:0:
242,232,21589,1,8,0:0:0:0:
234,227,21674,1,0,0:0:0:0:
238,229,21839,1,0,0:0:0:0:
235,275,22007,1,8,0:0:0:0:
235,275,22089,1,0,0:0:0:0:
235,275,22174,1,8,0:0:0:0:
235,275,22257,1,8,0:0:0:0:
235,275,22339,1,0,0:0:0:0:
235,275,22507,1,8,0:0:0:0:
235,275,22674,1,0,0:0:0:0:
235,275,22839,1,8,0:0:0:0:
235,275,22924,1,0,0:0:0:0:
235,275,23007,1,8,0:0:0:0:
235,275,23174,1,0,0:0:0:0:
235,275,23257,1,0,0:0:0:0:
235,275,23339,1,8,0:0:0:0:
235,275,23507,1,8,0:0:0:0:
235,275,23674,1,4,0:0:0:0:
315,266,24007,1,8,0:0:0:0:
272,247,24174,1,8,0:0:0:0:
272,247,24257,1,8,0:0:0:0:
266,245,24339,1,0,0:0:0:0:
259,187,24507,1,8,0:0:0:0:
278,205,24674,1,0,0:0:0:0:
273,205,24757,1,0,0:0:0:0:
271,206,24839,1,8,0:0:0:0:
266,205,24924,1,8,0:0:0:0:
266,205,25007,1,0,0:0:0:0:
333,238,25174,1,8,0:0:0:0:
333,238,25339,1,0,0:0:0:0:
309,210,25507,1,8,0:0:0:0:
309,210,25589,1,0,0:0:0:0:
306,216,25674,1,8,0:0:0:0:
303,209,25839,1,0,0:0:0:0:
303,209,25924,1,0,0:0:0:0:
302,209,26007,1,8,0:0:0:0:
307,203,26174,1,8,0:0:0:0:
312,203,26339,1,4,0:0:0:0:
295,204,26674,1,8,0:0:0:0:
263,305,26756,1,8,0:0:0:0:
297,202,26839,1,0,0:0:0:0:
297,202,26924,1,0,0:0:0:0:
297,202,27007,1,8,0:0:0:0:
292,195,27174,1,0,0:0:0:0:
298,230,27339,1,0,0:0:0:0:
297,300,27424,1,0,0:0:0:0:
298,230,27507,1,8,0:0:0:0:
331,252,27589,1,8,0:0:0:0:
298,230,27674,1,0,0:0:0:0:
298,227,27839,1,8,0:0:0:0:
291,220,28007,1,0,0:0:0:0:
307,224,28174,1,8,0:0:0:0:
306,224,28257,1,8,0:0:0:0:
299,224,28339,1,0,0:0:0:0:
295,220,28507,1,8,0:0:0:0:
277,271,28589,1,8,0:0:0:0:
241,251,28674,1,0,0:0:0:0:
241,259,29007,1,0,0:0:0:0:
241,259,29089,1,0,0:0:0:0:
241,259,29174,1,0,0:0:0:0:
243,259,29339,1,8,0:0:0:0:
245,258,29507,1,0,0:0:0:0:
246,258,29589,1,0,0:0:0:0:
245,258,29674,1,0,0:0:0:0:
241,259,29839,1,0,0:0:0:0:
241,259,30007,1,12,0:0:0:0:
260,254,30339,1,8,0:0:0:0:
260,256,30424,1,8,0:0:0:0:
260,256,30507,1,8,0:0:0:0:
261,255,30674,1,0,0:0:0:0:
261,262,30839,1,8,0:0:0:0:
261,263,30924,1,8,0:0:0:0:
261,263,31007,1,8,0:0:0:0:
256,259,31174,1,8,0:0:0:0:
254,258,31339,1,4,0:0:0:0:
221,263,31674,1,0,0:0:0:0:
221,263,31757,1,0,0:0:0:0:
221,263,31839,1,0,0:0:0:0:
221,263,32007,1,8,0:0:0:0:
307,255,32174,1,0,0:0:0:0:
297,250,32257,1,0,0:0:0:0:
307,255,32339,1,0,0:0:0:0:
297,250,32507,1,0,0:0:0:0:
297,250,32674,1,12,0:0:0:0:
286,231,32924,1,0,0:0:0:0:
282,230,33007,1,8,0:0:0:0:
298,227,33174,1,8,0:0:0:0:
306,222,33257,1,8,0:0:0:0:
287,162,33339,1,0,0:0:0:0:
308,220,33507,1,8,0:0:0:0:
294,208,33589,1,8,0:0:0:0:
308,220,33674,1,0,0:0:0:0:
291,104,33757,1,0,0:0:0:0:
318,150,33839,1,8,0:0:0:0:
318,150,34007,1,0,0:0:0:0:
351,268,34174,1,8,0:0:0:0:
351,268,34339,1,4,0:0:0:0:
261,293,35674,1,8,0:0:0:0:
261,293,37007,1,8,0:0:0:0:
233,292,38340,1,0,0:0:0:0:
233,292,39007,1,8,0:0:0:0:
233,292,39340,1,8,0:0:0:0:
233,292,39674,1,4,0:0:0:0:
249,293,41007,1,8,0:0:0:0:
286,287,42340,1,8,0:0:0:0:
286,287,43007,1,8,0:0:0:0:
290,217,43674,1,0,0:0:0:0:
335,237,44340,1,0,0:0:0:0:
335,237,44424,1,0,0:0:0:0:
328,222,44507,1,0,0:0:0:0:
321,215,44590,1,0,0:0:0:0:
321,215,44674,1,8,0:0:0:0:
331,254,44840,1,8,0:0:0:0:
331,254,45007,1,4,0:0:0:0:
436,308,45340,1,0,0:0:0:0:
381,293,45424,1,0,0:0:0:0:
380,292,45507,1,8,0:0:0:0:
373,286,45674,1,8,0:0:0:0:
373,286,45840,1,0,0:0:0:0:
246,177,45924,1,0,0:0:0:0:
246,177,46007,1,8,0:0:0:0:
373,286,46090,1,8,0:0:0:0:
373,286,46174,1,0,0:0:0:0:
373,286,46340,1,8,0:0:0:0:
373,286,46507,1,0,0:0:0:0:
390,242,46674,1,8,0:0:0:0:
373,286,46757,1,0,0:0:0:0:
373,286,46840,1,8,0:0:0:0:
373,286,47007,1,0,0:0:0:0:
373,286,47174,1,8,0:0:0:0:
373,286,47257,1,0,0:0:0:0:
373,286,47340,1,8,0:0:0:0:
341,222,47424,1,8,0:0:0:0:
373,286,47507,1,0,0:0:0:0:
373,286,47674,1,8,0:0:0:0:
373,286,47840,1,0,0:0:0:0:
296,279,48007,1,8,0:0:0:0:
373,286,48090,1,0,0:0:0:0:
303,277,48174,1,8,0:0:0:0:
373,286,48340,1,0,0:0:0:0:
300,266,48507,1,8,0:0:0:0:
301,261,48674,1,8,0:0:0:0:
301,261,48757,1,8,0:0:0:0:
373,286,48840,1,0,0:0:0:0:
304,259,49007,1,8,0:0:0:0:
373,286,49174,1,0,0:0:0:0:
373,286,49340,1,8,0:0:0:0:
373,286,49507,1,0,0:0:0:0:
253,268,49590,1,0,0:0:0:0:
373,286,49674,1,8,0:0:0:0:
373,286,49757,1,8,0:0:0:0:
373,286,49840,1,8,0:0:0:0:
373,286,49924,1,8,0:0:0:0:
373,286,50007,1,0,0:0:0:0:
373,286,50174,1,0,0:0:0:0:
381,299,50340,1,12,0:0:0:0:
381,299,50674,1,0,0:0:0:0:
381,299,50757,1,0,0:0:0:0:
381,299,50840,1,8,0:0:0:0:
381,299,51007,1,0,0:0:0:0:
381,299,51174,1,8,0:0:0:0:
381,299,51340,1,0,0:0:0:0:
381,299,51424,1,0,0:0:0:0:
236,223,51507,1,8,0:0:0:0:
335,290,51674,1,8,0:0:0:0:
335,290,51840,1,0,0:0:0:0:
335,290,52007,1,8,0:0:0:0:
335,231,52090,1,8,0:0:0:0:
335,290,52174,1,0,0:0:0:0:
335,231,52340,1,8,0:0:0:0:
335,231,52424,1,8,0:0:0:0:
335,231,52507,1,0,0:0:0:0:
335,231,52590,1,0,0:0:0:0:
335,231,52674,1,8,0:0:0:0:
335,231,52840,1,0,0:0:0:0:
335,231,53007,1,8,0:0:0:0:
336,275,53174,1,0,0:0:0:0:
326,261,53257,1,0,0:0:0:0:
335,231,53340,1,8,0:0:0:0:
335,231,53507,1,8,0:0:0:0:
335,231,53590,1,8,0:0:0:0:
335,231,53674,1,0,0:0:0:0:
335,231,53840,1,0,0:0:0:0:
335,231,53924,1,0,0:0:0:0:
335,231,54007,1,8,0:0:0:0:
335,231,54174,1,0,0:0:0:0:
335,231,54340,1,8,0:0:0:0:
335,231,54424,1,8,0:0:0:0:
335,231,54507,1,0,0:0:0:0:
335,231,54590,1,0,0:0:0:0:
335,231,54674,1,8,0:0:0:0:
335,231,54840,1,0,0:0:0:0:
335,231,55007,1,8,0:0:0:0:
394,179,55090,1,8,0:0:0:0:
198,233,55174,1,0,0:0:0:0:
256,294,55674,1,12,0:0:0:0:
256,299,55840,1,0,0:0:0:0:
256,299,56007,1,8,0:0:0:0:
256,299,56090,1,8,0:0:0:0:
256,299,56174,1,8,0:0:0:0:
256,299,56340,1,0,0:0:0:0:
256,299,56507,1,8,0:0:0:0:
221,169,56590,1,8,0:0:0:0:
256,299,56674,1,0,0:0:0:0:
256,299,56757,1,0,0:0:0:0:
254,137,56840,1,8,0:0:0:0:
256,299,57007,1,0,0:0:0:0:
256,299,57174,1,8,0:0:0:0:
256,299,57340,1,0,0:0:0:0:
256,299,57424,1,0,0:0:0:0:
256,299,57507,1,8,0:0:0:0:
256,299,57674,1,8,0:0:0:0:
256,299,57840,1,0,0:0:0:0:
256,299,57924,1,0,0:0:0:0:
171,127,58007,1,8,0:0:0:0:
256,299,58090,1,8,0:0:0:0:
256,299,58174,1,0,0:0:0:0:
256,299,58340,1,8,0:0:0:0:
256,299,58507,1,0,0:0:0:0:
256,299,58674,1,8,0:0:0:0:
256,299,58757,1,8,0:0:0:0:
256,299,58840,1,0,0:0:0:0:
256,299,59007,1,8,0:0:0:0:
256,299,59090,1,8,0:0:0:0:
256,299,59174,1,0,0:0:0:0:
256,299,59340,1,0,0:0:0:0:
256,299,59424,1,0,0:0:0:0:
256,299,59507,1,8,0:0:0:0:
256,299,59674,1,8,0:0:0:0:
296,204,59896,1,0,0:0:0:0:
299,208,60007,1,8,0:0:0:0:
311,208,60229,1,0,0:0:0:0:
366,222,60340,1,8,0:0:0:0:
366,222,60452,1,8,0:0:0:0:
311,211,60563,1,8,0:0:0:0:
358,220,60674,1,0,0:0:0:0:
278,268,61007,1,4,0:0:0:0:
355,276,61174,1,8,0:0:0:0:
355,276,61340,1,0,0:0:0:0:
355,276,61424,1,0,0:0:0:0:
355,276,61507,1,8,0:0:0:0:
355,276,61674,1,8,0:0:0:0:
355,276,61840,1,0,0:0:0:0:
355,276,62007,1,8,0:0:0:0:
355,276,62090,1,0,0:0:0:0:
355,276,62174,1,8,0:0:0:0:
350,273,62340,1,0,0:0:0:0:
350,273,62507,1,8,0:0:0:0:
350,273,62674,1,0,0:0:0:0:
350,273,62757,1,0,0:0:0:0:
350,273,62840,1,8,0:0:0:0:
333,269,63007,1,8,0:0:0:0:
333,269,63174,1,0,0:0:0:0:
341,267,63257,1,0,0:0:0:0:
267,229,63340,1,8,0:0:0:0:
346,266,63424,1,0,0:0:0:0:
346,266,63507,1,8,0:0:0:0:
348,265,63674,1,0,0:0:0:0:
355,262,63840,1,8,0:0:0:0:
356,262,63924,1,8,0:0:0:0:
356,262,64007,1,0,0:0:0:0:
358,262,64174,1,0,0:0:0:0:
358,262,64257,1,0,0:0:0:0:
358,262,64340,1,8,0:0:0:0:
358,262,64507,1,8,0:0:0:0:
358,262,64590,1,8,0:0:0:0:
358,262,64674,1,0,0:0:0:0:
355,262,64840,1,0,0:0:0:0:
356,262,65007,1,8,0:0:0:0:
356,262,65090,1,8,0:0:0:0:
358,262,65174,1,8,0:0:0:0:
358,262,65257,1,8,0:0:0:0:
358,262,65340,1,0,0:0:0:0:
358,262,65507,1,8,0:0:0:0:
358,262,65674,1,0,0:0:0:0:
355,262,65757,1,0,0:0:0:0:
355,262,65840,1,8,0:0:0:0:
356,262,66007,1,8,0:0:0:0:
149,176,66173,1,0,0:0:0:0:
358,262,66340,1,8,0:0:0:0:
358,262,66423,1,0,0:0:0:0:
358,262,66506,1,8,0:0:0:0:
358,262,66590,1,8,0:0:0:0:
358,262,66673,1,0,0:0:0:0:
358,262,66840,1,8,0:0:0:0:
216,238,66923,1,0,0:0:0:0:
216,238,67006,1,8,0:0:0:0:
216,238,67173,1,0,0:0:0:0:
358,262,67340,1,8,0:0:0:0:
358,262,67423,1,8,0:0:0:0:
358,262,67506,1,8,0:0:0:0:
280,171,67673,1,0,0:0:0:0:
303,267,68340,1,0,0:0:0:0:
295,252,68424,1,0,0:0:0:0:
287,236,68507,1,0,0:0:0:0:
283,227,68590,1,0,0:0:0:0:
281,226,68674,1,8,0:0:0:0:
281,227,68840,1,8,0:0:0:0:
286,236,69007,1,4,0:0:0:0:
301,300,69174,1,8,0:0:0:0:
293,310,69257,1,0,0:0:0:0:
321,289,69340,1,8,0:0:0:0:
321,289,69424,1,8,0:0:0:0:
321,289,69507,1,0,0:0:0:0:
321,289,69674,1,8,0:0:0:0:
276,279,69840,1,0,0:0:0:0:
276,279,69924,1,8,0:0:0:0:
276,279,70007,1,0,0:0:0:0:
276,279,70090,1,0,0:0:0:0:
276,279,70174,1,8,0:0:0:0:
276,279,70340,1,0,0:0:0:0:
276,279,70507,1,8,0:0:0:0:
276,279,70590,1,8,0:0:0:0:
276,279,70674,1,8,0:0:0:0:
276,279,70840,1,0,0:0:0:0:
276,279,71007,1,8,0:0:0:0:
276,279,71090,1,8,0:0:0:0:
276,279,71174,1,0,0:0:0:0:
276,279,71257,1,0,0:0:0:0:
276,279,71340,1,8,0:0:0:0:
274,273,71507,1,0,0:0:0:0:
272,273,71674,1,8,0:0:0:0:
272,273,71840,1,0,0:0:0:0:
272,273,71924,1,0,0:0:0:0:
272,273,72007,1,0,0:0:0:0:
272,273,72174,1,8,0:0:0:0:
272,273,72340,1,0,0:0:0:0:
274,273,72424,1,0,0:0:0:0:
274,273,72507,5,8,0:0:0:0:
272,273,72674,1,0,0:0:0:0:
272,273,72757,1,0,0:0:0:0:
272,273,72840,1,8,0:0:0:0:
272,273,73007,1,8,0:0:0:0:
267,268,73174,1,0,0:0:0:0:
267,268,73257,1,0,0:0:0:0:
267,268,73340,1,8,0:0:0:0:
267,268,73424,1,8,0:0:0:0:
267,268,73507,1,0,0:0:0:0:
209,210,73674,5,8,0:0:0:0:
209,210,73840,1,0,0:0:0:0:
280,284,73924,1,0,0:0:0:0:
234,280,74007,1,8,0:0:0:0:
270,273,74174,1,8,0:0:0:0:
234,280,74340,5,4,0:0:0:0:
274,216,74674,1,0,0:0:0:0:
274,216,74757,1,0,0:0:0:0:
274,216,74840,1,8,0:0:0:0:
259,234,75007,1,8,0:0:0:0:
256,222,75174,1,0,0:0:0:0:
256,220,75257,1,8,0:0:0:0:
256,220,75340,1,0,0:0:0:0:
255,205,75424,1,0,0:0:0:0:
274,216,75507,1,8,0:0:0:0:
274,216,75674,1,0,0:0:0:0:
277,231,75840,1,8,0:0:0:0:
278,228,75924,1,8,0:0:0:0:
276,227,76007,1,8,0:0:0:0:
276,227,76174,1,8,0:0:0:0:
276,219,76340,1,0,0:0:0:0:
276,224,76424,1,0,0:0:0:0:
274,216,76507,1,8,0:0:0:0:
274,216,76590,1,8,0:0:0:0:
274,216,76674,1,0,0:0:0:0:
274,219,76840,1,8,0:0:0:0:
273,214,77007,1,0,0:0:0:0:
262,203,77174,1,8,0:0:0:0:
262,203,77257,1,8,0:0:0:0:
262,200,77340,1,8,0:0:0:0:
262,200,77507,1,8,0:0:0:0:
269,195,77674,1,0,0:0:0:0:
269,195,77840,1,8,0:0:0:0:
269,195,77924,1,8,0:0:0:0:
269,195,78007,1,0,0:0:0:0:
269,197,78090,1,0,0:0:0:0:
269,197,78174,1,8,0:0:0:0:
270,199,78340,1,0,0:0:0:0:
273,192,78507,1,8,0:0:0:0:
273,192,78590,1,8,0:0:0:0:
273,192,78674,1,0,0:0:0:0:
276,184,78840,1,0,0:0:0:0:
276,185,78924,1,0,0:0:0:0:
276,185,79007,1,8,0:0:0:0:
249,273,79174,1,0,0:0:0:0:
282,245,79340,1,8,0:0:0:0:
240,239,79423,1,8,0:0:0:0:
240,239,79506,1,8,0:0:0:0:
269,242,79674,1,4,0:0:0:0:
227,186,80007,1,0,0:0:0:0:
256,193,80090,1,0,0:0:0:0:
256,193,80174,1,8,0:0:0:0:
256,193,80340,1,8,0:0:0:0:
256,193,80507,1,0,0:0:0:0:
301,240,80590,1,8,0:0:0:0:
251,182,80674,1,0,0:0:0:0:
301,240,80757,1,0,0:0:0:0:
301,240,80840,1,8,0:0:0:0:
254,185,81007,1,0,0:0:0:0:
238,212,81174,1,8,0:0:0:0:
238,212,81257,1,0,0:0:0:0:
238,212,81340,1,8,0:0:0:0:
231,224,81507,1,8,0:0:0:0:
226,231,81674,1,0,0:0:0:0:
226,231,81757,1,0,0:0:0:0:
226,231,81840,1,0,0:0:0:0:
226,231,81924,1,0,0:0:0:0:
226,231,82007,1,8,0:0:0:0:
226,231,82174,1,8,0:0:0:0:
226,231,82340,1,0,0:0:0:0:
230,233,82507,1,8,0:0:0:0:
230,233,82590,1,8,0:0:0:0:
230,233,82674,1,0,0:0:0:0:
226,231,82840,1,8,0:0:0:0:
259,246,83007,1,0,0:0:0:0:
307,297,83174,1,8,0:0:0:0:
307,297,83257,1,0,0:0:0:0:
307,297,83340,1,8,0:0:0:0:
307,297,83424,1,8,0:0:0:0:
307,297,83507,1,0,0:0:0:0:
296,316,83674,1,8,0:0:0:0:
282,288,83840,1,0,0:0:0:0:
282,288,83924,1,0,0:0:0:0:
282,288,84007,1,8,0:0:0:0:
282,288,84174,1,0,0:0:0:0:
282,288,84340,1,8,0:0:0:0:
282,293,84507,1,8,0:0:0:0:
282,293,84590,1,0,0:0:0:0:
282,293,84757,1,0,0:0:0:0:
282,288,84840,1,8,0:0:0:0:
273,262,85007,1,4,0:0:0:0:
291,240,85340,1,8,0:0:0:0:
291,240,85424,1,8,0:0:0:0:
291,240,85507,1,0,0:0:0:0:
284,232,85674,1,8,0:0:0:0:
284,232,85757,1,8,0:0:0:0:
284,232,85840,1,0,0:0:0:0:
284,231,86007,1,8,0:0:0:0:
284,232,86090,1,8,0:0:0:0:
284,232,86174,1,0,0:0:0:0:
284,232,86340,1,12,0:0:0:0:
274,265,86674,1,0,0:0:0:0:
269,269,86757,1,0,0:0:0:0:
274,265,86840,1,8,0:0:0:0:
274,265,87007,1,0,0:0:0:0:
274,265,87090,1,0,0:0:0:0:
277,283,87174,1,8,0:0:0:0:
277,283,87340,1,0,0:0:0:0:
281,271,87424,1,0,0:0:0:0:
277,283,87507,1,8,0:0:0:0:
279,273,87674,1,4,0:0:0:0:
291,295,88007,1,8,0:0:0:0:
281,296,88090,1,8,0:0:0:0:
291,295,88174,1,0,0:0:0:0:
281,298,88257,1,0,0:0:0:0:
281,293,88340,1,8,0:0:0:0:
274,298,88507,1,0,0:0:0:0:
274,298,88674,1,8,0:0:0:0:
274,298,88757,1,0,0:0:0:0:
274,298,88840,1,8,0:0:0:0:
274,298,89007,1,0,0:0:0:0:
253,308,89089,1,0,0:0:0:0:
255,307,89173,1,8,0:0:0:0:
255,307,89256,1,8,0:0:0:0:
255,306,89339,1,0,0:0:0:0:
255,305,89507,1,8,0:0:0:0:
255,305,89590,1,8,0:0:0:0:
253,305,89674,1,8,0:0:0:0:
256,302,89756,1,8,0:0:0:0:
253,291,89839,1,0,0:0:0:0:
253,291,90007,1,8,0:0:0:0:
252,290,90174,1,8,0:0:0:0:
252,290,90340,1,4,0:0:0:0:
236,257,92340,5,0,0:0:0:0:
225,258,92424,1,0,0:0:0:0:
236,257,92507,1,0,0:0:0:0:
225,258,92590,1,0,0:0:0:0:
225,258,92674,1,8,0:0:0:0:
236,257,92840,1,8,0:0:0:0:
225,258,93007,1,4,0:0:0:0:
257,247,93340,5,8,0:0:0:0:
272,258,93507,1,0,0:0:0:0:
272,258,93590,1,0,0:0:0:0:
267,253,93674,1,8,0:0:0:0:
256,240,93840,1,0,0:0:0:0:
261,237,94007,1,8,0:0:0:0:
255,239,94090,1,0,0:0:0:0:
266,240,94173,1,8,0:0:0:0:
266,240,94257,1,8,0:0:0:0:
251,219,94340,1,0,0:0:0:0:
245,208,94507,1,8,0:0:0:0:
246,208,94673,1,0,0:0:0:0:
285,241,94840,1,8,0:0:0:0:
284,240,94924,1,0,0:0:0:0:
333,251,95007,1,8,0:0:0:0:
266,157,95173,1,0,0:0:0:0:
287,254,95257,1,0,0:0:0:0:
283,235,95340,1,8,0:0:0:0:
283,235,95507,1,8,0:0:0:0:
283,235,95673,1,4,0:0:0:0:
241,242,96007,1,8,0:0:0:0:
244,234,96174,1,8,0:0:0:0:
242,232,96257,1,0,0:0:0:0:
234,227,96340,1,0,0:0:0:0:
238,229,96507,1,8,0:0:0:0:
235,275,96673,1,0,0:0:0:0:
235,275,96757,1,0,0:0:0:0:
235,275,96840,1,8,0:0:0:0:
235,275,96923,1,8,0:0:0:0:
235,275,97007,1,0,0:0:0:0:
235,275,97174,1,8,0:0:0:0:
235,275,97340,1,0,0:0:0:0:
235,275,97507,1,8,0:0:0:0:
235,275,97590,1,8,0:0:0:0:
235,275,97673,1,0,0:0:0:0:
235,275,97840,1,0,0:0:0:0:
235,275,97923,1,0,0:0:0:0:
235,275,98007,1,8,0:0:0:0:
235,275,98173,1,8,0:0:0:0:
235,275,98340,1,4,0:0:0:0:
315,266,98673,1,8,0:0:0:0:
272,247,98840,1,8,0:0:0:0:
272,247,98923,1,0,0:0:0:0:
266,245,99007,1,8,0:0:0:0:
259,187,99173,1,0,0:0:0:0:
278,205,99340,1,8,0:0:0:0:
273,205,99423,1,0,0:0:0:0:
271,206,99507,1,8,0:0:0:0:
266,205,99590,1,8,0:0:0:0:
266,205,99673,1,0,0:0:0:0:
333,238,99840,1,8,0:0:0:0:
333,238,100007,1,0,0:0:0:0:
309,210,100173,1,8,0:0:0:0:
309,210,100257,1,0,0:0:0:0:
306,216,100340,1,8,0:0:0:0:
303,209,100507,1,0,0:0:0:0:
303,209,100590,1,0,0:0:0:0:
302,209,100673,1,8,0:0:0:0:
307,203,100840,1,8,0:0:0:0:
312,203,101007,1,4,0:0:0:0:
295,211,101257,1,0,0:0:0:0:
295,204,101340,1,8,0:0:0:0:
297,202,101507,1,8,0:0:0:0:
297,202,101590,1,0,0:0:0:0:
297,202,101673,1,8,0:0:0:0:
292,195,101757,1,8,0:0:0:0:
292,195,101840,1,0,0:0:0:0:
298,230,102007,1,0,0:0:0:0:
297,300,102090,1,0,0:0:0:0:
298,230,102173,1,8,0:0:0:0:
331,252,102257,1,8,0:0:0:0:
298,230,102340,1,0,0:0:0:0:
298,227,102507,1,8,0:0:0:0:
291,220,102673,1,0,0:0:0:0:
307,224,102840,1,8,0:0:0:0:
306,224,102923,1,8,0:0:0:0:
299,224,103007,1,0,0:0:0:0:
295,220,103173,1,8,0:0:0:0:
277,271,103257,1,8,0:0:0:0:
241,251,103340,1,0,0:0:0:0:
205,283,103674,5,4,0:0:0:0:
205,283,104007,1,8,0:0:0:0:
205,283,104174,1,8,0:0:0:0:
200,282,104257,1,8,0:0:0:0:
200,282,104340,1,0,0:0:0:0:
243,257,104423,1,8,0:0:0:0:
200,282,104507,1,0,0:0:0:0:
210,278,104674,1,8,0:0:0:0:
196,199,104840,1,0,0:0:0:0:
236,248,105007,1,8,0:0:0:0:
236,248,105090,1,8,0:0:0:0:
236,248,105174,1,0,0:0:0:0:
227,242,105257,1,0,0:0:0:0:
223,241,105340,1,8,0:0:0:0:
280,270,105507,1,8,0:0:0:0:
280,270,105590,1,0,0:0:0:0:
280,270,105757,1,0,0:0:0:0:
280,270,105840,1,8,0:0:0:0:
280,270,106007,1,8,0:0:0:0:
391,263,106090,1,8,0:0:0:0:
391,263,106174,1,8,0:0:0:0:
391,263,106340,1,4,0:0:0:0:
334,275,106590,1,0,0:0:0:0:
391,263,106674,1,8,0:0:0:0:
280,246,106840,1,8,0:0:0:0:
280,246,106924,1,8,0:0:0:0:
280,246,107007,1,8,0:0:0:0:
280,246,107090,1,8,0:0:0:0:
280,246,107174,1,0,0:0:0:0:
280,246,107340,1,8,0:0:0:0:
280,246,107507,1,0,0:0:0:0:
280,246,107674,1,8,0:0:0:0:
280,246,107840,1,0,0:0:0:0:
276,198,107924,1,8,0:0:0:0:
276,198,108090,1,8,0:0:0:0:
276,198,108174,1,0,0:0:0:0:
276,198,108340,1,8,0:0:0:0:
340,261,108424,1,0,0:0:0:0:
340,261,108507,1,8,0:0:0:0:
340,261,108674,1,8,0:0:0:0:
358,275,108757,1,8,0:0:0:0:
359,275,108840,1,8,0:0:0:0:
329,273,109007,1,4,0:0:0:0:
329,273,109340,1,8,0:0:0:0:
329,273,109507,1,0,0:0:0:0:
329,273,109590,1,8,0:0:0:0:
329,273,109674,1,0,0:0:0:0:
329,273,109757,1,0,0:0:0:0:
329,273,109840,1,8,0:0:0:0:
329,273,110007,1,8,0:0:0:0:
329,273,110174,1,0,0:0:0:0:
261,223,110340,1,8,0:0:0:0:
261,223,110424,1,8,0:0:0:0:
261,223,110507,1,0,0:0:0:0:
261,223,110590,1,0,0:0:0:0:
261,223,110674,1,8,0:0:0:0:
261,217,110840,1,0,0:0:0:0:
261,217,110924,1,8,0:0:0:0:
261,217,111090,1,8,0:0:0:0:
261,217,111174,1,0,0:0:0:0:
261,217,111340,1,8,0:0:0:0:
261,217,111424,1,8,0:0:0:0:
261,223,111507,1,8,0:0:0:0:
261,223,111674,1,4,0:0:0:0:
256,192,112007,12,0,113007,0:0:0:0:
336,253,113507,5,0,0:0:0:0:
336,253,113590,1,0,0:0:0:0:
336,253,113674,1,8,0:0:0:0:
340,283,113924,1,8,0:0:0:0:
276,184,114174,1,0,0:0:0:0:
265,202,114340,1,12,0:0:0:0:
298,275,114507,1,0,0:0:0:0:
298,275,114840,1,0,0:0:0:0:
298,275,114924,1,0,0:0:0:0:
298,275,115007,1,8,0:0:0:0:
271,312,115340,1,8,0:0:0:0:
271,312,115424,1,0,0:0:0:0:
271,312,115507,1,8,0:0:0:0:
271,312,115840,1,0,0:0:0:0:
274,308,115924,1,0,0:0:0:0:
274,305,116007,1,8,0:0:0:0:
262,288,116174,1,0,0:0:0:0:
262,288,116340,1,8,0:0:0:0:
262,288,116507,1,0,0:0:0:0:
344,288,116840,1,8,0:0:0:0:
344,288,116924,1,0,0:0:0:0:
344,288,117007,1,8,0:0:0:0:
344,288,117174,1,0,0:0:0:0:
331,294,117507,1,0,0:0:0:0:
330,293,117590,1,0,0:0:0:0:
330,293,117674,1,8,0:0:0:0:
334,282,118007,1,8,0:0:0:0:
334,282,118090,1,0,0:0:0:0:
334,282,118174,1,8,0:0:0:0:
332,283,118507,1,0,0:0:0:0:
331,283,118590,1,8,0:0:0:0:
331,283,118674,1,0,0:0:0:0:
329,285,118840,1,0,0:0:0:0:
329,285,118924,1,0,0:0:0:0:
329,285,119007,1,8,0:0:0:0:
323,281,119174,1,0,0:0:0:0:
296,329,119340,1,8,0:0:0:0:
296,329,119424,1,8,0:0:0:0:
296,329,119507,1,0,0:0:0:0:
296,329,119674,1,12,0:0:0:0:
269,308,119840,1,0,0:0:0:0:
264,306,120174,1,0,0:0:0:0:
261,306,120257,1,0,0:0:0:0:
264,306,120340,1,8,0:0:0:0:
261,306,120674,1,8,0:0:0:0:
236,305,120757,1,0,0:0:0:0:
236,305,120840,1,8,0:0:0:0:
236,305,121174,1,0,0:0:0:0:
236,305,121257,1,0,0:0:0:0:
236,305,121340,1,8,0:0:0:0:
231,308,121507,1,0,0:0:0:0:
231,308,121674,1,8,0:0:0:0:
231,308,121840,1,0,0:0:0:0:
236,305,122174,1,8,0:0:0:0:
236,305,122257,1,0,0:0:0:0:
236,305,122340,1,8,0:0:0:0:
236,305,122507,1,0,0:0:0:0:
235,302,122840,1,0,0:0:0:0:
236,305,122924,1,0,0:0:0:0:
231,306,123007,1,8,0:0:0:0:
256,317,123340,1,8,0:0:0:0:
256,317,123424,1,0,0:0:0:0:
224,312,123507,1,8,0:0:0:0:
218,315,123840,1,0,0:0:0:0:
219,315,123924,1,8,0:0:0:0:
221,311,124007,1,0,0:0:0:0:
219,308,124174,1,0,0:0:0:0:
219,308,124257,1,0,0:0:0:0:
219,308,124340,1,8,0:0:0:0:
219,308,124507,1,0,0:0:0:0:
219,308,124674,1,8,0:0:0:0:
216,267,124757,1,8,0:0:0:0:
216,267,124840,1,0,0:0:0:0:
216,267,125007,1,12,0:0:0:0:
205,178,125174,1,0,0:0:0:0:
306,258,125507,1,8,0:0:0:0:
257,257,125674,1,8,0:0:0:0:
306,258,125840,1,0,0:0:0:0:
282,263,126007,1,8,0:0:0:0:
270,300,126174,1,0,0:0:0:0:
270,300,126257,1,0,0:0:0:0:
270,300,126340,1,8,0:0:0:0:
258,246,126507,1,8,0:0:0:0:
258,246,126674,1,0,0:0:0:0:
253,295,126840,1,8,0:0:0:0:
253,295,126924,1,8,0:0:0:0:
253,295,127007,1,8,0:0:0:0:
206,223,127174,1,0,0:0:0:0:
206,223,127340,1,8,0:0:0:0:
216,133,127507,1,8,0:0:0:0:
216,133,127590,1,8,0:0:0:0:
215,125,127674,1,0,0:0:0:0:
210,193,128007,1,8,0:0:0:0:
286,310,128174,1,0,0:0:0:0:
286,310,128340,1,8,0:0:0:0:
296,249,128507,5,8,0:0:0:0:
296,249,128674,1,0,0:0:0:0:
244,294,128840,1,8,0:0:0:0:
244,294,128924,1,8,0:0:0:0:
244,294,129007,1,0,0:0:0:0:
264,231,129174,1,8,0:0:0:0:
264,231,129340,1,0,0:0:0:0:
244,294,129507,1,8,0:0:0:0:
244,294,129590,1,0,0:0:0:0:
244,294,129674,1,8,0:0:0:0:
244,294,129840,1,8,0:0:0:0:
244,294,129924,1,8,0:0:0:0:
244,294,130007,1,0,0:0:0:0:
246,255,130090,1,0,0:0:0:0:
244,294,130174,1,8,0:0:0:0:
244,294,130340,1,4,0:0:0:0:
256,273,130674,1,0,0:0:0:0:
246,255,130840,1,0,0:0:0:0:
246,255,131007,1,8,0:0:0:0:
243,255,131174,1,0,0:0:0:0:
240,256,131257,1,0,0:0:0:0:
240,256,131340,1,8,0:0:0:0:
240,256,131424,1,8,0:0:0:0:
240,256,131507,1,0,0:0:0:0:
240,256,131674,1,8,0:0:0:0:
240,256,131840,1,0,0:0:0:0:
240,256,131924,1,0,0:0:0:0:
240,256,132007,1,8,0:0:0:0:
243,255,132174,1,8,0:0:0:0:
240,256,132340,1,0,0:0:0:0:
240,256,132507,1,8,0:0:0:0:
235,225,132590,1,8,0:0:0:0:
235,225,132674,1,0,0:0:0:0:
249,288,132757,1,0,0:0:0:0:
249,288,132840,1,8,0:0:0:0:
276,225,133007,1,8,0:0:0:0:
276,225,133174,1,0,0:0:0:0:
253,255,133340,1,8,0:0:0:0:
253,251,133507,1,0,0:0:0:0:
256,249,133590,1,0,0:0:0:0:
256,249,133674,1,8,0:0:0:0:
293,293,133840,1,8,0:0:0:0:
293,293,133924,1,0,0:0:0:0:
287,293,134007,1,0,0:0:0:0:
287,293,134090,1,0,0:0:0:0:
287,293,134174,1,8,0:0:0:0:
283,294,134340,1,4,0:0:0:0:
286,314,135007,5,0,0:0:0:0:
283,307,135090,1,0,0:0:0:0:
286,314,135174,1,0,0:0:0:0:
283,307,135257,1,0,0:0:0:0:
283,307,135340,1,8,0:0:0:0:
283,307,135507,1,8,0:0:0:0:
283,307,135674,1,4,0:0:0:0:
256,299,135840,1,8,0:0:0:0:
256,299,136007,1,0,0:0:0:0:
256,299,136090,1,0,0:0:0:0:
256,299,136174,1,8,0:0:0:0:
256,299,136340,1,0,0:0:0:0:
256,299,136507,1,8,0:0:0:0:
221,169,136590,1,8,0:0:0:0:
256,299,136674,1,0,0:0:0:0:
256,299,136757,1,0,0:0:0:0:
254,137,136840,1,8,0:0:0:0:
256,299,137007,1,0,0:0:0:0:
256,299,137174,1,8,0:0:0:0:
256,299,137340,1,0,0:0:0:0:
256,299,137424,1,0,0:0:0:0:
256,299,137507,1,8,0:0:0:0:
256,299,137674,1,8,0:0:0:0:
256,299,137840,1,0,0:0:0:0:
256,299,137924,1,0,0:0:0:0:
171,127,138007,1,8,0:0:0:0:
256,299,138090,1,8,0:0:0:0:
256,299,138174,1,0,0:0:0:0:
256,299,138340,1,8,0:0:0:0:
256,299,138507,1,0,0:0:0:0:
256,299,138674,1,8,0:0:0:0:
256,299,138757,1,8,0:0:0:0:
256,299,138840,1,0,0:0:0:0:
256,299,139007,1,8,0:0:0:0:
256,299,139090,1,8,0:0:0:0:
256,299,139174,1,0,0:0:0:0:
256,299,139340,1,8,0:0:0:0:
256,299,139424,1,8,0:0:0:0:
256,299,139507,1,8,0:0:0:0:
256,299,139674,1,0,0:0:0:0:
296,204,139896,1,8,0:0:0:0:
299,208,140007,1,0,0:0:0:0:
311,208,140229,1,8,0:0:0:0:
366,222,140340,1,0,0:0:0:0:
366,222,140452,1,0,0:0:0:0:
311,211,140563,1,0,0:0:0:0:
358,220,140674,1,8,0:0:0:0:
278,268,141007,1,4,0:0:0:0:
355,276,141174,1,8,0:0:0:0:
355,276,141340,1,0,0:0:0:0:
355,276,141424,1,0,0:0:0:0:
355,276,141507,1,8,0:0:0:0:
355,276,141674,1,8,0:0:0:0:
355,276,141840,1,0,0:0:0:0:
355,276,142007,1,8,0:0:0:0:
355,276,142090,1,0,0:0:0:0:
355,276,142174,1,8,0:0:0:0:
350,273,142340,1,0,0:0:0:0:
350,273,142507,1,8,0:0:0:0:
350,273,142674,1,0,0:0:0:0:
350,273,142757,1,0,0:0:0:0:
350,273,142840,1,8,0:0:0:0:
333,269,143007,1,8,0:0:0:0:
333,269,143174,1,0,0:0:0:0:
341,267,143257,1,0,0:0:0:0:
267,229,143340,1,8,0:0:0:0:
346,266,143424,1,0,0:0:0:0:
346,266,143507,1,8,0:0:0:0:
348,265,143674,1,0,0:0:0:0:
355,262,143840,1,8,0:0:0:0:
356,262,143924,1,8,0:0:0:0:
356,262,144007,1,0,0:0:0:0:
358,262,144174,1,0,0:0:0:0:
358,262,144257,1,0,0:0:0:0:
358,262,144340,1,8,0:0:0:0:
358,262,144507,1,8,0:0:0:0:
358,262,144590,1,8,0:0:0:0:
358,262,144674,1,0,0:0:0:0:
355,262,144840,1,0,0:0:0:0:
356,262,145007,1,8,0:0:0:0:
356,262,145090,1,8,0:0:0:0:
358,262,145174,1,8,0:0:0:0:
358,262,145257,1,8,0:0:0:0:
358,262,145340,1,0,0:0:0:0:
358,262,145507,1,8,0:0:0:0:
358,262,145674,1,0,0:0:0:0:
355,262,145757,1,0,0:0:0:0:
355,262,145840,1,8,0:0:0:0:
356,262,146007,1,8,0:0:0:0:
291,168,146173,1,0,0:0:0:0:
358,262,146340,1,8,0:0:0:0:
358,262,146423,1,0,0:0:0:0:
358,262,146506,1,8,0:0:0:0:
358,262,146589,1,8,0:0:0:0:
358,262,146673,1,0,0:0:0:0:
358,262,146840,1,8,0:0:0:0:
355,262,147006,1,0,0:0:0:0:
356,262,147173,1,8,0:0:0:0:
276,267,147256,1,8,0:0:0:0:
358,262,147340,1,0,0:0:0:0:
358,262,147423,1,0,0:0:0:0:
358,262,147506,1,8,0:0:0:0:
280,171,147673,1,0,0:0:0:0:
303,267,148340,1,0,0:0:0:0:
295,252,148424,1,0,0:0:0:0:
287,236,148507,1,0,0:0:0:0:
283,227,148590,1,0,0:0:0:0:
281,226,148674,1,8,0:0:0:0:
281,227,148840,1,8,0:0:0:0:
286,236,149007,1,4,0:0:0:0:
301,300,149174,1,8,0:0:0:0:
293,310,149257,1,0,0:0:0:0:
321,289,149340,1,8,0:0:0:0:
321,289,149424,1,8,0:0:0:0:
321,289,149507,1,0,0:0:0:0:
321,289,149674,1,8,0:0:0:0:
276,279,149840,1,0,0:0:0:0:
276,279,149924,1,8,0:0:0:0:
276,279,150007,1,0,0:0:0:0:
276,279,150090,1,0,0:0:0:0:
276,279,150174,1,8,0:0:0:0:
276,279,150340,1,0,0:0:0:0:
276,279,150507,1,8,0:0:0:0:
276,279,150590,1,8,0:0:0:0:
276,279,150674,1,8,0:0:0:0:
276,279,150840,1,0,0:0:0:0:
276,279,151007,1,8,0:0:0:0:
276,279,151090,1,8,0:0:0:0:
276,279,151174,1,0,0:0:0:0:
276,279,151257,1,0,0:0:0:0:
276,279,151340,1,8,0:0:0:0:
274,273,151507,1,0,0:0:0:0:
272,273,151674,1,8,0:0:0:0:
272,273,151840,1,0,0:0:0:0:
272,273,151924,1,0,0:0:0:0:
272,273,152007,1,0,0:0:0:0:
272,273,152174,1,8,0:0:0:0:
272,273,152340,1,0,0:0:0:0:
274,273,152424,1,0,0:0:0:0:
274,273,152507,5,8,0:0:0:0:
272,273,152674,1,0,0:0:0:0:
272,273,152757,1,0,0:0:0:0:
272,273,152840,1,8,0:0:0:0:
272,273,153007,1,8,0:0:0:0:
267,268,153174,1,0,0:0:0:0:
267,268,153257,1,0,0:0:0:0:
267,268,153340,1,8,0:0:0:0:
267,268,153424,1,8,0:0:0:0:
267,268,153507,1,0,0:0:0:0:
209,210,153674,5,8,0:0:0:0:
209,210,153840,1,0,0:0:0:0:
280,284,153924,1,0,0:0:0:0:
234,280,154007,1,8,0:0:0:0:
270,273,154174,1,8,0:0:0:0:
234,280,154340,5,4,0:0:0:0:
274,216,154674,1,0,0:0:0:0:
274,216,154757,1,0,0:0:0:0:
274,216,154840,1,8,0:0:0:0:
259,234,155007,1,8,0:0:0:0:
256,222,155174,1,0,0:0:0:0:
256,220,155257,1,8,0:0:0:0:
256,220,155340,1,0,0:0:0:0:
255,205,155424,1,0,0:0:0:0:
274,216,155507,1,8,0:0:0:0:
274,216,155674,1,0,0:0:0:0:
277,231,155840,1,8,0:0:0:0:
278,228,155924,1,8,0:0:0:0:
276,227,156007,1,8,0:0:0:0:
276,227,156174,1,8,0:0:0:0:
276,219,156340,1,0,0:0:0:0:
276,224,156424,1,0,0:0:0:0:
274,216,156507,1,8,0:0:0:0:
274,216,156590,1,8,0:0:0:0:
274,216,156674,1,0,0:0:0:0:
274,219,156840,1,8,0:0:0:0:
273,214,157007,1,0,0:0:0:0:
262,203,157174,1,8,0:0:0:0:
262,203,157257,1,8,0:0:0:0:
262,200,157340,1,8,0:0:0:0:
262,200,157507,1,8,0:0:0:0:
269,195,157674,1,0,0:0:0:0:
269,195,157840,1,8,0:0:0:0:
269,195,157924,1,8,0:0:0:0:
269,195,158007,1,0,0:0:0:0:
269,197,158090,1,0,0:0:0:0:
269,197,158174,1,8,0:0:0:0:
270,199,158340,1,0,0:0:0:0:
273,192,158507,1,8,0:0:0:0:
273,192,158590,1,8,0:0:0:0:
273,192,158674,1,0,0:0:0:0:
276,184,158840,1,0,0:0:0:0:
276,185,158924,1,0,0:0:0:0:
276,185,159007,1,8,0:0:0:0:
249,273,159174,1,0,0:0:0:0:
282,245,159340,1,8,0:0:0:0:
286,178,159423,1,8,0:0:0:0:
269,242,159507,1,8,0:0:0:0:
269,242,159674,1,4,0:0:0:0:
227,186,160007,1,0,0:0:0:0:
256,193,160090,1,0,0:0:0:0:
256,193,160174,1,8,0:0:0:0:
256,193,160340,1,8,0:0:0:0:
256,193,160507,1,0,0:0:0:0:
301,240,160590,1,8,0:0:0:0:
251,182,160674,1,0,0:0:0:0:
301,240,160757,1,0,0:0:0:0:
301,240,160840,1,8,0:0:0:0:
254,185,161007,1,0,0:0:0:0:
238,212,161174,1,8,0:0:0:0:
238,212,161257,1,0,0:0:0:0:
238,212,161340,1,8,0:0:0:0:
231,224,161507,1,8,0:0:0:0:
226,231,161674,1,0,0:0:0:0:
226,231,161757,1,0,0:0:0:0:
226,231,161840,1,0,0:0:0:0:
226,231,161924,1,0,0:0:0:0:
226,231,162007,1,8,0:0:0:0:
226,231,162174,1,8,0:0:0:0:
226,231,162340,1,0,0:0:0:0:
230,233,162507,1,8,0:0:0:0:
230,233,162590,1,8,0:0:0:0:
230,233,162674,1,0,0:0:0:0:
226,231,162840,1,8,0:0:0:0:
259,246,163007,1,0,0:0:0:0:
307,297,163174,1,8,0:0:0:0:
307,297,163257,1,0,0:0:0:0:
307,297,163340,1,8,0:0:0:0:
307,297,163424,1,8,0:0:0:0:
307,297,163507,1,0,0:0:0:0:
296,316,163674,1,8,0:0:0:0:
282,288,163840,1,0,0:0:0:0:
282,288,163924,1,0,0:0:0:0:
282,288,164007,1,8,0:0:0:0:
282,288,164174,1,0,0:0:0:0:
282,288,164340,1,8,0:0:0:0:
282,293,164507,1,8,0:0:0:0:
282,293,164589,1,0,0:0:0:0:
282,293,164757,1,0,0:0:0:0:
282,288,164840,1,8,0:0:0:0:
273,262,165007,1,4,0:0:0:0:
291,240,165340,1,8,0:0:0:0:
291,240,165424,1,8,0:0:0:0:
291,240,165507,1,0,0:0:0:0:
284,232,165674,1,8,0:0:0:0:
284,232,165757,1,8,0:0:0:0:
284,232,165840,1,0,0:0:0:0:
284,231,166007,1,8,0:0:0:0:
284,232,166090,1,8,0:0:0:0:
284,232,166174,1,0,0:0:0:0:
284,232,166340,1,12,0:0:0:0:
274,265,166674,1,0,0:0:0:0:
269,269,166757,1,0,0:0:0:0:
274,265,166840,1,8,0:0:0:0:
274,265,167007,1,0,0:0:0:0:
274,265,167090,1,0,0:0:0:0:
277,283,167174,1,8,0:0:0:0:
277,283,167340,1,0,0:0:0:0:
281,271,167424,1,0,0:0:0:0:
277,283,167507,1,8,0:0:0:0:
279,273,167674,1,4,0:0:0:0:
291,295,168007,1,8,0:0:0:0:
281,296,168090,1,8,0:0:0:0:
291,295,168174,1,0,0:0:0:0:
281,298,168257,1,0,0:0:0:0:
281,293,168340,1,8,0:0:0:0:
274,298,168507,1,0,0:0:0:0:
274,298,168674,1,8,0:0:0:0:
274,298,168757,1,0,0:0:0:0:
274,298,168840,1,8,0:0:0:0:
274,298,169007,1,8,0:0:0:0:
253,308,169174,1,0,0:0:0:0:
255,307,169257,1,0,0:0:0:0:
255,307,169340,1,8,0:0:0:0:
255,306,169424,1,8,0:0:0:0:
255,305,169507,1,0,0:0:0:0:
255,305,169590,1,0,0:0:0:0:
253,305,169674,1,8,0:0:0:0:
256,302,169840,1,0,0:0:0:0:
253,291,169924,1,0,0:0:0:0:
253,291,170007,1,8,0:0:0:0:
252,290,170174,1,8,0:0:0:0:
252,290,170340,1,4,0:0:0:0:
309,288,170674,1,0,0:0:0:0:
309,288,170840,1,0,0:0:0:0:
305,268,171007,1,8,0:0:0:0:
309,288,171174,1,0,0:0:0:0:
304,268,171340,1,8,0:0:0:0:
309,288,171507,1,0,0:0:0:0:
309,288,171590,1,0,0:0:0:0:
309,288,171674,1,8,0:0:0:0:
282,267,171757,1,8,0:0:0:0:
288,217,171840,1,0,0:0:0:0:
287,212,171924,1,0,0:0:0:0:
288,217,172007,1,8,0:0:0:0:
282,267,172174,1,0,0:0:0:0:
282,267,172340,1,8,0:0:0:0:
298,222,172507,1,0,0:0:0:0:
298,222,172590,1,0,0:0:0:0:
275,264,172674,1,8,0:0:0:0:
279,247,172840,1,8,0:0:0:0:
279,247,173007,1,4,0:0:0:0:
308,267,173340,1,8,0:0:0:0:
251,217,173507,1,0,0:0:0:0:
251,217,173590,1,0,0:0:0:0:
251,217,173674,1,8,0:0:0:0:
260,225,173840,1,0,0:0:0:0:
275,226,173924,1,0,0:0:0:0:
258,227,174007,1,8,0:0:0:0:
257,226,174090,1,8,0:0:0:0:
257,223,174174,1,0,0:0:0:0:
270,226,174340,1,8,0:0:0:0:
286,282,174507,1,0,0:0:0:0:
286,282,174674,1,8,0:0:0:0:
274,277,174757,1,8,0:0:0:0:
268,275,174840,1,0,0:0:0:0:
268,271,175007,1,8,0:0:0:0:
268,271,175090,1,8,0:0:0:0:
268,271,175174,1,0,0:0:0:0:
226,120,175257,1,0,0:0:0:0:
226,120,175340,1,8,0:0:0:0:
226,120,175507,1,0,0:0:0:0:
226,120,175674,1,8,0:0:0:0:
262,224,175840,1,0,0:0:0:0:
256,217,175924,1,0,0:0:0:0:
256,217,176007,1,8,0:0:0:0:
243,236,176090,1,8,0:0:0:0:
262,224,176174,1,0,0:0:0:0:
242,242,176257,1,0,0:0:0:0:
242,242,176340,1,8,0:0:0:0:
230,248,176507,1,8,0:0:0:0:
229,247,176590,1,8,0:0:0:0:
267,187,176674,1,8,0:0:0:0:
245,266,176840,1,0,0:0:0:0:
241,253,177007,1,8,0:0:0:0:
241,237,177118,1,8,0:0:0:0:
240,230,177229,1,8,0:0:0:0:
239,223,177340,1,8,0:0:0:0:
239,219,177452,1,8,0:0:0:0:
244,237,177563,1,8,0:0:0:0:
244,237,177674,1,0,0:0:0:0:
284,242,179174,1,0,0:0:0:0:
284,242,179257,1,0,0:0:0:0:
284,242,179340,1,0,0:0:0:0:
299,265,179674,1,12,0:0:0:0:
298,258,179840,1,0,0:0:0:0:
298,258,179924,1,0,0:0:0:0:
298,256,180007,1,8,0:0:0:0:
297,252,180174,1,0,0:0:0:0:
297,251,180340,1,8,0:0:0:0:
281,239,180507,1,8,0:0:0:0:
281,239,180590,1,0,0:0:0:0:
281,238,180674,1,8,0:0:0:0:
279,238,180757,1,8,0:0:0:0:
276,238,180840,1,0,0:0:0:0:
276,240,181007,1,8,0:0:0:0:
271,245,181174,1,0,0:0:0:0:
271,245,181257,1,0,0:0:0:0:
271,245,181340,1,8,0:0:0:0:
271,245,181507,1,0,0:0:0:0:
249,237,181674,1,8,0:0:0:0:
249,237,181757,1,8,0:0:0:0:
249,236,181840,1,0,0:0:0:0:
249,236,181924,1,0,0:0:0:0:
249,236,182007,1,8,0:0:0:0:
286,253,182090,1,8,0:0:0:0:
286,253,182174,1,8,0:0:0:0:
243,199,182257,1,8,0:0:0:0:
245,273,182340,5,0,0:0:0:0:
256,192,182840,12,0,184340,0:0:0:0:
271,257,185007,5,12,0:0:0:0:
271,257,185340,1,8,0:0:0:0:
271,257,185507,1,8,0:0:0:0:
271,257,185674,1,0,0:0:0:0:
271,257,186007,1,8,0:0:0:0:
271,257,186174,1,0,0:0:0:0:
271,257,186507,1,8,0:0:0:0:
271,257,186840,1,0,0:0:0:0:
271,257,187007,1,8,0:0:0:0:
271,257,187174,1,8,0:0:0:0:
271,257,187340,1,0,0:0:0:0:
271,257,187507,1,0,0:0:0:0:
271,257,187674,1,12,0:0:0:0:
264,284,188007,1,0,0:0:0:0:
264,284,188340,1,8,0:0:0:0:
264,284,188674,1,8,0:0:0:0:
264,284,188840,1,0,0:0:0:0:
264,284,189174,1,8,0:0:0:0:
264,284,189507,1,0,0:0:0:0:
264,284,189674,1,8,0:0:0:0:
264,284,189840,1,8,0:0:0:0:
264,284,190007,1,0,0:0:0:0:
264,284,190174,1,8,0:0:0:0:
264,284,190340,1,4,0:0:0:0:
287,287,190674,1,8,0:0:0:0:
287,287,190840,1,0,0:0:0:0:
287,287,191007,1,8,0:0:0:0:
287,285,191340,1,0,0:0:0:0:
287,287,191507,1,8,0:0:0:0:
287,287,191674,1,0,0:0:0:0:
287,287,191840,1,8,0:0:0:0:
287,285,192174,1,8,0:0:0:0:
287,285,192340,1,0,0:0:0:0:
270,295,192674,1,8,0:0:0:0:
270,295,192840,1,0,0:0:0:0:
270,295,193007,1,12,0:0:0:0:
270,295,193340,1,0,0:0:0:0:
270,295,193507,1,0,0:0:0:0:
270,295,193674,1,8,0:0:0:0:
270,295,194007,1,8,0:0:0:0:
270,295,194174,1,0,0:0:0:0:
270,295,194340,1,0,0:0:0:0:
270,295,194507,1,8,0:0:0:0:
270,295,194840,1,8,0:0:0:0:
270,295,195007,1,0,0:0:0:0:
265,235,195090,1,0,0:0:0:0:
270,295,195174,1,8,0:0:0:0:
268,243,195257,1,8,0:0:0:0:
270,295,195340,1,0,0:0:0:0:
270,295,195507,1,8,0:0:0:0:
270,295,195674,1,4,0:0:0:0:
271,222,195840,1,8,0:0:0:0:
271,222,195924,1,8,0:0:0:0:
271,222,196007,1,0,0:0:0:0:
271,222,196174,1,8,0:0:0:0:
271,222,196340,1,0,0:0:0:0:
271,222,196424,1,0,0:0:0:0:
246,153,196507,1,0,0:0:0:0:
246,153,196674,1,8,0:0:0:0:
255,241,196840,1,0,0:0:0:0:
256,239,196924,1,0,0:0:0:0:
255,241,197007,1,8,0:0:0:0:
246,240,197090,1,8,0:0:0:0:
244,240,197174,1,0,0:0:0:0:
284,304,197340,1,8,0:0:0:0:
356,271,197507,1,0,0:0:0:0:
311,283,197590,1,0,0:0:0:0:
311,283,197674,1,8,0:0:0:0:
314,276,197840,1,8,0:0:0:0:
275,222,197924,1,8,0:0:0:0:
275,222,198007,1,0,0:0:0:0:
315,273,198090,1,0,0:0:0:0:
315,273,198174,1,8,0:0:0:0:
293,294,198340,1,0,0:0:0:0:
291,282,198674,1,8,0:0:0:0:
291,282,198840,1,0,0:0:0:0:
276,274,198924,1,0,0:0:0:0:
291,282,199007,1,8,0:0:0:0:
288,297,199174,1,8,0:0:0:0:
288,297,199257,1,0,0:0:0:0:
307,248,199424,1,0,0:0:0:0:
284,291,199507,1,8,0:0:0:0:
286,284,199674,1,8,0:0:0:0:
286,284,199840,1,0,0:0:0:0:
278,282,200007,1,8,0:0:0:0:
293,218,200090,1,0,0:0:0:0:
293,218,200174,1,8,0:0:0:0:
293,218,200256,1,8,0:0:0:0:
421,308,200339,1,0,0:0:0:0:
291,189,200507,1,0,0:0:0:0:
291,189,200590,1,0,0:0:0:0:
291,189,200674,1,8,0:0:0:0:
291,189,200840,1,8,0:0:0:0:
291,198,201007,1,4,0:0:0:0:
295,248,201340,1,8,0:0:0:0:
287,252,201507,1,8,0:0:0:0:
287,252,201590,1,8,0:0:0:0:
286,252,201674,1,0,0:0:0:0:
286,252,201840,1,8,0:0:0:0:
286,253,202007,1,0,0:0:0:0:
284,254,202090,1,0,0:0:0:0:
284,254,202174,1,8,0:0:0:0:
282,255,202340,1,8,0:0:0:0:
245,298,202507,1,0,0:0:0:0:
245,298,202590,1,8,0:0:0:0:
245,298,202674,1,0,0:0:0:0:
245,298,202840,1,0,0:0:0:0:
245,298,203007,1,8,0:0:0:0:
245,298,203090,1,8,0:0:0:0:
278,275,203174,1,0,0:0:0:0:
287,288,203257,1,0,0:0:0:0:
286,288,203340,1,8,0:0:0:0:
275,273,203507,1,0,0:0:0:0:
271,294,203674,1,12,0:0:0:0:
259,260,204006,1,0,0:0:0:0:
246,247,204340,1,12,0:0:0:0:
310,304,204507,1,8,0:0:0:0:
301,304,204674,1,0,0:0:0:0:
301,304,204840,1,8,0:0:0:0:
301,304,204924,1,8,0:0:0:0:
301,304,205007,1,0,0:0:0:0:
301,304,205174,1,8,0:0:0:0:
301,304,205257,1,0,0:0:0:0:
300,304,205424,1,8,0:0:0:0:
300,304,205507,1,0,0:0:0:0:
328,313,205674,1,0,0:0:0:0:
328,313,205757,1,0,0:0:0:0:
328,313,205840,1,8,0:0:0:0:
328,313,206007,1,8,0:0:0:0:
330,308,206174,1,0,0:0:0:0:
314,306,206340,1,12,0:0:0:0:
313,313,206674,1,0,0:0:0:0:
278,232,206840,1,8,0:0:0:0:
278,232,206924,1,8,0:0:0:0:
313,313,207007,1,8,0:0:0:0:
281,293,207174,1,0,0:0:0:0:
281,293,207340,1,8,0:0:0:0:
289,291,207507,1,0,0:0:0:0:
286,291,207590,1,0,0:0:0:0:
281,293,207674,1,8,0:0:0:0:
281,293,207757,1,8,0:0:0:0:
281,293,207840,1,0,0:0:0:0:
281,293,208007,1,8,0:0:0:0:
275,300,208174,1,0,0:0:0:0:
267,294,208340,1,8,0:0:0:0:
267,294,208424,1,0,0:0:0:0:
267,294,208507,1,8,0:0:0:0:
266,294,208674,1,8,0:0:0:0:
266,294,208840,1,0,0:0:0:0:
256,288,209007,1,8,0:0:0:0:
256,288,209090,1,8,0:0:0:0:
256,288,209174,1,0,0:0:0:0:
255,290,209257,1,0,0:0:0:0:
255,291,209340,1,8,0:0:0:0:
255,292,209507,1,8,0:0:0:0:
262,298,209674,1,0,0:0:0:0:
262,298,209757,1,0,0:0:0:0:
260,298,209840,1,8,0:0:0:0:
259,298,210007,1,8,0:0:0:0:
259,298,210174,1,0,0:0:0:0:
271,306,210340,1,8,0:0:0:0:
271,306,210424,1,0,0:0:0:0:
264,306,210507,1,8,0:0:0:0:
264,304,210590,1,8,0:0:0:0:
263,304,210674,1,0,0:0:0:0:
234,291,210840,1,8,0:0:0:0:
234,291,210924,1,8,0:0:0:0:
263,306,211007,1,8,0:0:0:0:
223,304,211174,1,0,0:0:0:0:
280,274,211507,1,0,0:0:0:0:
255,266,211590,1,0,0:0:0:0:
255,266,211674,1,8,0:0:0:0:
271,294,211840,1,0,0:0:0:0:
271,298,212007,1,8,0:0:0:0:
270,288,212174,1,8,0:0:0:0:
270,288,212257,1,8,0:0:0:0:
269,288,212340,1,0,0:0:0:0:
268,287,212507,1,0,0:0:0:0:
268,284,212590,1,8,0:0:0:0:
261,278,212757,1,8,0:0:0:0:
261,278,212840,1,0,0:0:0:0:
261,278,213007,1,8,0:0:0:0:
258,280,213174,1,0,0:0:0:0:
232,233,213257,1,0,0:0:0:0:
258,280,213340,1,8,0:0:0:0:
246,276,213507,1,0,0:0:0:0:
247,275,213674,1,8,0:0:0:0:
244,292,213757,1,0,0:0:0:0:
241,290,213840,1,8,0:0:0:0:
241,290,213924,1,8,0:0:0:0:
241,290,214007,1,0,0:0:0:0:
247,273,214174,1,8,0:0:0:0:
300,268,214340,1,0,0:0:0:0:
238,223,214507,1,8,0:0:0:0:
273,227,214590,1,8,0:0:0:0:
282,233,214674,1,8,0:0:0:0:
238,223,214840,1,0,0:0:0:0:
273,221,215007,1,8,0:0:0:0:
273,221,215090,1,8,0:0:0:0:
273,221,215174,1,0,0:0:0:0:
271,221,215257,1,0,0:0:0:0:
269,222,215340,1,8,0:0:0:0:
265,223,215507,1,8,0:0:0:0:
256,192,215674,12,0,216840,0:0:0:0:
256,192,217007,12,0,218340,0:0:0:0:
256,192,220340,5,8,0:0:0:0:
256,222,220674,1,0,0:0:0:0:
246,209,220840,1,8,0:0:0:0:
246,211,221007,1,0,0:0:0:0:
256,192,221840,1,8,0:0:0:0:
256,192,222007,1,8,0:0:0:0:
256,192,222172,1,0,0:0:0:0:
256,192,223007,1,8,0:0:0:0:
256,192,223340,1,8,0:0:0:0:
256,192,223672,1,0,0:0:0:0:
256,192,224007,1,8,0:0:0:0:
256,192,225672,5,0,0:0:0:0:
256,192,225840,1,8,0:0:0:0:
256,192,226172,1,0,0:0:0:0:
256,192,227340,1,8,0:0:0:0:
256,192,227672,1,0,0:0:0:0:
256,192,228007,1,0,0:0:0:0:
256,192,228340,1,8,0:0:0:0:
256,192,228672,1,0,0:0:0:0:
256,192,229007,1,8,0:0:0:0:
256,192,229340,1,8,0:0:0:0:
256,192,229507,1,0,0:0:0:0:
256,192,229672,12,0,230839,0:0:0:0:
282,261,231672,5,0,0:0:0:0:
282,261,231757,1,0,0:0:0:0:
274,255,231840,1,0,0:0:0:0:
272,254,231922,1,0,0:0:0:0:
268,156,232007,1,8,0:0:0:0:
241,280,232172,1,8,0:0:0:0:
241,280,232340,1,0,0:0:0:0:
248,289,232422,1,0,0:0:0:0:
241,280,232507,1,0,0:0:0:0:
249,288,232590,1,0,0:0:0:0:
249,289,232672,1,8,0:0:0:0:
244,284,232840,1,8,0:0:0:0:
244,284,233007,1,4,0:0:0:0:
227,186,233340,1,0,0:0:0:0:
256,193,233423,1,0,0:0:0:0:
256,193,233507,1,8,0:0:0:0:
256,193,233673,1,8,0:0:0:0:
256,193,233840,1,0,0:0:0:0:
301,240,233923,1,8,0:0:0:0:
251,182,234007,1,0,0:0:0:0:
301,240,234090,1,0,0:0:0:0:
301,240,234173,1,8,0:0:0:0:
254,185,234340,1,0,0:0:0:0:
238,212,234507,1,8,0:0:0:0:
238,212,234590,1,0,0:0:0:0:
238,212,234673,1,8,0:0:0:0:
231,224,234840,1,8,0:0:0:0:
226,231,235007,1,0,0:0:0:0:
226,231,235090,1,0,0:0:0:0:
226,231,235173,1,0,0:0:0:0:
226,231,235257,1,0,0:0:0:0:
226,231,235340,1,8,0:0:0:0:
226,231,235505,1,8,0:0:0:0:
226,231,235673,1,0,0:0:0:0:
230,233,235840,1,8,0:0:0:0:
230,233,235923,1,8,0:0:0:0:
230,233,236005,1,0,0:0:0:0:
226,231,236173,1,8,0:0:0:0:
259,246,236340,1,0,0:0:0:0:
307,297,236505,1,8,0:0:0:0:
307,297,236590,1,0,0:0:0:0:
307,297,236673,1,8,0:0:0:0:
307,297,236755,1,8,0:0:0:0:
307,297,236840,1,0,0:0:0:0:
296,316,237005,1,8,0:0:0:0:
282,288,237173,1,0,0:0:0:0:
282,288,237255,1,0,0:0:0:0:
282,288,237340,1,8,0:0:0:0:
282,288,237505,1,0,0:0:0:0:
282,288,237673,1,8,0:0:0:0:
282,293,237840,1,8,0:0:0:0:
282,293,237923,1,8,0:0:0:0:
282,293,238005,1,0,0:0:0:0:
282,293,238090,1,0,0:0:0:0:
282,288,238173,1,8,0:0:0:0:
273,262,238340,1,4,0:0:0:0:
291,240,238673,1,8,0:0:0:0:
291,240,238755,1,8,0:0:0:0:
291,240,238840,1,0,0:0:0:0:
284,232,239005,1,8,0:0:0:0:
284,232,239090,1,8,0:0:0:0:
284,232,239173,1,0,0:0:0:0:
284,231,239340,1,8,0:0:0:0:
284,232,239423,1,8,0:0:0:0:
284,232,239505,1,0,0:0:0:0:
284,232,239673,1,12,0:0:0:0:
274,265,240005,1,0,0:0:0:0:
269,269,240090,1,0,0:0:0:0:
274,265,240173,1,8,0:0:0:0:
274,265,240340,1,0,0:0:0:0:
274,265,240423,1,0,0:0:0:0:
277,283,240505,1,8,0:0:0:0:
277,283,240673,1,0,0:0:0:0:
281,271,240755,1,0,0:0:0:0:
277,283,240840,1,8,0:0:0:0:
279,273,241005,1,4,0:0:0:0:
291,295,241340,1,8,0:0:0:0:
281,296,241423,1,8,0:0:0:0:
291,295,241505,1,0,0:0:0:0:
281,298,241590,1,0,0:0:0:0:
281,293,241673,1,8,0:0:0:0:
274,298,241840,1,0,0:0:0:0:
274,298,242005,1,8,0:0:0:0:
274,298,242090,1,0,0:0:0:0:
274,298,242173,1,8,0:0:0:0:
274,298,242340,1,8,0:0:0:0:
253,308,242505,1,0,0:0:0:0:
255,307,242590,1,0,0:0:0:0:
255,307,242673,1,8,0:0:0:0:
255,306,242755,1,8,0:0:0:0:
255,305,242840,1,0,0:0:0:0:
255,305,242923,1,0,0:0:0:0:
253,305,243005,1,8,0:0:0:0:
256,302,243173,1,0,0:0:0:0:
253,291,243255,1,0,0:0:0:0:
253,291,243340,1,8,0:0:0:0:
252,290,243505,1,8,0:0:0:0:
252,290,243672,1,4,0:0:0:0:
309,288,244005,1,0,0:0:0:0:
309,288,244173,1,0,0:0:0:0:
305,268,244340,1,8,0:0:0:0:
309,288,244505,1,0,0:0:0:0:
304,268,244673,1,8,0:0:0:0:
309,288,244840,1,0,0:0:0:0:
309,288,244923,1,0,0:0:0:0:
309,288,245005,1,8,0:0:0:0:
282,267,245090,1,8,0:0:0:0:
288,217,245173,1,0,0:0:0:0:
287,212,245255,1,0,0:0:0:0:
288,217,245340,1,8,0:0:0:0:
282,267,245505,1,0,0:0:0:0:
282,267,245590,1,0,0:0:0:0:
282,267,245673,1,8,0:0:0:0:
298,222,245840,1,0,0:0:0:0:
298,222,245923,1,0,0:0:0:0:
275,264,246005,1,8,0:0:0:0:
279,247,246173,1,8,0:0:0:0:
279,247,246340,1,4,0:0:0:0:
308,267,246673,1,8,0:0:0:0:
251,217,246840,1,0,0:0:0:0:
251,217,246923,1,0,0:0:0:0:
251,217,247005,1,8,0:0:0:0:
260,225,247173,1,0,0:0:0:0:
275,226,247255,1,0,0:0:0:0:
258,227,247340,1,8,0:0:0:0:
257,226,247423,1,8,0:0:0:0:
257,223,247505,1,0,0:0:0:0:
270,226,247673,1,8,0:0:0:0:
286,282,247840,1,0,0:0:0:0:
301,225,247922,1,0,0:0:0:0:
286,282,248005,1,8,0:0:0:0:
268,275,248173,1,0,0:0:0:0:
268,271,248340,1,8,0:0:0:0:
268,271,248423,1,8,0:0:0:0:
268,271,248505,1,0,0:0:0:0:
226,120,248590,1,0,0:0:0:0:
226,120,248673,1,8,0:0:0:0:
226,120,248840,1,0,0:0:0:0:
226,120,249005,1,8,0:0:0:0:
226,244,249172,1,8,0:0:0:0:
226,244,249255,1,0,0:0:0:0:
226,244,249340,1,8,0:0:0:0:
226,244,249422,1,8,0:0:0:0:
226,244,249505,1,0,0:0:0:0:
226,244,249672,1,8,0:0:0:0:
226,244,249840,1,0,0:0:0:0:
226,244,249922,1,0,0:0:0:0:
226,244,250005,1,8,0:0:0:0:
222,240,250090,1,8,0:0:0:0:
245,266,250173,1,0,0:0:0:0:
241,253,250340,1,8,0:0:0:0:
241,237,250451,1,8,0:0:0:0:
240,230,250562,1,8,0:0:0:0:
239,223,250673,1,8,0:0:0:0:
239,219,250783,1,8,0:0:0:0:
244,237,250894,1,8,0:0:0:0:
244,237,251005,1,0,0:0:0:0:
161,236,252505,1,0,0:0:0:0:
201,234,252590,1,0,0:0:0:0:
201,234,252672,1,0,0:0:0:0:
299,265,253005,1,12,0:0:0:0:
298,258,253173,1,0,0:0:0:0:
298,258,253255,1,0,0:0:0:0:
298,256,253340,1,8,0:0:0:0:
297,252,253505,1,0,0:0:0:0:
297,251,253673,1,8,0:0:0:0:
281,239,253840,1,8,0:0:0:0:
281,239,253923,1,0,0:0:0:0:
281,238,254005,1,8,0:0:0:0:
279,238,254090,1,8,0:0:0:0:
276,238,254173,1,0,0:0:0:0:
276,240,254340,1,8,0:0:0:0:
271,245,254505,1,0,0:0:0:0:
271,245,254590,1,0,0:0:0:0:
271,245,254673,1,8,0:0:0:0:
271,245,254840,1,0,0:0:0:0:
249,237,255005,1,8,0:0:0:0:
249,237,255090,1,8,0:0:0:0:
249,236,255173,1,0,0:0:0:0:
249,236,255255,1,0,0:0:0:0:
249,236,255340,1,8,0:0:0:0:
286,253,255423,1,8,0:0:0:0:
286,253,255505,1,8,0:0:0:0:
243,199,255590,1,8,0:0:0:0:
245,273,255673,5,0,0:0:0:0:
224,192,258850,1,12,0:0:0:0:
218,178,259555,1,8,0:0:0:0:
256,192,259908,1,8,0:0:0:0:
256,192,260261,1,0,0:0:0:0:
256,192,260614,1,8,0:0:0:0:
256,192,260967,1,0,0:0:0:0:
256,192,261320,1,8,0:0:0:0:
256,192,261673,1,0,0:0:0:0:
224,192,262379,1,0,0:0:0:0:
224,160,262732,1,0,0:0:0:0:
224,192,263085,1,8,0:0:0:0:
224,192,263438,1,0,0:0:0:0:
256,160,264026,1,8,0:0:0:0:
256,160,264379,1,0,0:0:0:0:
256,160,264497,1,8,0:0:0:0:
288,192,265555,1,8,0:0:0:0:
288,192,265732,1,0,0:0:0:0:
288,192,265908,1,8,0:0:0:0:
288,192,266261,1,0,0:0:0:0:
288,192,266614,1,8,0:0:0:0:
256,192,267320,1,0,0:0:0:0:
256,192,268202,1,0,0:0:0:0:
256,192,268291,1,0,0:0:0:0:
256,192,268379,1,8,0:0:0:0:
