osu file format v14

[General]
AudioFilename: audio.ogg
AudioLeadIn: 0
PreviewTime: 52680
Countdown: 0
SampleSet: Soft
StackLeniency: 0.7
Mode: 3
LetterboxInBreaks: 0
SpecialStyle: 0
WidescreenStoryboard: 1

[Editor]
DistanceSpacing: 0.8
BeatDivisor: 6
GridSize: 32
TimelineZoom: 2.700001

[Metadata]
Title:Viyella's Scream
TitleUnicode:Viyella's Scream
Artist:Laur
ArtistUnicode:Laur
Creator:deta5859
Version:Touru's MASTER
Source:オンゲキ R.E.D.
Tags:FAMoss Touru0711 _Rokii MarioUniverseZ Syadow- 音击 音擊 Ongeki 星咲 あかり Hoshizaki Akari HARDCORE TANOC TANO*C Video Game Electronic Instrumental Metal Japan Orchestral Piano Violin EDM
BeatmapID:2958637
BeatmapSetID:1419506

[Difficulty]
HPDrainRate:8
CircleSize:4
OverallDifficulty:7.2
ApproachRate:5
SliderMultiplier:1.4
SliderTickRate:1

[Events]
//Background and Video events
0,0,"8TdsGrZE_4x.jpg",0,0
//Break Periods
//Storyboard Layer 0 (Background)
//Storyboard Layer 1 (Fail)
//Storyboard Layer 2 (Pass)
//Storyboard Layer 3 (Foreground)
//Storyboard Layer 4 (Overlay)
//Storyboard Sound Samples
Sample,147417,0,"SFX Wobble Drop.wav",100

[TimingPoints]
49,263.157894736842,4,2,1,70,1,0
52680,-100,4,2,1,70,0,1
71627,-100,4,2,1,70,0,0
124259,-100,4,2,1,70,0,1
138996,-100,4,2,1,70,0,0

[HitObjects]
448,192,49,128,0,312:0:0:0:0:
320,192,180,128,0,312:0:0:0:0:
192,192,246,128,0,312:0:0:0:0:
64,192,312,128,0,619:0:0:0:0:
320,192,619,1,0,0:0:0:0:
320,192,706,128,0,838:0:0:0:0:
64,192,904,1,0,0:0:0:0:
192,192,937,1,0,0:0:0:0:
320,192,970,1,0,0:0:0:0:
448,192,1002,1,0,0:0:0:0:
64,192,1035,1,0,0:0:0:0:
192,192,1068,1,0,0:0:0:0:
320,192,1101,1,0,0:0:0:0:
64,192,1167,1,0,0:0:0:0:
192,192,1233,1,0,0:0:0:0:
448,192,1298,1,0,0:0:0:0:
320,192,1364,1,0,0:0:0:0:
64,192,1430,1,0,0:0:0:0:
192,192,1496,1,0,0:0:0:0:
320,192,1562,1,0,0:0:0:0:
448,192,1627,1,0,0:0:0:0:
192,192,1693,1,0,0:0:0:0:
64,192,1759,1,0,0:0:0:0:
320,192,1825,1,0,0:0:0:0:
192,192,1891,1,0,0:0:0:0:
64,192,1956,1,0,0:0:0:0:
448,192,2022,1,0,0:0:0:0:
320,192,2088,1,0,0:0:0:0:
64,192,2154,128,4,4193:0:0:0:0:
192,192,2154,1,2,0:0:0:0:
448,192,3206,128,0,4193:0:0:0:0:
64,192,4259,128,2,4325:0:0:0:0:
192,192,4259,128,4,4325:0:0:0:0:
448,192,4259,1,0,0:0:0:70:LR_Air Dart Snare.wav
192,192,4522,128,0,4588:0:0:0:70:LR_Snare Drum 2.wav
448,192,4522,128,0,4588:0:0:0:0:
64,192,4785,128,0,4851:0:0:0:70:LR_Snare Drum.wav
320,192,4785,128,0,4851:0:0:0:0:
320,192,5048,128,0,5114:0:0:0:70:LR_Snare Drum 2.wav
448,192,5048,128,0,5114:0:0:0:0:
64,192,5312,128,0,5377:0:0:0:70:LR_Snare Drum 2.wav
192,192,5312,128,0,5377:0:0:0:0:
192,192,5575,128,0,5641:0:0:0:70:LR_Snare Drum.wav
448,192,5575,128,0,5641:0:0:0:0:
64,192,5838,128,0,5904:0:0:0:70:LR_Snare Drum.wav
320,192,5838,128,0,5904:0:0:0:0:
320,192,6101,128,0,6167:0:0:0:70:LR_Snare Drum.wav
448,192,6101,128,0,6167:0:0:0:0:
64,192,6364,128,0,6430:0:0:0:70:LR_Air Dart Snare.wav
192,192,6364,128,0,6430:0:0:0:0:
192,192,6627,128,0,6693:0:0:0:70:LR_Snare Drum 2.wav
448,192,6627,128,0,6693:0:0:0:0:
448,192,6759,1,0,0:0:0:70:LR_Snare Drum 2.wav
64,192,6891,128,0,6956:0:0:0:70:LR_Snare Drum.wav
320,192,6891,128,0,6956:0:0:0:0:
64,192,7022,1,0,0:0:0:70:LR_Snare Drum 2.wav
320,192,7154,128,0,7220:0:0:0:70:LR_Snare Drum 2.wav
448,192,7154,128,0,7220:0:0:0:0:
64,192,7417,128,0,7483:0:0:0:70:LR_Snare Drum 2.wav
448,192,7417,128,0,7483:0:0:0:0:
64,192,7680,128,0,7746:0:0:0:70:LR_Snare Drum.wav
192,192,7680,128,0,7746:0:0:0:0:
192,192,7943,128,0,8009:0:0:0:70:LR_Snare Drum.wav
448,192,7943,128,0,8009:0:0:0:0:
64,192,8206,128,0,8272:0:0:0:70:LR_Snare Drum.wav
320,192,8206,128,0,8272:0:0:0:0:
64,192,8470,128,0,8535:0:0:0:70:LR_Air Dart Snare.wav
192,192,8470,128,0,8535:0:0:0:0:
448,192,8470,1,0,0:0:0:0:
192,192,8733,128,0,8798:0:0:0:70:LR_Snare Drum 2.wav
448,192,8733,128,0,8798:0:0:0:0:
448,192,8864,1,0,0:0:0:70:LR_Snare Drum 2.wav
64,192,8996,128,0,9062:0:0:0:70:LR_Snare Drum.wav
320,192,8996,128,0,9062:0:0:0:0:
64,192,9127,1,0,0:0:0:70:LR_Snare Drum 2.wav
320,192,9259,128,0,9325:0:0:0:70:LR_Snare Drum 2.wav
448,192,9259,128,0,9325:0:0:0:0:
64,192,9522,128,0,9588:0:0:0:70:LR_Snare Drum 2.wav
192,192,9522,128,0,9588:0:0:0:0:
64,192,9654,1,0,0:0:0:70:LR_Snare Drum 2.wav
192,192,9785,128,0,9851:0:0:0:70:LR_Snare Drum.wav
448,192,9785,128,0,9851:0:0:0:0:
448,192,9917,1,0,0:0:0:70:LR_Snare Drum 2.wav
64,192,10048,128,0,10114:0:0:0:70:LR_Snare Drum.wav
320,192,10048,128,0,10114:0:0:0:0:
320,192,10312,128,0,10377:0:0:0:70:LR_Snare Drum.wav
448,192,10312,128,0,10377:0:0:0:0:
64,192,10575,128,0,10641:0:0:0:70:LR_Air Dart Snare.wav
192,192,10575,128,0,10641:0:0:0:0:
192,192,10838,128,0,10904:0:0:0:70:LR_Snare Drum 2.wav
448,192,10838,128,0,10904:0:0:0:0:
448,192,10970,1,0,0:0:0:70:LR_Snare Drum 2.wav
64,192,11101,128,0,11167:0:0:0:70:LR_Snare Drum.wav
320,192,11101,128,0,11167:0:0:0:0:
64,192,11233,1,0,0:0:0:70:LR_Snare Drum 2.wav
320,192,11364,128,0,11430:0:0:0:70:LR_Snare Drum 2.wav
448,192,11364,128,0,11430:0:0:0:0:
64,192,11627,128,0,11693:0:0:0:70:LR_Snare Drum 2.wav
448,192,11627,128,0,11693:0:0:0:0:
448,192,11759,1,0,0:0:0:70:LR_Snare Drum 2.wav
64,192,11891,128,0,11956:0:0:0:70:LR_Snare Drum.wav
192,192,11891,128,0,11956:0:0:0:0:
64,192,12022,1,0,0:0:0:70:LR_Snare Drum 2.wav
192,192,12154,128,0,12220:0:0:0:70:LR_Snare Drum.wav
448,192,12154,128,0,12220:0:0:0:0:
448,192,12285,1,0,0:0:0:0:
64,192,12417,128,0,12483:0:0:0:70:LR_Snare Drum.wav
320,192,12417,128,0,12483:0:0:0:0:
64,192,12680,1,0,0:0:0:70:LR_Air Dart Snare.wav
192,192,12680,1,0,0:0:0:0:
448,192,12680,1,0,0:0:0:0:
192,192,12943,1,0,0:0:0:70:LR_Snare Drum 2.wav
448,192,12943,1,0,0:0:0:0:
320,192,13075,1,0,0:0:0:0:
64,192,13206,1,0,0:0:0:70:LR_Snare Drum.wav
448,192,13206,1,0,0:0:0:0:
192,192,13338,1,0,0:0:0:0:
320,192,13470,1,0,0:0:0:70:LR_Snare Drum 2.wav
448,192,13470,1,0,0:0:0:0:
64,192,13733,1,0,0:0:0:70:LR_Snare Drum 2.wav
192,192,13733,1,0,0:0:0:0:
448,192,13864,1,0,0:0:0:70:LR_Snare Drum 2.wav
64,192,13996,1,0,0:0:0:70:LR_Snare Drum.wav
320,192,13996,1,0,0:0:0:0:
192,192,14127,1,0,0:0:0:70:LR_Snare Drum 2.wav
320,192,14259,1,0,0:0:0:70:LR_Snare Drum.wav
448,192,14259,1,0,0:0:0:0:
64,192,14391,1,0,0:0:0:70:LR_Snare Drum 2.wav
192,192,14522,1,0,0:0:0:70:LR_Snare Drum.wav
448,192,14522,1,0,0:0:0:0:
320,192,14654,1,0,0:0:0:70:LR_Snare Drum 2.wav
64,192,14785,1,0,0:0:0:70:LR_Air Dart Snare.wav
448,192,14785,1,0,0:0:0:0:
192,192,14917,1,0,0:0:0:0:
320,192,15048,1,0,0:0:0:70:LR_Snare Drum 2.wav
448,192,15048,1,0,0:0:0:0:
64,192,15180,1,0,0:0:0:70:LR_Snare Drum 2.wav
192,192,15312,1,0,0:0:0:70:LR_Snare Drum.wav
448,192,15312,1,0,0:0:0:0:
320,192,15443,1,0,0:0:0:70:LR_Snare Drum 2.wav
64,192,15575,1,0,0:0:0:70:LR_Snare Drum.wav
192,192,15575,1,0,0:0:0:0:
448,192,15706,1,0,0:0:0:0:
64,192,15838,1,0,0:0:0:70:LR_Snare Drum 2.wav
320,192,15838,1,0,0:0:0:0:
192,192,15970,1,0,0:0:0:70:LR_Snare Drum 2.wav
64,192,16101,1,0,0:0:0:70:LR_Snare Drum.wav
448,192,16101,1,0,0:0:0:0:
320,192,16233,1,0,0:0:0:70:LR_Snare Drum 2.wav
192,192,16364,1,0,0:0:0:70:LR_Snare Drum.wav
448,192,16364,1,0,0:0:0:0:
64,192,16496,1,0,0:0:0:70:LR_Snare Drum 2.wav
320,192,16627,1,0,0:0:0:70:LR_Snare Drum.wav
448,192,16627,1,0,0:0:0:0:
192,192,16759,1,0,0:0:0:70:LR_Snare Drum 2.wav
64,192,16891,1,0,0:0:0:70:LR_Air Dart Snare.wav
320,192,16891,1,0,0:0:0:0:
448,192,17022,1,0,0:0:0:70:LR_Snare Drum 2.wav
64,192,17154,1,0,0:0:0:70:LR_Snare Drum.wav
320,192,17154,1,0,0:0:0:0:
192,192,17285,1,0,0:0:0:70:LR_Snare Drum 2.wav
64,192,17417,1,0,0:0:0:70:LR_Snare Drum.wav
320,192,17417,1,0,0:0:0:0:
448,192,17548,1,0,0:0:0:0:
64,192,17680,1,0,0:0:0:70:LR_Snare Drum 2.wav
320,192,17680,1,0,0:0:0:0:
192,192,17812,1,0,0:0:0:0:
320,192,17943,1,0,0:0:0:70:LR_Snare Drum 2.wav
448,192,17943,1,0,0:0:0:0:
64,192,18075,1,0,0:0:0:70:LR_Snare Drum 2.wav
320,192,18206,1,0,0:0:0:70:LR_Snare Drum.wav
448,192,18206,1,0,0:0:0:0:
192,192,18338,1,0,0:0:0:70:LR_Snare Drum 2.wav
320,192,18470,1,0,0:0:0:70:LR_Snare Drum.wav
448,192,18470,1,0,0:0:0:0:
192,192,18601,1,0,0:0:0:70:LR_Snare Drum 2.wav
64,192,18733,1,0,0:0:0:70:LR_Snare Drum.wav
192,192,18766,1,0,0:0:0:0:
320,192,18798,1,0,0:0:0:0:
448,192,18831,1,0,0:0:0:0:
64,192,18864,1,0,0:0:0:0:
192,192,18897,1,0,0:0:0:0:
320,192,18930,1,0,0:0:0:0:
448,192,18963,1,0,0:0:0:0:
64,192,18996,1,0,0:0:0:0:
192,192,19062,1,0,0:0:0:0:
448,192,19127,1,0,0:0:0:0:
320,192,19193,1,0,0:0:0:0:
192,192,19259,1,0,0:0:0:0:
64,192,19325,1,0,0:0:0:0:
320,192,19391,1,0,0:0:0:0:
448,192,19456,1,0,0:0:0:0:
64,192,19522,1,0,0:0:0:0:
192,192,19588,1,0,0:0:0:0:
448,192,19654,1,0,0:0:0:0:
320,192,19720,1,0,0:0:0:0:
192,192,19785,1,0,0:0:0:0:
64,192,19851,1,0,0:0:0:0:
448,192,19917,1,0,0:0:0:0:
320,192,19983,1,0,0:0:0:0:
64,192,20048,128,4,21101:0:0:0:0:
192,192,20048,1,2,0:0:0:0:
192,192,21101,1,2,0:0:0:0:
320,192,21101,1,4,0:0:0:0:
448,192,21101,128,0,21233:0:0:0:0:
64,192,21233,1,0,0:0:0:0:
320,192,21364,1,2,0:0:0:0:
448,192,21364,128,8,21496:0:0:0:0:
192,192,21496,1,0,0:0:0:0:
320,192,21627,1,2,0:0:0:0:
448,192,21627,1,0,0:0:0:0:
64,192,21693,1,0,0:0:0:0:
192,192,21759,1,0,0:0:0:0:
320,192,21825,1,0,0:0:0:0:
64,192,21891,1,2,0:0:0:0:
448,192,21891,1,8,0:0:0:0:
192,192,21956,1,0,0:0:0:0:
320,192,22022,1,0,0:0:0:0:
448,192,22088,1,0,0:0:0:0:
192,192,22154,1,2,0:0:0:0:
320,192,22154,1,0,0:0:0:0:
64,192,22220,1,0,0:0:0:0:
448,192,22285,1,0,0:0:0:0:
64,192,22351,1,0,0:0:0:0:
192,192,22417,1,8,0:0:0:0:
448,192,22417,1,2,0:0:0:0:
320,192,22483,1,0,0:0:0:0:
192,192,22548,1,0,0:0:0:0:
64,192,22614,1,0,0:0:0:0:
320,192,22680,1,2,0:0:0:0:
448,192,22680,1,0,0:0:0:0:
192,192,22746,1,0,0:0:0:0:
64,192,22812,1,0,0:0:0:0:
320,192,22877,1,0,0:0:0:0:
192,192,22943,1,8,0:0:0:0:
448,192,22943,1,2,0:0:0:0:
64,192,23009,1,0,0:0:0:0:
320,192,23075,1,0,0:0:0:0:
192,192,23141,1,0,0:0:0:0:
64,192,23206,128,2,23338:0:0:0:0:
320,192,23206,1,4,0:0:0:0:
448,192,23206,1,0,0:0:0:0:
192,192,23338,1,0,0:0:0:0:
64,192,23470,128,2,23601:0:0:0:0:
448,192,23470,1,8,0:0:0:0:
320,192,23601,1,0,0:0:0:0:
64,192,23733,1,2,0:0:0:0:
192,192,23733,1,0,0:0:0:0:
320,192,23864,1,0,0:0:0:0:
192,192,23996,1,2,0:0:0:0:
448,192,23996,128,8,24062:0:0:0:0:
320,192,24062,128,0,24127:0:0:0:0:
64,192,24127,128,0,24193:0:0:0:0:
192,192,24193,128,0,24259:0:0:0:0:
320,192,24259,1,2,0:0:0:0:
448,192,24259,1,0,0:0:0:0:
64,192,24325,128,0,24391:0:0:0:0:
192,192,24391,128,0,24456:0:0:0:0:
64,192,24456,128,0,24522:0:0:0:0:
192,192,24522,1,8,0:0:0:0:
320,192,24522,1,2,0:0:0:0:
448,192,24588,128,0,24654:0:0:0:0:
320,192,24654,128,0,24720:0:0:0:0:
448,192,24720,128,0,24785:0:0:0:0:
64,192,24785,1,2,0:0:0:0:
192,192,24785,128,0,24917:0:0:0:0:
320,192,24917,1,0,0:0:0:0:
64,192,25048,1,8,0:0:0:0:
448,192,25048,128,2,25180:0:0:0:0:
64,192,25180,1,2,0:0:0:0:
192,192,25180,1,0,0:0:0:0:
320,192,25246,1,2,0:0:0:0:
448,192,25246,1,0,0:0:0:0:
64,192,25312,128,4,25443:0:0:0:0:
192,192,25312,1,2,0:0:0:0:
320,192,25443,1,0,0:0:0:0:
64,192,25575,128,8,25706:0:0:0:0:
448,192,25575,1,2,0:0:0:0:
192,192,25706,1,0,0:0:0:0:
320,192,25838,1,2,0:0:0:0:
448,192,25838,1,0,0:0:0:0:
64,192,25904,1,0,0:0:0:0:
192,192,25970,1,0,0:0:0:0:
320,192,26035,1,0,0:0:0:0:
64,192,26101,1,8,0:0:0:0:
448,192,26101,1,2,0:0:0:0:
192,192,26167,1,0,0:0:0:0:
320,192,26233,1,0,0:0:0:0:
448,192,26298,1,0,0:0:0:0:
192,192,26364,1,2,0:0:0:0:
320,192,26364,1,0,0:0:0:0:
64,192,26430,1,0,0:0:0:0:
448,192,26496,1,0,0:0:0:0:
64,192,26562,1,0,0:0:0:0:
192,192,26627,1,2,0:0:0:0:
448,192,26627,1,8,0:0:0:0:
320,192,26693,1,0,0:0:0:0:
192,192,26759,1,0,0:0:0:0:
64,192,26825,1,0,0:0:0:0:
320,192,26891,1,2,0:0:0:0:
448,192,26891,1,0,0:0:0:0:
192,192,26956,1,0,0:0:0:0:
64,192,27022,1,2,0:0:0:0:
448,192,27022,1,0,0:0:0:0:
320,192,27088,1,0,0:0:0:0:
64,192,27154,1,2,0:0:0:0:
192,192,27154,1,8,0:0:0:0:
320,192,27285,1,2,0:0:0:0:
448,192,27285,1,0,0:0:0:0:
192,192,27351,1,2,0:0:0:0:
64,192,27417,128,2,27680:0:0:0:0:
448,192,27417,128,4,27680:0:0:0:0:
192,192,27680,1,2,0:0:0:0:
320,192,27680,1,8,0:0:0:0:
64,192,27812,1,2,0:0:0:0:
448,192,27812,1,0,0:0:0:0:
320,192,27943,1,2,0:0:0:0:
192,192,28009,1,2,0:0:0:0:
320,192,28075,1,2,0:0:0:0:
192,192,28141,1,2,0:0:0:0:
320,192,28206,1,2,0:0:0:0:
448,192,28206,1,8,0:0:0:0:
64,192,28272,1,2,0:0:0:0:
192,192,28272,1,0,0:0:0:0:
320,192,28338,1,2,0:0:0:0:
448,192,28338,1,0,0:0:0:0:
64,192,28404,1,2,0:0:0:0:
192,192,28404,1,0,0:0:0:0:
64,192,28601,128,2,28733:0:0:0:0:
320,192,28601,128,0,28733:0:0:0:50:cymbal_s.wav
448,192,28601,128,0,28733:0:0:0:0:
64,192,28798,128,2,28930:0:0:0:0:
320,192,28798,128,0,28930:0:0:0:50:cymbal_s.wav
448,192,28798,128,0,28930:0:0:0:0:
64,192,28996,128,2,29127:0:0:0:0:
320,192,28996,128,0,29127:0:0:0:50:cymbal_s.wav
448,192,28996,128,0,29127:0:0:0:0:
64,192,29193,128,2,29325:0:0:0:0:
320,192,29193,128,0,29325:0:0:0:50:cymbal_s.wav
448,192,29193,128,0,29325:0:0:0:0:
64,192,29391,1,2,0:0:0:0:
192,192,29391,1,0,0:0:0:0:
320,192,29456,1,2,0:0:0:0:
448,192,29456,1,0,0:0:0:0:
64,192,29522,128,4,29588:0:0:0:0:
192,192,29522,1,2,0:0:0:0:
448,192,29654,1,0,0:0:0:0:
192,192,29785,1,8,0:0:0:0:
320,192,29785,128,2,29851:0:0:0:0:
64,192,29917,1,0,0:0:0:0:
192,192,30048,128,2,30114:0:0:0:0:
448,192,30048,1,0,0:0:0:0:
320,192,30180,1,0,0:0:0:0:
64,192,30312,1,8,0:0:0:0:
448,192,30312,128,2,30377:0:0:0:0:
192,192,30443,1,0,0:0:0:0:
64,192,30575,128,2,30641:0:0:0:0:
320,192,30575,1,0,0:0:0:0:
448,192,30706,1,0,0:0:0:0:
192,192,30838,1,2,0:0:0:0:
320,192,30838,128,8,30904:0:0:0:0:
64,192,30970,1,0,0:0:0:0:
192,192,31101,128,2,31167:0:0:0:0:
448,192,31101,1,0,0:0:0:0:
320,192,31233,1,0,0:0:0:0:
64,192,31364,1,2,0:0:0:0:
448,192,31364,128,8,31430:0:0:0:0:
192,192,31496,1,0,0:0:0:0:
64,192,31627,128,2,31693:0:0:0:0:
320,192,31627,1,0,0:0:0:0:
448,192,31759,1,0,0:0:0:0:
192,192,31891,1,8,0:0:0:0:
320,192,31891,128,2,31956:0:0:0:0:
64,192,32022,1,0,0:0:0:0:
192,192,32154,128,2,32220:0:0:0:0:
448,192,32154,1,0,0:0:0:0:
320,192,32285,1,0,0:0:0:0:
64,192,32417,1,8,0:0:0:0:
448,192,32417,128,2,32483:0:0:0:0:
192,192,32548,1,0,0:0:0:0:
64,192,32680,128,2,32746:0:0:0:0:
448,192,32680,128,0,32746:0:0:0:0:
320,192,32812,1,0,0:0:0:0:
64,192,32943,128,2,33009:0:0:0:0:
192,192,32943,1,8,0:0:0:0:
448,192,33075,1,0,0:0:0:0:
192,192,33206,1,2,0:0:0:0:
320,192,33206,128,0,33272:0:0:0:0:
320,192,33338,1,2,0:0:0:0:
448,192,33338,1,0,0:0:0:0:
64,192,33470,1,2,0:0:0:0:
192,192,33470,128,8,33535:0:0:0:0:
320,192,33535,1,2,0:0:0:0:
448,192,33535,1,0,0:0:0:0:
64,192,33601,1,2,0:0:0:0:
192,192,33601,1,0,0:0:0:0:
320,192,33667,1,2,0:0:0:0:
64,192,33733,128,2,33864:0:0:0:0:
192,192,33733,128,4,33864:0:0:0:0:
448,192,33733,128,0,33864:0:0:0:0:
320,192,33864,1,2,0:0:0:0:
64,192,33996,128,2,34127:0:0:0:0:
192,192,33996,128,8,34127:0:0:0:0:
448,192,33996,128,0,34127:0:0:0:0:
320,192,34127,1,2,0:0:0:0:
64,192,34259,128,2,34391:0:0:0:0:
192,192,34259,128,4,34391:0:0:0:0:
448,192,34259,128,0,34391:0:0:0:0:
320,192,34391,1,2,0:0:0:0:
64,192,34522,128,2,34654:0:0:0:0:
192,192,34522,128,8,34654:0:0:0:0:
448,192,34522,128,0,34654:0:0:0:0:
320,192,34654,1,2,0:0:0:0:
192,192,34720,1,2,0:0:0:0:
64,192,34785,128,4,34917:0:0:0:0:
320,192,34785,128,2,34917:0:0:0:0:
448,192,34785,128,0,34917:0:0:0:0:
192,192,34917,1,2,0:0:0:0:
64,192,35048,128,8,35180:0:0:0:0:
320,192,35048,128,2,35180:0:0:0:0:
448,192,35048,128,0,35180:0:0:0:0:
192,192,35180,1,2,0:0:0:0:
320,192,35246,1,2,0:0:0:0:
192,192,35312,1,6,0:0:0:0:
320,192,35377,1,2,0:0:0:0:
192,192,35443,1,2,0:0:0:0:
320,192,35509,1,2,0:0:0:0:
64,192,35575,1,8,0:0:0:0:
192,192,35575,1,2,0:0:0:0:
320,192,35641,1,2,0:0:0:0:
448,192,35641,1,0,0:0:0:0:
64,192,35706,1,2,0:0:0:0:
192,192,35706,1,0,0:0:0:0:
320,192,35772,1,2,0:0:0:0:
448,192,35772,1,0,0:0:0:0:
64,192,35838,1,4,0:0:0:0:
192,192,35838,1,2,0:0:0:0:
448,192,35904,1,0,0:0:0:0:
64,192,35970,1,0,0:0:0:0:
192,192,36035,1,0,0:0:0:0:
320,192,36101,1,0,0:0:0:0:
448,192,36167,1,0,0:0:0:0:
192,192,36233,1,0,0:0:0:0:
320,192,36298,1,0,0:0:0:0:
64,192,36364,1,0,0:0:0:0:
192,192,36430,1,0,0:0:0:0:
320,192,36496,1,0,0:0:0:0:
448,192,36562,1,0,0:0:0:0:
192,192,36627,1,0,0:0:0:0:
64,192,36693,1,0,0:0:0:0:
448,192,36759,1,0,0:0:0:0:
320,192,36825,1,0,0:0:0:0:
192,192,36891,1,0,0:0:0:0:
64,192,36956,1,0,0:0:0:0:
448,192,37022,1,0,0:0:0:0:
320,192,37088,1,0,0:0:0:0:
192,192,37154,1,0,0:0:0:0:
64,192,37220,1,0,0:0:0:0:
448,192,37285,1,0,0:0:0:0:
320,192,37351,1,0,0:0:0:0:
64,192,37417,128,4,37943:0:0:0:0:
192,192,37417,1,2,0:0:0:0:
192,192,37943,1,4,0:0:0:0:
320,192,37943,128,2,38075:0:0:0:0:
448,192,37943,128,0,38075:0:0:0:0:
64,192,38075,1,0,0:0:0:0:
192,192,38206,1,0,0:0:0:70:Drumstart_040.wav
448,192,38206,1,0,0:0:0:0:
320,192,38338,1,0,0:0:0:0:
64,192,38470,1,0,0:0:0:70:Drumstart_040.wav
192,192,38513,1,0,0:0:0:0:
448,192,38557,1,0,0:0:0:0:
320,192,38601,1,0,0:0:0:70:Drumstart_041.wav
64,192,38645,1,0,0:0:0:0:
192,192,38689,1,0,0:0:0:0:
320,192,38733,1,0,0:0:0:70:amenbreak_snare1.wav
448,192,38733,1,0,0:0:0:0:
192,192,38864,1,0,0:0:0:0:
64,192,38996,1,4,0:0:0:0:
320,192,38996,128,2,39127:0:0:0:0:
448,192,38996,128,0,39127:0:0:0:0:
192,192,39127,1,0,0:0:0:0:
64,192,39259,1,0,0:0:0:70:Drumstart_040.wav
448,192,39259,1,0,0:0:0:0:
320,192,39391,1,0,0:0:0:0:
64,192,39522,1,0,0:0:0:70:Drumstart_040.wav
192,192,39566,1,0,0:0:0:0:
448,192,39610,1,0,0:0:0:0:
320,192,39654,1,0,0:0:0:70:Drumstart_041.wav
64,192,39698,1,0,0:0:0:0:
192,192,39741,1,0,0:0:0:0:
320,192,39785,1,0,0:0:0:0:
448,192,39785,1,0,0:0:0:0:
192,192,39917,1,0,0:0:0:70:Drumstart_040.wav
64,192,40048,1,4,0:0:0:0:
320,192,40048,128,2,40180:0:0:0:0:
448,192,40048,128,0,40180:0:0:0:0:
192,192,40180,1,0,0:0:0:0:
64,192,40312,1,0,0:0:0:70:Drumstart_040.wav
320,192,40312,1,0,0:0:0:0:
448,192,40443,1,0,0:0:0:0:
64,192,40575,1,0,0:0:0:70:Drumstart_040.wav
192,192,40619,1,0,0:0:0:70:Drumstart_040.wav
448,192,40663,1,0,0:0:0:70:Drumstart_040.wav
320,192,40706,1,0,0:0:0:70:Drumstart_040.wav
64,192,40750,1,0,0:0:0:70:Drumstart_040.wav
192,192,40794,1,0,0:0:0:70:Drumstart_040.wav
320,192,40838,1,0,0:0:0:70:amenbreak_snare1.wav
448,192,40838,1,0,0:0:0:0:
64,192,40970,1,0,0:0:0:70:Drumstart_041.wav
192,192,41101,128,4,41233:0:0:0:0:
320,192,41101,128,2,41233:0:0:0:0:
448,192,41101,128,0,41233:0:0:0:0:
64,192,41364,128,4,41496:0:0:0:0:
192,192,41364,128,2,41496:0:0:0:0:
320,192,41364,128,8,41496:0:0:0:0:
64,192,41627,128,4,41759:0:0:0:0:
320,192,41627,128,2,41759:0:0:0:0:
448,192,41627,128,0,41759:0:0:0:0:
64,192,41891,128,4,42022:0:0:0:0:
192,192,41891,128,2,42022:0:0:0:0:
448,192,41891,128,8,42022:0:0:0:0:
64,192,42154,128,4,42285:0:0:0:0:
192,192,42154,128,2,42285:0:0:0:0:
320,192,42154,1,0,0:0:0:0:
448,192,42285,1,0,0:0:0:0:
64,192,42417,1,0,0:0:0:70:Drumstart_040.wav
320,192,42417,1,0,0:0:0:0:
192,192,42548,1,0,0:0:0:0:
320,192,42680,1,0,0:0:0:70:Drumstart_040.wav
448,192,42724,1,0,0:0:0:0:
192,192,42768,1,0,0:0:0:0:
64,192,42812,1,0,0:0:0:70:Drumstart_041.wav
320,192,42856,1,0,0:0:0:0:
448,192,42899,1,0,0:0:0:0:
64,192,42943,1,0,0:0:0:70:amenbreak_snare1.wav
192,192,42943,1,0,0:0:0:0:
320,192,43075,1,0,0:0:0:0:
64,192,43206,128,4,43338:0:0:0:0:
192,192,43206,128,2,43338:0:0:0:0:
448,192,43206,1,0,0:0:0:0:
320,192,43338,1,0,0:0:0:0:
64,192,43470,1,0,0:0:0:70:Drumstart_040.wav
448,192,43470,1,0,0:0:0:0:
192,192,43601,1,0,0:0:0:0:
320,192,43733,1,0,0:0:0:70:Drumstart_040.wav
448,192,43777,1,0,0:0:0:0:
192,192,43820,1,0,0:0:0:0:
64,192,43864,1,0,0:0:0:70:Drumstart_041.wav
320,192,43908,1,0,0:0:0:0:
448,192,43952,1,0,0:0:0:0:
64,192,43996,1,0,0:0:0:0:
192,192,43996,1,0,0:0:0:0:
320,192,44127,1,0,0:0:0:70:Drumstart_040.wav
64,192,44259,128,4,44391:0:0:0:0:
192,192,44259,128,2,44391:0:0:0:0:
448,192,44259,1,0,0:0:0:0:
320,192,44391,1,0,0:0:0:0:
64,192,44522,1,0,0:0:0:70:Drumstart_040.wav
192,192,44522,1,0,0:0:0:0:
448,192,44654,1,0,0:0:0:0:
192,192,44785,1,0,0:0:0:70:Drumstart_040.wav
64,192,44829,1,0,0:0:0:70:Drumstart_040.wav
320,192,44873,1,0,0:0:0:70:Drumstart_040.wav
448,192,44917,1,0,0:0:0:70:Drumstart_041.wav
192,192,44961,1,0,0:0:0:70:Drumstart_040.wav
64,192,45005,1,0,0:0:0:70:Drumstart_040.wav
320,192,45048,1,0,0:0:0:70:Drumstart_040.wav
448,192,45048,1,0,0:0:0:0:
192,192,45180,1,0,0:0:0:70:amenbreak_snare1.wav
64,192,45312,128,4,45443:0:0:0:0:
320,192,45312,128,2,45443:0:0:0:0:
448,192,45312,128,0,45443:0:0:0:0:
64,192,45575,128,4,45706:0:0:0:0:
192,192,45575,128,8,45706:0:0:0:0:
448,192,45575,128,2,45706:0:0:0:0:
320,192,45706,1,2,0:0:0:0:
448,192,45772,1,2,0:0:0:0:
192,192,45838,1,6,0:0:0:0:
320,192,45904,1,2,0:0:0:0:
192,192,45970,1,2,0:0:0:0:
320,192,46035,1,2,0:0:0:0:
64,192,46101,1,12,0:0:0:0:
192,192,46101,1,2,0:0:0:0:
320,192,46167,1,2,0:0:0:0:
448,192,46167,1,0,0:0:0:0:
64,192,46233,1,2,0:0:0:0:
192,192,46233,1,0,0:0:0:0:
320,192,46298,1,2,0:0:0:0:
448,192,46298,1,0,0:0:0:0:
64,192,46364,128,4,47417:0:0:0:0:
192,192,46364,128,2,46430:0:0:0:0:
320,192,46627,128,0,46693:0:0:0:0:
320,192,46891,128,0,46956:0:0:0:0:
320,192,47154,128,0,47220:0:0:0:0:
192,192,47417,128,0,48470:0:0:0:0:
448,192,47417,128,0,47483:0:0:0:0:
448,192,47680,128,0,47746:0:0:0:0:
448,192,47943,128,0,48009:0:0:0:0:
448,192,48206,128,0,48272:0:0:0:0:
64,192,48470,128,0,48535:0:0:0:0:
320,192,48470,128,0,49522:0:0:0:0:
64,192,48733,128,0,48798:0:0:0:0:
64,192,48996,128,0,49062:0:0:0:0:
64,192,49259,128,0,49325:0:0:0:0:
64,192,49522,128,0,49588:0:0:0:0:
192,192,49522,128,0,49588:0:0:0:0:
448,192,49522,128,0,50641:0:0:0:0:
64,192,49785,128,0,49851:0:0:0:0:
192,192,49785,128,0,49851:0:0:0:0:
64,192,50048,128,0,50114:0:0:0:0:
192,192,50048,128,0,50114:0:0:0:0:
64,192,50312,128,0,50377:0:0:0:0:
192,192,50312,128,0,50377:0:0:0:0:
64,192,50575,128,4,50641:0:0:0:0:
192,192,50575,128,2,50641:0:0:0:0:
320,192,50575,128,0,50641:0:0:0:0:
64,192,51627,128,0,52680:0:0:0:0:
192,192,52680,1,4,0:0:0:0:
320,192,52680,128,2,52943:0:0:0:0:
448,192,52680,128,0,52943:0:0:0:100:SFX Lightning.wav
64,192,52943,1,8,0:0:0:0:
192,192,52943,1,2,0:0:0:0:
320,192,53009,1,0,0:0:0:0:
448,192,53075,1,0,0:0:0:0:
64,192,53141,1,0,0:0:0:0:
192,192,53206,1,2,0:0:0:0:
320,192,53206,128,0,53338:0:0:0:0:
448,192,53338,1,0,0:0:0:0:
64,192,53404,1,0,0:0:0:0:
192,192,53470,1,8,0:0:0:0:
448,192,53470,1,2,0:0:0:0:
320,192,53535,1,0,0:0:0:0:
64,192,53601,1,0,0:0:0:0:
192,192,53667,1,0,0:0:0:0:
64,192,53733,128,2,53996:0:0:0:0:
448,192,53733,128,0,53996:0:0:0:0:
192,192,53996,1,2,0:0:0:0:
320,192,53996,1,8,0:0:0:0:
448,192,54062,1,0,0:0:0:0:
64,192,54127,1,0,0:0:0:0:
192,192,54193,1,0,0:0:0:0:
320,192,54259,1,2,0:0:0:0:
448,192,54259,128,0,54391:0:0:0:0:
64,192,54391,1,0,0:0:0:0:
192,192,54456,1,0,0:0:0:0:
320,192,54522,128,2,54654:0:0:0:0:
448,192,54522,1,8,0:0:0:0:
64,192,54654,1,0,0:0:0:0:
448,192,54720,1,0,0:0:0:0:
192,192,54785,128,4,54917:0:0:0:0:
320,192,54785,1,2,0:0:0:0:
64,192,54917,1,0,0:0:0:0:
448,192,54983,1,0,0:0:0:0:
192,192,55048,1,8,0:0:0:0:
320,192,55048,128,2,55180:0:0:0:0:
64,192,55180,1,0,0:0:0:0:
448,192,55246,1,0,0:0:0:0:
192,192,55312,128,2,55443:0:0:0:0:
320,192,55312,1,0,0:0:0:0:
64,192,55443,1,0,0:0:0:0:
448,192,55509,1,0,0:0:0:0:
64,192,55575,128,8,55706:0:0:0:0:
320,192,55575,1,2,0:0:0:0:
192,192,55706,1,0,0:0:0:0:
320,192,55772,1,0,0:0:0:0:
64,192,55838,1,2,0:0:0:0:
448,192,55838,128,0,55970:0:0:0:0:
192,192,55970,1,0,0:0:0:0:
320,192,56035,1,0,0:0:0:0:
64,192,56101,1,2,0:0:0:0:
448,192,56101,1,8,0:0:0:0:
192,192,56167,1,0,0:0:0:0:
320,192,56233,1,0,0:0:0:0:
192,192,56298,1,0,0:0:0:0:
64,192,56364,128,2,56627:0:0:0:0:
448,192,56364,128,0,56627:0:0:0:0:
192,192,56627,1,2,0:0:0:0:
320,192,56627,1,8,0:0:0:0:
64,192,56693,1,0,0:0:0:0:
192,192,56759,1,2,0:0:0:0:
448,192,56759,1,0,0:0:0:0:
320,192,56825,1,0,0:0:0:0:
64,192,56891,1,2,0:0:0:0:
448,192,56891,128,4,57022:0:0:0:0:
192,192,57022,1,0,0:0:0:0:
320,192,57088,1,0,0:0:0:0:
64,192,57154,128,2,57285:0:0:0:0:
448,192,57154,1,8,0:0:0:0:
320,192,57285,1,0,0:0:0:0:
192,192,57351,1,0,0:0:0:0:
64,192,57417,1,2,0:0:0:0:
448,192,57417,128,0,57548:0:0:0:0:
320,192,57548,1,0,0:0:0:0:
192,192,57614,1,0,0:0:0:0:
448,192,57680,1,10,0:0:0:0:
320,192,57724,1,0,0:0:0:0:
64,192,57768,1,0,0:0:0:0:
192,192,57812,128,0,57943:0:0:0:0:
320,192,57943,1,2,0:0:0:0:
448,192,57943,128,0,58075:0:0:0:0:
192,192,58075,1,0,0:0:0:0:
320,192,58141,1,0,0:0:0:0:
64,192,58206,1,8,0:0:0:0:
448,192,58206,1,2,0:0:0:0:
192,192,58272,1,0,0:0:0:0:
320,192,58338,1,0,0:0:0:0:
192,192,58404,1,0,0:0:0:0:
64,192,58470,1,2,0:0:0:0:
448,192,58470,128,0,58601:0:0:0:0:
320,192,58601,1,0,0:0:0:0:
192,192,58667,1,0,0:0:0:0:
64,192,58733,1,8,0:0:0:0:
448,192,58733,1,2,0:0:0:0:
320,192,58798,1,0,0:0:0:0:
64,192,58864,1,2,0:0:0:0:
192,192,58864,1,0,0:0:0:0:
320,192,58930,1,2,0:0:0:0:
448,192,58930,1,0,0:0:0:0:
64,192,58996,1,2,0:0:0:0:
192,192,58996,128,4,59127:0:0:0:0:
320,192,59127,1,0,0:0:0:0:
64,192,59193,1,0,0:0:0:0:
320,192,59259,128,8,59391:0:0:0:0:
448,192,59259,1,2,0:0:0:0:
192,192,59391,1,0,0:0:0:0:
448,192,59456,1,0,0:0:0:0:
64,192,59522,1,2,0:0:0:0:
192,192,59522,128,4,59654:0:0:0:0:
320,192,59654,1,2,0:0:0:0:
448,192,59654,1,0,0:0:0:0:
64,192,59720,1,0,0:0:0:0:
320,192,59785,1,8,0:0:0:0:
448,192,59785,1,2,0:0:0:0:
64,192,59851,1,2,0:0:0:0:
192,192,59851,1,0,0:0:0:0:
320,192,59917,1,2,0:0:0:0:
448,192,59917,1,0,0:0:0:0:
192,192,59983,1,2,0:0:0:0:
64,192,60048,128,2,60180:0:0:0:0:
448,192,60048,1,4,0:0:0:0:
320,192,60180,1,0,0:0:0:0:
448,192,60246,1,0,0:0:0:0:
64,192,60312,1,10,0:0:0:0:
192,192,60312,128,4,60443:0:0:0:0:
320,192,60443,1,0,0:0:0:0:
448,192,60509,1,0,0:0:0:0:
192,192,60575,1,2,0:0:0:0:
320,192,60575,128,4,60706:0:0:0:0:
64,192,60706,1,2,0:0:0:0:
192,192,60706,1,0,0:0:0:0:
320,192,60838,1,10,0:0:0:0:
448,192,60838,1,4,0:0:0:0:
64,192,60904,1,0,0:0:0:0:
192,192,60970,1,0,0:0:0:0:
320,192,61035,1,0,0:0:0:0:
64,192,61101,128,2,61364:0:0:0:0:
448,192,61101,128,4,61364:0:0:0:0:
192,192,61364,1,8,0:0:0:0:
320,192,61364,1,2,0:0:0:0:
64,192,61430,1,0,0:0:0:0:
192,192,61496,1,0,0:0:0:0:
320,192,61562,1,0,0:0:0:0:
64,192,61627,1,2,0:0:0:0:
448,192,61627,128,0,61759:0:0:0:0:
192,192,61759,1,0,0:0:0:0:
320,192,61825,1,0,0:0:0:0:
64,192,61891,128,8,62022:0:0:0:0:
448,192,61891,1,2,0:0:0:0:
320,192,62022,1,0,0:0:0:0:
192,192,62088,1,0,0:0:0:0:
320,192,62154,128,2,62417:0:0:0:0:
448,192,62154,128,0,62417:0:0:0:0:
64,192,62417,1,2,0:0:0:0:
192,192,62417,1,8,0:0:0:0:
448,192,62483,1,0,0:0:0:0:
192,192,62548,1,0,0:0:0:0:
320,192,62614,1,0,0:0:0:0:
64,192,62680,128,2,62812:0:0:0:0:
448,192,62680,1,0,0:0:0:0:
192,192,62812,1,0,0:0:0:0:
320,192,62877,1,0,0:0:0:0:
64,192,62943,1,2,0:0:0:0:
448,192,62943,1,8,0:0:0:0:
192,192,63009,1,0,0:0:0:0:
320,192,63075,1,2,0:0:0:0:
448,192,63075,1,0,0:0:0:0:
64,192,63141,1,2,0:0:0:0:
192,192,63141,1,0,0:0:0:0:
320,192,63206,1,4,0:0:0:0:
448,192,63206,128,2,63338:0:0:0:0:
192,192,63338,1,0,0:0:0:0:
320,192,63404,1,0,0:0:0:0:
64,192,63470,128,8,63601:0:0:0:0:
448,192,63470,1,2,0:0:0:0:
320,192,63601,1,0,0:0:0:0:
192,192,63667,1,0,0:0:0:0:
64,192,63733,1,2,0:0:0:0:
448,192,63733,128,0,63864:0:0:0:0:
192,192,63864,1,0,0:0:0:0:
320,192,63930,1,0,0:0:0:0:
64,192,63996,1,8,0:0:0:0:
192,192,63996,128,2,64127:0:0:0:0:
448,192,64127,1,0,0:0:0:0:
64,192,64193,1,0,0:0:0:0:
320,192,64259,128,2,64391:0:0:0:0:
448,192,64259,1,0,0:0:0:0:
64,192,64391,1,0,0:0:0:0:
448,192,64456,1,0,0:0:0:0:
192,192,64522,128,2,64654:0:0:0:0:
320,192,64522,1,8,0:0:0:0:
64,192,64654,1,0,0:0:0:0:
448,192,64720,1,0,0:0:0:0:
64,192,64785,128,2,64917:0:0:0:0:
192,192,64785,1,0,0:0:0:0:
320,192,64917,1,2,0:0:0:0:
448,192,64917,1,0,0:0:0:0:
64,192,65048,1,2,0:0:0:0:
448,192,65048,1,8,0:0:0:0:
192,192,65114,1,0,0:0:0:0:
320,192,65180,1,2,0:0:0:0:
448,192,65180,1,0,0:0:0:0:
64,192,65246,1,2,0:0:0:0:
192,192,65246,1,0,0:0:0:0:
320,192,65312,1,2,0:0:0:0:
448,192,65312,128,4,65443:0:0:0:0:
64,192,65443,1,2,0:0:0:0:
192,192,65443,1,0,0:0:0:0:
192,192,65575,1,2,0:0:0:0:
320,192,65575,1,8,0:0:0:0:
448,192,65641,1,0,0:0:0:0:
64,192,65706,1,0,0:0:0:0:
192,192,65772,1,0,0:0:0:0:
320,192,65838,128,2,65970:0:0:0:0:
448,192,65838,1,0,0:0:0:0:
64,192,65970,1,0,0:0:0:0:
192,192,66035,1,0,0:0:0:0:
320,192,66101,1,2,0:0:0:0:
448,192,66101,128,8,66233:0:0:0:0:
192,192,66233,1,0,0:0:0:0:
320,192,66298,1,0,0:0:0:0:
64,192,66364,128,4,66496:0:0:0:0:
448,192,66364,1,2,0:0:0:0:
320,192,66496,1,0,0:0:0:0:
192,192,66562,1,0,0:0:0:0:
64,192,66627,1,8,0:0:0:0:
448,192,66627,128,2,66759:0:0:0:0:
192,192,66759,1,0,0:0:0:0:
64,192,66825,1,0,0:0:0:0:
320,192,66891,128,2,67022:0:0:0:0:
448,192,66891,1,0,0:0:0:0:
64,192,67022,1,2,0:0:0:0:
192,192,67022,1,0,0:0:0:0:
320,192,67088,1,2,0:0:0:0:
448,192,67088,1,0,0:0:0:0:
64,192,67154,128,8,67285:0:0:0:0:
192,192,67154,1,2,0:0:0:0:
320,192,67285,1,2,0:0:0:0:
448,192,67285,1,0,0:0:0:0:
64,192,67351,1,2,0:0:0:0:
192,192,67351,1,0,0:0:0:0:
320,192,67417,1,4,0:0:0:0:
448,192,67417,1,2,0:0:0:0:
192,192,67548,1,2,0:0:0:0:
448,192,67548,1,0,0:0:0:0:
64,192,67680,1,8,0:0:0:0:
320,192,67680,1,2,0:0:0:0:
64,192,67812,1,2,0:0:0:0:
192,192,67812,1,0,0:0:0:0:
320,192,67943,1,2,0:0:0:0:
448,192,67943,1,4,0:0:0:0:
64,192,68075,1,2,0:0:0:0:
448,192,68075,1,0,0:0:0:0:
64,192,68206,1,8,0:0:0:0:
192,192,68206,1,2,0:0:0:0:
320,192,68272,1,2,0:0:0:0:
192,192,68338,1,2,0:0:0:0:
448,192,68338,1,0,0:0:0:0:
320,192,68404,1,2,0:0:0:0:
64,192,68470,1,2,0:0:0:0:
192,192,68470,1,4,0:0:0:0:
64,192,68601,1,2,0:0:0:0:
320,192,68601,1,0,0:0:0:0:
192,192,68733,1,2,0:0:0:0:
448,192,68733,1,8,0:0:0:0:
320,192,68864,1,2,0:0:0:0:
448,192,68864,1,0,0:0:0:0:
192,192,68930,1,2,0:0:0:0:
64,192,68996,1,2,0:0:0:0:
448,192,68996,1,4,0:0:0:0:
64,192,69127,1,2,0:0:0:0:
192,192,69127,1,0,0:0:0:0:
320,192,69193,1,2,0:0:0:0:
64,192,69259,1,2,0:0:0:0:
448,192,69259,1,8,0:0:0:0:
320,192,69391,1,2,0:0:0:0:
448,192,69391,1,0,0:0:0:0:
192,192,69456,1,2,0:0:0:0:
64,192,69522,1,4,0:0:0:0:
448,192,69522,1,2,0:0:0:0:
320,192,69588,1,2,0:0:0:0:
64,192,69654,1,2,0:0:0:0:
192,192,69654,1,0,0:0:0:0:
448,192,69720,1,2,0:0:0:0:
192,192,69785,1,8,0:0:0:0:
320,192,69785,1,2,0:0:0:0:
64,192,69851,1,2,0:0:0:0:
320,192,69917,1,2,0:0:0:0:
448,192,69917,1,0,0:0:0:0:
192,192,69983,1,2,0:0:0:0:
64,192,70048,1,4,0:0:0:0:
448,192,70048,1,2,0:0:0:0:
320,192,70114,1,2,0:0:0:0:
64,192,70180,1,2,0:0:0:0:
192,192,70180,1,0,0:0:0:0:
448,192,70246,1,2,0:0:0:0:
64,192,70312,1,8,0:0:0:0:
320,192,70312,1,2,0:0:0:0:
192,192,70377,1,2,0:0:0:0:
320,192,70443,1,2,0:0:0:0:
448,192,70443,1,0,0:0:0:0:
192,192,70509,1,2,0:0:0:0:
64,192,70575,1,4,0:0:0:0:
448,192,70575,1,2,0:0:0:0:
192,192,70641,1,2,0:0:0:0:
320,192,70641,1,0,0:0:0:0:
448,192,70706,1,2,0:0:0:0:
64,192,70772,1,2,0:0:0:0:
192,192,70838,1,10,0:0:0:0:
320,192,70838,1,4,0:0:0:0:
64,192,70904,1,2,0:0:0:0:
448,192,70904,1,0,0:0:0:0:
320,192,70970,1,2,0:0:0:0:
192,192,71035,1,2,0:0:0:0:
320,192,71101,1,4,0:0:0:0:
448,192,71101,1,2,0:0:0:0:
64,192,71167,1,2,0:0:0:0:
320,192,71233,1,2,0:0:0:0:
448,192,71233,1,4,0:0:0:0:
64,192,71298,1,2,0:0:0:0:
320,192,71364,1,2,0:0:0:0:
448,192,71364,1,4,0:0:0:0:
192,192,71430,1,2,0:0:0:0:
320,192,71496,1,2,0:0:0:0:
448,192,71496,1,4,0:0:0:0:
192,192,71562,1,2,0:0:0:0:
64,192,71627,128,2,71891:0:0:0:0:
320,192,71627,1,4,0:0:0:0:
448,192,71627,1,0,0:0:0:100:SFX Electro Drop.wav
192,192,71891,128,0,72022:0:0:0:0:
448,192,72154,1,0,0:0:0:0:
192,192,72220,1,0,0:0:0:0:
320,192,72285,1,0,0:0:0:0:
64,192,72351,1,0,0:0:0:0:
448,192,72417,1,0,0:0:0:0:
192,192,72483,1,0,0:0:0:0:
320,192,72548,1,0,0:0:0:0:
192,192,72614,1,0,0:0:0:0:
448,192,72680,1,0,0:0:0:0:
320,192,72746,1,0,0:0:0:0:
192,192,72812,1,0,0:0:0:0:
64,192,72877,1,0,0:0:0:0:
320,192,72943,1,0,0:0:0:0:
192,192,73009,1,0,0:0:0:0:
320,192,73075,1,0,0:0:0:0:
192,192,73141,1,0,0:0:0:0:
64,192,73206,128,4,73470:0:0:0:0:
320,192,73206,1,2,0:0:0:0:
448,192,73206,1,0,0:0:0:0:
320,192,73470,128,0,73601:0:0:0:0:
448,192,73733,1,0,0:0:0:0:
192,192,73798,1,0,0:0:0:0:
320,192,73864,1,0,0:0:0:0:
64,192,73930,1,0,0:0:0:0:
448,192,73996,1,0,0:0:0:0:
192,192,74062,1,0,0:0:0:0:
320,192,74127,1,0,0:0:0:0:
192,192,74193,1,0,0:0:0:0:
448,192,74259,1,0,0:0:0:0:
320,192,74325,1,0,0:0:0:0:
192,192,74391,1,0,0:0:0:0:
64,192,74456,1,0,0:0:0:0:
320,192,74522,1,0,0:0:0:0:
192,192,74588,1,0,0:0:0:0:
320,192,74654,1,0,0:0:0:0:
192,192,74720,1,0,0:0:0:0:
64,192,74785,128,4,75048:0:0:0:0:
320,192,74785,1,2,0:0:0:0:
448,192,74785,1,0,0:0:0:0:
448,192,75048,128,0,75180:0:0:0:0:
192,192,75312,1,0,0:0:0:0:
64,192,75377,1,0,0:0:0:0:
320,192,75443,1,0,0:0:0:0:
192,192,75509,1,0,0:0:0:0:
448,192,75575,1,0,0:0:0:0:
320,192,75641,1,0,0:0:0:0:
192,192,75706,1,0,0:0:0:0:
64,192,75772,1,0,0:0:0:0:
320,192,75838,1,0,0:0:0:0:
192,192,75904,1,0,0:0:0:0:
448,192,75970,1,0,0:0:0:0:
320,192,76035,1,0,0:0:0:0:
192,192,76101,1,0,0:0:0:0:
64,192,76167,1,0,0:0:0:0:
320,192,76233,1,0,0:0:0:0:
192,192,76298,1,0,0:0:0:0:
448,192,76364,1,0,0:0:0:0:
320,192,76430,1,0,0:0:0:0:
192,192,76496,1,0,0:0:0:0:
64,192,76562,1,0,0:0:0:0:
320,192,76627,1,0,0:0:0:0:
192,192,76693,1,0,0:0:0:0:
448,192,76759,1,0,0:0:0:0:
320,192,76825,1,0,0:0:0:0:
192,192,76891,1,0,0:0:0:0:
64,192,76956,1,0,0:0:0:0:
448,192,77022,1,0,0:0:0:0:
320,192,77088,1,0,0:0:0:0:
192,192,77154,1,0,0:0:0:0:
320,192,77220,1,0,0:0:0:0:
64,192,77285,1,0,0:0:0:0:
192,192,77351,1,0,0:0:0:0:
64,192,77417,1,0,0:0:0:0:
448,192,77483,1,0,0:0:0:0:
320,192,77548,1,0,0:0:0:0:
192,192,77614,1,0,0:0:0:0:
64,192,77680,1,0,0:0:0:0:
448,192,77746,1,0,0:0:0:0:
320,192,77812,1,0,0:0:0:0:
192,192,77877,1,0,0:0:0:0:
64,192,77943,128,4,80048:0:0:0:0:
448,192,77943,1,2,0:0:0:0:
448,192,78733,1,0,0:0:0:0:
320,192,78996,1,0,0:0:0:0:
320,192,79259,1,0,0:0:0:0:
320,192,79522,1,0,0:0:0:0:
320,192,79785,1,0,0:0:0:0:
192,192,80048,1,4,0:0:0:0:
320,192,80048,128,2,80575:0:0:0:0:
448,192,80048,1,0,0:0:0:70:wind.wav
64,192,80575,128,0,80838:0:0:0:0:
192,192,80838,128,0,80970:0:0:0:0:
320,192,80970,128,0,81101:0:0:0:0:
448,192,81101,128,0,81364:0:0:0:0:
192,192,81233,1,0,0:0:0:0:
320,192,81364,128,0,81627:0:0:0:0:
64,192,81496,1,0,0:0:0:0:
192,192,81627,128,0,81891:0:0:0:0:
320,192,81759,1,0,0:0:0:0:
448,192,81891,128,0,82154:0:0:0:0:
192,192,82022,1,0,0:0:0:0:
64,192,82154,128,0,82417:0:0:0:0:
320,192,82285,1,0,0:0:0:0:
448,192,82417,128,0,82680:0:0:0:0:
192,192,82548,1,0,0:0:0:0:
320,192,82680,128,0,82943:0:0:0:0:
64,192,82812,1,0,0:0:0:0:
192,192,82943,128,0,83075:0:0:0:0:
448,192,83075,1,0,0:0:0:0:
192,192,83206,128,0,83601:0:0:0:0:
320,192,83206,1,0,0:0:0:0:
320,192,83470,1,0,0:0:0:0:
64,192,83601,1,0,0:0:0:0:
64,192,83733,128,0,83996:0:0:0:0:
448,192,83733,1,0,0:0:0:0:
320,192,83996,128,0,84259:0:0:0:0:
192,192,84127,1,0,0:0:0:0:
64,192,84259,1,0,0:0:0:0:
448,192,84259,128,0,84785:0:0:0:0:
192,192,84391,1,0,0:0:0:0:
320,192,84522,1,0,0:0:0:0:
192,192,84654,1,0,0:0:0:0:
64,192,84785,128,0,84917:0:0:0:0:
448,192,84917,1,0,0:0:0:0:
64,192,85048,128,0,85180:0:0:0:0:
192,192,85180,128,0,85312:0:0:0:0:
64,192,85312,1,0,0:0:0:0:
320,192,85312,128,0,85575:0:0:0:0:
448,192,85443,1,0,0:0:0:0:
192,192,85575,128,0,85838:0:0:0:0:
320,192,85706,1,0,0:0:0:0:
64,192,85838,128,0,86101:0:0:0:0:
192,192,85970,1,0,0:0:0:0:
320,192,86101,128,0,86364:0:0:0:0:
64,192,86233,1,0,0:0:0:0:
192,192,86364,1,0,0:0:0:0:
448,192,86364,128,0,86627:0:0:0:0:
320,192,86496,1,0,0:0:0:0:
64,192,86627,128,0,86891:0:0:0:0:
320,192,86759,1,0,0:0:0:0:
192,192,86891,128,0,87154:0:0:0:0:
448,192,87022,1,0,0:0:0:0:
320,192,87154,128,0,87285:0:0:0:0:
64,192,87285,1,0,0:0:0:0:
320,192,87417,1,0,0:0:0:0:
192,192,87483,1,0,0:0:0:0:
448,192,87548,1,0,0:0:0:0:
64,192,87614,1,0,0:0:0:0:
320,192,87680,1,0,0:0:0:0:
192,192,87746,1,0,0:0:0:0:
64,192,87812,1,8,0:0:0:0:
448,192,87812,1,0,0:0:0:0:
320,192,87877,1,8,0:0:0:0:
64,192,87943,1,2,0:0:0:0:
192,192,87943,1,0,0:0:0:0:
320,192,88075,1,8,0:0:0:0:
448,192,88075,1,0,0:0:0:0:
192,192,88141,1,8,0:0:0:0:
64,192,88206,1,2,0:0:0:0:
448,192,88206,1,0,0:0:0:0:
64,192,88470,1,2,0:0:0:0:
192,192,88470,1,4,0:0:0:0:
448,192,88470,128,0,88733:0:0:0:0:
320,192,88733,1,0,0:0:0:0:
64,192,88798,1,0,0:0:0:0:
192,192,88864,1,0,0:0:0:0:
320,192,88930,1,0,0:0:0:0:
448,192,88996,128,0,89127:0:0:0:0:
192,192,89127,1,0,0:0:0:0:
320,192,89193,1,0,0:0:0:0:
64,192,89259,1,0,0:0:0:0:
448,192,89325,1,0,0:0:0:0:
192,192,89391,1,0,0:0:0:0:
320,192,89456,1,0,0:0:0:0:
64,192,89522,128,2,89654:0:0:0:0:
448,192,89522,1,4,0:0:0:0:
192,192,89654,1,0,0:0:0:0:
320,192,89720,1,0,0:0:0:0:
448,192,89785,128,0,89917:0:0:0:0:
64,192,89917,1,0,0:0:0:0:
192,192,89983,1,0,0:0:0:0:
320,192,90048,128,0,90180:0:0:0:0:
448,192,90180,1,0,0:0:0:0:
64,192,90246,1,0,0:0:0:0:
192,192,90312,128,0,90443:0:0:0:0:
320,192,90443,1,0,0:0:0:0:
448,192,90509,1,0,0:0:0:0:
64,192,90575,128,2,90706:0:0:0:0:
192,192,90575,1,4,0:0:0:0:
320,192,90706,1,0,0:0:0:0:
192,192,90772,1,0,0:0:0:0:
448,192,90838,128,0,90970:0:0:0:0:
192,192,90970,1,0,0:0:0:0:
320,192,91035,1,0,0:0:0:0:
64,192,91101,128,0,91233:0:0:0:0:
320,192,91233,1,0,0:0:0:0:
192,192,91298,1,0,0:0:0:0:
320,192,91364,1,2,0:0:0:0:
448,192,91364,1,0,0:0:0:0:
64,192,91430,1,0,0:0:0:0:
192,192,91496,1,0,0:0:0:0:
64,192,91562,1,0,0:0:0:0:
320,192,91627,1,4,0:0:0:0:
448,192,91627,128,2,91759:0:0:0:0:
192,192,91759,1,0,0:0:0:0:
320,192,91825,1,0,0:0:0:0:
64,192,91891,128,4,92022:0:0:0:0:
192,192,91891,1,2,0:0:0:0:
320,192,92022,1,2,0:0:0:0:
448,192,92022,1,4,0:0:0:0:
192,192,92154,1,6,0:0:0:0:
320,192,92220,1,2,0:0:0:0:
192,192,92285,1,6,0:0:0:0:
320,192,92351,1,2,0:0:0:0:
64,192,92417,1,4,0:0:0:0:
192,192,92417,1,2,0:0:0:0:
320,192,92483,1,2,0:0:0:0:
448,192,92483,1,0,0:0:0:0:
64,192,92548,1,2,0:0:0:0:
192,192,92548,1,0,0:0:0:0:
320,192,92614,1,2,0:0:0:0:
448,192,92614,1,0,0:0:0:0:
64,192,92680,128,6,94785:0:0:0:0:
192,192,92680,1,0,0:0:0:70:wind.wav
320,192,94785,1,0,0:0:0:0:
448,192,94785,128,0,95246:0:0:0:0:
64,192,95246,128,0,95641:0:0:0:0:
192,192,95641,128,0,95772:0:0:0:0:
320,192,95772,128,0,95904:0:0:0:0:
64,192,95904,1,0,0:0:0:0:
448,192,95904,128,0,96430:0:0:0:0:
320,192,96430,128,0,96693:0:0:0:0:
192,192,96693,128,0,96891:0:0:0:0:
64,192,96891,128,4,96956:0:0:0:0:
320,192,96891,1,2,0:0:0:0:
448,192,96891,128,0,96956:0:0:0:70:LR_Snare Drum.wav
64,192,97154,128,0,97220:0:0:0:70:LR_Snare Drum 2.wav
192,192,97154,128,0,97220:0:0:0:0:
64,192,97285,1,0,0:0:0:0:
192,192,97417,128,0,97483:0:0:0:70:LR_Snare Drum.wav
320,192,97417,128,0,97483:0:0:0:0:
320,192,97680,128,0,97746:0:0:0:70:LR_Snare Drum 2.wav
448,192,97680,128,0,97746:0:0:0:0:
320,192,97812,1,0,0:0:0:70:LR_Snare Drum 2.wav
192,192,97877,1,0,0:0:0:70:LR_Snare Drum 2.wav
64,192,97943,128,0,98009:0:0:0:70:LR_Snare Drum.wav
448,192,97943,128,0,98009:0:0:0:0:
64,192,98075,1,0,0:0:0:0:
320,192,98206,128,0,98272:0:0:0:70:LR_Snare Drum 2.wav
448,192,98206,128,0,98272:0:0:0:0:
448,192,98338,1,0,0:0:0:70:LR_Snare Drum 2.wav
192,192,98470,128,0,98535:0:0:0:70:LR_Snare Drum.wav
320,192,98470,128,0,98535:0:0:0:0:
320,192,98601,1,0,0:0:0:70:LR_Snare Drum 2.wav
64,192,98733,128,0,98798:0:0:0:70:LR_Snare Drum.wav
192,192,98733,128,0,98798:0:0:0:0:
192,192,98864,1,0,0:0:0:70:LR_Snare Drum 2.wav
320,192,98930,1,0,0:0:0:70:LR_Snare Drum 2.wav
64,192,98996,128,0,99062:0:0:0:70:LR_Snare Drum.wav
448,192,98996,128,0,99062:0:0:0:0:
448,192,99127,1,0,0:0:0:70:LR_Snare Drum 2.wav
64,192,99259,128,0,99325:0:0:0:70:LR_Snare Drum 2.wav
192,192,99259,128,0,99325:0:0:0:0:
64,192,99391,1,0,0:0:0:70:LR_Snare Drum.wav
192,192,99522,128,0,99588:0:0:0:70:LR_Snare Drum 2.wav
320,192,99522,128,0,99588:0:0:0:0:
192,192,99654,1,0,0:0:0:70:LR_Snare Drum.wav
320,192,99785,128,0,99851:0:0:0:70:LR_Snare Drum 2.wav
448,192,99785,128,0,99851:0:0:0:0:
320,192,99917,1,0,0:0:0:70:LR_Snare Drum.wav
64,192,100048,128,0,100114:0:0:0:70:LR_Snare Drum.wav
448,192,100048,128,0,100114:0:0:0:0:
448,192,100180,1,0,0:0:0:70:LR_Snare Drum 2.wav
64,192,100312,128,0,100377:0:0:0:70:LR_Snare Drum.wav
192,192,100312,128,0,100377:0:0:0:0:
64,192,100443,1,0,0:0:0:70:LR_Snare Drum 2.wav
192,192,100575,128,0,100641:0:0:0:70:LR_Snare Drum.wav
448,192,100575,128,0,100641:0:0:0:0:
192,192,100706,1,0,0:0:0:70:LR_Snare Drum 2.wav
320,192,100838,128,0,100904:0:0:0:70:LR_Snare Drum 2.wav
448,192,100838,128,0,100904:0:0:0:0:
320,192,100970,1,0,0:0:0:70:LR_Snare Drum.wav
64,192,101101,1,4,0:0:0:0:
192,192,101101,1,2,0:0:0:0:
448,192,101101,1,0,0:0:0:70:LR_Snare Drum.wav
320,192,101167,1,0,0:0:0:0:
192,192,101233,1,0,0:0:0:70:LR_Snare Drum 2.wav
320,192,101298,1,0,0:0:0:0:
64,192,101364,1,0,0:0:0:70:LR_Snare Drum 2.wav
192,192,101430,1,0,0:0:0:0:
320,192,101496,1,0,0:0:0:70:LR_Snare Drum.wav
192,192,101562,1,0,0:0:0:0:
448,192,101627,1,0,0:0:0:70:LR_Snare Drum 2.wav
320,192,101693,1,0,0:0:0:0:
192,192,101759,1,0,0:0:0:70:LR_Snare Drum.wav
320,192,101825,1,0,0:0:0:0:
64,192,101891,1,0,0:0:0:70:LR_Snare Drum 2.wav
192,192,101956,1,0,0:0:0:0:
320,192,102022,1,0,0:0:0:70:LR_Snare Drum 2.wav
192,192,102088,1,0,0:0:0:70:LR_Snare Drum 2.wav
448,192,102154,1,0,0:0:0:70:LR_Snare Drum.wav
64,192,102220,1,0,0:0:0:0:
448,192,102285,1,0,0:0:0:70:LR_Snare Drum.wav
64,192,102351,1,0,0:0:0:0:
320,192,102417,1,0,0:0:0:70:LR_Snare Drum 2.wav
192,192,102483,1,0,0:0:0:0:
320,192,102548,1,0,0:0:0:70:LR_Snare Drum 2.wav
192,192,102614,1,0,0:0:0:0:
448,192,102680,1,0,0:0:0:70:LR_Snare Drum.wav
64,192,102746,1,0,0:0:0:0:
448,192,102812,1,0,0:0:0:70:LR_Snare Drum.wav
64,192,102877,1,0,0:0:0:0:
320,192,102943,1,0,0:0:0:70:LR_Snare Drum 2.wav
192,192,103009,1,0,0:0:0:0:
320,192,103075,1,0,0:0:0:70:LR_Snare Drum 2.wav
192,192,103141,1,0,0:0:0:0:
64,192,103206,1,4,0:0:0:0:
448,192,103206,1,2,0:0:0:0:
320,192,103272,1,0,0:0:0:0:
64,192,103338,1,0,0:0:0:0:
192,192,103404,1,0,0:0:0:0:
320,192,103470,1,0,0:0:0:0:
448,192,103535,1,0,0:0:0:0:
192,192,103601,1,0,0:0:0:0:
320,192,103667,1,0,0:0:0:0:
64,192,103733,1,0,0:0:0:0:
192,192,103798,1,0,0:0:0:0:
320,192,103864,1,0,0:0:0:0:
64,192,103930,1,0,0:0:0:0:
448,192,103996,1,0,0:0:0:0:
320,192,104062,1,0,0:0:0:0:
192,192,104127,1,0,0:0:0:0:
64,192,104193,1,0,0:0:0:0:
448,192,104259,1,0,0:0:0:0:
320,192,104325,1,0,0:0:0:0:
192,192,104391,1,0,0:0:0:0:
64,192,104456,1,0,0:0:0:0:
448,192,104522,1,0,0:0:0:0:
320,192,104588,1,0,0:0:0:0:
192,192,104654,1,0,0:0:0:0:
64,192,104720,1,0,0:0:0:0:
320,192,104785,1,2,0:0:0:0:
448,192,104785,128,4,105312:0:0:0:0:
64,192,105312,128,4,105443:0:0:0:0:
192,192,105312,128,2,105443:0:0:0:0:
320,192,105312,1,0,0:0:0:0:
448,192,105443,1,0,0:0:0:0:
64,192,105575,1,0,0:0:0:70:Drumstart_040.wav
320,192,105575,1,0,0:0:0:0:
192,192,105706,1,0,0:0:0:0:
320,192,105838,1,0,0:0:0:70:Drumstart_040.wav
448,192,105882,1,0,0:0:0:0:
192,192,105926,1,0,0:0:0:0:
64,192,105970,1,0,0:0:0:70:Drumstart_041.wav
320,192,106013,1,0,0:0:0:0:
448,192,106057,1,0,0:0:0:0:
64,192,106101,1,0,0:0:0:70:amenbreak_snare1.wav
192,192,106101,1,0,0:0:0:0:
320,192,106233,1,0,0:0:0:0:
64,192,106364,128,4,106496:0:0:0:0:
192,192,106364,128,2,106496:0:0:0:0:
448,192,106364,1,0,0:0:0:0:
320,192,106496,1,0,0:0:0:0:
64,192,106627,1,0,0:0:0:70:Drumstart_040.wav
448,192,106627,1,0,0:0:0:0:
192,192,106759,1,0,0:0:0:0:
320,192,106891,1,0,0:0:0:70:Drumstart_040.wav
448,192,106934,1,0,0:0:0:0:
192,192,106978,1,0,0:0:0:0:
64,192,107022,1,0,0:0:0:70:Drumstart_041.wav
320,192,107066,1,0,0:0:0:0:
448,192,107110,1,0,0:0:0:0:
64,192,107154,1,0,0:0:0:0:
192,192,107154,1,0,0:0:0:0:
320,192,107285,1,0,0:0:0:70:Drumstart_040.wav
64,192,107417,128,4,107548:0:0:0:0:
192,192,107417,128,2,107548:0:0:0:0:
448,192,107417,1,0,0:0:0:0:
320,192,107548,1,0,0:0:0:0:
64,192,107680,1,0,0:0:0:70:Drumstart_040.wav
192,192,107680,1,0,0:0:0:0:
448,192,107812,1,0,0:0:0:0:
192,192,107943,1,0,0:0:0:70:Drumstart_040.wav
64,192,107987,1,0,0:0:0:70:Drumstart_040.wav
320,192,108031,1,0,0:0:0:70:Drumstart_040.wav
448,192,108075,1,0,0:0:0:70:Drumstart_040.wav
192,192,108119,1,0,0:0:0:70:Drumstart_040.wav
64,192,108163,1,0,0:0:0:70:Drumstart_040.wav
320,192,108206,1,0,0:0:0:70:amenbreak_snare1.wav
448,192,108206,1,0,0:0:0:0:
64,192,108338,1,0,0:0:0:70:Drumstart_041.wav
192,192,108470,128,4,108601:0:0:0:0:
320,192,108470,128,2,108601:0:0:0:0:
448,192,108470,128,0,108601:0:0:0:0:
64,192,108733,128,4,108864:0:0:0:0:
192,192,108733,128,8,108864:0:0:0:0:
320,192,108733,128,2,108864:0:0:0:0:
64,192,108996,128,4,109127:0:0:0:0:
320,192,108996,128,2,109127:0:0:0:0:
448,192,108996,128,0,109127:0:0:0:0:
64,192,109259,128,4,109391:0:0:0:0:
192,192,109259,128,8,109391:0:0:0:0:
448,192,109259,128,2,109391:0:0:0:0:
192,192,109522,1,4,0:0:0:0:
320,192,109522,128,2,109654:0:0:0:0:
448,192,109522,128,0,109654:0:0:0:0:
64,192,109654,1,0,0:0:0:0:
192,192,109785,1,0,0:0:0:70:Drumstart_040.wav
448,192,109785,1,0,0:0:0:0:
320,192,109917,1,0,0:0:0:0:
64,192,110048,1,0,0:0:0:70:Drumstart_040.wav
192,192,110092,1,0,0:0:0:0:
448,192,110136,1,0,0:0:0:0:
320,192,110180,1,0,0:0:0:70:Drumstart_041.wav
64,192,110224,1,0,0:0:0:0:
192,192,110268,1,0,0:0:0:0:
320,192,110312,1,0,0:0:0:70:amenbreak_snare1.wav
448,192,110312,1,0,0:0:0:0:
192,192,110443,1,0,0:0:0:0:
64,192,110575,1,4,0:0:0:0:
320,192,110575,128,2,110706:0:0:0:0:
448,192,110575,128,0,110706:0:0:0:0:
192,192,110706,1,0,0:0:0:0:
64,192,110838,1,0,0:0:0:70:Drumstart_040.wav
448,192,110838,1,0,0:0:0:0:
320,192,110970,1,0,0:0:0:0:
64,192,111101,1,0,0:0:0:70:Drumstart_040.wav
192,192,111145,1,0,0:0:0:0:
448,192,111189,1,0,0:0:0:0:
320,192,111233,1,0,0:0:0:70:Drumstart_041.wav
64,192,111277,1,0,0:0:0:0:
192,192,111320,1,0,0:0:0:0:
320,192,111364,1,0,0:0:0:0:
448,192,111364,1,0,0:0:0:0:
192,192,111496,1,0,0:0:0:70:Drumstart_040.wav
64,192,111627,1,4,0:0:0:0:
320,192,111627,128,2,111759:0:0:0:0:
448,192,111627,128,0,111759:0:0:0:0:
192,192,111759,1,0,0:0:0:0:
320,192,111891,1,0,0:0:0:70:Drumstart_040.wav
448,192,111891,1,0,0:0:0:0:
64,192,112022,1,0,0:0:0:0:
448,192,112154,1,0,0:0:0:70:Drumstart_040.wav
320,192,112198,1,0,0:0:0:70:Drumstart_040.wav
64,192,112241,1,0,0:0:0:70:Drumstart_040.wav
192,192,112285,1,0,0:0:0:70:Drumstart_041.wav
448,192,112329,1,0,0:0:0:70:Drumstart_040.wav
320,192,112373,1,0,0:0:0:70:Drumstart_040.wav
64,192,112417,1,0,0:0:0:70:Drumstart_040.wav
192,192,112417,1,0,0:0:0:0:
320,192,112548,1,0,0:0:0:70:amenbreak_snare1.wav
64,192,112680,128,4,112812:0:0:0:0:
192,192,112680,128,2,112812:0:0:0:0:
448,192,112680,128,0,112812:0:0:0:0:
192,192,112943,128,4,113075:0:0:0:0:
320,192,112943,128,2,113075:0:0:0:0:
448,192,112943,128,8,113075:0:0:0:0:
64,192,113075,1,2,0:0:0:0:
448,192,113141,1,2,0:0:0:0:
192,192,113206,1,6,0:0:0:0:
320,192,113272,1,2,0:0:0:0:
192,192,113338,1,2,0:0:0:0:
320,192,113404,1,2,0:0:0:0:
64,192,113470,1,6,0:0:0:0:
192,192,113470,1,8,0:0:0:0:
320,192,113535,1,2,0:0:0:0:
448,192,113535,1,0,0:0:0:0:
64,192,113601,1,2,0:0:0:0:
192,192,113601,1,0,0:0:0:0:
320,192,113667,1,2,0:0:0:0:
448,192,113667,1,0,0:0:0:0:
64,192,113733,128,2,113798:0:0:0:0:
192,192,113733,1,4,0:0:0:0:
64,192,113996,128,0,114062:0:0:0:0:
64,192,114259,128,0,114325:0:0:0:0:
64,192,114522,128,0,114588:0:0:0:0:
192,192,114785,128,0,114851:0:0:0:0:
192,192,115048,128,0,115114:0:0:0:0:
192,192,115312,128,0,115377:0:0:0:0:
192,192,115575,128,0,115641:0:0:0:0:
320,192,115838,128,0,115970:0:0:0:0:
320,192,116101,128,0,116233:0:0:0:0:
320,192,116364,128,0,116496:0:0:0:0:
320,192,116627,128,0,116759:0:0:0:0:
64,192,116891,128,0,117022:0:0:0:0:
448,192,116891,128,0,117022:0:0:0:0:
64,192,117154,128,0,117285:0:0:0:0:
448,192,117154,128,0,117285:0:0:0:0:
64,192,117417,128,0,117548:0:0:0:0:
448,192,117417,128,0,117548:0:0:0:0:
64,192,117680,128,0,117812:0:0:0:0:
448,192,117680,128,0,117812:0:0:0:0:
64,192,117943,128,4,118075:0:0:0:0:
192,192,117943,128,2,118075:0:0:0:0:
448,192,117943,128,0,118075:0:0:0:0:
448,192,118470,128,0,120048:0:0:0:0:
320,192,118996,128,0,120048:0:0:0:0:
64,192,120048,128,6,120312:0:0:0:0:
192,192,120048,128,0,120312:0:0:0:70:wind.wav
320,192,120312,1,0,0:0:0:0:
448,192,120377,1,0,0:0:0:0:
192,192,120443,1,0,0:0:0:0:
320,192,120509,1,0,0:0:0:0:
64,192,120575,128,0,120706:0:0:0:0:
320,192,120706,1,0,0:0:0:0:
448,192,120772,1,0,0:0:0:0:
64,192,120838,1,0,0:0:0:0:
320,192,120904,1,0,0:0:0:0:
192,192,120970,1,0,0:0:0:0:
320,192,121035,1,0,0:0:0:0:
448,192,121101,128,0,121364:0:0:0:0:
320,192,121364,1,0,0:0:0:0:
64,192,121430,1,0,0:0:0:0:
192,192,121496,1,0,0:0:0:0:
320,192,121562,1,0,0:0:0:0:
448,192,121627,128,0,121759:0:0:0:0:
64,192,121759,1,0,0:0:0:0:
192,192,121825,1,0,0:0:0:0:
320,192,121891,128,0,122022:0:0:0:0:
448,192,122022,1,0,0:0:0:0:
64,192,122088,1,0,0:0:0:0:
192,192,122154,128,0,122285:0:0:0:0:
320,192,122285,1,0,0:0:0:0:
448,192,122351,1,0,0:0:0:0:
64,192,122417,128,0,122548:0:0:0:0:
320,192,122548,1,0,0:0:0:0:
448,192,122614,1,0,0:0:0:0:
192,192,122680,128,0,122812:0:0:0:0:
320,192,122812,1,0,0:0:0:0:
64,192,122877,1,0,0:0:0:0:
448,192,122943,128,0,123075:0:0:0:0:
192,192,123075,1,0,0:0:0:0:
320,192,123141,1,0,0:0:0:0:
64,192,123206,1,0,0:0:0:70:LR_Snare Drum 3.wav
448,192,123272,1,0,0:0:0:70:LR_Snare Drum 3.wav
192,192,123338,1,0,0:0:0:70:LR_Snare Drum 3.wav
320,192,123404,1,0,0:0:0:70:LR_Snare Drum 3.wav
64,192,123470,1,0,0:0:0:70:LR_Snare Drum 3.wav
192,192,123535,1,0,0:0:0:70:LR_Snare Drum 3.wav
320,192,123601,1,0,0:0:0:70:LR_Snare Drum 3.wav
192,192,123667,1,0,0:0:0:70:LR_Snare Drum 3.wav
64,192,123733,1,4,0:0:0:0:
448,192,123733,1,2,0:0:0:0:
192,192,123864,1,0,0:0:0:70:LR_Snare Drum 3.wav
320,192,123930,1,0,0:0:0:70:LR_Snare Drum 3.wav
64,192,123996,1,4,0:0:0:0:
448,192,123996,1,2,0:0:0:0:
192,192,124062,1,0,0:0:0:0:
320,192,124127,1,0,0:0:0:0:
448,192,124193,1,0,0:0:0:0:
64,192,124259,128,6,124391:0:0:0:0:
192,192,124259,1,0,0:0:0:100:SFX Lightning.wav
320,192,124391,1,0,0:0:0:0:
192,192,124456,1,0,0:0:0:0:
64,192,124522,1,2,0:0:0:0:
448,192,124522,128,8,124654:0:0:0:0:
192,192,124654,1,0,0:0:0:0:
320,192,124720,1,0,0:0:0:0:
64,192,124785,128,2,124917:0:0:0:0:
448,192,124785,1,0,0:0:0:0:
192,192,124917,1,0,0:0:0:0:
320,192,124983,1,0,0:0:0:0:
64,192,125048,1,10,0:0:0:0:
192,192,125092,1,0,0:0:0:0:
448,192,125136,1,0,0:0:0:0:
320,192,125180,128,0,125312:0:0:0:0:
64,192,125312,128,2,125443:0:0:0:0:
192,192,125312,1,0,0:0:0:0:
320,192,125443,1,0,0:0:0:0:
192,192,125509,1,0,0:0:0:0:
64,192,125575,1,8,0:0:0:0:
448,192,125575,1,2,0:0:0:0:
320,192,125641,1,0,0:0:0:0:
192,192,125706,1,0,0:0:0:0:
320,192,125772,1,0,0:0:0:0:
64,192,125838,1,2,0:0:0:0:
448,192,125838,128,0,125970:0:0:0:0:
192,192,125970,1,0,0:0:0:0:
320,192,126035,1,0,0:0:0:0:
64,192,126101,1,8,0:0:0:0:
448,192,126101,1,2,0:0:0:0:
192,192,126167,1,0,0:0:0:0:
320,192,126233,1,2,0:0:0:0:
448,192,126233,1,0,0:0:0:0:
64,192,126298,1,2,0:0:0:0:
192,192,126298,1,0,0:0:0:0:
320,192,126364,128,2,126496:0:0:0:0:
448,192,126364,1,4,0:0:0:0:
192,192,126496,1,0,0:0:0:0:
448,192,126562,1,0,0:0:0:0:
64,192,126627,1,8,0:0:0:0:
192,192,126627,128,2,126759:0:0:0:0:
320,192,126759,1,0,0:0:0:0:
64,192,126825,1,0,0:0:0:0:
320,192,126891,128,2,127022:0:0:0:0:
448,192,126891,1,4,0:0:0:0:
64,192,127022,1,2,0:0:0:0:
192,192,127022,1,0,0:0:0:0:
448,192,127088,1,0,0:0:0:0:
64,192,127154,1,8,0:0:0:0:
192,192,127154,1,2,0:0:0:0:
320,192,127220,1,2,0:0:0:0:
448,192,127220,1,0,0:0:0:0:
64,192,127285,1,2,0:0:0:0:
192,192,127285,1,0,0:0:0:0:
320,192,127351,1,2,0:0:0:0:
64,192,127417,128,2,127548:0:0:0:0:
448,192,127417,1,4,0:0:0:0:
320,192,127548,1,0,0:0:0:0:
448,192,127614,1,0,0:0:0:0:
64,192,127680,1,10,0:0:0:0:
192,192,127680,128,4,127812:0:0:0:0:
448,192,127812,1,0,0:0:0:0:
64,192,127877,1,0,0:0:0:0:
192,192,127943,1,2,0:0:0:0:
320,192,127943,128,4,128075:0:0:0:0:
64,192,128075,1,2,0:0:0:0:
192,192,128075,1,0,0:0:0:0:
320,192,128206,1,10,0:0:0:0:
448,192,128206,1,4,0:0:0:0:
64,192,128272,1,0,0:0:0:0:
192,192,128338,1,0,0:0:0:0:
320,192,128404,1,0,0:0:0:0:
64,192,128470,128,2,128733:0:0:0:0:
448,192,128470,128,4,128733:0:0:0:0:
192,192,128733,1,8,0:0:0:0:
320,192,128733,1,2,0:0:0:0:
448,192,128798,1,0,0:0:0:0:
320,192,128864,1,0,0:0:0:0:
192,192,128930,1,0,0:0:0:0:
64,192,128996,128,2,129127:0:0:0:0:
448,192,128996,1,0,0:0:0:0:
320,192,129127,1,0,0:0:0:0:
192,192,129193,1,0,0:0:0:0:
64,192,129259,1,8,0:0:0:0:
448,192,129259,128,2,129391:0:0:0:0:
192,192,129391,1,0,0:0:0:0:
320,192,129456,1,0,0:0:0:0:
64,192,129522,128,2,129785:0:0:0:0:
192,192,129522,128,0,129785:0:0:0:0:
320,192,129785,1,2,0:0:0:0:
448,192,129785,1,8,0:0:0:0:
64,192,129851,1,0,0:0:0:0:
320,192,129917,1,0,0:0:0:0:
192,192,129983,1,0,0:0:0:0:
64,192,130048,1,2,0:0:0:0:
448,192,130048,128,0,130180:0:0:0:0:
320,192,130180,1,0,0:0:0:0:
192,192,130246,1,0,0:0:0:0:
64,192,130312,1,2,0:0:0:0:
448,192,130312,1,8,0:0:0:0:
320,192,130377,1,0,0:0:0:0:
64,192,130443,1,2,0:0:0:0:
192,192,130443,1,0,0:0:0:0:
320,192,130509,1,2,0:0:0:0:
448,192,130509,1,0,0:0:0:0:
64,192,130575,128,4,130706:0:0:0:0:
192,192,130575,1,2,0:0:0:0:
320,192,130706,1,0,0:0:0:0:
192,192,130772,1,0,0:0:0:0:
64,192,130838,1,8,0:0:0:0:
448,192,130838,128,2,130970:0:0:0:0:
192,192,130970,1,0,0:0:0:0:
320,192,131035,1,0,0:0:0:0:
64,192,131101,128,2,131233:0:0:0:0:
448,192,131101,1,0,0:0:0:0:
320,192,131233,1,0,0:0:0:0:
192,192,131298,1,0,0:0:0:0:
320,192,131364,128,8,131496:0:0:0:0:
448,192,131364,1,2,0:0:0:0:
64,192,131496,1,0,0:0:0:0:
192,192,131562,1,0,0:0:0:0:
320,192,131627,1,2,0:0:0:0:
448,192,131627,128,0,131759:0:0:0:0:
192,192,131759,1,0,0:0:0:0:
64,192,131825,1,0,0:0:0:0:
320,192,131891,128,2,132022:0:0:0:0:
448,192,131891,1,8,0:0:0:0:
64,192,132022,1,0,0:0:0:0:
448,192,132088,1,0,0:0:0:0:
192,192,132154,128,2,132285:0:0:0:0:
320,192,132154,1,0,0:0:0:0:
320,192,132285,1,2,0:0:0:0:
448,192,132285,1,0,0:0:0:0:
64,192,132417,1,2,0:0:0:0:
192,192,132417,1,8,0:0:0:0:
448,192,132483,1,0,0:0:0:0:
64,192,132548,1,2,0:0:0:0:
192,192,132548,1,0,0:0:0:0:
320,192,132614,1,2,0:0:0:0:
448,192,132614,1,0,0:0:0:0:
64,192,132680,128,2,132812:0:0:0:0:
192,192,132680,1,4,0:0:0:0:
320,192,132812,1,2,0:0:0:0:
448,192,132812,1,0,0:0:0:0:
192,192,132943,1,2,0:0:0:0:
320,192,132943,1,8,0:0:0:0:
64,192,133009,1,0,0:0:0:0:
448,192,133075,1,0,0:0:0:0:
320,192,133141,1,0,0:0:0:0:
64,192,133206,1,2,0:0:0:0:
192,192,133206,128,0,133338:0:0:0:0:
448,192,133338,1,0,0:0:0:0:
64,192,133404,1,0,0:0:0:0:
192,192,133470,1,2,0:0:0:0:
320,192,133470,128,8,133601:0:0:0:0:
64,192,133601,1,0,0:0:0:0:
192,192,133667,1,0,0:0:0:0:
320,192,133733,1,4,0:0:0:0:
448,192,133733,128,2,133864:0:0:0:0:
192,192,133864,1,0,0:0:0:0:
320,192,133930,1,0,0:0:0:0:
64,192,133996,128,8,134127:0:0:0:0:
448,192,133996,1,2,0:0:0:0:
320,192,134127,1,0,0:0:0:0:
448,192,134193,1,0,0:0:0:0:
64,192,134259,1,2,0:0:0:0:
192,192,134259,128,0,134391:0:0:0:0:
320,192,134391,1,2,0:0:0:0:
448,192,134391,1,0,0:0:0:0:
64,192,134456,1,2,0:0:0:0:
192,192,134456,1,0,0:0:0:0:
320,192,134522,1,8,0:0:0:0:
448,192,134522,128,2,134654:0:0:0:0:
64,192,134654,1,2,0:0:0:0:
192,192,134654,1,0,0:0:0:0:
320,192,134720,1,2,0:0:0:0:
448,192,134720,1,0,0:0:0:0:
64,192,134785,1,4,0:0:0:0:
192,192,134785,1,2,0:0:0:0:
64,192,134917,1,2,0:0:0:0:
320,192,134917,1,0,0:0:0:0:
192,192,135048,1,8,0:0:0:0:
448,192,135048,1,2,0:0:0:0:
320,192,135180,1,2,0:0:0:0:
448,192,135180,1,0,0:0:0:0:
64,192,135312,1,2,0:0:0:0:
192,192,135312,1,4,0:0:0:0:
64,192,135443,1,2,0:0:0:0:
448,192,135443,1,0,0:0:0:0:
320,192,135575,1,8,0:0:0:0:
448,192,135575,1,2,0:0:0:0:
192,192,135641,1,2,0:0:0:0:
64,192,135706,1,2,0:0:0:0:
320,192,135706,1,0,0:0:0:0:
192,192,135772,1,2,0:0:0:0:
320,192,135838,1,2,0:0:0:0:
448,192,135838,1,4,0:0:0:0:
192,192,135970,1,2,0:0:0:0:
448,192,135970,1,0,0:0:0:0:
64,192,136101,1,2,0:0:0:0:
320,192,136101,1,8,0:0:0:0:
64,192,136233,1,2,0:0:0:0:
192,192,136233,1,0,0:0:0:0:
320,192,136298,1,2,0:0:0:0:
64,192,136364,1,2,0:0:0:0:
448,192,136364,1,4,0:0:0:0:
320,192,136496,1,2,0:0:0:0:
448,192,136496,1,0,0:0:0:0:
192,192,136562,1,2,0:0:0:0:
64,192,136627,1,2,0:0:0:0:
448,192,136627,1,8,0:0:0:0:
64,192,136759,1,2,0:0:0:0:
192,192,136759,1,0,0:0:0:0:
320,192,136825,1,2,0:0:0:0:
64,192,136891,1,4,0:0:0:0:
448,192,136891,1,2,0:0:0:0:
192,192,136956,1,2,0:0:0:0:
320,192,137022,1,2,0:0:0:0:
448,192,137022,1,0,0:0:0:0:
64,192,137088,1,2,0:0:0:0:
192,192,137154,1,8,0:0:0:0:
320,192,137154,1,2,0:0:0:0:
448,192,137220,1,2,0:0:0:0:
64,192,137285,1,2,0:0:0:0:
192,192,137285,1,0,0:0:0:0:
320,192,137351,1,2,0:0:0:0:
64,192,137417,1,4,0:0:0:0:
448,192,137417,1,2,0:0:0:0:
192,192,137483,1,2,0:0:0:0:
320,192,137548,1,2,0:0:0:0:
448,192,137548,1,0,0:0:0:0:
64,192,137614,1,2,0:0:0:0:
192,192,137680,1,8,0:0:0:0:
448,192,137680,1,2,0:0:0:0:
320,192,137746,1,2,0:0:0:0:
64,192,137812,1,2,0:0:0:0:
192,192,137812,1,0,0:0:0:0:
320,192,137877,1,2,0:0:0:0:
64,192,137943,1,4,0:0:0:0:
448,192,137943,1,2,0:0:0:0:
192,192,138009,1,2,0:0:0:0:
320,192,138009,1,0,0:0:0:0:
64,192,138075,1,2,0:0:0:0:
448,192,138141,1,2,0:0:0:0:
192,192,138206,1,10,0:0:0:0:
320,192,138206,1,4,0:0:0:0:
64,192,138272,1,2,0:0:0:0:
448,192,138272,1,0,0:0:0:0:
192,192,138338,1,2,0:0:0:0:
320,192,138404,1,2,0:0:0:0:
64,192,138470,1,4,0:0:0:0:
192,192,138470,1,2,0:0:0:0:
448,192,138535,1,2,0:0:0:0:
64,192,138601,1,2,0:0:0:0:
192,192,138601,1,4,0:0:0:0:
448,192,138667,1,2,0:0:0:0:
64,192,138733,1,2,0:0:0:0:
192,192,138733,1,4,0:0:0:0:
320,192,138798,1,2,0:0:0:0:
64,192,138864,1,2,0:0:0:0:
192,192,138864,1,4,0:0:0:0:
320,192,138930,1,2,0:0:0:0:
64,192,138996,128,4,139259:0:0:0:0:
192,192,138996,1,2,0:0:0:0:
448,192,138996,1,0,0:0:0:100:SFX Electro Drop.wav
192,192,139259,128,0,139391:0:0:0:0:
448,192,139522,1,0,0:0:0:0:
192,192,139588,1,0,0:0:0:0:
320,192,139654,1,0,0:0:0:0:
64,192,139720,1,0,0:0:0:0:
448,192,139785,1,0,0:0:0:0:
192,192,139851,1,0,0:0:0:0:
320,192,139917,1,0,0:0:0:0:
192,192,139983,1,0,0:0:0:0:
448,192,140048,1,0,0:0:0:0:
320,192,140114,1,0,0:0:0:0:
192,192,140180,1,0,0:0:0:0:
64,192,140246,1,0,0:0:0:0:
320,192,140312,1,0,0:0:0:0:
192,192,140377,1,0,0:0:0:0:
320,192,140443,1,0,0:0:0:0:
192,192,140509,1,0,0:0:0:0:
64,192,140575,128,4,140838:0:0:0:0:
320,192,140575,1,2,0:0:0:0:
448,192,140575,1,0,0:0:0:0:
320,192,140838,128,0,140970:0:0:0:0:
448,192,141101,1,0,0:0:0:0:
192,192,141167,1,0,0:0:0:0:
320,192,141233,1,0,0:0:0:0:
64,192,141298,1,0,0:0:0:0:
448,192,141364,1,0,0:0:0:0:
192,192,141430,1,0,0:0:0:0:
320,192,141496,1,0,0:0:0:0:
192,192,141562,1,0,0:0:0:0:
448,192,141627,1,0,0:0:0:0:
320,192,141693,1,0,0:0:0:0:
192,192,141759,1,0,0:0:0:0:
64,192,141825,1,0,0:0:0:0:
320,192,141891,1,0,0:0:0:0:
192,192,141956,1,0,0:0:0:0:
320,192,142022,1,0,0:0:0:0:
192,192,142088,1,0,0:0:0:0:
64,192,142154,128,4,142417:0:0:0:0:
320,192,142154,1,2,0:0:0:0:
448,192,142154,1,0,0:0:0:0:
448,192,142417,128,0,142548:0:0:0:0:
192,192,142680,1,0,0:0:0:0:
64,192,142746,1,0,0:0:0:0:
320,192,142812,1,0,0:0:0:0:
192,192,142877,1,0,0:0:0:0:
448,192,142943,1,0,0:0:0:0:
320,192,143009,1,0,0:0:0:0:
192,192,143075,1,0,0:0:0:0:
64,192,143141,1,0,0:0:0:0:
320,192,143206,1,0,0:0:0:0:
192,192,143272,1,0,0:0:0:0:
448,192,143338,1,0,0:0:0:0:
320,192,143404,1,0,0:0:0:0:
192,192,143470,1,0,0:0:0:0:
64,192,143535,1,0,0:0:0:0:
320,192,143601,1,0,0:0:0:0:
192,192,143667,1,0,0:0:0:0:
448,192,143733,1,0,0:0:0:0:
320,192,143798,1,0,0:0:0:0:
192,192,143864,1,0,0:0:0:0:
64,192,143930,1,0,0:0:0:0:
320,192,143996,1,0,0:0:0:0:
192,192,144062,1,0,0:0:0:0:
448,192,144127,1,0,0:0:0:0:
320,192,144193,1,0,0:0:0:0:
192,192,144259,1,0,0:0:0:0:
64,192,144325,1,0,0:0:0:0:
448,192,144391,1,0,0:0:0:0:
320,192,144456,1,0,0:0:0:0:
192,192,144522,1,0,0:0:0:0:
320,192,144588,1,0,0:0:0:0:
64,192,144654,1,0,0:0:0:0:
192,192,144720,1,0,0:0:0:0:
64,192,144785,1,0,0:0:0:0:
448,192,144851,1,0,0:0:0:0:
320,192,144917,1,0,0:0:0:0:
192,192,144983,1,0,0:0:0:0:
64,192,145048,1,0,0:0:0:0:
448,192,145114,1,0,0:0:0:0:
320,192,145180,1,0,0:0:0:0:
64,192,145246,1,0,0:0:0:0:
192,192,145312,1,0,0:0:0:0:
320,192,145377,1,0,0:0:0:0:
448,192,145443,1,0,0:0:0:0:
64,192,145509,1,0,0:0:0:0:
448,192,145575,1,0,0:0:0:0:
192,192,145641,1,0,0:0:0:0:
448,192,145706,1,0,0:0:0:0:
64,192,145772,1,0,0:0:0:0:
320,192,145838,1,0,0:0:0:0:
192,192,145904,1,0,0:0:0:0:
448,192,145970,1,0,0:0:0:0:
64,192,146035,1,0,0:0:0:0:
448,192,146101,1,0,0:0:0:0:
64,192,146167,1,0,0:0:0:0:
192,192,146233,1,0,0:0:0:0:
64,192,146298,1,0,0:0:0:0:
320,192,146364,1,0,0:0:0:0:
448,192,146430,1,0,0:0:0:0:
192,192,146496,1,0,0:0:0:0:
64,192,146562,1,0,0:0:0:0:
448,192,146627,1,0,0:0:0:0:
64,192,146693,1,0,0:0:0:0:
448,192,146759,1,0,0:0:0:0:
320,192,146825,1,0,0:0:0:0:
448,192,146891,1,0,0:0:0:0:
64,192,146956,1,0,0:0:0:0:
192,192,147022,1,0,0:0:0:0:
448,192,147088,1,0,0:0:0:0:
192,192,147154,1,0,0:0:0:0:
448,192,147220,1,0,0:0:0:0:
64,192,147285,1,0,0:0:0:0:
192,192,147351,1,0,0:0:0:0:
320,192,147417,1,6,0:0:0:0:
448,192,147461,1,0,0:0:0:0:
192,192,147505,1,0,0:0:0:0:
64,192,147548,1,0,0:0:0:0:
320,192,147592,1,0,0:0:0:0:
448,192,147636,1,0,0:0:0:0:
192,192,147680,1,0,0:0:0:0:
64,192,147724,1,0,0:0:0:0:
320,192,147768,1,0,0:0:0:0:
448,192,147812,1,0,0:0:0:0:
192,192,147856,1,0,0:0:0:0:
64,192,147899,1,0,0:0:0:0:
320,192,147943,1,0,0:0:0:0:
448,192,147987,1,0,0:0:0:0:
192,192,148031,1,0,0:0:0:0:
64,192,148075,1,0,0:0:0:0:
320,192,148119,1,0,0:0:0:0:
448,192,148163,1,0,0:0:0:0:
192,192,148206,1,0,0:0:0:0:
64,192,148250,1,0,0:0:0:0:
320,192,148294,1,0,0:0:0:0:
448,192,148338,1,0,0:0:0:0:
192,192,148382,1,0,0:0:0:0:
64,192,148426,1,0,0:0:0:0:
320,192,148470,1,0,0:0:0:0:
448,192,148513,1,0,0:0:0:0:
192,192,148557,1,0,0:0:0:0:
64,192,148601,1,0,0:0:0:0:
320,192,148645,1,0,0:0:0:0:
448,192,148689,1,0,0:0:0:0:
192,192,148733,1,0,0:0:0:0:
64,192,148777,1,0,0:0:0:0:
320,192,148820,1,0,0:0:0:0:
448,192,148864,1,0,0:0:0:0:
192,192,148908,1,0,0:0:0:0:
64,192,148952,1,0,0:0:0:0:
320,192,148996,1,0,0:0:0:0:
448,192,149040,1,0,0:0:0:0:
192,192,149084,1,0,0:0:0:0:
64,192,149127,1,0,0:0:0:0:
320,192,149171,1,0,0:0:0:0:
448,192,149215,1,0,0:0:0:0:
192,192,149259,1,0,0:0:0:0:
64,192,149303,1,0,0:0:0:0:
320,192,149347,1,0,0:0:0:0:
448,192,149391,1,0,0:0:0:0:
192,192,149434,1,0,0:0:0:0:
64,192,149478,1,0,0:0:0:0:
320,192,149522,1,4,0:0:0:0:
448,192,149522,128,2,153733:0:0:0:0:
