osu file format v14

[General]
AudioFilename: audio.ogg
AudioLeadIn: 0
PreviewTime: 52680
Countdown: 0
SampleSet: Soft
StackLeniency: 0.7
Mode: 3
LetterboxInBreaks: 0
SpecialStyle: 0
WidescreenStoryboard: 1

[Editor]
DistanceSpacing: 0.8
BeatDivisor: 4
GridSize: 32
TimelineZoom: 2.4

[Metadata]
Title:Viyella's Scream
TitleUnicode:Viyella's Scream
Artist:Laur
ArtistUnicode:Laur
Creator:deta5859
Version:Sya's BASIC
Source:オンゲキ R.E.D.
Tags:FAMoss Touru0711 _Rokii MarioUniverseZ Syadow- 音击 音擊 Ongeki 星咲 あかり Hoshizaki Akari HARDCORE TANOC TANO*C Video Game Electronic Instrumental Metal Japan Orchestral Piano Violin EDM
BeatmapID:2970356
BeatmapSetID:1419506

[Difficulty]
HPDrainRate:6.5
CircleSize:4
OverallDifficulty:6.5
ApproachRate:5
SliderMultiplier:1.4
SliderTickRate:1

[Events]
//Background and Video events
0,0,"8TdsGrZE_4x.jpg",0,0
//Break Periods
//Storyboard Layer 0 (Background)
//Storyboard Layer 1 (Fail)
//Storyboard Layer 2 (Pass)
//Storyboard Layer 3 (Foreground)
//Storyboard Layer 4 (Overlay)
//Storyboard Sound Samples
Sample,28601,0,"cymbal_s.wav",50
Sample,28798,0,"cymbal_s.wav",50
Sample,28996,0,"cymbal_s.wav",50
Sample,29193,0,"cymbal_s.wav",50
Sample,147417,0,"SFX Wobble Drop.wav",100

[TimingPoints]
49,263.157894736842,4,2,1,70,1,0
52680,-100.0,4,2,1,70,0,1
71627,-100.0,4,2,1,70,0,0
124259,-100.0,4,2,1,70,0,1
138996,-100.0,4,2,1,70,0,0

[HitObjects]
64,192,49,128,0,575:0:0:0:0:
448,192,575,128,0,970:0:0:0:0:
192,192,970,128,0,2154:0:0:0:0:
64,192,2154,1,4,0:0:0:0:
448,192,2154,1,2,0:0:0:0:
320,192,3206,128,0,4259:0:0:0:0:
64,192,4259,1,6,0:0:0:0:
448,192,4259,1,0,0:0:0:70:LR_Air Dart Snare.wav
192,192,4785,1,0,0:0:0:70:LR_Snare Drum.wav
320,192,5312,1,0,0:0:0:70:LR_Snare Drum 2.wav
192,192,5838,1,0,0:0:0:70:LR_Snare Drum.wav
64,192,6364,1,0,0:0:0:70:LR_Air Dart Snare.wav
448,192,6891,1,0,0:0:0:70:LR_Snare Drum.wav
192,192,7417,1,0,0:0:0:70:LR_Snare Drum 2.wav
320,192,7943,1,0,0:0:0:70:LR_Snare Drum.wav
64,192,8470,1,0,0:0:0:70:LR_Air Dart Snare.wav
448,192,8470,1,0,0:0:0:0:
192,192,8996,1,0,0:0:0:70:LR_Snare Drum.wav
320,192,9522,1,0,0:0:0:70:LR_Snare Drum 2.wav
64,192,10048,1,0,0:0:0:70:LR_Snare Drum.wav
448,192,10575,1,0,0:0:0:70:LR_Air Dart Snare.wav
192,192,11101,1,0,0:0:0:70:LR_Snare Drum.wav
320,192,11627,1,0,0:0:0:70:LR_Snare Drum 2.wav
64,192,12154,1,0,0:0:0:70:LR_Snare Drum.wav
320,192,12680,1,0,0:0:0:70:LR_Air Dart Snare.wav
448,192,12680,1,0,0:0:0:0:
192,192,13206,1,0,0:0:0:70:LR_Snare Drum.wav
320,192,13733,1,0,0:0:0:70:LR_Snare Drum 2.wav
64,192,14259,1,0,0:0:0:70:LR_Snare Drum.wav
448,192,14785,1,0,0:0:0:70:LR_Air Dart Snare.wav
192,192,15312,1,0,0:0:0:70:LR_Snare Drum.wav
320,192,15838,1,0,0:0:0:70:LR_Snare Drum 2.wav
448,192,16364,1,0,0:0:0:70:LR_Snare Drum.wav
64,192,16891,1,0,0:0:0:70:LR_Air Dart Snare.wav
192,192,16891,1,0,0:0:0:0:
320,192,17154,1,0,0:0:0:70:LR_Snare Drum.wav
192,192,17417,1,0,0:0:0:70:LR_Snare Drum.wav
448,192,17680,1,0,0:0:0:70:LR_Snare Drum 2.wav
64,192,17943,1,0,0:0:0:70:LR_Snare Drum 2.wav
192,192,18206,1,0,0:0:0:70:LR_Snare Drum.wav
320,192,18470,1,0,0:0:0:70:LR_Snare Drum.wav
448,192,18733,1,0,0:0:0:70:LR_Snare Drum.wav
64,192,18996,128,0,20048:0:0:0:0:
320,192,20048,1,4,0:0:0:0:
448,192,20048,1,2,0:0:0:0:
64,192,21101,1,2,0:0:0:0:
448,192,21101,1,4,0:0:0:0:
320,192,21364,1,10,0:0:0:0:
192,192,21627,1,2,0:0:0:0:
448,192,21891,1,10,0:0:0:0:
64,192,22154,1,2,0:0:0:0:
192,192,22417,1,10,0:0:0:0:
320,192,22680,1,2,0:0:0:0:
64,192,22943,1,10,0:0:0:0:
320,192,23206,1,2,0:0:0:0:
448,192,23206,1,4,0:0:0:0:
192,192,23470,1,10,0:0:0:0:
320,192,23733,1,2,0:0:0:0:
448,192,23996,1,10,0:0:0:0:
64,192,24259,128,2,24522:0:0:0:0:
320,192,24522,128,10,24785:0:0:0:0:
192,192,24785,1,2,0:0:0:0:
448,192,25048,1,10,0:0:0:0:
320,192,25180,1,2,0:0:0:0:
64,192,25312,1,4,0:0:0:0:
192,192,25312,1,2,0:0:0:0:
448,192,25575,1,10,0:0:0:0:
64,192,25838,1,2,0:0:0:0:
320,192,26101,1,10,0:0:0:0:
192,192,26364,1,2,0:0:0:0:
448,192,26627,1,10,0:0:0:0:
64,192,26891,1,2,0:0:0:0:
448,192,27154,1,10,0:0:0:0:
320,192,27285,1,2,0:0:0:0:
64,192,27417,128,2,27680:0:0:0:0:
192,192,27417,1,4,0:0:0:0:
320,192,27680,1,10,0:0:0:0:
448,192,27943,128,2,28470:0:0:0:0:
64,192,28601,1,2,0:0:0:0:
320,192,28798,1,2,0:0:0:0:
64,192,28996,1,2,0:0:0:0:
320,192,29193,1,2,0:0:0:0:
192,192,29391,1,2,0:0:0:0:
320,192,29522,1,4,0:0:0:0:
448,192,29522,1,2,0:0:0:0:
64,192,29785,1,10,0:0:0:0:
192,192,30048,1,2,0:0:0:0:
320,192,30312,1,10,0:0:0:0:
64,192,30575,1,2,0:0:0:0:
448,192,30838,1,10,0:0:0:0:
320,192,31101,1,2,0:0:0:0:
192,192,31364,1,10,0:0:0:0:
448,192,31627,1,2,0:0:0:0:
64,192,31891,1,10,0:0:0:0:
320,192,32154,1,2,0:0:0:0:
192,192,32417,1,10,0:0:0:0:
448,192,32680,1,2,0:0:0:0:
64,192,32943,1,10,0:0:0:0:
192,192,33206,1,2,0:0:0:0:
320,192,33470,128,10,33733:0:0:0:0:
64,192,33733,1,6,0:0:0:0:
448,192,33996,1,10,0:0:0:0:
320,192,34259,1,6,0:0:0:0:
192,192,34522,128,10,34785:0:0:0:0:
448,192,34785,1,6,0:0:0:0:
320,192,35048,128,10,35312:0:0:0:0:
64,192,35312,1,6,0:0:0:0:
448,192,35575,128,10,35838:0:0:0:0:
64,192,35838,128,4,37417:0:0:0:0:
192,192,35838,1,2,0:0:0:0:
320,192,37417,1,4,0:0:0:0:
448,192,37417,1,2,0:0:0:0:
64,192,37943,1,4,0:0:0:0:
448,192,37943,1,2,0:0:0:0:
320,192,38206,1,0,0:0:0:70:Drumstart_040.wav
192,192,38470,128,0,38996:0:0:0:70:Drumstart_040.wav
448,192,38996,1,6,0:0:0:0:
64,192,39259,1,0,0:0:0:70:Drumstart_040.wav
320,192,39522,128,0,40048:0:0:0:70:Drumstart_040.wav
64,192,40048,1,6,0:0:0:0:
192,192,40312,1,0,0:0:0:70:Drumstart_040.wav
448,192,40575,128,0,41101:0:0:0:70:Drumstart_040.wav
320,192,41101,1,6,0:0:0:0:
64,192,41364,1,14,0:0:0:0:
448,192,41627,1,6,0:0:0:0:
192,192,41891,1,14,0:0:0:0:
320,192,42154,1,4,0:0:0:0:
448,192,42154,1,2,0:0:0:0:
192,192,42417,1,0,0:0:0:70:Drumstart_040.wav
64,192,42680,128,0,43206:0:0:0:70:Drumstart_040.wav
448,192,43206,1,6,0:0:0:0:
320,192,43470,1,0,0:0:0:70:Drumstart_040.wav
192,192,43733,128,0,44259:0:0:0:70:Drumstart_040.wav
448,192,44259,1,6,0:0:0:0:
64,192,44522,1,0,0:0:0:70:Drumstart_040.wav
320,192,44785,128,0,45312:0:0:0:70:Drumstart_040.wav
192,192,45312,1,6,0:0:0:0:
448,192,45575,1,14,0:0:0:0:
64,192,45838,1,6,0:0:0:0:
448,192,46101,1,14,0:0:0:0:
320,192,46233,1,2,0:0:0:0:
64,192,46364,1,4,0:0:0:0:
192,192,46364,128,2,47417:0:0:0:0:
320,192,47417,128,0,48470:0:0:0:0:
64,192,48470,128,0,49522:0:0:0:0:
448,192,49522,128,0,50575:0:0:0:0:
64,192,50575,1,4,0:0:0:0:
192,192,50575,1,2,0:0:0:0:
192,192,51627,128,0,52680:0:0:0:0:
64,192,52680,1,6,0:0:0:0:
448,192,52680,1,0,0:0:0:100:SFX Lightning.wav
320,192,52943,1,10,0:0:0:0:
64,192,53206,1,2,0:0:0:0:
192,192,53470,1,10,0:0:0:0:
320,192,53733,1,2,0:0:0:0:
64,192,53996,1,10,0:0:0:0:
448,192,54259,1,2,0:0:0:0:
320,192,54522,1,10,0:0:0:0:
192,192,54785,1,6,0:0:0:0:
448,192,55048,1,10,0:0:0:0:
64,192,55312,1,2,0:0:0:0:
320,192,55575,1,10,0:0:0:0:
192,192,55838,128,2,56101:0:0:0:0:
448,192,56101,1,10,0:0:0:0:
64,192,56364,128,2,56627:0:0:0:0:
448,192,56627,1,10,0:0:0:0:
320,192,56759,1,2,0:0:0:0:
64,192,56891,1,2,0:0:0:0:
192,192,56891,1,4,0:0:0:0:
448,192,57154,1,10,0:0:0:0:
64,192,57417,1,2,0:0:0:0:
320,192,57680,1,10,0:0:0:0:
192,192,57943,1,2,0:0:0:0:
448,192,58206,1,10,0:0:0:0:
320,192,58470,1,2,0:0:0:0:
64,192,58733,1,10,0:0:0:0:
192,192,58864,1,2,0:0:0:0:
320,192,58996,1,6,0:0:0:0:
64,192,59259,1,10,0:0:0:0:
448,192,59522,1,6,0:0:0:0:
192,192,59785,1,10,0:0:0:0:
320,192,59917,1,2,0:0:0:0:
64,192,60048,128,6,60312:0:0:0:0:
192,192,60312,128,14,60575:0:0:0:0:
320,192,60575,128,6,60838:0:0:0:0:
64,192,60838,1,14,0:0:0:0:
192,192,61101,1,2,0:0:0:0:
448,192,61101,128,4,61364:0:0:0:0:
320,192,61364,1,10,0:0:0:0:
64,192,61627,128,2,61891:0:0:0:0:
320,192,61891,128,10,62154:0:0:0:0:
192,192,62154,128,2,62417:0:0:0:0:
448,192,62417,1,10,0:0:0:0:
64,192,62680,128,2,62943:0:0:0:0:
320,192,62943,1,10,0:0:0:0:
192,192,63075,1,2,0:0:0:0:
448,192,63206,1,6,0:0:0:0:
320,192,63470,1,10,0:0:0:0:
64,192,63733,1,2,0:0:0:0:
192,192,63996,1,10,0:0:0:0:
320,192,64259,128,2,64522:0:0:0:0:
192,192,64522,128,10,64785:0:0:0:0:
448,192,64785,128,2,65048:0:0:0:0:
64,192,65048,1,10,0:0:0:0:
192,192,65180,1,2,0:0:0:0:
320,192,65312,1,2,0:0:0:0:
448,192,65312,1,4,0:0:0:0:
64,192,65575,1,10,0:0:0:0:
320,192,65838,1,2,0:0:0:0:
64,192,66101,1,10,0:0:0:0:
448,192,66364,128,6,66627:0:0:0:0:
192,192,66627,128,10,66891:0:0:0:0:
448,192,66891,1,2,0:0:0:0:
320,192,67022,1,2,0:0:0:0:
192,192,67154,1,10,0:0:0:0:
320,192,67417,128,6,68206:0:0:0:0:
64,192,67680,1,10,0:0:0:0:
448,192,67943,1,6,0:0:0:0:
64,192,68206,1,10,0:0:0:0:
192,192,68470,128,6,69259:0:0:0:0:
448,192,68733,1,10,0:0:0:0:
64,192,68996,1,6,0:0:0:0:
448,192,69259,1,10,0:0:0:0:
64,192,69522,128,6,69785:0:0:0:0:
320,192,69785,128,10,70048:0:0:0:0:
192,192,70048,128,6,70312:0:0:0:0:
448,192,70312,128,10,70575:0:0:0:0:
64,192,70575,128,4,70838:0:0:0:0:
192,192,70575,128,2,70838:0:0:0:0:
320,192,70838,128,10,71101:0:0:0:0:
448,192,70838,128,4,71101:0:0:0:0:
64,192,71101,1,6,0:0:0:0:
192,192,71233,1,6,0:0:0:0:
448,192,71364,1,6,0:0:0:0:
320,192,71496,1,6,0:0:0:0:
64,192,71627,1,6,0:0:0:0:
192,192,71627,1,0,0:0:0:100:SFX Electro Drop.wav
320,192,72154,128,0,72680:0:0:0:0:
64,192,72680,128,0,73206:0:0:0:0:
320,192,73206,1,4,0:0:0:0:
448,192,73206,1,2,0:0:0:0:
192,192,73733,128,0,74259:0:0:0:0:
448,192,74259,128,0,74785:0:0:0:0:
64,192,74785,1,4,0:0:0:0:
192,192,74785,1,2,0:0:0:0:
320,192,75312,128,0,75838:0:0:0:0:
192,192,75838,128,0,76364:0:0:0:0:
64,192,76364,128,0,76891:0:0:0:0:
448,192,76891,128,0,77943:0:0:0:0:
64,192,77943,1,4,0:0:0:0:
192,192,77943,1,2,0:0:0:0:
320,192,80048,128,6,80575:0:0:0:0:
448,192,80048,1,0,0:0:0:70:wind.wav
64,192,80575,1,0,0:0:0:0:
448,192,80838,1,0,0:0:0:0:
192,192,80970,1,0,0:0:0:0:
320,192,81101,1,0,0:0:0:0:
64,192,81364,1,0,0:0:0:0:
448,192,81627,1,0,0:0:0:0:
320,192,81891,1,0,0:0:0:0:
64,192,82154,1,0,0:0:0:0:
448,192,82417,1,0,0:0:0:0:
320,192,82680,1,0,0:0:0:0:
192,192,82943,1,0,0:0:0:0:
448,192,83206,128,0,83601:0:0:0:0:
64,192,83601,128,0,83996:0:0:0:0:
320,192,83996,1,0,0:0:0:0:
192,192,84259,128,0,84785:0:0:0:0:
448,192,84785,1,0,0:0:0:0:
64,192,85048,1,0,0:0:0:0:
320,192,85180,1,0,0:0:0:0:
192,192,85312,1,0,0:0:0:0:
448,192,85575,1,0,0:0:0:0:
64,192,85838,1,0,0:0:0:0:
192,192,86101,1,0,0:0:0:0:
448,192,86364,1,0,0:0:0:0:
64,192,86627,1,0,0:0:0:0:
320,192,86891,1,0,0:0:0:0:
192,192,87154,1,0,0:0:0:0:
64,192,87417,128,0,87812:0:0:0:0:
448,192,87812,128,8,88470:0:0:0:0:
64,192,88470,1,2,0:0:0:0:
192,192,88470,1,4,0:0:0:0:
320,192,88996,1,0,0:0:0:0:
64,192,89522,1,2,0:0:0:0:
448,192,89522,1,4,0:0:0:0:
192,192,90048,1,0,0:0:0:0:
320,192,90575,1,2,0:0:0:0:
448,192,90575,1,4,0:0:0:0:
192,192,91101,1,0,0:0:0:0:
320,192,91364,1,2,0:0:0:0:
64,192,91627,1,4,0:0:0:0:
448,192,91627,1,2,0:0:0:0:
320,192,91891,1,6,0:0:0:0:
64,192,92154,1,6,0:0:0:0:
192,192,92285,1,6,0:0:0:0:
448,192,92417,1,6,0:0:0:0:
320,192,92548,1,2,0:0:0:0:
64,192,92680,128,6,94785:0:0:0:0:
192,192,92680,1,0,0:0:0:70:wind.wav
320,192,94785,128,0,95246:0:0:0:0:
192,192,95246,128,0,95904:0:0:0:0:
448,192,95904,128,0,96430:0:0:0:0:
64,192,96430,1,0,0:0:0:0:
320,192,96693,1,0,0:0:0:0:
64,192,96891,1,6,0:0:0:0:
192,192,96891,128,0,98996:0:0:0:70:LR_Snare Drum.wav
448,192,98996,1,0,0:0:0:70:LR_Snare Drum.wav
320,192,99391,1,0,0:0:0:70:LR_Snare Drum.wav
64,192,99785,1,0,0:0:0:70:LR_Snare Drum 2.wav
448,192,100048,1,0,0:0:0:70:LR_Snare Drum.wav
320,192,100312,1,0,0:0:0:70:LR_Snare Drum.wav
64,192,100575,1,0,0:0:0:70:LR_Snare Drum.wav
192,192,100838,1,0,0:0:0:70:LR_Snare Drum 2.wav
320,192,101101,1,6,0:0:0:0:
448,192,101101,1,0,0:0:0:70:LR_Snare Drum.wav
64,192,101496,1,0,0:0:0:70:LR_Snare Drum.wav
448,192,101891,1,0,0:0:0:70:LR_Snare Drum 2.wav
192,192,102154,1,0,0:0:0:70:LR_Snare Drum.wav
192,192,102417,1,0,0:0:0:70:LR_Snare Drum 2.wav
320,192,102680,1,0,0:0:0:70:LR_Snare Drum.wav
320,192,102943,1,0,0:0:0:70:LR_Snare Drum 2.wav
64,192,103206,128,4,103733:0:0:0:0:
192,192,103206,1,2,0:0:0:0:
448,192,103733,128,0,104259:0:0:0:0:
192,192,104259,128,0,104785:0:0:0:0:
320,192,104785,1,2,0:0:0:0:
448,192,104785,1,4,0:0:0:0:
64,192,105312,1,4,0:0:0:0:
448,192,105312,1,2,0:0:0:0:
192,192,105575,1,0,0:0:0:70:Drumstart_040.wav
320,192,105838,128,0,106364:0:0:0:70:Drumstart_040.wav
64,192,106364,1,6,0:0:0:0:
448,192,106627,1,0,0:0:0:70:Drumstart_040.wav
192,192,106891,128,0,107417:0:0:0:70:Drumstart_040.wav
448,192,107417,1,6,0:0:0:0:
320,192,107680,1,0,0:0:0:70:Drumstart_040.wav
64,192,107943,128,0,108470:0:0:0:70:Drumstart_040.wav
192,192,108470,1,6,0:0:0:0:
320,192,108733,1,14,0:0:0:0:
64,192,108996,1,6,0:0:0:0:
448,192,109259,1,14,0:0:0:0:
64,192,109522,1,4,0:0:0:0:
192,192,109522,1,2,0:0:0:0:
320,192,109785,1,0,0:0:0:70:Drumstart_040.wav
448,192,110048,128,0,110575:0:0:0:70:Drumstart_040.wav
64,192,110575,1,6,0:0:0:0:
192,192,110838,1,0,0:0:0:70:Drumstart_040.wav
320,192,111101,128,0,111627:0:0:0:70:Drumstart_040.wav
64,192,111627,1,6,0:0:0:0:
448,192,111891,1,0,0:0:0:70:Drumstart_040.wav
192,192,112154,128,0,112680:0:0:0:70:Drumstart_040.wav
320,192,112680,1,6,0:0:0:0:
64,192,112943,1,14,0:0:0:0:
448,192,113206,1,6,0:0:0:0:
64,192,113470,1,14,0:0:0:0:
192,192,113601,1,2,0:0:0:0:
320,192,113733,128,2,114785:0:0:0:0:
448,192,113733,1,4,0:0:0:0:
192,192,114785,128,0,115838:0:0:0:0:
448,192,115838,128,0,116891:0:0:0:0:
64,192,116891,128,0,117943:0:0:0:0:
320,192,117943,1,4,0:0:0:0:
448,192,117943,1,2,0:0:0:0:
192,192,118996,128,0,120048:0:0:0:0:
64,192,120048,1,6,0:0:0:0:
448,192,120048,1,0,0:0:0:70:wind.wav
320,192,120575,1,0,0:0:0:0:
192,192,121101,1,0,0:0:0:0:
448,192,121627,1,0,0:0:0:0:
64,192,121891,1,0,0:0:0:0:
192,192,122154,1,0,0:0:0:0:
320,192,122417,1,0,0:0:0:0:
448,192,122680,1,0,0:0:0:0:
192,192,122943,1,0,0:0:0:0:
320,192,123206,128,0,123470:0:0:0:70:LR_Snare Drum 3.wav
64,192,123470,1,0,0:0:0:70:LR_Snare Drum 3.wav
192,192,123733,128,6,123996:0:0:0:0:
448,192,123996,1,6,0:0:0:0:
64,192,124259,1,6,0:0:0:0:
192,192,124259,1,0,0:0:0:100:SFX Lightning.wav
448,192,124522,1,10,0:0:0:0:
320,192,124785,1,2,0:0:0:0:
192,192,125048,1,10,0:0:0:0:
448,192,125312,1,2,0:0:0:0:
64,192,125575,1,10,0:0:0:0:
192,192,125838,1,2,0:0:0:0:
448,192,126101,1,10,0:0:0:0:
320,192,126233,1,2,0:0:0:0:
192,192,126364,1,6,0:0:0:0:
64,192,126627,1,10,0:0:0:0:
448,192,126891,1,6,0:0:0:0:
64,192,127154,1,10,0:0:0:0:
192,192,127285,1,2,0:0:0:0:
320,192,127417,128,6,127680:0:0:0:0:
192,192,127680,128,14,127943:0:0:0:0:
64,192,127943,128,6,128206:0:0:0:0:
320,192,128206,1,14,0:0:0:0:
192,192,128470,1,2,0:0:0:0:
448,192,128470,128,4,128733:0:0:0:0:
64,192,128733,1,10,0:0:0:0:
320,192,128996,128,2,129259:0:0:0:0:
192,192,129259,128,10,129522:0:0:0:0:
448,192,129522,128,2,129785:0:0:0:0:
64,192,129785,1,10,0:0:0:0:
320,192,130048,128,2,130312:0:0:0:0:
64,192,130312,1,10,0:0:0:0:
192,192,130443,1,2,0:0:0:0:
448,192,130575,1,6,0:0:0:0:
320,192,130838,1,10,0:0:0:0:
64,192,131101,1,2,0:0:0:0:
192,192,131364,1,10,0:0:0:0:
320,192,131627,128,2,131891:0:0:0:0:
192,192,131891,128,10,132154:0:0:0:0:
448,192,132154,128,2,132417:0:0:0:0:
64,192,132417,1,10,0:0:0:0:
192,192,132548,1,2,0:0:0:0:
320,192,132680,1,2,0:0:0:0:
448,192,132680,1,4,0:0:0:0:
192,192,132943,1,10,0:0:0:0:
448,192,133206,1,2,0:0:0:0:
192,192,133470,1,10,0:0:0:0:
320,192,133733,128,6,133996:0:0:0:0:
64,192,133996,128,10,134259:0:0:0:0:
448,192,134259,1,2,0:0:0:0:
192,192,134391,1,2,0:0:0:0:
320,192,134522,1,10,0:0:0:0:
192,192,134785,128,6,135575:0:0:0:0:
448,192,135048,1,10,0:0:0:0:
64,192,135312,1,6,0:0:0:0:
448,192,135575,1,10,0:0:0:0:
320,192,135838,128,6,136627:0:0:0:0:
64,192,136101,1,10,0:0:0:0:
448,192,136364,1,6,0:0:0:0:
64,192,136627,1,10,0:0:0:0:
448,192,136891,128,6,137154:0:0:0:0:
192,192,137154,128,10,137417:0:0:0:0:
320,192,137417,128,6,137680:0:0:0:0:
64,192,137680,128,10,137943:0:0:0:0:
320,192,137943,128,4,138206:0:0:0:0:
448,192,137943,128,2,138206:0:0:0:0:
64,192,138206,128,10,138470:0:0:0:0:
192,192,138206,128,4,138470:0:0:0:0:
448,192,138470,1,6,0:0:0:0:
320,192,138601,1,6,0:0:0:0:
64,192,138733,1,6,0:0:0:0:
192,192,138864,1,6,0:0:0:0:
320,192,138996,1,6,0:0:0:0:
448,192,138996,1,0,0:0:0:100:SFX Electro Drop.wav
64,192,139522,128,0,140048:0:0:0:0:
320,192,140048,128,0,140575:0:0:0:0:
64,192,140575,1,4,0:0:0:0:
448,192,140575,1,2,0:0:0:0:
192,192,141101,128,0,141627:0:0:0:0:
448,192,141627,128,0,142154:0:0:0:0:
64,192,142154,1,4,0:0:0:0:
192,192,142154,1,2,0:0:0:0:
320,192,142680,128,0,143206:0:0:0:0:
192,192,143206,128,0,143733:0:0:0:0:
64,192,143733,128,0,144259:0:0:0:0:
448,192,144259,128,0,145312:0:0:0:0:
192,192,145312,128,0,146364:0:0:0:0:
320,192,146364,128,0,147417:0:0:0:0:
64,192,147417,128,6,149522:0:0:0:0:
320,192,149522,1,4,0:0:0:0:
448,192,149522,1,2,0:0:0:0:
