osu file format v14

[General]
AudioFilename: audio.ogg
AudioLeadIn: 0
PreviewTime: 179439
Countdown: 0
SampleSet: Soft
StackLeniency: 0.7
Mode: 3
LetterboxInBreaks: 0
EpilepsyWarning: 1
SpecialStyle: 0
WidescreenStoryboard: 1

[Editor]
DistanceSpacing: 2.4
BeatDivisor: 4
GridSize: 8
TimelineZoom: 2.099997

[Metadata]
Title:Viyella's Nightmare
TitleUnicode:Viyella's Nightmare
Artist:Laur
ArtistUnicode:Laur
Creator:[GB]Sanae
Version:Afflict
Source:
Tags:M3-2021秋 2nd Album Afflict みしゃも mishamo LLCD-002 Electronic Hardcore instrumental Viyella Vane FAMoss lovely_hyahya classical edm metal uptempo ethnic orchestral Japan
BeatmapID:3478979
BeatmapSetID:1702668

[Difficulty]
HPDrainRate:8
CircleSize:4
OverallDifficulty:8
ApproachRate:5
SliderMultiplier:1.4
SliderTickRate:1

[Events]
//Background and Video events
0,0,"Viyella's Nightmare.jpg",0,0
//Break Periods
//Storyboard Layer 0 (Background)
//Storyboard Layer 1 (Fail)
//Storyboard Layer 2 (Pass)
//Storyboard Layer 3 (Foreground)
//Storyboard Layer 4 (Overlay)
//Storyboard Sound Samples
Sample,17986,0,"Kick 15.wav",70
Sample,223075,0,"Kick 15.wav",70

[TimingPoints]
1077,272.727272727273,4,2,1,60,1,0
158167,272.727272727273,3,2,1,60,1,0
179439,272.727272727273,4,2,1,60,1,0
205620,-100,4,2,1,60,0,1
240529,-100,4,2,1,60,0,0

[HitObjects]
64,192,1077,128,4,1213:0:0:0:0:
192,192,1077,128,0,1145:0:0:0:70:Kick 15.wav
320,192,1077,1,0,0:0:0:0:
448,192,1213,1,0,0:0:0:0:
64,192,1349,128,0,1486:0:0:0:70:Kick 15.wav
192,192,1349,128,0,1417:0:0:0:0:
448,192,1486,1,0,0:0:0:0:
64,192,1622,128,0,1758:0:0:0:70:Kick 15.wav
320,192,1622,128,0,1690:0:0:0:0:
64,192,1895,128,0,2031:0:0:0:70:Kick 15.wav
448,192,1895,128,0,1963:0:0:0:0:
192,192,2167,128,0,2236:0:0:0:70:Kick 15.wav
320,192,2167,128,0,2304:0:0:0:0:
192,192,2440,128,0,2508:0:0:0:70:Kick 15.wav
320,192,2440,128,0,2577:0:0:0:0:
320,192,2713,128,0,2849:0:0:0:70:Kick 15.wav
448,192,2713,128,0,2781:0:0:0:0:
320,192,2986,128,0,3122:0:0:0:70:Kick 15.wav
448,192,2986,128,0,3054:0:0:0:0:
64,192,3258,128,0,3395:0:0:0:70:Kick 15.wav
192,192,3258,128,0,3327:0:0:0:0:
448,192,3395,1,0,0:0:0:0:
64,192,3531,128,0,3667:0:0:0:70:Kick 15.wav
192,192,3531,128,0,3599:0:0:0:0:
448,192,3667,1,0,0:0:0:0:
192,192,3804,128,0,3940:0:0:0:70:Kick 15.wav
320,192,3804,128,0,3872:0:0:0:0:
448,192,3872,1,0,0:0:0:0:
64,192,3940,1,0,0:0:0:0:
192,192,4077,128,0,4213:0:0:0:70:Kick 15.wav
448,192,4077,128,0,4145:0:0:0:0:
64,192,4213,1,0,0:0:0:0:
64,192,4349,128,0,4417:0:0:0:70:Kick 15.wav
320,192,4349,128,0,4486:0:0:0:0:
64,192,4622,128,0,4690:0:0:0:70:Kick 15.wav
320,192,4622,128,0,4758:0:0:0:0:
64,192,4895,128,0,4963:0:0:0:70:Kick 15.wav
448,192,4895,128,0,5406:0:0:0:0:
320,192,5031,128,0,5372:0:0:0:0:
192,192,5065,128,0,5338:0:0:0:0:
64,192,5122,128,0,5304:0:0:0:0:
64,192,5440,128,0,5577:0:0:0:70:Kick 15.wav
320,192,5440,128,0,5508:0:0:0:0:
64,192,5713,128,0,5849:0:0:0:70:Kick 15.wav
320,192,5713,128,0,5781:0:0:0:0:
192,192,5849,1,0,0:0:0:0:
192,192,5986,128,0,6122:0:0:0:70:Kick 15.wav
448,192,5986,128,0,6054:0:0:0:0:
192,192,6258,128,0,6395:0:0:0:70:Kick 15.wav
448,192,6258,128,0,6327:0:0:0:0:
64,192,6531,128,0,6599:0:0:0:70:Kick 15.wav
320,192,6531,128,0,6667:0:0:0:0:
64,192,6804,128,0,6872:0:0:0:70:Kick 15.wav
320,192,6804,128,0,6940:0:0:0:0:
192,192,7077,128,0,7145:0:0:0:70:Kick 15.wav
448,192,7077,128,0,7213:0:0:0:0:
192,192,7349,128,0,7417:0:0:0:70:Kick 15.wav
448,192,7349,128,0,7486:0:0:0:0:
64,192,7622,128,0,7758:0:0:0:70:Kick 15.wav
320,192,7622,128,0,7690:0:0:0:0:
192,192,7758,1,0,0:0:0:0:
64,192,7895,128,0,8031:0:0:0:70:Kick 15.wav
320,192,7895,128,0,7963:0:0:0:0:
448,192,8031,1,0,0:0:0:0:
192,192,8167,128,0,8304:0:0:0:70:Kick 15.wav
320,192,8167,128,0,8236:0:0:0:0:
448,192,8236,1,0,0:0:0:0:
64,192,8304,1,0,0:0:0:0:
192,192,8440,128,0,8577:0:0:0:70:Kick 15.wav
320,192,8440,128,0,8508:0:0:0:0:
64,192,8577,1,0,0:0:0:0:
320,192,8713,128,2,9531:0:0:0:0:
64,192,9531,128,0,9599:0:0:0:70:LR_Air Dart Snare.wav
192,192,9531,128,0,9599:0:0:0:0:
320,192,9599,128,0,9667:0:0:0:70:LR_Air Dart Snare.wav
448,192,9599,128,0,9667:0:0:0:0:
64,192,9667,1,2,0:0:0:0:
192,192,9667,1,0,0:0:0:0:
64,192,9804,1,4,0:0:0:0:
320,192,9804,128,0,9906:0:0:0:70:Kick 15.wav
448,192,9804,128,0,9940:0:0:0:0:
64,192,10077,128,0,10213:0:0:0:70:Kick 15.wav
192,192,10077,128,0,10179:0:0:0:0:
320,192,10077,1,0,0:0:0:0:
448,192,10213,1,0,0:0:0:0:
64,192,10349,1,0,0:0:0:70:Kick 15.wav
192,192,10349,128,0,10452:0:0:0:0:
320,192,10349,128,0,10486:0:0:0:0:
64,192,10622,128,0,10758:0:0:0:70:Kick 15.wav
320,192,10622,128,0,10724:0:0:0:0:
448,192,10622,1,0,0:0:0:0:
64,192,10895,128,0,10997:0:0:0:70:Kick 15.wav
192,192,10895,1,0,0:0:0:0:
448,192,10895,128,0,11031:0:0:0:0:
320,192,11031,1,0,0:0:0:0:
64,192,11167,128,0,11304:0:0:0:70:Kick 15.wav
192,192,11167,128,0,11270:0:0:0:0:
448,192,11167,1,0,0:0:0:0:
64,192,11440,1,0,0:0:0:70:Kick 15.wav
320,192,11440,128,0,11542:0:0:0:0:
448,192,11440,128,0,11577:0:0:0:0:
192,192,11577,1,0,0:0:0:0:
64,192,11713,128,0,11781:0:0:0:70:Kick 15.wav
192,192,11713,128,0,11781:0:0:0:0:
448,192,11713,1,0,0:0:0:0:
64,192,11849,1,0,0:0:0:70:Kick 15.wav
192,192,11849,128,0,11917:0:0:0:0:
320,192,11849,128,0,11917:0:0:0:0:
192,192,11986,1,0,0:0:0:70:Kick 15.wav
320,192,11986,128,0,12088:0:0:0:0:
448,192,11986,128,0,12122:0:0:0:0:
64,192,12258,128,0,12395:0:0:0:70:Kick 15.wav
192,192,12258,128,0,12361:0:0:0:0:
448,192,12258,1,0,0:0:0:0:
320,192,12395,1,0,0:0:0:0:
64,192,12531,1,0,0:0:0:70:Kick 15.wav
192,192,12531,128,0,12633:0:0:0:0:
448,192,12531,128,0,12667:0:0:0:0:
64,192,12804,128,0,12940:0:0:0:70:Kick 15.wav
320,192,12804,128,0,12906:0:0:0:0:
448,192,12804,1,0,0:0:0:0:
64,192,13077,128,0,13179:0:0:0:70:Kick 15.wav
192,192,13077,1,0,0:0:0:0:
448,192,13077,128,0,13213:0:0:0:0:
320,192,13213,1,0,0:0:0:0:
64,192,13349,1,0,0:0:0:70:Kick 15.wav
192,192,13349,128,0,13486:0:0:0:0:
448,192,13349,128,0,13452:0:0:0:0:
64,192,13622,128,0,13758:0:0:0:70:Kick 15.wav
448,192,13622,1,0,0:0:0:0:
192,192,13667,128,0,13804:0:0:0:0:
320,192,13713,128,0,13849:0:0:0:0:
448,192,13758,128,8,13895:0:0:0:0:
64,192,13895,1,8,0:0:0:0:
192,192,13895,1,0,0:0:0:0:
192,192,14031,1,8,0:0:0:0:
320,192,14031,1,0,0:0:0:0:
448,192,14099,1,8,0:0:0:0:
64,192,14167,128,4,14304:0:0:0:0:
192,192,14167,128,0,14304:0:0:0:70:Kick 15.wav
320,192,14167,1,0,0:0:0:0:
320,192,14304,1,8,0:0:0:0:
64,192,14440,1,0,0:0:0:70:Kick 15.wav
320,192,14440,128,0,14577:0:0:0:0:
448,192,14440,128,0,14577:0:0:0:0:
64,192,14577,1,8,0:0:0:0:
64,192,14713,128,0,14849:0:0:0:70:Kick 15.wav
192,192,14713,128,0,14849:0:0:0:0:
448,192,14713,1,0,0:0:0:0:
448,192,14849,1,8,0:0:0:0:
192,192,14986,1,0,0:0:0:70:Kick 15.wav
320,192,14986,128,0,15122:0:0:0:0:
448,192,14986,128,0,15122:0:0:0:0:
192,192,15122,1,8,0:0:0:0:
64,192,15258,128,4,15395:0:0:0:0:
192,192,15258,128,0,15395:0:0:0:70:Kick 15.wav
320,192,15258,1,0,0:0:0:0:
448,192,15258,1,0,0:0:0:0:
320,192,15395,1,8,0:0:0:0:
64,192,15531,1,0,0:0:0:70:Kick 15.wav
320,192,15531,128,0,15667:0:0:0:0:
448,192,15531,128,0,15667:0:0:0:0:
64,192,15667,1,8,0:0:0:0:
64,192,15804,128,0,15940:0:0:0:70:Kick 15.wav
192,192,15804,128,0,15940:0:0:0:0:
320,192,15804,1,0,0:0:0:0:
320,192,15940,1,8,0:0:0:0:
64,192,16077,1,0,0:0:0:70:Kick 15.wav
192,192,16077,1,0,0:0:0:0:
448,192,16077,1,0,0:0:0:0:
64,192,16213,1,0,0:0:0:70:Kick 15.wav
192,192,16213,1,0,0:0:0:0:
448,192,16213,1,0,0:0:0:0:
192,192,16349,1,4,0:0:0:0:
320,192,16349,1,0,0:0:0:70:Kick 15.wav
448,192,16349,1,0,0:0:0:0:
64,192,16417,1,0,0:0:0:0:
320,192,16486,1,0,0:0:0:70:Kick 15.wav
448,192,16486,1,0,0:0:0:0:
64,192,16554,1,0,0:0:0:0:
192,192,16622,1,0,0:0:0:70:Kick 15.wav
320,192,16622,1,0,0:0:0:0:
448,192,16690,1,0,0:0:0:0:
192,192,16758,1,0,0:0:0:70:Kick 15.wav
320,192,16758,1,0,0:0:0:0:
448,192,16827,1,0,0:0:0:0:
64,192,16895,1,4,0:0:0:0:
192,192,16895,1,0,0:0:0:70:Kick 15.wav
320,192,16963,1,0,0:0:0:0:
64,192,17031,1,0,0:0:0:70:Kick 15.wav
192,192,17031,1,0,0:0:0:0:
320,192,17099,1,0,0:0:0:0:
64,192,17167,1,0,0:0:0:70:Kick 15.wav
448,192,17167,1,0,0:0:0:0:
192,192,17236,1,0,0:0:0:0:
320,192,17304,1,0,0:0:0:70:Kick 15.wav
448,192,17304,1,0,0:0:0:0:
64,192,17372,1,0,0:0:0:70:Kick 15.wav
192,192,17372,1,0,0:0:0:0:
320,192,17440,1,4,0:0:0:0:
448,192,17440,1,0,0:0:0:70:Kick 15.wav
64,192,17508,1,0,0:0:0:70:Kick 15.wav
192,192,17508,1,0,0:0:0:0:
320,192,17577,1,0,0:0:0:70:Kick 15.wav
448,192,17577,1,0,0:0:0:0:
64,192,17645,1,0,0:0:0:70:Kick 15.wav
192,192,17645,1,0,0:0:0:0:
320,192,17713,1,4,0:0:0:0:
448,192,17713,1,0,0:0:0:70:Kick 15.wav
64,192,17781,1,0,0:0:0:70:Kick 15.wav
192,192,17781,1,0,0:0:0:0:
320,192,17849,1,0,0:0:0:70:Kick 15.wav
448,192,17849,1,0,0:0:0:0:
64,192,17917,1,0,0:0:0:70:Kick 15.wav
192,192,17917,1,0,0:0:0:0:
448,192,17986,1,4,0:0:0:0:
320,192,18020,1,0,0:0:0:0:
192,192,18054,1,0,0:0:0:70:Kick 15.wav
64,192,18088,1,0,0:0:0:0:
448,192,18122,1,0,0:0:0:70:Kick 15.wav
320,192,18156,1,0,0:0:0:0:
192,192,18190,1,0,0:0:0:70:Kick 15.wav
64,192,18224,1,0,0:0:0:0:
320,192,18258,128,4,18463:0:0:0:0:
448,192,18258,128,0,18599:0:0:0:70:Kick 15.wav
64,192,18395,128,0,18463:0:0:0:0:
192,192,18395,128,0,18463:0:0:0:0:
64,192,18531,128,4,18804:0:0:0:0:
192,192,18531,128,0,18736:0:0:0:70:Kick 15.wav
320,192,18531,128,0,18667:0:0:0:0:
64,192,22895,128,2,23031:0:0:0:0:
320,192,22895,1,4,0:0:0:0:
448,192,22895,1,0,0:0:0:70:wind.wav
192,192,23167,1,0,0:0:0:0:
320,192,23304,1,0,0:0:0:0:
448,192,23440,1,0,0:0:0:0:
192,192,23713,128,0,23849:0:0:0:0:
320,192,23713,1,0,0:0:0:0:
64,192,23986,1,0,0:0:0:0:
448,192,23986,128,0,24122:0:0:0:0:
320,192,24258,1,0,0:0:0:0:
64,192,24531,128,0,24667:0:0:0:0:
192,192,24531,1,0,0:0:0:0:
320,192,24804,128,0,24940:0:0:0:0:
448,192,24804,1,0,0:0:0:0:
64,192,25077,1,0,0:0:0:0:
448,192,25077,128,0,25213:0:0:0:0:
320,192,25349,1,0,0:0:0:0:
192,192,25486,1,0,0:0:0:0:
64,192,25622,1,0,0:0:0:0:
192,192,25895,1,0,0:0:0:0:
320,192,25895,128,0,26031:0:0:0:0:
192,192,26167,128,0,26304:0:0:0:0:
448,192,26167,1,0,0:0:0:0:
64,192,26440,1,0,0:0:0:0:
448,192,26440,1,0,0:0:0:0:
192,192,26713,1,0,0:0:0:0:
320,192,26713,1,0,0:0:0:0:
64,192,26986,1,0,0:0:0:0:
320,192,27020,1,0,0:0:0:0:
448,192,27122,1,0,0:0:0:0:
64,192,27258,128,0,27395:0:0:0:0:
192,192,27292,1,0,0:0:0:0:
320,192,28077,1,0,0:0:0:0:
192,192,28213,1,0,0:0:0:0:
64,192,28349,1,0,0:0:0:0:
448,192,28349,128,0,28486:0:0:0:0:
64,192,28622,1,0,0:0:0:0:
192,192,28713,1,0,0:0:0:0:
320,192,28804,1,0,0:0:0:0:
64,192,28895,128,0,29031:0:0:0:0:
448,192,28895,1,0,0:0:0:0:
192,192,29167,128,0,29304:0:0:0:0:
320,192,29167,1,0,0:0:0:0:
320,192,29440,128,0,29577:0:0:0:0:
448,192,29440,1,0,0:0:0:0:
64,192,31349,128,0,31622:0:0:0:0:
192,192,31622,128,2,32167:0:0:0:0:
320,192,31622,1,4,0:0:0:0:
448,192,31622,1,0,0:0:0:70:wind.wav
64,192,31895,1,0,0:0:0:0:
320,192,32167,128,0,32440:0:0:0:0:
448,192,32167,1,0,0:0:0:0:
64,192,32440,128,0,32713:0:0:0:0:
192,192,32440,1,0,0:0:0:0:
320,192,32713,1,0,0:0:0:0:
448,192,32713,128,0,33258:0:0:0:0:
192,192,32849,1,0,0:0:0:0:
64,192,32986,1,0,0:0:0:0:
320,192,33122,1,0,0:0:0:0:
64,192,33258,128,0,33531:0:0:0:0:
192,192,33258,1,0,0:0:0:0:
448,192,33395,1,0,0:0:0:0:
192,192,33531,128,0,33804:0:0:0:0:
320,192,33531,1,0,0:0:0:0:
64,192,33667,1,0,0:0:0:0:
320,192,33804,1,0,0:0:0:0:
448,192,33804,128,0,34349:0:0:0:0:
320,192,34077,1,0,0:0:0:0:
192,192,34213,1,0,0:0:0:0:
64,192,34349,1,0,0:0:0:0:
192,192,34349,128,0,34622:0:0:0:0:
64,192,34622,128,0,34895:0:0:0:0:
192,192,34758,128,0,34895:0:0:0:0:
448,192,34895,1,0,0:0:0:0:
320,192,34929,1,0,0:0:0:0:
64,192,34963,128,0,35440:0:0:0:0:
192,192,34963,1,0,0:0:0:0:
192,192,35713,128,0,35849:0:0:0:0:
448,192,35849,128,0,35986:0:0:0:0:
64,192,35986,1,0,0:0:0:0:
320,192,35986,128,0,36531:0:0:0:0:
192,192,36122,1,0,0:0:0:0:
448,192,36258,1,0,0:0:0:0:
64,192,36395,1,0,0:0:0:0:
192,192,36531,1,0,0:0:0:0:
448,192,36667,1,0,0:0:0:0:
64,192,36804,1,0,0:0:0:0:
192,192,36804,128,0,36940:0:0:0:0:
320,192,36940,1,0,0:0:0:0:
64,192,37077,128,0,37486:0:0:0:0:
448,192,37077,1,0,0:0:0:0:
320,192,37213,1,0,0:0:0:0:
448,192,37349,1,0,0:0:0:0:
192,192,37486,1,0,0:0:0:0:
320,192,37486,128,0,37895:0:0:0:0:
64,192,37622,1,0,0:0:0:0:
448,192,37758,1,0,0:0:0:0:
64,192,37895,128,0,38167:0:0:0:0:
192,192,37895,1,0,0:0:0:0:
320,192,38031,1,0,0:0:0:0:
192,192,38167,128,0,38440:0:0:0:0:
448,192,38167,1,0,0:0:0:0:
64,192,38304,1,0,0:0:0:0:
320,192,38440,128,0,38713:0:0:0:0:
448,192,38440,1,0,0:0:0:0:
192,192,38577,1,0,0:0:0:0:
64,192,38713,1,0,0:0:0:0:
448,192,38713,128,0,38986:0:0:0:0:
320,192,38986,128,0,39258:0:0:0:0:
64,192,39258,128,0,39395:0:0:0:0:
192,192,39258,128,0,39395:0:0:0:0:
64,192,39531,128,0,39667:0:0:0:0:
448,192,39531,128,0,39667:0:0:0:0:
192,192,39667,1,0,0:0:0:0:
192,192,39804,1,2,0:0:0:0:
320,192,39804,1,0,0:0:0:0:
320,192,39940,1,2,0:0:0:0:
448,192,39940,1,0,0:0:0:0:
64,192,40008,1,2,0:0:0:0:
192,192,40008,1,0,0:0:0:0:
320,192,40077,1,0,0:0:0:70:LR_Air Dart Snare.wav
448,192,40077,1,0,0:0:0:0:
64,192,40213,1,2,0:0:0:0:
448,192,40213,1,0,0:0:0:0:
320,192,40281,1,2,0:0:0:0:
64,192,40349,128,4,40758:0:0:0:0:
192,192,40349,128,0,40554:0:0:0:70:Kick 15.wav
448,192,40349,1,0,0:0:0:0:
320,192,40622,128,0,40713:0:0:0:0:
448,192,40622,128,0,40758:0:0:0:0:
320,192,40895,128,0,40986:0:0:0:0:
448,192,40895,128,0,41031:0:0:0:0:
64,192,41167,128,0,41304:0:0:0:0:
192,192,41167,128,0,41258:0:0:0:0:
64,192,41440,128,0,41577:0:0:0:0:
192,192,41440,128,0,41531:0:0:0:0:
320,192,41713,128,0,41781:0:0:0:0:
448,192,41713,128,0,41849:0:0:0:0:
192,192,41849,128,0,41917:0:0:0:0:
320,192,41849,128,0,41986:0:0:0:0:
64,192,41986,128,0,42077:0:0:0:0:
192,192,41986,128,0,42122:0:0:0:0:
448,192,41986,128,0,42258:0:0:0:0:
64,192,42258,128,0,42349:0:0:0:0:
192,192,42258,128,0,42395:0:0:0:0:
64,192,42531,1,4,0:0:0:0:
320,192,42531,128,0,42736:0:0:0:70:Kick 15.wav
448,192,42531,128,0,42940:0:0:0:0:
64,192,42804,128,0,42940:0:0:0:0:
192,192,42804,128,0,42895:0:0:0:0:
64,192,43077,128,0,43213:0:0:0:0:
192,192,43077,128,0,43167:0:0:0:0:
320,192,43349,128,0,43440:0:0:0:0:
448,192,43349,128,0,43486:0:0:0:0:
320,192,43622,128,0,43713:0:0:0:0:
448,192,43622,128,0,43758:0:0:0:0:
64,192,43895,128,0,44031:0:0:0:0:
192,192,43895,128,0,43963:0:0:0:0:
192,192,44031,128,0,44167:0:0:0:0:
320,192,44031,128,0,44099:0:0:0:0:
64,192,44167,128,0,44440:0:0:0:0:
320,192,44167,128,0,44304:0:0:0:0:
448,192,44167,128,0,44258:0:0:0:0:
192,192,44440,128,0,44531:0:0:0:0:
320,192,44440,128,0,44577:0:0:0:0:
448,192,44440,128,0,44531:0:0:0:0:
192,192,44622,128,0,44713:0:0:0:0:
64,192,44713,128,4,45122:0:0:0:0:
320,192,44713,1,0,0:0:0:70:Kick 15.wav
448,192,44713,128,0,44849:0:0:0:0:
192,192,44986,128,0,45077:0:0:0:0:
320,192,44986,128,0,45122:0:0:0:0:
192,192,45258,128,0,45349:0:0:0:0:
320,192,45258,128,0,45395:0:0:0:0:
64,192,45531,128,0,45667:0:0:0:0:
448,192,45531,128,0,45622:0:0:0:0:
64,192,45804,128,0,45940:0:0:0:0:
448,192,45804,128,0,45895:0:0:0:0:
192,192,46077,128,0,46213:0:0:0:0:
320,192,46077,128,0,46145:0:0:0:0:
320,192,46213,128,0,46349:0:0:0:0:
448,192,46213,128,0,46281:0:0:0:0:
64,192,46349,128,0,46440:0:0:0:0:
192,192,46349,128,0,46622:0:0:0:0:
448,192,46349,128,0,46486:0:0:0:0:
64,192,46622,128,0,46713:0:0:0:0:
448,192,46622,128,0,46758:0:0:0:0:
64,192,46895,1,4,0:0:0:0:
192,192,46895,128,0,47304:0:0:0:70:Kick 15.wav
320,192,46895,128,0,47031:0:0:0:0:
64,192,47167,128,0,47304:0:0:0:0:
320,192,47167,128,0,47258:0:0:0:0:
64,192,47440,128,0,47577:0:0:0:0:
320,192,47440,128,0,47531:0:0:0:0:
192,192,47713,128,0,47804:0:0:0:0:
448,192,47713,128,0,47849:0:0:0:0:
192,192,47986,128,0,48077:0:0:0:0:
448,192,47986,128,0,48122:0:0:0:0:
64,192,48258,128,0,48395:0:0:0:0:
320,192,48258,128,0,48395:0:0:0:0:
448,192,48395,128,0,48531:0:0:0:0:
64,192,48531,128,0,48667:0:0:0:0:
320,192,48667,128,0,48804:0:0:0:0:
192,192,48804,128,0,48940:0:0:0:0:
448,192,48940,128,0,49077:0:0:0:0:
64,192,49077,1,4,0:0:0:0:
192,192,49077,1,0,0:0:0:70:Kick 15.wav
320,192,49077,1,0,0:0:0:0:
64,192,49213,1,8,0:0:0:0:
192,192,49349,1,8,0:0:0:0:
320,192,49349,1,0,0:0:0:0:
448,192,49349,1,0,0:0:0:0:
64,192,49486,1,8,0:0:0:0:
320,192,49486,1,0,0:0:0:0:
448,192,49486,1,0,0:0:0:0:
64,192,49622,1,8,0:0:0:0:
192,192,49622,1,0,0:0:0:0:
320,192,49622,1,0,0:0:0:0:
320,192,49758,1,8,0:0:0:0:
448,192,49758,1,0,0:0:0:0:
192,192,49827,1,8,0:0:0:0:
64,192,49895,1,8,0:0:0:0:
320,192,49895,1,0,0:0:0:0:
448,192,49895,1,0,0:0:0:0:
64,192,50031,1,8,0:0:0:0:
192,192,50167,1,8,0:0:0:0:
320,192,50167,1,4,0:0:0:0:
448,192,50167,1,0,0:0:0:0:
64,192,50304,1,8,0:0:0:0:
192,192,50304,1,0,0:0:0:0:
320,192,50304,1,0,0:0:0:0:
192,192,50440,1,8,0:0:0:0:
320,192,50440,1,0,0:0:0:0:
448,192,50440,1,0,0:0:0:0:
64,192,50577,1,8,0:0:0:0:
192,192,50577,1,0,0:0:0:0:
448,192,50577,1,0,0:0:0:0:
64,192,50713,1,8,0:0:0:0:
320,192,50713,1,0,0:0:0:0:
448,192,50713,1,0,0:0:0:0:
192,192,50849,1,8,0:0:0:0:
64,192,50986,1,8,0:0:0:0:
192,192,50986,1,0,0:0:0:0:
448,192,50986,1,0,0:0:0:0:
64,192,51122,1,8,0:0:0:0:
192,192,51258,1,8,0:0:0:0:
320,192,51258,1,4,0:0:0:0:
448,192,51258,1,0,0:0:0:0:
320,192,51395,1,8,0:0:0:0:
64,192,51531,1,8,0:0:0:0:
192,192,51531,1,0,0:0:0:0:
448,192,51531,1,0,0:0:0:0:
64,192,51667,1,8,0:0:0:0:
192,192,51667,1,0,0:0:0:0:
320,192,51667,1,0,0:0:0:0:
192,192,51804,1,8,0:0:0:0:
320,192,51804,1,0,0:0:0:0:
448,192,51804,1,0,0:0:0:0:
448,192,51940,1,8,0:0:0:0:
64,192,52077,1,8,0:0:0:0:
192,192,52077,1,0,0:0:0:0:
320,192,52077,1,0,0:0:0:0:
448,192,52213,1,8,0:0:0:0:
320,192,52281,1,8,0:0:0:0:
64,192,52349,1,8,0:0:0:0:
192,192,52349,1,4,0:0:0:0:
448,192,52349,1,0,0:0:0:0:
320,192,52417,1,0,0:0:0:0:
192,192,52486,1,8,0:0:0:0:
64,192,52622,1,8,0:0:0:0:
320,192,52622,1,0,0:0:0:0:
448,192,52622,1,0,0:0:0:0:
64,192,52758,1,8,0:0:0:0:
192,192,52895,1,8,0:0:0:0:
320,192,52895,1,0,0:0:0:0:
448,192,52895,1,0,0:0:0:0:
448,192,53031,1,8,0:0:0:0:
64,192,53167,1,8,0:0:0:0:
192,192,53167,1,0,0:0:0:0:
320,192,53167,1,0,0:0:0:0:
448,192,53236,1,8,0:0:0:0:
64,192,53304,1,8,0:0:0:0:
192,192,53304,1,0,0:0:0:0:
320,192,53372,1,8,0:0:0:0:
64,192,53440,1,4,0:0:0:0:
448,192,53440,1,8,0:0:0:0:
192,192,53508,1,8,0:0:0:0:
320,192,53577,1,8,0:0:0:0:
448,192,53577,1,0,0:0:0:0:
64,192,53645,1,8,0:0:0:0:
192,192,53713,1,8,0:0:0:0:
320,192,53713,1,0,0:0:0:0:
448,192,53781,1,8,0:0:0:0:
64,192,53849,1,8,0:0:0:0:
320,192,53849,1,0,0:0:0:0:
192,192,53917,1,8,0:0:0:0:
320,192,53986,1,8,0:0:0:0:
448,192,53986,1,0,0:0:0:0:
64,192,54054,1,8,0:0:0:0:
192,192,54122,1,8,0:0:0:0:
448,192,54122,1,0,0:0:0:0:
320,192,54190,1,8,0:0:0:0:
64,192,54258,1,8,0:0:0:0:
192,192,54258,1,0,0:0:0:0:
448,192,54327,1,8,0:0:0:0:
192,192,54395,1,8,0:0:0:0:
320,192,54395,1,0,0:0:0:0:
64,192,54463,1,8,0:0:0:0:
320,192,54531,1,4,0:0:0:0:
448,192,54531,1,8,0:0:0:0:
192,192,54599,1,8,0:0:0:0:
64,192,54667,1,8,0:0:0:0:
448,192,54667,1,0,0:0:0:0:
320,192,54736,1,8,0:0:0:0:
64,192,54804,1,8,0:0:0:0:
192,192,54804,1,0,0:0:0:0:
448,192,54872,1,8,0:0:0:0:
192,192,54940,1,8,0:0:0:0:
320,192,54940,1,0,0:0:0:0:
64,192,55008,1,8,0:0:0:0:
320,192,55077,1,8,0:0:0:0:
448,192,55077,1,0,0:0:0:0:
64,192,55145,1,8,0:0:0:0:
192,192,55145,1,0,0:0:0:0:
320,192,55213,1,8,0:0:0:0:
448,192,55213,1,0,0:0:0:0:
64,192,55281,1,8,0:0:0:0:
192,192,55281,1,0,0:0:0:0:
320,192,55349,1,8,0:0:0:0:
448,192,55349,1,0,0:0:0:0:
64,192,55417,1,8,0:0:0:0:
192,192,55417,1,0,0:0:0:0:
320,192,55486,1,8,0:0:0:0:
448,192,55486,1,0,0:0:0:0:
64,192,55554,1,8,0:0:0:0:
192,192,55554,1,0,0:0:0:0:
320,192,55622,1,0,0:0:0:70:LR_Air Dart Snare.wav
448,192,55622,1,0,0:0:0:0:
64,192,55895,1,0,0:0:0:70:LR_Air Dart Snare.wav
192,192,55895,1,0,0:0:0:0:
448,192,55895,1,0,0:0:0:0:
192,192,55986,1,0,0:0:0:0:
64,192,56077,1,0,0:0:0:70:LR_Air Dart Snare.wav
320,192,56077,1,0,0:0:0:0:
64,192,56167,1,0,0:0:0:70:LR_Air Dart Snare.wav
320,192,56167,1,0,0:0:0:0:
448,192,56167,1,0,0:0:0:0:
192,192,56349,1,0,0:0:0:0:
64,192,56440,1,0,0:0:0:70:LR_Air Dart Snare.wav
192,192,56440,1,0,0:0:0:0:
448,192,56440,1,0,0:0:0:0:
64,192,56622,1,0,0:0:0:70:LR_Air Dart Snare.wav
320,192,56622,1,0,0:0:0:0:
320,192,56713,1,0,0:0:0:70:LR_Air Dart Snare.wav
448,192,56713,128,0,57804:0:0:0:0:
64,192,57804,128,8,57940:0:0:0:0:
192,192,57804,128,4,57974:0:0:0:0:
320,192,57804,128,0,58008:0:0:0:70:wind.wav
192,192,58077,128,8,58281:0:0:0:0:
320,192,58077,128,0,58247:0:0:0:0:
448,192,58077,128,0,58213:0:0:0:0:
64,192,58349,128,8,58486:0:0:0:0:
192,192,58349,128,0,58520:0:0:0:0:
320,192,58349,128,0,58554:0:0:0:0:
64,192,58622,128,8,58713:0:0:0:0:
192,192,58622,128,0,58804:0:0:0:0:
448,192,58622,128,0,58804:0:0:0:0:
320,192,58713,128,0,58804:0:0:0:0:
64,192,58804,128,0,58986:0:0:0:0:
192,192,58895,128,8,59031:0:0:0:0:
320,192,58895,128,0,59065:0:0:0:0:
448,192,58895,128,0,59099:0:0:0:0:
64,192,59167,128,8,59349:0:0:0:0:
320,192,59167,128,0,59258:0:0:0:0:
448,192,59167,128,0,59258:0:0:0:0:
192,192,59258,128,0,59349:0:0:0:0:
320,192,59349,128,0,59440:0:0:0:0:
64,192,59440,128,8,59531:0:0:0:0:
192,192,59440,128,0,59531:0:0:0:0:
448,192,59440,128,0,59622:0:0:0:0:
320,192,59531,128,0,59622:0:0:0:0:
192,192,59622,128,0,59713:0:0:0:0:
64,192,59713,128,8,59895:0:0:0:0:
320,192,59713,128,0,59804:0:0:0:0:
448,192,59713,128,0,59804:0:0:0:0:
192,192,59804,128,0,59895:0:0:0:0:
320,192,59895,128,8,60167:0:0:0:0:
448,192,59895,128,0,60213:0:0:0:0:
64,192,59986,128,8,60077:0:0:0:0:
192,192,59986,128,0,60122:0:0:0:0:
64,192,60167,128,8,60258:0:0:0:0:
192,192,60258,128,8,60349:0:0:0:0:
320,192,60258,128,0,60440:0:0:0:0:
448,192,60349,128,0,60440:0:0:0:0:
64,192,60440,128,8,60531:0:0:0:0:
192,192,60440,1,0,0:0:0:0:
320,192,60531,128,8,60622:0:0:0:0:
448,192,60531,1,0,0:0:0:0:
64,192,60622,1,8,0:0:0:0:
192,192,60622,128,0,60713:0:0:0:0:
320,192,60713,1,8,0:0:0:0:
448,192,60713,128,0,60804:0:0:0:0:
64,192,60804,128,8,60895:0:0:0:0:
192,192,60804,1,0,0:0:0:0:
320,192,60895,128,8,60986:0:0:0:0:
448,192,60895,1,0,0:0:0:0:
64,192,60986,1,8,0:0:0:0:
192,192,60986,128,0,61077:0:0:0:0:
64,192,61213,128,0,61486:0:0:0:0:
320,192,61213,128,0,61349:0:0:0:0:
192,192,61486,1,0,0:0:0:0:
320,192,61622,128,0,61758:0:0:0:0:
448,192,61622,128,0,61895:0:0:0:0:
64,192,61895,128,0,62031:0:0:0:0:
192,192,61895,128,0,62167:0:0:0:0:
320,192,62167,1,4,0:0:0:0:
448,192,62167,1,0,0:0:0:70:Kick 15.wav
192,192,62258,1,0,0:0:0:0:
64,192,62349,1,0,0:0:0:0:
448,192,62349,1,0,0:0:0:0:
192,192,62440,1,0,0:0:0:70:Kick 15.wav
320,192,62440,1,0,0:0:0:0:
448,192,62440,1,0,0:0:0:0:
64,192,62531,1,0,0:0:0:0:
192,192,62622,1,0,0:0:0:0:
448,192,62622,1,0,0:0:0:0:
64,192,62713,1,0,0:0:0:70:Kick 15.wav
192,192,62713,1,0,0:0:0:0:
320,192,62713,1,0,0:0:0:0:
448,192,62804,1,0,0:0:0:0:
192,192,62895,1,0,0:0:0:0:
320,192,62895,1,0,0:0:0:0:
64,192,62986,1,0,0:0:0:70:Kick 15.wav
192,192,62986,1,0,0:0:0:0:
448,192,62986,1,0,0:0:0:0:
320,192,63077,1,0,0:0:0:0:
64,192,63167,1,0,0:0:0:0:
192,192,63167,1,0,0:0:0:0:
64,192,63258,1,0,0:0:0:70:Kick 15.wav
320,192,63258,1,0,0:0:0:0:
448,192,63258,1,0,0:0:0:0:
192,192,63349,1,0,0:0:0:0:
64,192,63440,1,0,0:0:0:0:
320,192,63440,1,0,0:0:0:0:
192,192,63531,1,0,0:0:0:70:Kick 15.wav
320,192,63531,1,0,0:0:0:0:
448,192,63531,1,0,0:0:0:0:
64,192,63622,1,0,0:0:0:0:
192,192,63713,1,0,0:0:0:0:
448,192,63713,1,0,0:0:0:0:
64,192,63804,1,0,0:0:0:70:Kick 15.wav
192,192,63804,1,0,0:0:0:0:
320,192,63804,1,0,0:0:0:0:
448,192,63895,1,0,0:0:0:0:
192,192,63986,1,0,0:0:0:0:
320,192,63986,1,0,0:0:0:0:
64,192,64077,1,0,0:0:0:70:Kick 15.wav
192,192,64077,1,0,0:0:0:0:
448,192,64077,1,0,0:0:0:0:
320,192,64167,1,0,0:0:0:0:
64,192,64258,1,0,0:0:0:70:Kick 15.wav
192,192,64258,1,0,0:0:0:0:
448,192,64258,1,0,0:0:0:0:
64,192,64349,1,0,0:0:0:70:Kick 15.wav
320,192,64349,1,0,0:0:0:0:
448,192,64349,1,0,0:0:0:0:
192,192,64440,1,0,0:0:0:0:
64,192,64531,1,0,0:0:0:0:
320,192,64531,1,0,0:0:0:0:
64,192,64622,1,0,0:0:0:70:Kick 15.wav
192,192,64622,1,0,0:0:0:0:
448,192,64622,1,0,0:0:0:0:
320,192,64713,1,0,0:0:0:0:
192,192,64804,1,0,0:0:0:0:
448,192,64804,1,0,0:0:0:0:
64,192,64895,1,0,0:0:0:70:Kick 15.wav
320,192,64895,1,0,0:0:0:0:
448,192,64895,1,0,0:0:0:0:
192,192,64986,1,0,0:0:0:0:
320,192,65077,1,0,0:0:0:0:
448,192,65077,1,0,0:0:0:0:
64,192,65167,1,0,0:0:0:70:Kick 15.wav
192,192,65167,1,0,0:0:0:0:
320,192,65167,1,0,0:0:0:0:
448,192,65258,1,0,0:0:0:0:
64,192,65349,1,0,0:0:0:70:Kick 15.wav
192,192,65349,1,0,0:0:0:0:
320,192,65349,1,0,0:0:0:0:
64,192,65440,1,4,0:0:0:0:
192,192,65440,128,0,65645:0:0:0:70:Kick 15.wav
448,192,65440,128,0,65577:0:0:0:0:
64,192,65645,128,0,65713:0:0:0:0:
320,192,65645,128,0,65849:0:0:0:0:
192,192,65849,128,0,65917:0:0:0:0:
448,192,65849,128,0,65986:0:0:0:0:
64,192,65986,128,0,66122:0:0:0:0:
320,192,65986,128,0,66054:0:0:0:0:
192,192,66122,128,0,66258:0:0:0:0:
64,192,66258,128,0,66327:0:0:0:70:Kick 15.wav
320,192,66258,128,0,66327:0:0:0:0:
448,192,66258,128,0,66327:0:0:0:0:
64,192,66395,128,0,66463:0:0:0:70:Kick 15.wav
320,192,66395,128,0,66463:0:0:0:0:
448,192,66395,128,0,66463:0:0:0:0:
64,192,66531,1,4,0:0:0:0:
192,192,66531,1,0,0:0:0:70:Kick 15.wav
448,192,66531,1,0,0:0:0:0:
320,192,66622,1,0,0:0:0:0:
64,192,66713,1,0,0:0:0:0:
448,192,66713,1,0,0:0:0:0:
64,192,66804,1,0,0:0:0:70:Kick 15.wav
192,192,66804,1,0,0:0:0:0:
320,192,66804,1,0,0:0:0:0:
448,192,66895,1,0,0:0:0:0:
192,192,66986,1,0,0:0:0:0:
320,192,66986,1,0,0:0:0:0:
64,192,67077,1,0,0:0:0:70:Kick 15.wav
320,192,67077,1,0,0:0:0:0:
448,192,67077,1,0,0:0:0:0:
192,192,67167,1,0,0:0:0:0:
64,192,67258,1,0,0:0:0:0:
320,192,67258,1,0,0:0:0:0:
64,192,67349,1,0,0:0:0:70:Kick 15.wav
192,192,67349,1,0,0:0:0:0:
448,192,67349,1,0,0:0:0:0:
320,192,67440,1,0,0:0:0:0:
192,192,67531,1,0,0:0:0:0:
448,192,67531,1,0,0:0:0:0:
64,192,67622,1,0,0:0:0:70:Kick 15.wav
192,192,67622,1,0,0:0:0:0:
320,192,67622,1,0,0:0:0:0:
448,192,67713,1,0,0:0:0:0:
192,192,67804,1,0,0:0:0:0:
320,192,67804,1,0,0:0:0:0:
64,192,67895,1,0,0:0:0:70:Kick 15.wav
192,192,67895,1,0,0:0:0:0:
448,192,67895,1,0,0:0:0:0:
320,192,67986,1,0,0:0:0:0:
64,192,68077,1,0,0:0:0:0:
192,192,68077,1,0,0:0:0:0:
64,192,68167,1,0,0:0:0:70:Kick 15.wav
320,192,68167,1,0,0:0:0:0:
448,192,68167,1,0,0:0:0:0:
192,192,68258,1,0,0:0:0:0:
320,192,68349,1,0,0:0:0:0:
448,192,68349,1,0,0:0:0:0:
64,192,68440,1,0,0:0:0:70:Kick 15.wav
192,192,68440,1,0,0:0:0:0:
320,192,68440,1,0,0:0:0:0:
448,192,68531,1,0,0:0:0:0:
64,192,68622,1,0,0:0:0:70:Kick 15.wav
192,192,68622,1,0,0:0:0:0:
320,192,68622,1,0,0:0:0:0:
192,192,68713,1,0,0:0:0:70:Kick 15.wav
320,192,68713,1,0,0:0:0:0:
448,192,68713,1,0,0:0:0:0:
64,192,68804,1,0,0:0:0:0:
192,192,68895,1,0,0:0:0:0:
320,192,68895,1,0,0:0:0:0:
64,192,68986,1,0,0:0:0:70:Kick 15.wav
192,192,68986,1,0,0:0:0:0:
448,192,68986,1,0,0:0:0:0:
320,192,69077,1,0,0:0:0:0:
64,192,69167,1,0,0:0:0:0:
192,192,69167,1,0,0:0:0:0:
64,192,69258,1,0,0:0:0:70:Kick 15.wav
320,192,69258,1,0,0:0:0:0:
448,192,69258,1,0,0:0:0:0:
192,192,69349,1,0,0:0:0:0:
64,192,69440,1,0,0:0:0:70:Kick 15.wav
320,192,69440,1,0,0:0:0:0:
448,192,69440,1,0,0:0:0:0:
64,192,69531,1,0,0:0:0:70:Kick 15.wav
192,192,69531,1,0,0:0:0:0:
448,192,69531,1,0,0:0:0:0:
320,192,69622,1,0,0:0:0:0:
64,192,69713,1,0,0:0:0:70:Kick 15.wav
192,192,69713,1,0,0:0:0:0:
448,192,69713,1,0,0:0:0:0:
192,192,69804,1,4,0:0:0:0:
320,192,69804,128,0,69872:0:0:0:70:Kick 15.wav
448,192,69804,128,0,70077:0:0:0:0:
192,192,69940,128,0,70008:0:0:0:0:
320,192,69940,128,0,70077:0:0:0:0:
64,192,70077,128,0,70145:0:0:0:0:
192,192,70077,128,0,70349:0:0:0:0:
64,192,70213,128,0,70349:0:0:0:0:
448,192,70213,128,0,70281:0:0:0:0:
448,192,70349,128,0,70622:0:0:0:0:
320,192,70440,128,0,70622:0:0:0:0:
192,192,70531,128,0,70622:0:0:0:0:
64,192,70622,128,0,70804:0:0:0:0:
192,192,70713,128,0,70804:0:0:0:0:
320,192,70804,1,0,0:0:0:0:
64,192,70895,1,0,0:0:0:70:Kick 15.wav
448,192,70895,1,0,0:0:0:0:
320,192,70940,1,0,0:0:0:0:
192,192,70986,1,0,0:0:0:0:
64,192,71031,1,0,0:0:0:0:
448,192,71077,1,0,0:0:0:0:
320,192,71122,1,0,0:0:0:0:
192,192,71167,1,0,0:0:0:0:
320,192,71213,1,0,0:0:0:0:
448,192,71258,1,0,0:0:0:0:
64,192,71304,1,0,0:0:0:70:Kick 15.wav
192,192,71304,1,0,0:0:0:0:
448,192,71349,1,0,0:0:0:0:
320,192,71395,1,0,0:0:0:0:
64,192,71440,1,4,0:0:0:0:
192,192,71440,1,0,0:0:0:70:Kick 15.wav
448,192,71531,1,0,0:0:0:0:
64,192,71622,1,0,0:0:0:0:
320,192,71622,1,0,0:0:0:0:
192,192,71713,1,0,0:0:0:70:Kick 15.wav
320,192,71713,1,0,0:0:0:0:
448,192,71713,1,0,0:0:0:0:
64,192,71804,1,0,0:0:0:0:
192,192,71895,1,0,0:0:0:0:
320,192,71895,1,0,0:0:0:0:
64,192,71986,1,0,0:0:0:70:Kick 15.wav
320,192,71986,1,0,0:0:0:0:
448,192,71986,1,0,0:0:0:0:
192,192,72077,1,0,0:0:0:0:
320,192,72167,1,0,0:0:0:0:
448,192,72167,1,0,0:0:0:0:
64,192,72258,1,0,0:0:0:70:Kick 15.wav
192,192,72258,1,0,0:0:0:0:
448,192,72258,1,0,0:0:0:0:
320,192,72349,1,0,0:0:0:0:
64,192,72440,1,0,0:0:0:0:
192,192,72440,1,0,0:0:0:0:
192,192,72531,1,0,0:0:0:70:Kick 15.wav
320,192,72531,1,0,0:0:0:0:
448,192,72531,1,0,0:0:0:0:
64,192,72622,1,0,0:0:0:0:
320,192,72713,1,0,0:0:0:0:
448,192,72713,1,0,0:0:0:0:
64,192,72804,1,0,0:0:0:70:Kick 15.wav
192,192,72804,1,0,0:0:0:0:
320,192,72804,1,0,0:0:0:0:
448,192,72895,1,0,0:0:0:0:
64,192,72986,1,0,0:0:0:70:Kick 15.wav
192,192,72986,1,0,0:0:0:0:
320,192,72986,1,0,0:0:0:0:
192,192,73077,1,0,0:0:0:70:Kick 15.wav
320,192,73077,1,0,0:0:0:0:
448,192,73077,1,0,0:0:0:0:
64,192,73167,1,0,0:0:0:0:
192,192,73258,1,0,0:0:0:0:
448,192,73258,1,0,0:0:0:0:
64,192,73349,1,0,0:0:0:70:Kick 15.wav
320,192,73349,1,0,0:0:0:0:
448,192,73349,1,0,0:0:0:0:
192,192,73440,1,0,0:0:0:0:
64,192,73531,1,0,0:0:0:0:
448,192,73531,1,0,0:0:0:0:
64,192,73622,1,0,0:0:0:70:Kick 15.wav
192,192,73622,1,0,0:0:0:0:
320,192,73622,1,0,0:0:0:0:
448,192,73713,1,0,0:0:0:0:
64,192,73804,1,0,0:0:0:70:Kick 15.wav
192,192,73804,1,0,0:0:0:0:
320,192,73804,1,0,0:0:0:0:
192,192,73895,1,0,0:0:0:70:Kick 15.wav
320,192,73895,1,0,0:0:0:0:
448,192,73895,1,0,0:0:0:0:
64,192,73986,1,0,0:0:0:0:
192,192,74077,1,0,0:0:0:70:Kick 15.wav
320,192,74077,1,0,0:0:0:0:
448,192,74077,1,0,0:0:0:0:
64,192,74167,1,4,0:0:0:0:
192,192,74167,128,0,74304:0:0:0:70:Kick 15.wav
320,192,74167,128,0,74236:0:0:0:0:
64,192,74304,128,0,74372:0:0:0:0:
320,192,74304,128,0,74440:0:0:0:0:
64,192,74440,128,0,74577:0:0:0:0:
448,192,74440,128,0,74713:0:0:0:0:
64,192,74713,128,0,74849:0:0:0:0:
192,192,74713,128,0,74781:0:0:0:0:
320,192,74713,1,0,0:0:0:0:
192,192,74849,128,0,74986:0:0:0:0:
320,192,74849,128,0,74917:0:0:0:0:
64,192,74986,1,8,0:0:0:0:
320,192,74986,128,0,75122:0:0:0:0:
448,192,74986,128,0,75258:0:0:0:0:
64,192,75258,128,4,75395:0:0:0:0:
192,192,75258,128,0,75395:0:0:0:70:Kick 15.wav
320,192,75258,1,0,0:0:0:0:
320,192,75395,128,0,75463:0:0:0:70:Kick 15.wav
448,192,75395,128,0,75463:0:0:0:0:
64,192,75463,128,0,75667:0:0:0:70:Kick 15.wav
192,192,75463,128,0,75702:0:0:0:0:
320,192,75531,128,4,75974:0:0:0:0:
448,192,75531,128,0,75736:0:0:0:70:Kick 15.wav
64,192,75804,128,4,76213:0:0:0:0:
192,192,75804,128,0,76008:0:0:0:70:Kick 15.wav
448,192,75804,128,0,75940:0:0:0:0:
192,192,76077,128,4,76554:0:0:0:0:
320,192,76077,128,0,76247:0:0:0:70:Kick 15.wav
448,192,76077,128,0,76281:0:0:0:0:
64,192,76349,128,4,76520:0:0:0:0:
320,192,76349,128,0,76417:0:0:0:70:Kick 15.wav
448,192,76349,128,0,76486:0:0:0:0:
320,192,76486,128,0,76827:0:0:0:0:
64,192,76622,128,4,76758:0:0:0:0:
192,192,76622,128,0,76792:0:0:0:70:Kick 15.wav
448,192,76622,128,0,76690:0:0:0:0:
448,192,76758,128,0,77031:0:0:0:0:
64,192,76895,128,4,77099:0:0:0:0:
192,192,76895,128,0,76963:0:0:0:70:Kick 15.wav
320,192,76895,128,0,77065:0:0:0:0:
192,192,77031,128,0,77372:0:0:0:0:
64,192,77167,128,4,77236:0:0:0:0:
320,192,77167,128,0,77304:0:0:0:70:Kick 15.wav
448,192,77167,128,0,77338:0:0:0:0:
64,192,77304,128,0,77440:0:0:0:0:
192,192,77440,128,4,77508:0:0:0:0:
320,192,77440,128,0,77508:0:0:0:70:kick09.wav
448,192,77440,128,0,77577:0:0:0:0:
64,192,77577,128,0,77645:0:0:0:70:kick09.wav
192,192,77577,128,0,77645:0:0:0:0:
320,192,77645,128,0,77713:0:0:0:70:kick09.wav
448,192,77645,128,0,77713:0:0:0:0:
64,192,77713,128,4,77849:0:0:0:0:
192,192,77713,128,0,77849:0:0:0:70:kick09.wav
192,192,77986,128,4,78122:0:0:0:0:
320,192,77986,128,0,78122:0:0:0:70:kick09.wav
448,192,77986,128,0,78122:0:0:0:0:
64,192,78258,128,4,78531:0:0:0:0:
320,192,78258,128,0,78327:0:0:0:70:kick09.wav
448,192,78258,128,0,78327:0:0:0:0:
192,192,78395,128,4,78531:0:0:0:0:
320,192,78395,128,0,78531:0:0:0:70:kick09.wav
448,192,78395,128,0,78531:0:0:0:0:
64,192,78667,128,8,78804:0:0:0:0:
320,192,78667,128,0,78940:0:0:0:0:
448,192,78940,1,0,0:0:0:0:
64,192,79077,128,0,79213:0:0:0:0:
192,192,79077,128,0,79349:0:0:0:0:
64,192,79349,128,0,79486:0:0:0:70:LR_Air Dart Snare.wav
320,192,79349,1,0,0:0:0:0:
448,192,79349,128,0,79486:0:0:0:0:
192,192,79486,1,2,0:0:0:0:
320,192,79486,1,0,0:0:0:0:
64,192,79554,1,2,0:0:0:0:
448,192,79554,1,0,0:0:0:0:
192,192,79622,1,4,0:0:0:0:
320,192,79622,1,2,0:0:0:0:
448,192,79690,1,0,0:0:0:0:
64,192,79758,1,0,0:0:0:0:
448,192,79827,1,0,0:0:0:0:
64,192,79895,1,2,0:0:0:0:
320,192,79895,1,0,0:0:0:0:
192,192,79963,1,0,0:0:0:0:
320,192,80031,1,0,0:0:0:0:
192,192,80099,1,0,0:0:0:0:
64,192,80167,1,2,0:0:0:0:
448,192,80167,1,0,0:0:0:0:
320,192,80236,1,0,0:0:0:0:
192,192,80304,1,0,0:0:0:0:
448,192,80349,1,0,0:0:0:0:
320,192,80395,1,0,0:0:0:0:
64,192,80440,1,2,0:0:0:0:
192,192,80440,1,0,0:0:0:0:
320,192,80486,1,0,0:0:0:0:
448,192,80531,1,0,0:0:0:0:
64,192,80577,1,0,0:0:0:0:
192,192,80622,1,0,0:0:0:0:
320,192,80667,1,0,0:0:0:0:
64,192,80713,1,2,0:0:0:0:
448,192,80713,1,0,0:0:0:0:
320,192,80767,1,0,0:0:0:0:
192,192,80822,1,0,0:0:0:0:
448,192,80877,1,0,0:0:0:0:
64,192,80931,1,0,0:0:0:0:
192,192,80986,1,2,0:0:0:0:
448,192,80986,1,0,0:0:0:0:
320,192,81031,1,0,0:0:0:0:
192,192,81077,1,0,0:0:0:0:
64,192,81122,1,0,0:0:0:0:
320,192,81190,1,0,0:0:0:0:
64,192,81258,1,2,0:0:0:0:
448,192,81258,1,0,0:0:0:0:
192,192,81327,1,0,0:0:0:0:
320,192,81327,1,0,0:0:0:0:
64,192,81395,1,0,0:0:0:0:
192,192,81463,1,0,0:0:0:0:
320,192,81463,1,0,0:0:0:0:
64,192,81531,1,2,0:0:0:0:
448,192,81531,1,0,0:0:0:0:
192,192,81599,1,0,0:0:0:0:
320,192,81667,1,0,0:0:0:0:
448,192,81736,1,0,0:0:0:0:
64,192,81804,1,2,0:0:0:0:
192,192,81804,1,0,0:0:0:0:
320,192,81872,1,0,0:0:0:0:
192,192,81940,1,0,0:0:0:0:
448,192,82008,1,0,0:0:0:0:
64,192,82077,1,2,0:0:0:0:
320,192,82077,1,0,0:0:0:0:
192,192,82122,1,0,0:0:0:0:
320,192,82167,1,0,0:0:0:0:
448,192,82213,1,0,0:0:0:0:
64,192,82258,1,0,0:0:0:0:
192,192,82304,1,0,0:0:0:0:
320,192,82349,1,2,0:0:0:0:
448,192,82349,1,0,0:0:0:0:
64,192,82417,1,0,0:0:0:0:
192,192,82486,1,0,0:0:0:0:
320,192,82554,1,0,0:0:0:0:
192,192,82622,1,2,0:0:0:0:
448,192,82622,1,0,0:0:0:0:
64,192,82667,1,0,0:0:0:0:
448,192,82713,1,0,0:0:0:0:
320,192,82758,1,0,0:0:0:0:
192,192,82804,1,0,0:0:0:0:
64,192,82849,1,0,0:0:0:0:
320,192,82895,1,2,0:0:0:0:
448,192,82895,1,0,0:0:0:0:
192,192,82963,1,0,0:0:0:0:
320,192,83031,1,0,0:0:0:0:
448,192,83099,1,0,0:0:0:0:
64,192,83167,1,2,0:0:0:0:
192,192,83167,1,0,0:0:0:0:
320,192,83213,1,0,0:0:0:0:
192,192,83258,1,0,0:0:0:0:
64,192,83304,1,0,0:0:0:0:
448,192,83349,1,0,0:0:0:0:
320,192,83395,1,0,0:0:0:0:
64,192,83440,1,2,0:0:0:0:
192,192,83440,1,0,0:0:0:0:
320,192,83577,1,2,0:0:0:0:
448,192,83577,1,0,0:0:0:0:
64,192,83645,1,2,0:0:0:0:
192,192,83645,1,0,0:0:0:0:
320,192,83713,1,0,0:0:0:70:LR_Air Dart Snare.wav
448,192,83713,1,0,0:0:0:0:
192,192,83758,1,0,0:0:0:0:
320,192,83804,1,0,0:0:0:0:
64,192,83849,1,0,0:0:0:0:
192,192,83895,1,0,0:0:0:0:
320,192,83940,1,0,0:0:0:0:
64,192,83986,1,2,0:0:0:0:
448,192,83986,1,4,0:0:0:0:
192,192,84054,1,0,0:0:0:0:
320,192,84122,1,0,0:0:0:0:
448,192,84190,1,0,0:0:0:0:
64,192,84258,1,2,0:0:0:0:
192,192,84258,1,0,0:0:0:0:
320,192,84327,1,0,0:0:0:0:
64,192,84395,1,0,0:0:0:0:
320,192,84463,1,0,0:0:0:0:
64,192,84531,1,2,0:0:0:0:
448,192,84531,1,0,0:0:0:0:
192,192,84599,1,0,0:0:0:0:
448,192,84667,1,0,0:0:0:0:
192,192,84736,1,0,0:0:0:0:
64,192,84804,1,2,0:0:0:0:
320,192,84804,1,0,0:0:0:0:
448,192,84872,1,0,0:0:0:0:
192,192,84940,1,0,0:0:0:0:
448,192,85008,1,0,0:0:0:0:
64,192,85077,1,2,0:0:0:0:
320,192,85077,1,0,0:0:0:0:
192,192,85122,1,0,0:0:0:0:
448,192,85167,1,0,0:0:0:0:
320,192,85213,1,0,0:0:0:0:
64,192,85258,1,0,0:0:0:0:
192,192,85304,1,0,0:0:0:0:
320,192,85349,1,2,0:0:0:0:
448,192,85349,1,0,0:0:0:0:
64,192,85395,1,0,0:0:0:0:
192,192,85440,1,0,0:0:0:0:
448,192,85486,1,0,0:0:0:0:
320,192,85531,1,0,0:0:0:0:
192,192,85577,1,0,0:0:0:0:
64,192,85622,1,2,0:0:0:0:
448,192,85622,1,0,0:0:0:0:
320,192,85690,1,0,0:0:0:0:
192,192,85758,1,0,0:0:0:0:
320,192,85827,1,0,0:0:0:0:
64,192,85895,1,2,0:0:0:0:
448,192,85895,1,0,0:0:0:0:
192,192,85940,1,0,0:0:0:0:
320,192,85986,1,0,0:0:0:0:
64,192,86031,1,0,0:0:0:0:
448,192,86077,1,0,0:0:0:0:
192,192,86122,1,0,0:0:0:0:
64,192,86167,1,2,0:0:0:0:
320,192,86167,1,0,0:0:0:0:
192,192,86236,1,0,0:0:0:0:
320,192,86304,1,2,0:0:0:0:
448,192,86304,1,0,0:0:0:0:
64,192,86372,1,2,0:0:0:0:
192,192,86372,1,0,0:0:0:0:
320,192,86440,1,2,0:0:0:0:
448,192,86440,1,0,0:0:0:0:
64,192,86486,1,0,0:0:0:0:
192,192,86531,1,0,0:0:0:0:
320,192,86577,1,0,0:0:0:0:
64,192,86622,1,0,0:0:0:0:
448,192,86667,1,0,0:0:0:0:
192,192,86713,1,2,0:0:0:0:
320,192,86713,1,0,0:0:0:0:
64,192,86781,1,0,0:0:0:0:
192,192,86849,1,2,0:0:0:0:
448,192,86849,1,0,0:0:0:0:
320,192,86917,1,0,0:0:0:0:
64,192,86986,1,2,0:0:0:0:
192,192,86986,1,0,0:0:0:0:
320,192,87054,1,2,0:0:0:0:
448,192,87054,1,0,0:0:0:0:
64,192,87122,1,2,0:0:0:0:
192,192,87122,1,0,0:0:0:0:
320,192,87190,1,2,0:0:0:0:
448,192,87190,1,0,0:0:0:0:
64,192,87258,128,2,87327:0:0:0:0:
192,192,87258,1,4,0:0:0:0:
320,192,87395,1,0,0:0:0:0:
448,192,87531,128,0,87599:0:0:0:0:
320,192,87667,128,0,87736:0:0:0:0:
64,192,87804,128,0,87872:0:0:0:0:
192,192,87872,128,0,87940:0:0:0:0:
320,192,87940,128,0,88008:0:0:0:0:
448,192,88008,128,0,88077:0:0:0:0:
64,192,88077,128,0,88349:0:0:0:0:
192,192,88145,128,0,88281:0:0:0:0:
320,192,88213,128,0,88520:0:0:0:0:
192,192,88349,128,0,88486:0:0:0:70:Kick 15.wav
448,192,88349,128,0,88554:0:0:0:0:
64,192,88622,128,4,88827:0:0:0:0:
192,192,88622,128,0,88792:0:0:0:70:Kick 15.wav
320,192,88622,128,0,88758:0:0:0:0:
64,192,88895,128,0,89031:0:0:0:70:Kick 15.wav
320,192,88895,128,0,89065:0:0:0:0:
448,192,88895,128,0,89099:0:0:0:0:
192,192,89167,128,0,89338:0:0:0:70:Kick 15.wav
320,192,89167,128,0,89304:0:0:0:0:
448,192,89167,1,0,0:0:0:0:
64,192,89304,128,0,89372:0:0:0:0:
192,192,89440,128,0,89577:0:0:0:70:Kick 15.wav
320,192,89440,128,0,89611:0:0:0:0:
448,192,89440,128,0,89645:0:0:0:0:
64,192,89713,128,0,89917:0:0:0:70:Kick 15.wav
192,192,89713,128,0,89883:0:0:0:0:
320,192,89713,128,0,89849:0:0:0:0:
64,192,89986,128,0,90122:0:0:0:70:Kick 15.wav
192,192,89986,128,0,90156:0:0:0:0:
448,192,89986,128,0,90190:0:0:0:0:
64,192,90258,1,0,0:0:0:70:Kick 15.wav
192,192,90258,128,0,90429:0:0:0:0:
320,192,90258,128,0,90395:0:0:0:0:
64,192,90395,128,0,90463:0:0:0:70:Kick 15.wav
448,192,90395,1,0,0:0:0:0:
192,192,90531,128,0,90667:0:0:0:70:Kick 15.wav
320,192,90531,128,0,90702:0:0:0:0:
448,192,90531,128,0,90736:0:0:0:0:
192,192,90804,128,0,91008:0:0:0:70:Kick 15.wav
320,192,90804,128,0,90974:0:0:0:0:
448,192,90804,128,0,90940:0:0:0:0:
64,192,91077,128,0,91213:0:0:0:70:Kick 15.wav
320,192,91077,128,0,91247:0:0:0:0:
448,192,91077,128,0,91281:0:0:0:0:
192,192,91349,1,0,0:0:0:70:Kick 15.wav
320,192,91349,128,0,91486:0:0:0:0:
448,192,91349,128,0,91486:0:0:0:0:
64,192,91486,128,0,91554:0:0:0:70:Kick 15.wav
192,192,91486,128,0,91554:0:0:0:0:
320,192,91554,128,0,91622:0:0:0:70:Kick 15.wav
448,192,91554,128,0,91622:0:0:0:0:
64,192,91622,128,4,91895:0:0:0:0:
192,192,91622,1,0,0:0:0:70:Kick 15.wav
192,192,91758,128,0,92031:0:0:0:70:Kick 15.wav
320,192,91758,1,0,0:0:0:0:
320,192,91895,128,0,92304:0:0:0:70:Kick 15.wav
448,192,91895,1,0,0:0:0:0:
64,192,92167,128,0,92236:0:0:0:70:Kick 15.wav
192,192,92167,128,0,92270:0:0:0:0:
448,192,92167,128,0,92440:0:0:0:0:
64,192,92440,128,0,92508:0:0:0:70:LR_Air Dart Snare.wav
192,192,92440,128,0,92508:0:0:0:0:
320,192,92508,128,0,92577:0:0:0:70:LR_Air Dart Snare.wav
448,192,92508,128,0,92577:0:0:0:0:
64,192,92577,128,2,92781:0:0:0:0:
192,192,92577,128,0,92713:0:0:0:0:
320,192,92713,128,4,92781:0:0:0:0:
448,192,92713,128,0,92781:0:0:0:70:Kick 15.wav
64,192,92849,128,0,92917:0:0:0:70:Kick 15.wav
192,192,92849,128,0,92917:0:0:0:0:
320,192,92917,128,0,92986:0:0:0:70:Kick 15.wav
64,192,92986,1,4,0:0:0:0:
192,192,92986,128,0,93122:0:0:0:70:Kick 15.wav
448,192,92986,128,0,93190:0:0:0:0:
64,192,93258,128,0,93463:0:0:0:70:Kick 15.wav
320,192,93258,128,0,93395:0:0:0:0:
448,192,93258,1,0,0:0:0:0:
64,192,93531,1,0,0:0:0:70:Kick 15.wav
192,192,93531,128,0,93667:0:0:0:0:
448,192,93531,128,0,93736:0:0:0:0:
320,192,93667,128,0,93736:0:0:0:0:
192,192,93736,128,0,93804:0:0:0:0:
64,192,93804,128,0,93940:0:0:0:70:Kick 15.wav
320,192,93804,128,0,94008:0:0:0:0:
448,192,93804,1,0,0:0:0:0:
192,192,93940,128,0,94077:0:0:0:0:
64,192,94077,128,0,94281:0:0:0:70:Kick 15.wav
320,192,94077,1,0,0:0:0:0:
448,192,94077,128,0,94213:0:0:0:0:
192,192,94213,128,0,94349:0:0:0:0:
64,192,94349,1,0,0:0:0:70:Kick 15.wav
320,192,94349,128,0,94486:0:0:0:0:
448,192,94349,128,0,94554:0:0:0:0:
192,192,94486,128,0,94622:0:0:0:0:
64,192,94622,128,0,94690:0:0:0:70:Kick 15.wav
320,192,94622,128,0,94690:0:0:0:0:
448,192,94622,1,0,0:0:0:0:
64,192,94758,128,0,94827:0:0:0:70:Kick 15.wav
192,192,94758,128,0,94827:0:0:0:0:
320,192,94827,128,0,94895:0:0:0:70:Kick 15.wav
448,192,94827,128,0,95031:0:0:0:0:
64,192,94895,128,4,95031:0:0:0:0:
192,192,94895,128,0,94963:0:0:0:70:Kick 15.wav
192,192,95031,128,0,95099:0:0:0:70:Kick 15.wav
320,192,95031,128,0,95099:0:0:0:0:
64,192,95099,128,0,95167:0:0:0:70:Kick 15.wav
448,192,95099,128,0,95167:0:0:0:0:
192,192,95167,128,4,95304:0:0:0:0:
320,192,95167,128,0,95304:0:0:0:70:Kick 15.wav
192,192,95440,128,4,95577:0:0:0:0:
320,192,95440,128,0,95645:0:0:0:70:Kick 15.wav
448,192,95440,128,0,95713:0:0:0:0:
64,192,95713,128,4,95849:0:0:0:0:
192,192,95713,128,0,95781:0:0:0:70:Kick 15.wav
320,192,95713,1,0,0:0:0:0:
192,192,95849,1,4,0:0:0:0:
320,192,95849,128,0,95917:0:0:0:70:Kick 15.wav
448,192,95849,128,0,95986:0:0:0:0:
64,192,95986,128,4,96258:0:0:0:0:
192,192,95986,128,0,96122:0:0:0:70:Kick 15.wav
320,192,95986,1,0,0:0:0:70:wind.wav
448,192,96122,128,0,96395:0:0:0:0:
320,192,96258,128,0,96599:0:0:0:0:
192,192,96395,128,0,96599:0:0:0:0:
64,192,96599,128,0,97008:0:0:0:0:
448,192,96599,128,0,97008:0:0:0:0:
192,192,96872,128,0,96940:0:0:0:0:
320,192,96872,128,0,97008:0:0:0:0:
192,192,97008,128,0,97213:0:0:0:0:
64,192,97077,128,4,97145:0:0:0:0:
320,192,97077,128,0,97281:0:0:0:70:Kick 15.wav
448,192,97077,128,0,97349:0:0:0:0:
64,192,99258,128,2,101167:0:0:0:0:
192,192,99258,128,4,100349:0:0:0:0:
320,192,99258,1,0,0:0:0:0:
448,192,99258,1,0,0:0:0:0:
320,192,101167,128,0,101304:0:0:0:0:
448,192,101167,128,0,101440:0:0:0:0:
192,192,101440,128,0,102804:0:0:0:0:
320,192,101440,128,0,102531:0:0:0:0:
64,192,103622,128,2,104713:0:0:0:0:
192,192,103622,1,4,0:0:0:0:
320,192,103622,1,0,0:0:0:0:
448,192,103622,128,0,105531:0:0:0:0:
192,192,105531,128,0,105804:0:0:0:0:
320,192,105531,128,0,105667:0:0:0:0:
64,192,105804,128,0,107167:0:0:0:0:
320,192,105804,128,0,106895:0:0:0:0:
64,192,107440,1,0,0:0:0:0:
192,192,107440,1,0,0:0:0:0:
192,192,107577,1,0,0:0:0:0:
320,192,107577,1,0,0:0:0:0:
320,192,107713,1,0,0:0:0:0:
448,192,107713,1,0,0:0:0:0:
64,192,107986,1,2,0:0:0:0:
192,192,107986,1,4,0:0:0:0:
320,192,107986,1,0,0:0:0:0:
448,192,108122,1,0,0:0:0:0:
320,192,108258,1,0,0:0:0:0:
192,192,108395,1,0,0:0:0:0:
64,192,108531,1,2,0:0:0:0:
320,192,108531,1,0,0:0:0:70:default-n.wav
448,192,108531,1,0,0:0:0:0:
192,192,108667,1,0,0:0:0:0:
64,192,108804,1,2,0:0:0:0:
448,192,108804,1,0,0:0:0:0:
320,192,108940,1,0,0:0:0:0:
64,192,109077,1,2,0:0:0:0:
192,192,109077,1,0,0:0:0:0:
448,192,109213,1,0,0:0:0:0:
320,192,109349,1,0,0:0:0:0:
64,192,109486,1,0,0:0:0:0:
192,192,109622,1,2,0:0:0:0:
320,192,109622,1,0,0:0:0:70:default-n.wav
448,192,109622,1,0,0:0:0:0:
64,192,109758,1,0,0:0:0:0:
192,192,109895,1,0,0:0:0:0:
448,192,110031,1,0,0:0:0:0:
192,192,110167,1,2,0:0:0:0:
320,192,110167,1,0,0:0:0:0:
64,192,110304,1,0,0:0:0:0:
448,192,110440,1,0,0:0:0:0:
320,192,110577,1,0,0:0:0:0:
64,192,110713,1,2,0:0:0:0:
192,192,110713,1,0,0:0:0:70:default-n.wav
448,192,110713,1,0,0:0:0:0:
320,192,110849,1,0,0:0:0:0:
64,192,110986,1,2,0:0:0:0:
448,192,110986,1,0,0:0:0:0:
192,192,111122,1,0,0:0:0:0:
320,192,111258,1,2,0:0:0:0:
448,192,111258,1,0,0:0:0:0:
64,192,111395,1,0,0:0:0:0:
192,192,111531,1,0,0:0:0:0:
320,192,111667,1,0,0:0:0:0:
64,192,111804,1,0,0:0:0:0:
448,192,111804,1,0,0:0:0:0:
192,192,111838,1,0,0:0:0:0:
320,192,111872,1,0,0:0:0:0:
64,192,112349,1,2,0:0:0:0:
320,192,112349,1,4,0:0:0:0:
448,192,112349,1,0,0:0:0:0:
192,192,112486,1,0,0:0:0:0:
320,192,112622,1,0,0:0:0:0:
448,192,112758,1,0,0:0:0:0:
64,192,112895,1,2,0:0:0:0:
192,192,112895,1,0,0:0:0:70:default-n.wav
320,192,112895,1,0,0:0:0:0:
448,192,113031,1,0,0:0:0:0:
64,192,113167,1,2,0:0:0:0:
320,192,113167,1,0,0:0:0:0:
192,192,113304,1,0,0:0:0:0:
320,192,113440,1,2,0:0:0:0:
448,192,113440,1,0,0:0:0:0:
64,192,113577,1,0,0:0:0:0:
192,192,113713,1,0,0:0:0:0:
448,192,113849,1,0,0:0:0:0:
64,192,113986,1,2,0:0:0:0:
192,192,113986,1,0,0:0:0:70:default-n.wav
320,192,113986,1,0,0:0:0:0:
448,192,114122,1,0,0:0:0:0:
320,192,114258,1,0,0:0:0:0:
192,192,114395,1,0,0:0:0:0:
64,192,114531,1,2,0:0:0:0:
448,192,114531,1,0,0:0:0:0:
192,192,114667,1,0,0:0:0:0:
320,192,114804,1,0,0:0:0:0:
448,192,114940,1,0,0:0:0:0:
64,192,115077,1,2,0:0:0:0:
192,192,115077,1,0,0:0:0:70:default-n.wav
320,192,115077,1,0,0:0:0:0:
448,192,115213,1,0,0:0:0:0:
64,192,115349,1,2,0:0:0:0:
192,192,115349,1,0,0:0:0:0:
320,192,115417,1,0,0:0:0:0:
64,192,115486,1,0,0:0:0:0:
192,192,115554,1,0,0:0:0:0:
320,192,115622,1,2,0:0:0:0:
448,192,115622,1,0,0:0:0:0:
192,192,115700,1,0,0:0:0:0:
64,192,115778,1,0,0:0:0:0:
320,192,115856,1,0,0:0:0:0:
192,192,115934,1,0,0:0:0:0:
64,192,116012,1,0,0:0:0:0:
448,192,116089,1,0,0:0:0:0:
320,192,116167,1,2,0:0:0:0:
448,192,116236,1,0,0:0:0:0:
64,192,116304,1,2,0:0:0:0:
192,192,116304,1,0,0:0:0:0:
320,192,116372,1,2,0:0:0:0:
448,192,116372,1,0,0:0:0:0:
64,192,116440,1,0,0:0:0:70:LR_Air Dart Snare.wav
192,192,116440,1,0,0:0:0:0:
320,192,116531,1,0,0:0:0:0:
448,192,116622,1,0,0:0:0:0:
64,192,116713,128,4,116986:0:0:0:0:
192,192,116713,128,0,116917:0:0:0:70:Kick 15.wav
320,192,116713,128,0,116849:0:0:0:0:
448,192,116986,128,0,117736:0:0:0:0:
320,192,117054,128,0,117667:0:0:0:0:
192,192,117122,128,0,117599:0:0:0:0:
64,192,117804,1,0,0:0:0:0:
192,192,117804,1,0,0:0:0:0:
320,192,117872,1,0,0:0:0:0:
448,192,117872,1,0,0:0:0:0:
64,192,117940,1,0,0:0:0:0:
320,192,118008,1,0,0:0:0:0:
64,192,118077,1,0,0:0:0:0:
192,192,118077,1,0,0:0:0:0:
448,192,118077,1,0,0:0:0:0:
192,192,118213,1,0,0:0:0:0:
448,192,118213,1,0,0:0:0:0:
320,192,118281,1,0,0:0:0:0:
64,192,118349,1,0,0:0:0:0:
192,192,118349,1,0,0:0:0:0:
320,192,118417,1,0,0:0:0:0:
448,192,118417,1,0,0:0:0:0:
64,192,118486,1,0,0:0:0:0:
192,192,118554,1,0,0:0:0:0:
320,192,118554,1,0,0:0:0:0:
64,192,118622,1,0,0:0:0:0:
448,192,118622,1,0,0:0:0:0:
320,192,118758,1,0,0:0:0:0:
448,192,118758,1,0,0:0:0:0:
64,192,118827,1,0,0:0:0:0:
192,192,118895,128,4,119031:0:0:0:0:
320,192,118895,128,0,119099:0:0:0:70:Kick 15.wav
448,192,118895,128,0,119167:0:0:0:0:
64,192,119167,128,0,119917:0:0:0:0:
192,192,119236,128,0,119849:0:0:0:0:
320,192,119304,128,0,119781:0:0:0:0:
320,192,119986,1,0,0:0:0:0:
448,192,119986,1,0,0:0:0:0:
64,192,120054,1,0,0:0:0:0:
192,192,120054,1,0,0:0:0:0:
448,192,120122,1,0,0:0:0:0:
64,192,120190,1,0,0:0:0:0:
192,192,120190,1,0,0:0:0:0:
320,192,120258,1,0,0:0:0:0:
448,192,120258,1,0,0:0:0:0:
64,192,120327,1,0,0:0:0:0:
320,192,120395,1,0,0:0:0:0:
64,192,120463,1,0,0:0:0:0:
192,192,120531,1,0,0:0:0:0:
448,192,120531,1,0,0:0:0:0:
320,192,120577,1,0,0:0:0:0:
64,192,120622,1,0,0:0:0:0:
192,192,120667,1,0,0:0:0:0:
320,192,120713,1,0,0:0:0:0:
448,192,120758,1,0,0:0:0:0:
64,192,120804,1,0,0:0:0:0:
192,192,120804,1,0,0:0:0:0:
320,192,120849,1,0,0:0:0:0:
448,192,120895,1,0,0:0:0:0:
192,192,120940,1,0,0:0:0:0:
320,192,120986,1,0,0:0:0:0:
64,192,121031,1,0,0:0:0:0:
192,192,121077,128,4,121213:0:0:0:0:
320,192,121077,128,0,121281:0:0:0:70:Kick 15.wav
448,192,121077,128,0,121349:0:0:0:0:
64,192,121349,128,0,122099:0:0:0:0:
192,192,121417,128,0,122031:0:0:0:0:
320,192,121486,128,0,121963:0:0:0:0:
320,192,122167,1,0,0:0:0:0:
448,192,122167,1,0,0:0:0:0:
192,192,122236,1,0,0:0:0:0:
64,192,122304,1,0,0:0:0:0:
448,192,122304,1,0,0:0:0:0:
192,192,122372,1,0,0:0:0:0:
320,192,122372,1,0,0:0:0:0:
64,192,122440,1,0,0:0:0:0:
448,192,122440,1,0,0:0:0:0:
320,192,122508,1,0,0:0:0:0:
64,192,122577,1,0,0:0:0:0:
192,192,122577,1,0,0:0:0:0:
448,192,122645,1,0,0:0:0:0:
64,192,122713,1,0,0:0:0:0:
192,192,122713,1,0,0:0:0:0:
320,192,122758,1,0,0:0:0:0:
448,192,122804,1,0,0:0:0:0:
192,192,122849,1,0,0:0:0:0:
320,192,122895,1,0,0:0:0:0:
64,192,122940,1,0,0:0:0:0:
192,192,122986,1,0,0:0:0:0:
448,192,122986,1,0,0:0:0:0:
320,192,123031,1,0,0:0:0:0:
64,192,123077,1,0,0:0:0:0:
192,192,123122,1,0,0:0:0:0:
320,192,123167,1,0,0:0:0:0:
448,192,123213,1,0,0:0:0:0:
64,192,123258,128,4,123531:0:0:0:0:
192,192,123258,128,0,123463:0:0:0:70:Kick 15.wav
320,192,123258,128,0,123395:0:0:0:0:
448,192,123531,128,0,124281:0:0:0:0:
320,192,123599,128,0,124213:0:0:0:0:
192,192,123667,128,0,124145:0:0:0:0:
64,192,124349,1,0,0:0:0:0:
192,192,124395,1,0,0:0:0:0:
320,192,124440,1,0,0:0:0:0:
448,192,124486,1,0,0:0:0:0:
192,192,124531,1,0,0:0:0:0:
320,192,124577,1,0,0:0:0:0:
448,192,124622,1,0,0:0:0:0:
64,192,124667,1,0,0:0:0:0:
192,192,124713,1,0,0:0:0:0:
320,192,124758,1,0,0:0:0:0:
64,192,124804,1,0,0:0:0:0:
192,192,124849,1,0,0:0:0:0:
448,192,124895,1,0,0:0:0:0:
320,192,124940,1,0,0:0:0:0:
192,192,124986,1,0,0:0:0:0:
448,192,125031,1,0,0:0:0:0:
64,192,125077,1,0,0:0:0:0:
192,192,125122,1,0,0:0:0:0:
320,192,125167,1,0,0:0:0:0:
448,192,125213,1,0,0:0:0:0:
192,192,125258,1,0,0:0:0:0:
64,192,125304,1,0,0:0:0:0:
320,192,125349,1,0,0:0:0:0:
192,192,125395,1,0,0:0:0:0:
64,192,125440,1,4,0:0:0:0:
320,192,125440,1,0,0:0:0:70:Kick 15.wav
448,192,125440,1,0,0:0:0:0:
64,192,125577,1,8,0:0:0:0:
192,192,125577,1,0,0:0:0:0:
320,192,125577,1,0,0:0:0:0:
64,192,125713,1,8,0:0:0:0:
192,192,125713,1,0,0:0:0:0:
448,192,125713,1,0,0:0:0:0:
192,192,125849,1,8,0:0:0:0:
320,192,125849,1,0,0:0:0:0:
448,192,125849,1,0,0:0:0:0:
64,192,125986,1,8,0:0:0:0:
320,192,125986,1,0,0:0:0:0:
448,192,125986,1,0,0:0:0:0:
64,192,126122,1,8,0:0:0:0:
192,192,126258,1,8,0:0:0:0:
320,192,126258,1,0,0:0:0:0:
448,192,126258,1,0,0:0:0:0:
192,192,126395,1,8,0:0:0:0:
64,192,126531,1,8,0:0:0:0:
320,192,126531,1,4,0:0:0:0:
448,192,126531,1,0,0:0:0:0:
64,192,126667,1,8,0:0:0:0:
192,192,126804,1,8,0:0:0:0:
320,192,126804,1,0,0:0:0:0:
448,192,126804,1,0,0:0:0:0:
64,192,126940,1,8,0:0:0:0:
320,192,126940,1,0,0:0:0:0:
448,192,126940,1,0,0:0:0:0:
64,192,127077,1,8,0:0:0:0:
192,192,127077,1,0,0:0:0:0:
448,192,127077,1,0,0:0:0:0:
192,192,127213,1,8,0:0:0:0:
64,192,127349,1,8,0:0:0:0:
320,192,127349,1,0,0:0:0:0:
448,192,127349,1,0,0:0:0:0:
320,192,127486,1,8,0:0:0:0:
64,192,127622,1,8,0:0:0:0:
192,192,127622,1,4,0:0:0:0:
448,192,127622,1,0,0:0:0:0:
64,192,127758,1,8,0:0:0:0:
192,192,127758,1,0,0:0:0:0:
320,192,127758,1,0,0:0:0:0:
64,192,127895,1,8,0:0:0:0:
320,192,127895,1,0,0:0:0:0:
448,192,127895,1,0,0:0:0:0:
192,192,128031,1,8,0:0:0:0:
320,192,128031,1,0,0:0:0:0:
448,192,128031,1,0,0:0:0:0:
64,192,128167,1,8,0:0:0:0:
192,192,128167,1,0,0:0:0:0:
448,192,128167,1,0,0:0:0:0:
64,192,128304,1,8,0:0:0:0:
192,192,128440,1,8,0:0:0:0:
320,192,128440,1,0,0:0:0:0:
448,192,128440,1,0,0:0:0:0:
192,192,128577,1,8,0:0:0:0:
64,192,128713,1,8,0:0:0:0:
320,192,128713,1,4,0:0:0:0:
448,192,128713,1,0,0:0:0:0:
320,192,128849,1,8,0:0:0:0:
64,192,128986,1,8,0:0:0:0:
192,192,128986,1,0,0:0:0:0:
448,192,128986,1,0,0:0:0:0:
64,192,129122,1,8,0:0:0:0:
192,192,129122,1,0,0:0:0:0:
320,192,129122,1,0,0:0:0:0:
192,192,129258,1,8,0:0:0:0:
320,192,129258,1,0,0:0:0:0:
448,192,129258,1,0,0:0:0:0:
192,192,129395,1,8,0:0:0:0:
320,192,129531,1,8,0:0:0:0:
448,192,129531,1,0,0:0:0:0:
64,192,129599,1,0,0:0:0:0:
192,192,129599,1,0,0:0:0:0:
320,192,129667,1,8,0:0:0:0:
448,192,129667,1,0,0:0:0:0:
64,192,129736,1,0,0:0:0:0:
192,192,129736,1,0,0:0:0:0:
320,192,129804,1,4,0:0:0:0:
448,192,129804,1,8,0:0:0:0:
64,192,129872,1,8,0:0:0:0:
192,192,129940,1,8,0:0:0:0:
320,192,129940,1,0,0:0:0:0:
448,192,130008,1,8,0:0:0:0:
64,192,130077,1,8,0:0:0:0:
192,192,130077,1,0,0:0:0:0:
320,192,130145,1,8,0:0:0:0:
448,192,130145,1,0,0:0:0:0:
64,192,130213,1,8,0:0:0:0:
192,192,130213,1,0,0:0:0:0:
320,192,130281,1,8,0:0:0:0:
448,192,130281,1,0,0:0:0:0:
64,192,130349,1,8,0:0:0:0:
192,192,130349,1,0,0:0:0:0:
320,192,130417,1,8,0:0:0:0:
448,192,130417,1,0,0:0:0:0:
64,192,130486,1,8,0:0:0:0:
192,192,130486,1,0,0:0:0:0:
320,192,130554,1,8,0:0:0:0:
448,192,130554,1,0,0:0:0:0:
64,192,130622,1,8,0:0:0:0:
192,192,130622,1,0,0:0:0:0:
320,192,130690,1,8,0:0:0:0:
448,192,130690,1,0,0:0:0:0:
64,192,130758,1,8,0:0:0:0:
192,192,130758,1,0,0:0:0:0:
320,192,130827,1,8,0:0:0:0:
448,192,130827,1,0,0:0:0:0:
64,192,130895,1,4,0:0:0:0:
192,192,130895,1,8,0:0:0:0:
448,192,130963,1,8,0:0:0:0:
192,192,131031,1,8,0:0:0:0:
320,192,131031,1,0,0:0:0:0:
64,192,131099,1,8,0:0:0:0:
320,192,131167,1,8,0:0:0:0:
448,192,131167,1,0,0:0:0:0:
64,192,131236,1,8,0:0:0:0:
192,192,131236,1,0,0:0:0:0:
320,192,131304,1,8,0:0:0:0:
448,192,131304,1,0,0:0:0:0:
64,192,131372,1,8,0:0:0:0:
192,192,131372,1,0,0:0:0:0:
320,192,131440,1,8,0:0:0:0:
448,192,131440,1,0,0:0:0:0:
64,192,131508,1,8,0:0:0:0:
192,192,131508,1,0,0:0:0:0:
320,192,131577,1,8,0:0:0:0:
448,192,131577,1,0,0:0:0:0:
64,192,131645,1,8,0:0:0:0:
192,192,131645,1,0,0:0:0:0:
320,192,131713,1,8,0:0:0:0:
448,192,131713,1,0,0:0:0:0:
64,192,131781,1,8,0:0:0:0:
192,192,131781,1,0,0:0:0:0:
320,192,131849,1,8,0:0:0:0:
448,192,131849,1,0,0:0:0:0:
192,192,131917,1,8,0:0:0:0:
64,192,131986,1,0,0:0:0:70:LR_Air Dart Snare.wav
320,192,131986,1,0,0:0:0:0:
448,192,131986,1,0,0:0:0:0:
64,192,132258,1,0,0:0:0:70:LR_Air Dart Snare.wav
320,192,132258,1,0,0:0:0:0:
448,192,132258,1,0,0:0:0:0:
320,192,132349,1,0,0:0:0:0:
64,192,132440,1,0,0:0:0:70:LR_Air Dart Snare.wav
192,192,132440,1,0,0:0:0:0:
64,192,132531,1,0,0:0:0:70:LR_Air Dart Snare.wav
192,192,132531,1,0,0:0:0:0:
448,192,132531,1,0,0:0:0:0:
320,192,132713,1,0,0:0:0:0:
192,192,132804,1,0,0:0:0:70:LR_Air Dart Snare.wav
320,192,132804,1,0,0:0:0:0:
448,192,132804,1,0,0:0:0:0:
64,192,132986,1,0,0:0:0:70:LR_Air Dart Snare.wav
192,192,132986,1,0,0:0:0:0:
64,192,133077,1,0,0:0:0:70:LR_Air Dart Snare.wav
448,192,133077,128,0,134167:0:0:0:0:
64,192,134167,128,4,134440:0:0:0:0:
192,192,134167,128,0,134372:0:0:0:70:Kick 15.wav
320,192,134167,1,0,0:0:0:0:
448,192,134440,128,0,134577:0:0:0:0:
320,192,134508,128,0,134645:0:0:0:0:
192,192,134577,128,0,134713:0:0:0:0:
64,192,134645,128,0,134781:0:0:0:0:
320,192,134713,128,4,134917:0:0:0:0:
448,192,134713,128,0,134917:0:0:0:70:Kick 15.wav
64,192,134986,128,4,135054:0:0:0:0:
192,192,134986,128,0,135054:0:0:0:70:Kick 15.wav
448,192,134986,128,0,135054:0:0:0:0:
64,192,135122,128,4,135190:0:0:0:0:
192,192,135122,128,0,135190:0:0:0:70:Kick 15.wav
448,192,135122,128,0,135190:0:0:0:0:
192,192,135258,128,4,135804:0:0:0:0:
320,192,135258,1,0,0:0:0:0:
448,192,135258,1,0,0:0:0:0:
320,192,135531,128,4,135940:0:0:0:0:
448,192,135531,128,0,135667:0:0:0:0:
64,192,135804,128,0,135940:0:0:0:0:
448,192,135804,128,0,136077:0:0:0:0:
64,192,136077,128,0,136349:0:0:0:0:
192,192,136077,128,0,136281:0:0:0:0:
320,192,136077,128,0,136213:0:0:0:0:
320,192,136349,1,4,0:0:0:0:
448,192,136349,1,0,0:0:0:70:Kick 15.wav
192,192,136395,1,0,0:0:0:0:
64,192,136440,1,0,0:0:0:0:
320,192,136486,1,0,0:0:0:0:
192,192,136622,1,0,0:0:0:70:Kick 15.wav
448,192,136622,1,0,0:0:0:0:
320,192,136667,1,0,0:0:0:0:
64,192,136713,1,0,0:0:0:0:
192,192,136758,1,0,0:0:0:0:
64,192,136895,1,0,0:0:0:70:Kick 15.wav
320,192,136895,1,0,0:0:0:0:
192,192,136940,1,0,0:0:0:0:
448,192,136986,1,0,0:0:0:0:
320,192,137031,1,0,0:0:0:0:
192,192,137167,1,0,0:0:0:70:Kick 15.wav
448,192,137167,1,0,0:0:0:0:
320,192,137213,1,0,0:0:0:0:
64,192,137258,1,0,0:0:0:0:
192,192,137304,1,0,0:0:0:0:
64,192,137440,1,0,0:0:0:70:Kick 15.wav
448,192,137440,1,0,0:0:0:0:
320,192,137486,1,0,0:0:0:0:
192,192,137531,1,0,0:0:0:0:
64,192,137577,1,0,0:0:0:0:
64,192,137713,1,0,0:0:0:70:Kick 15.wav
448,192,137713,1,0,0:0:0:0:
192,192,137758,1,0,0:0:0:0:
320,192,137804,1,0,0:0:0:0:
448,192,137849,1,0,0:0:0:0:
64,192,137986,1,0,0:0:0:70:Kick 15.wav
192,192,137986,1,0,0:0:0:0:
320,192,138054,1,0,0:0:0:70:Kick 15.wav
448,192,138054,1,0,0:0:0:0:
64,192,138122,1,0,0:0:0:70:Kick 15.wav
192,192,138122,1,0,0:0:0:0:
320,192,138258,1,0,0:0:0:70:Kick 15.wav
448,192,138258,1,0,0:0:0:0:
320,192,138327,1,0,0:0:0:70:Kick 15.wav
448,192,138327,1,0,0:0:0:0:
64,192,138395,1,0,0:0:0:70:Kick 15.wav
192,192,138395,1,0,0:0:0:0:
64,192,138463,1,0,0:0:0:70:Kick 15.wav
192,192,138463,1,0,0:0:0:0:
320,192,138531,1,0,0:0:0:70:Kick 15.wav
448,192,138531,1,0,0:0:0:0:
192,192,138599,1,0,0:0:0:0:
64,192,138667,1,0,0:0:0:0:
320,192,138736,1,0,0:0:0:0:
64,192,138804,1,0,0:0:0:70:Kick 15.wav
448,192,138804,1,0,0:0:0:0:
192,192,138849,1,0,0:0:0:0:
320,192,138895,1,0,0:0:0:0:
448,192,138940,1,0,0:0:0:0:
64,192,139077,1,0,0:0:0:70:Kick 15.wav
192,192,139077,1,0,0:0:0:0:
448,192,139122,1,0,0:0:0:0:
320,192,139167,1,0,0:0:0:0:
192,192,139213,1,0,0:0:0:0:
64,192,139349,1,0,0:0:0:70:Kick 15.wav
448,192,139349,1,0,0:0:0:0:
192,192,139395,1,0,0:0:0:0:
320,192,139440,1,0,0:0:0:0:
64,192,139486,1,0,0:0:0:70:Kick 15.wav
448,192,139486,1,0,0:0:0:0:
192,192,139531,1,0,0:0:0:0:
320,192,139577,1,0,0:0:0:0:
64,192,139622,128,4,139895:0:0:0:0:
448,192,139622,128,0,139827:0:0:0:70:Kick 15.wav
192,192,139758,128,0,139827:0:0:0:0:
320,192,139758,128,0,139895:0:0:0:0:
192,192,139895,128,0,140167:0:0:0:0:
448,192,139895,128,0,140099:0:0:0:0:
64,192,140031,128,0,140167:0:0:0:0:
320,192,140031,128,0,140099:0:0:0:0:
320,192,140167,128,0,140372:0:0:0:0:
448,192,140167,128,0,140304:0:0:0:0:
192,192,140236,128,0,140440:0:0:0:0:
64,192,140440,1,0,0:0:0:70:LR_Air Dart Snare.wav
448,192,140440,1,0,0:0:0:0:
192,192,140508,1,0,0:0:0:70:LR_Air Dart Snare.wav
320,192,140508,1,0,0:0:0:0:
64,192,140577,1,2,0:0:0:0:
448,192,140577,1,0,0:0:0:0:
192,192,140713,1,4,0:0:0:0:
448,192,140713,1,0,0:0:0:70:Kick 15.wav
320,192,140758,1,0,0:0:0:0:
64,192,140804,1,0,0:0:0:0:
192,192,140849,1,0,0:0:0:0:
320,192,140917,1,0,0:0:0:0:
64,192,140986,1,0,0:0:0:70:Kick 15.wav
448,192,140986,1,0,0:0:0:0:
320,192,141031,1,0,0:0:0:0:
192,192,141077,1,0,0:0:0:0:
64,192,141122,1,0,0:0:0:0:
192,192,141190,1,0,0:0:0:0:
320,192,141258,1,0,0:0:0:70:Kick 15.wav
448,192,141258,1,0,0:0:0:0:
64,192,141304,1,0,0:0:0:0:
192,192,141349,1,0,0:0:0:0:
320,192,141395,1,0,0:0:0:0:
448,192,141463,1,0,0:0:0:0:
64,192,141531,1,0,0:0:0:70:Kick 15.wav
192,192,141531,1,0,0:0:0:0:
320,192,141577,1,0,0:0:0:0:
64,192,141667,1,0,0:0:0:70:Kick 15.wav
448,192,141667,1,0,0:0:0:0:
192,192,141713,1,0,0:0:0:0:
320,192,141804,1,0,0:0:0:70:Kick 15.wav
448,192,141804,1,0,0:0:0:0:
64,192,141849,1,0,0:0:0:0:
192,192,141895,1,0,0:0:0:0:
320,192,141940,1,0,0:0:0:0:
192,192,142008,1,0,0:0:0:0:
64,192,142077,1,0,0:0:0:70:Kick 15.wav
448,192,142077,1,0,0:0:0:0:
320,192,142122,1,0,0:0:0:0:
192,192,142167,1,0,0:0:0:0:
64,192,142213,1,0,0:0:0:0:
448,192,142281,1,0,0:0:0:0:
192,192,142349,1,0,0:0:0:70:Kick 15.wav
320,192,142349,1,0,0:0:0:0:
64,192,142395,1,0,0:0:0:0:
320,192,142486,1,0,0:0:0:70:Kick 15.wav
448,192,142486,1,0,0:0:0:0:
192,192,142531,1,0,0:0:0:0:
448,192,142622,1,0,0:0:0:70:Kick 15.wav
192,192,142656,1,0,0:0:0:70:Kick 15.wav
320,192,142690,1,0,0:0:0:70:Kick 15.wav
64,192,142724,1,0,0:0:0:70:Kick 15.wav
192,192,142758,1,0,0:0:0:70:Kick 15.wav
320,192,142827,1,0,0:0:0:0:
64,192,142895,1,4,0:0:0:0:
448,192,142895,1,0,0:0:0:70:Kick 15.wav
320,192,142940,1,0,0:0:0:0:
64,192,143031,1,4,0:0:0:0:
192,192,143031,1,0,0:0:0:70:Kick 15.wav
448,192,143077,1,0,0:0:0:0:
192,192,143167,1,4,0:0:0:0:
320,192,143167,1,0,0:0:0:70:Kick 15.wav
64,192,143213,1,0,0:0:0:0:
448,192,143258,1,0,0:0:0:0:
320,192,143304,1,0,0:0:0:0:
192,192,143372,1,0,0:0:0:0:
64,192,143440,1,4,0:0:0:0:
320,192,143440,1,0,0:0:0:70:Kick 15.wav
448,192,143486,1,0,0:0:0:0:
64,192,143577,1,4,0:0:0:0:
320,192,143577,1,0,0:0:0:70:Kick 15.wav
192,192,143622,1,0,0:0:0:0:
320,192,143713,1,4,0:0:0:0:
448,192,143713,1,0,0:0:0:70:Kick 15.wav
192,192,143758,1,0,0:0:0:0:
64,192,143804,1,0,0:0:0:0:
448,192,143849,1,0,0:0:0:0:
320,192,143917,1,0,0:0:0:0:
64,192,143986,128,4,144258:0:0:0:0:
192,192,143986,128,0,144054:0:0:0:70:Kick 15.wav
448,192,143986,128,0,144190:0:0:0:0:
192,192,144122,128,0,144258:0:0:0:0:
320,192,144122,128,0,144190:0:0:0:0:
320,192,144258,128,0,144463:0:0:0:0:
448,192,144258,128,0,144531:0:0:0:0:
64,192,144395,128,0,144531:0:0:0:0:
192,192,144395,128,0,144463:0:0:0:0:
192,192,144531,128,0,144736:0:0:0:0:
320,192,144531,128,0,144667:0:0:0:0:
64,192,144599,128,0,144804:0:0:0:0:
320,192,144804,1,0,0:0:0:70:Kick 15.wav
448,192,144838,1,0,0:0:0:70:Kick 15.wav
192,192,144872,1,0,0:0:0:70:Kick 15.wav
320,192,144906,1,0,0:0:0:70:Kick 15.wav
64,192,144940,1,0,0:0:0:70:Kick 15.wav
448,192,144940,1,0,0:0:0:0:
320,192,145077,1,4,0:0:0:0:
448,192,145077,1,0,0:0:0:70:Kick 15.wav
192,192,145122,1,0,0:0:0:0:
64,192,145167,1,0,0:0:0:0:
320,192,145213,1,0,0:0:0:0:
64,192,145349,1,0,0:0:0:70:Kick 15.wav
448,192,145349,1,0,0:0:0:0:
320,192,145395,1,0,0:0:0:0:
192,192,145440,1,0,0:0:0:0:
64,192,145486,1,0,0:0:0:0:
64,192,145622,1,0,0:0:0:70:Kick 15.wav
448,192,145622,1,0,0:0:0:0:
192,192,145667,1,0,0:0:0:0:
320,192,145713,1,0,0:0:0:0:
448,192,145758,1,0,0:0:0:0:
64,192,145895,1,0,0:0:0:70:Kick 15.wav
192,192,145895,1,0,0:0:0:0:
320,192,145940,1,0,0:0:0:0:
448,192,145986,1,0,0:0:0:0:
64,192,146031,1,0,0:0:0:0:
192,192,146077,1,0,0:0:0:70:Kick 15.wav
320,192,146077,1,0,0:0:0:0:
192,192,146167,1,0,0:0:0:70:Kick 15.wav
320,192,146167,1,0,0:0:0:0:
64,192,146213,1,0,0:0:0:0:
448,192,146258,1,0,0:0:0:0:
320,192,146304,1,0,0:0:0:0:
64,192,146440,1,0,0:0:0:70:Kick 15.wav
448,192,146440,1,0,0:0:0:0:
192,192,146486,1,0,0:0:0:0:
320,192,146531,1,0,0:0:0:0:
448,192,146577,1,0,0:0:0:0:
64,192,146713,1,0,0:0:0:70:Kick 15.wav
448,192,146713,1,0,0:0:0:0:
320,192,146758,1,0,0:0:0:0:
192,192,146804,1,0,0:0:0:0:
64,192,146849,1,0,0:0:0:70:Kick 15.wav
448,192,146895,1,0,0:0:0:0:
64,192,146986,1,0,0:0:0:70:Kick 15.wav
192,192,146986,1,0,0:0:0:0:
320,192,147031,1,0,0:0:0:0:
64,192,147122,1,0,0:0:0:70:Kick 15.wav
448,192,147122,1,0,0:0:0:0:
192,192,147190,1,0,0:0:0:70:Kick 15.wav
320,192,147190,1,0,0:0:0:0:
64,192,147258,1,2,0:0:0:0:
448,192,147258,1,0,0:0:0:70:Kick 15.wav
192,192,147304,1,0,0:0:0:0:
320,192,147395,1,2,0:0:0:0:
448,192,147395,1,0,0:0:0:70:Kick 15.wav
192,192,147440,1,0,0:0:0:0:
64,192,147531,1,2,0:0:0:0:
448,192,147531,1,0,0:0:0:70:Kick 15.wav
320,192,147577,1,0,0:0:0:0:
192,192,147622,1,0,0:0:0:0:
64,192,147667,1,0,0:0:0:0:
192,192,147804,1,2,0:0:0:0:
448,192,147804,1,0,0:0:0:70:Kick 15.wav
320,192,147872,1,0,0:0:0:0:
64,192,147940,1,2,0:0:0:0:
448,192,147940,1,0,0:0:0:70:Kick 15.wav
192,192,148008,1,0,0:0:0:0:
64,192,148077,1,2,0:0:0:0:
320,192,148077,1,0,0:0:0:70:Kick 15.wav
448,192,148145,1,0,0:0:0:0:
192,192,148213,1,2,0:0:0:0:
320,192,148213,1,0,0:0:0:70:Kick 15.wav
64,192,148281,1,0,0:0:0:0:
192,192,148349,128,4,148554:0:0:0:0:
320,192,148349,1,2,0:0:0:0:
448,192,148349,128,0,148622:0:0:0:70:Kick 15.wav
64,192,148486,128,0,148554:0:0:0:0:
320,192,148486,128,0,148622:0:0:0:0:
64,192,148622,128,0,148758:0:0:0:0:
192,192,148622,128,0,148827:0:0:0:0:
320,192,148690,128,0,148895:0:0:0:0:
64,192,148895,1,0,0:0:0:70:LR_Air Dart Snare.wav
192,192,148895,1,0,0:0:0:0:
320,192,148963,1,0,0:0:0:70:LR_Air Dart Snare.wav
448,192,148963,1,0,0:0:0:0:
64,192,149031,1,2,0:0:0:0:
192,192,149031,1,0,0:0:0:0:
320,192,149167,1,0,0:0:0:70:LR_Air Dart Snare.wav
448,192,149167,1,0,0:0:0:0:
64,192,149236,1,0,0:0:0:70:LR_Air Dart Snare.wav
192,192,149236,1,0,0:0:0:0:
320,192,149304,1,0,0:0:0:70:LR_Air Dart Snare.wav
448,192,149304,1,0,0:0:0:0:
192,192,149372,1,0,0:0:0:0:
64,192,149440,1,4,0:0:0:0:
448,192,149440,1,0,0:0:0:70:dirty kick #1.wav
320,192,149486,1,0,0:0:0:0:
192,192,149531,1,0,0:0:0:0:
320,192,149622,1,0,0:0:0:0:
448,192,149622,1,0,0:0:0:0:
64,192,149713,1,0,0:0:0:70:dirty kick #1.wav
192,192,149713,1,0,0:0:0:0:
320,192,149758,1,0,0:0:0:0:
448,192,149804,1,0,0:0:0:0:
64,192,149895,1,0,0:0:0:0:
192,192,149895,1,0,0:0:0:0:
320,192,149986,1,0,0:0:0:70:dirty kick #1.wav
448,192,149986,1,0,0:0:0:0:
192,192,150031,1,0,0:0:0:0:
64,192,150077,1,0,0:0:0:0:
192,192,150167,1,0,0:0:0:0:
448,192,150167,1,0,0:0:0:0:
64,192,150258,1,0,0:0:0:70:dirty kick #1.wav
320,192,150258,1,0,0:0:0:0:
64,192,150395,1,0,0:0:0:70:dirty kick #1.wav
320,192,150395,1,0,0:0:0:0:
64,192,150531,1,0,0:0:0:70:dirty kick #1.wav
320,192,150531,1,0,0:0:0:0:
192,192,150577,1,0,0:0:0:0:
448,192,150622,1,0,0:0:0:0:
192,192,150713,1,0,0:0:0:0:
320,192,150713,1,0,0:0:0:0:
64,192,150804,1,0,0:0:0:70:dirty kick #1.wav
448,192,150804,1,0,0:0:0:0:
320,192,150849,1,0,0:0:0:0:
192,192,150895,1,0,0:0:0:0:
64,192,150986,1,0,0:0:0:0:
448,192,150986,1,0,0:0:0:0:
64,192,151077,1,0,0:0:0:70:dirty kick #1.wav
192,192,151077,1,0,0:0:0:0:
320,192,151145,1,0,0:0:0:70:dirty kick #1.wav
448,192,151145,1,0,0:0:0:0:
64,192,151213,1,0,0:0:0:70:dirty kick #1.wav
192,192,151213,1,0,0:0:0:0:
320,192,151281,1,0,0:0:0:70:dirty kick #1.wav
64,192,151349,1,0,0:0:0:70:dirty kick #1.wav
448,192,151349,1,0,0:0:0:0:
192,192,151417,1,0,0:0:0:70:dirty kick #1.wav
320,192,151417,1,0,0:0:0:0:
64,192,151486,1,0,0:0:0:70:dirty kick #1.wav
448,192,151486,1,0,0:0:0:0:
192,192,151554,1,0,0:0:0:70:dirty kick #1.wav
320,192,151622,1,4,0:0:0:0:
448,192,151622,1,0,0:0:0:70:dirty kick #1.wav
64,192,151667,1,0,0:0:0:0:
192,192,151713,1,0,0:0:0:0:
320,192,151758,1,0,0:0:0:0:
64,192,151827,1,0,0:0:0:0:
192,192,151895,1,0,0:0:0:0:
448,192,151895,1,0,0:0:0:0:
64,192,152031,1,4,0:0:0:0:
192,192,152031,1,0,0:0:0:70:dirty kick #1.wav
320,192,152077,1,0,0:0:0:0:
320,192,152167,1,4,0:0:0:0:
448,192,152167,1,0,0:0:0:70:dirty kick #1.wav
192,192,152213,1,0,0:0:0:0:
64,192,152349,1,0,0:0:0:0:
192,192,152349,1,0,0:0:0:0:
64,192,152440,1,4,0:0:0:0:
448,192,152440,1,0,0:0:0:70:dirty kick #1.wav
320,192,152486,1,0,0:0:0:0:
64,192,152577,1,0,0:0:0:70:dirty kick #1.wav
192,192,152577,1,0,0:0:0:0:
320,192,152645,1,0,0:0:0:0:
192,192,152713,1,4,0:0:0:0:
448,192,152713,1,0,0:0:0:70:dirty kick #1.wav
64,192,152758,1,0,0:0:0:0:
320,192,152895,1,0,0:0:0:0:
448,192,152895,1,0,0:0:0:0:
192,192,152940,1,0,0:0:0:0:
64,192,152986,128,0,153258:0:0:0:0:
320,192,152986,128,0,153122:0:0:0:0:
192,192,153258,128,0,153531:0:0:0:0:
448,192,153258,128,0,153395:0:0:0:0:
320,192,153531,1,0,0:0:0:70:Kick 15.wav
320,192,153599,128,0,153736:0:0:0:70:Kick 15.wav
64,192,153667,128,0,153804:0:0:0:70:Kick 15.wav
192,192,153804,128,4,153940:0:0:0:0:
320,192,153804,128,0,154008:0:0:0:70:Kick 15.wav
448,192,153804,128,0,154077:0:0:0:0:
64,192,158167,1,2,0:0:0:0:
192,192,158167,1,4,0:0:0:0:
320,192,158167,1,0,0:0:0:70:wind.wav
64,192,158439,1,0,0:0:0:0:
448,192,158439,1,0,0:0:0:0:
192,192,158576,1,0,0:0:0:0:
448,192,158712,1,0,0:0:0:0:
320,192,158746,1,0,0:0:0:0:
64,192,158985,128,0,159053:0:0:0:70:tick05_edit.wav
192,192,158985,1,0,0:0:0:0:
192,192,159257,1,0,0:0:0:0:
320,192,159257,1,0,0:0:0:0:
320,192,159530,1,0,0:0:0:0:
448,192,159530,1,0,0:0:0:0:
192,192,159667,1,0,0:0:0:0:
64,192,159803,1,0,0:0:0:70:tick05_edit.wav
448,192,159803,128,0,159871:0:0:0:0:
192,192,160076,1,0,0:0:0:0:
320,192,160076,1,0,0:0:0:0:
64,192,160212,1,0,0:0:0:0:
320,192,160348,1,0,0:0:0:0:
448,192,160348,1,0,0:0:0:0:
192,192,160485,1,0,0:0:0:0:
64,192,160621,128,0,160689:0:0:0:70:tick05_edit.wav
448,192,160621,1,0,0:0:0:0:
192,192,160894,1,0,0:0:0:0:
320,192,160894,1,0,0:0:0:0:
64,192,161439,1,0,0:0:0:70:tick05_edit.wav
448,192,161439,128,0,161507:0:0:0:0:
64,192,161712,1,0,0:0:0:0:
320,192,161712,1,0,0:0:0:0:
192,192,161848,1,0,0:0:0:0:
320,192,161985,1,0,0:0:0:0:
448,192,161985,1,0,0:0:0:0:
64,192,162121,1,0,0:0:0:0:
192,192,162257,128,0,162326:0:0:0:70:tick05_edit.wav
320,192,162257,1,0,0:0:0:0:
64,192,162530,1,0,0:0:0:0:
448,192,162530,1,0,0:0:0:0:
320,192,162803,1,0,0:0:0:0:
448,192,162803,1,0,0:0:0:0:
192,192,162939,1,0,0:0:0:0:
64,192,163076,128,0,163144:0:0:0:70:tick05_edit.wav
320,192,163076,1,0,0:0:0:0:
64,192,163348,1,0,0:0:0:0:
192,192,163348,1,0,0:0:0:0:
320,192,163485,1,0,0:0:0:0:
64,192,163621,1,0,0:0:0:0:
448,192,163621,1,0,0:0:0:0:
192,192,163655,1,0,0:0:0:0:
320,192,163689,1,0,0:0:0:0:
192,192,163894,1,0,0:0:0:70:tick05_edit.wav
448,192,163894,128,0,163962:0:0:0:0:
64,192,164167,1,0,0:0:0:0:
320,192,164167,1,0,0:0:0:0:
64,192,164712,1,0,0:0:0:70:tick05_edit.wav
192,192,164712,128,0,164780:0:0:0:0:
192,192,164985,1,0,0:0:0:0:
448,192,164985,1,0,0:0:0:0:
320,192,165121,1,0,0:0:0:0:
64,192,165257,1,0,0:0:0:0:
192,192,165292,1,0,0:0:0:0:
64,192,165530,128,0,165598:0:0:0:70:tick05_edit.wav
320,192,165530,1,0,0:0:0:0:
192,192,165803,1,0,0:0:0:0:
320,192,165803,1,0,0:0:0:0:
320,192,166076,1,0,0:0:0:0:
448,192,166076,1,0,0:0:0:0:
192,192,166212,1,0,0:0:0:0:
64,192,166348,1,0,0:0:0:70:tick05_edit.wav
320,192,166348,128,0,166417:0:0:0:0:
64,192,166621,1,0,0:0:0:0:
448,192,166621,1,0,0:0:0:0:
192,192,166757,1,0,0:0:0:0:
448,192,166894,1,0,0:0:0:0:
320,192,166928,1,0,0:0:0:0:
64,192,167030,1,0,0:0:0:0:
192,192,167167,1,0,0:0:0:70:tick05_edit.wav
448,192,167167,128,0,167235:0:0:0:0:
64,192,167439,1,0,0:0:0:0:
192,192,167439,1,0,0:0:0:0:
64,192,167985,128,2,168667:0:0:0:0:
320,192,167985,1,4,0:0:0:0:
448,192,167985,128,0,168394:0:0:0:70:wind.wav
192,192,168394,128,0,168667:0:0:0:0:
320,192,168530,128,0,168667:0:0:0:0:
448,192,168667,128,0,168803:0:0:0:0:
64,192,168803,128,0,168939:0:0:0:70:tick05_edit.wav
320,192,168803,128,0,169076:0:0:0:0:
192,192,169076,128,0,169348:0:0:0:0:
448,192,169076,128,0,169212:0:0:0:0:
64,192,169348,1,0,0:0:0:0:
320,192,169348,128,0,169485:0:0:0:0:
192,192,169485,1,0,0:0:0:0:
448,192,169485,128,0,169621:0:0:0:0:
64,192,169621,128,0,170030:0:0:0:70:tick05_edit.wav
320,192,169621,128,0,170303:0:0:0:0:
448,192,170030,128,0,170303:0:0:0:0:
192,192,170167,128,0,170303:0:0:0:0:
64,192,170303,128,0,170439:0:0:0:0:
192,192,170439,128,0,170576:0:0:0:70:tick05_edit.wav
448,192,170439,128,0,170712:0:0:0:0:
64,192,170712,128,0,170985:0:0:0:0:
320,192,170712,128,0,170848:0:0:0:0:
320,192,170985,128,0,171121:0:0:0:0:
448,192,170985,1,0,0:0:0:0:
64,192,171121,1,0,0:0:0:0:
192,192,171121,128,0,171257:0:0:0:0:
64,192,171257,128,0,171667:0:0:0:70:tick05_edit.wav
448,192,171257,128,0,171939:0:0:0:0:
192,192,171667,128,0,171939:0:0:0:0:
320,192,171803,128,0,171939:0:0:0:0:
64,192,171939,128,0,172076:0:0:0:0:
192,192,172076,128,0,172348:0:0:0:70:tick05_edit.wav
320,192,172076,128,0,172212:0:0:0:0:
320,192,172348,128,0,172621:0:0:0:0:
448,192,172348,128,0,172485:0:0:0:0:
64,192,172621,128,0,172757:0:0:0:0:
192,192,172621,1,0,0:0:0:0:
192,192,172757,128,0,172894:0:0:0:0:
320,192,172757,1,0,0:0:0:0:
64,192,172894,128,2,173167:0:0:0:0:
320,192,172894,128,4,173167:0:0:0:0:
448,192,172894,128,0,173439:0:0:0:0:
192,192,173167,1,0,0:0:0:0:
320,192,173303,1,0,0:0:0:0:
64,192,173439,1,0,0:0:0:0:
192,192,173439,1,0,0:0:0:0:
320,192,173507,1,0,0:0:0:0:
448,192,173576,1,0,0:0:0:0:
64,192,173644,1,0,0:0:0:0:
192,192,173712,1,0,0:0:0:0:
448,192,173712,1,0,0:0:0:0:
320,192,173780,1,0,0:0:0:0:
64,192,173848,1,0,0:0:0:0:
192,192,173985,1,0,0:0:0:0:
320,192,173985,1,0,0:0:0:0:
448,192,174121,1,0,0:0:0:0:
320,192,174189,1,0,0:0:0:0:
64,192,174257,1,0,0:0:0:0:
192,192,174257,1,0,0:0:0:0:
320,192,174394,1,0,0:0:0:0:
192,192,174530,1,0,0:0:0:0:
448,192,174530,1,0,0:0:0:0:
64,192,174667,1,0,0:0:0:0:
192,192,174735,1,0,0:0:0:0:
320,192,174803,1,0,0:0:0:0:
448,192,174803,1,0,0:0:0:0:
192,192,174871,1,0,0:0:0:0:
64,192,174939,1,0,0:0:0:0:
192,192,175076,1,0,0:0:0:0:
448,192,175076,1,0,0:0:0:0:
320,192,175144,1,0,0:0:0:0:
64,192,175212,1,0,0:0:0:0:
192,192,175280,1,0,0:0:0:0:
320,192,175348,1,0,0:0:0:0:
448,192,175348,1,0,0:0:0:0:
64,192,175417,1,0,0:0:0:0:
192,192,175485,1,0,0:0:0:0:
320,192,175621,1,0,0:0:0:0:
448,192,175621,1,0,0:0:0:0:
192,192,175689,1,0,0:0:0:0:
320,192,175757,1,0,0:0:0:0:
448,192,175826,1,0,0:0:0:0:
64,192,175894,1,0,0:0:0:0:
192,192,175894,1,0,0:0:0:0:
448,192,175962,1,0,0:0:0:0:
320,192,176030,1,0,0:0:0:0:
192,192,176098,1,0,0:0:0:0:
64,192,176167,1,2,0:0:0:0:
320,192,176167,1,4,0:0:0:0:
448,192,176167,1,0,0:0:0:0:
192,192,176303,1,0,0:0:0:0:
64,192,176439,1,0,0:0:0:0:
448,192,176439,1,0,0:0:0:0:
192,192,176507,1,0,0:0:0:0:
320,192,176576,1,0,0:0:0:0:
64,192,176712,1,0,0:0:0:0:
192,192,176712,1,0,0:0:0:0:
448,192,176848,1,0,0:0:0:0:
64,192,176985,1,0,0:0:0:0:
320,192,176985,1,0,0:0:0:0:
192,192,177053,1,0,0:0:0:0:
448,192,177121,1,0,0:0:0:0:
320,192,177189,1,0,0:0:0:0:
64,192,177257,1,0,0:0:0:0:
192,192,177257,1,0,0:0:0:0:
320,192,177394,1,0,0:0:0:0:
192,192,177462,1,0,0:0:0:0:
64,192,177530,1,0,0:0:0:0:
448,192,177530,1,0,0:0:0:0:
320,192,177667,1,0,0:0:0:0:
64,192,177803,1,2,0:0:0:0:
192,192,177803,1,4,0:0:0:0:
448,192,177803,1,0,0:0:0:0:
320,192,177894,1,0,0:0:0:0:
64,192,177985,1,0,0:0:0:0:
320,192,178076,1,0,0:0:0:0:
448,192,178076,1,0,0:0:0:0:
192,192,178167,1,0,0:0:0:0:
320,192,178257,1,0,0:0:0:0:
64,192,178348,1,0,0:0:0:0:
448,192,178348,1,0,0:0:0:0:
192,192,178439,1,0,0:0:0:0:
320,192,178530,1,0,0:0:0:0:
64,192,178621,1,2,0:0:0:0:
192,192,178621,1,4,0:0:0:0:
448,192,178621,1,0,0:0:0:0:
320,192,178712,1,0,0:0:0:0:
192,192,178803,1,0,0:0:0:0:
64,192,178894,1,0,0:0:0:0:
320,192,178894,1,0,0:0:0:0:
448,192,178962,1,0,0:0:0:0:
320,192,179030,1,0,0:0:0:0:
192,192,179098,1,0,0:0:0:0:
64,192,179167,1,0,0:0:0:0:
448,192,179167,1,0,0:0:0:0:
320,192,179235,1,0,0:0:0:0:
192,192,179303,1,0,0:0:0:0:
64,192,179371,1,0,0:0:0:0:
192,192,179439,1,4,0:0:0:0:
320,192,179439,1,0,0:0:0:70:dirty kick #1.wav
448,192,179439,128,0,179507:0:0:0:0:
64,192,179575,128,0,179643:0:0:0:0:
64,192,179711,1,0,0:0:0:0:
192,192,179711,1,0,0:0:0:0:
320,192,179711,128,0,179779:0:0:0:0:
192,192,179848,128,0,179916:0:0:0:0:
320,192,179848,1,0,0:0:0:0:
64,192,179984,128,0,180189:0:0:0:0:
448,192,179984,128,0,180052:0:0:0:0:
320,192,180052,128,0,180120:0:0:0:0:
192,192,180120,128,0,180189:0:0:0:0:
448,192,180120,128,0,180257:0:0:0:0:
320,192,180189,128,0,180257:0:0:0:0:
64,192,180257,1,0,0:0:0:0:
192,192,180257,1,0,0:0:0:0:
320,192,180393,1,0,0:0:0:0:
448,192,180393,1,0,0:0:0:0:
64,192,180529,1,0,0:0:0:0:
192,192,180666,1,0,0:0:0:0:
320,192,180666,1,0,0:0:0:0:
64,192,180802,1,0,0:0:0:0:
448,192,180802,1,0,0:0:0:0:
192,192,180939,1,0,0:0:0:0:
320,192,181007,1,0,0:0:0:0:
64,192,181075,128,0,181279:0:0:0:0:
192,192,181075,128,0,181143:0:0:0:0:
320,192,181143,128,0,181211:0:0:0:0:
192,192,181211,128,0,181348:0:0:0:0:
448,192,181211,128,0,181279:0:0:0:0:
320,192,181279,128,0,181348:0:0:0:0:
64,192,181348,128,0,181416:0:0:0:0:
448,192,181348,128,0,181552:0:0:0:0:
192,192,181416,128,0,181484:0:0:0:0:
64,192,181484,128,0,181620:0:0:0:0:
320,192,181484,128,0,181552:0:0:0:0:
192,192,181552,128,0,181620:0:0:0:0:
320,192,181620,128,0,181689:0:0:0:0:
448,192,181620,1,0,0:0:0:0:
192,192,181757,128,0,181825:0:0:0:0:
320,192,181757,1,0,0:0:0:0:
64,192,181893,1,0,0:0:0:0:
192,192,181893,1,0,0:0:0:0:
448,192,181893,128,0,181961:0:0:0:0:
64,192,182029,1,0,0:0:0:0:
320,192,182029,128,0,182098:0:0:0:0:
64,192,182166,128,0,182370:0:0:0:0:
192,192,182166,128,0,182234:0:0:0:0:
320,192,182234,128,0,182302:0:0:0:0:
192,192,182302,128,0,182439:0:0:0:0:
448,192,182302,128,0,182370:0:0:0:0:
320,192,182370,128,0,182439:0:0:0:0:
64,192,182439,1,0,0:0:0:0:
448,192,182439,1,0,0:0:0:0:
192,192,182575,1,0,0:0:0:0:
320,192,182575,1,0,0:0:0:0:
64,192,182711,1,0,0:0:0:0:
320,192,182848,1,0,0:0:0:0:
448,192,182848,1,0,0:0:0:0:
64,192,182984,1,0,0:0:0:0:
192,192,182984,1,0,0:0:0:0:
448,192,183052,1,0,0:0:0:0:
320,192,183120,1,0,0:0:0:0:
192,192,183189,1,0,0:0:0:0:
320,192,183257,128,0,183325:0:0:0:0:
448,192,183257,128,0,183393:0:0:0:0:
192,192,183393,128,0,183461:0:0:0:0:
320,192,183393,128,0,183529:0:0:0:0:
64,192,183529,128,0,183734:0:0:0:0:
192,192,183529,128,0,183598:0:0:0:0:
320,192,183598,128,0,183666:0:0:0:0:
192,192,183666,128,0,183802:0:0:0:0:
448,192,183666,128,0,183734:0:0:0:0:
320,192,183734,128,0,183802:0:0:0:0:
64,192,183802,1,0,0:0:0:0:
448,192,183802,128,0,183870:0:0:0:0:
192,192,183939,128,0,184007:0:0:0:0:
448,192,183939,1,0,0:0:0:0:
64,192,184075,128,0,184143:0:0:0:0:
192,192,184075,1,0,0:0:0:0:
320,192,184075,1,0,0:0:0:0:
320,192,184211,128,0,184279:0:0:0:0:
448,192,184211,1,0,0:0:0:0:
64,192,184348,128,0,184552:0:0:0:0:
448,192,184348,128,0,184416:0:0:0:0:
320,192,184416,128,0,184484:0:0:0:0:
192,192,184484,128,0,184552:0:0:0:0:
448,192,184484,128,0,184620:0:0:0:0:
320,192,184552,128,0,184620:0:0:0:0:
64,192,184620,1,0,0:0:0:0:
192,192,184620,1,0,0:0:0:0:
192,192,184757,1,0,0:0:0:0:
320,192,184757,1,0,0:0:0:0:
448,192,184893,1,0,0:0:0:0:
64,192,185029,1,0,0:0:0:0:
192,192,185029,1,0,0:0:0:0:
320,192,185166,1,0,0:0:0:0:
448,192,185166,1,0,0:0:0:0:
192,192,185302,1,0,0:0:0:0:
320,192,185370,1,0,0:0:0:0:
64,192,185439,128,0,185643:0:0:0:0:
192,192,185439,128,0,185507:0:0:0:0:
320,192,185507,128,0,185575:0:0:0:0:
192,192,185575,128,0,185711:0:0:0:0:
448,192,185575,128,0,185643:0:0:0:0:
320,192,185643,128,0,185711:0:0:0:0:
64,192,185711,128,0,185779:0:0:0:0:
448,192,185711,128,0,185916:0:0:0:0:
192,192,185779,128,0,185848:0:0:0:0:
64,192,185848,128,0,185984:0:0:0:0:
320,192,185848,128,0,185916:0:0:0:0:
192,192,185916,128,0,185984:0:0:0:0:
320,192,185984,1,0,0:0:0:0:
448,192,185984,128,0,186052:0:0:0:0:
192,192,186120,128,0,186189:0:0:0:0:
448,192,186120,1,0,0:0:0:0:
64,192,186257,1,0,0:0:0:0:
320,192,186257,128,0,186325:0:0:0:0:
448,192,186257,1,0,0:0:0:0:
64,192,186393,128,0,186461:0:0:0:0:
192,192,186393,1,0,0:0:0:0:
192,192,186529,1,0,0:0:0:0:
320,192,186529,1,0,0:0:0:0:
448,192,186529,128,0,186598:0:0:0:0:
64,192,186666,1,0,0:0:0:0:
320,192,186666,128,0,186734:0:0:0:0:
64,192,186802,128,0,186870:0:0:0:0:
192,192,186802,1,0,0:0:0:0:
448,192,186802,1,0,0:0:0:0:
320,192,186939,128,0,187007:0:0:0:0:
448,192,186939,1,0,0:0:0:0:
64,192,187075,1,0,0:0:0:0:
192,192,187075,1,0,0:0:0:0:
448,192,187075,1,0,0:0:0:0:
64,192,187211,1,0,0:0:0:0:
192,192,187211,1,0,0:0:0:0:
64,192,187348,1,0,0:0:0:0:
320,192,187348,1,0,0:0:0:0:
448,192,187348,1,0,0:0:0:0:
320,192,187484,1,0,0:0:0:0:
448,192,187484,1,0,0:0:0:0:
64,192,187620,1,0,0:0:0:0:
192,192,187620,1,0,0:0:0:0:
320,192,187620,1,0,0:0:0:0:
64,192,187757,1,0,0:0:0:0:
448,192,187757,1,0,0:0:0:0:
192,192,187825,1,0,0:0:0:0:
64,192,187893,1,8,0:0:0:0:
320,192,187893,1,0,0:0:0:0:
448,192,187961,1,8,0:0:0:0:
64,192,188029,1,8,0:0:0:0:
192,192,188029,1,0,0:0:0:0:
320,192,188098,1,8,0:0:0:0:
448,192,188098,1,0,0:0:0:0:
64,192,188166,1,4,0:0:0:0:
192,192,188166,1,8,0:0:0:0:
320,192,188234,1,0,0:0:0:0:
448,192,188302,1,0,0:0:0:0:
192,192,188370,1,0,0:0:0:0:
64,192,188439,1,8,0:0:0:0:
320,192,188439,1,0,0:0:0:0:
448,192,188439,1,0,0:0:0:0:
192,192,188507,1,0,0:0:0:0:
448,192,188575,1,0,0:0:0:0:
320,192,188643,1,0,0:0:0:0:
64,192,188711,128,8,188916:0:0:0:0:
448,192,188711,128,0,188779:0:0:0:0:
320,192,188779,128,0,188848:0:0:0:0:
192,192,188848,128,0,188916:0:0:0:0:
448,192,188848,128,0,188984:0:0:0:0:
320,192,188916,128,0,188984:0:0:0:0:
64,192,188984,1,8,0:0:0:0:
192,192,188984,1,0,0:0:0:0:
320,192,189052,1,0,0:0:0:0:
448,192,189120,1,0,0:0:0:0:
192,192,189189,1,0,0:0:0:0:
64,192,189257,1,8,0:0:0:0:
320,192,189257,1,0,0:0:0:0:
448,192,189257,1,0,0:0:0:0:
192,192,189325,1,0,0:0:0:0:
320,192,189393,1,0,0:0:0:0:
64,192,189461,1,0,0:0:0:0:
192,192,189529,1,8,0:0:0:0:
320,192,189529,1,0,0:0:0:0:
448,192,189529,1,0,0:0:0:0:
64,192,189598,1,0,0:0:0:0:
448,192,189666,1,0,0:0:0:0:
320,192,189734,1,0,0:0:0:0:
64,192,189802,128,8,190007:0:0:0:0:
448,192,189802,128,0,189870:0:0:0:0:
320,192,189870,128,0,189939:0:0:0:0:
192,192,189939,128,0,190007:0:0:0:0:
448,192,189939,128,0,190075:0:0:0:0:
320,192,190007,128,0,190075:0:0:0:0:
64,192,190075,128,8,190279:0:0:0:0:
192,192,190075,128,0,190143:0:0:0:0:
320,192,190143,128,0,190211:0:0:0:0:
192,192,190211,128,0,190348:0:0:0:0:
448,192,190211,128,0,190279:0:0:0:0:
320,192,190279,128,0,190348:0:0:0:0:
64,192,190348,1,8,0:0:0:0:
448,192,190348,1,4,0:0:0:0:
320,192,190416,1,0,0:0:0:0:
192,192,190484,1,0,0:0:0:0:
448,192,190552,1,0,0:0:0:0:
64,192,190620,1,8,0:0:0:0:
192,192,190620,1,0,0:0:0:0:
320,192,190620,1,0,0:0:0:0:
448,192,190689,1,0,0:0:0:0:
64,192,190757,1,0,0:0:0:0:
320,192,190825,1,0,0:0:0:0:
64,192,190893,128,8,191098:0:0:0:0:
448,192,190893,128,0,190961:0:0:0:0:
320,192,190961,128,0,191029:0:0:0:0:
192,192,191029,128,0,191098:0:0:0:0:
448,192,191029,128,0,191166:0:0:0:0:
320,192,191098,128,0,191166:0:0:0:0:
64,192,191166,1,8,0:0:0:0:
192,192,191166,1,0,0:0:0:0:
448,192,191234,1,0,0:0:0:0:
320,192,191302,1,0,0:0:0:0:
192,192,191370,1,0,0:0:0:0:
64,192,191439,1,8,0:0:0:0:
320,192,191439,1,0,0:0:0:0:
448,192,191439,1,0,0:0:0:0:
192,192,191507,1,0,0:0:0:0:
64,192,191575,1,0,0:0:0:0:
320,192,191643,1,0,0:0:0:0:
64,192,191711,1,8,0:0:0:0:
192,192,191711,1,0,0:0:0:0:
448,192,191711,1,0,0:0:0:0:
320,192,191779,1,0,0:0:0:0:
192,192,191848,1,0,0:0:0:0:
64,192,191916,1,0,0:0:0:0:
320,192,191984,128,8,192052:0:0:0:0:
448,192,191984,128,0,192120:0:0:0:0:
192,192,192120,128,0,192189:0:0:0:0:
320,192,192120,128,0,192257:0:0:0:0:
64,192,192257,128,8,192461:0:0:0:0:
192,192,192257,128,0,192325:0:0:0:0:
320,192,192325,128,0,192393:0:0:0:0:
192,192,192393,128,8,192529:0:0:0:0:
448,192,192393,128,0,192461:0:0:0:0:
320,192,192461,128,0,192529:0:0:0:0:
64,192,192529,1,8,0:0:0:0:
448,192,192529,1,4,0:0:0:0:
320,192,192598,1,0,0:0:0:0:
192,192,192666,1,0,0:0:0:0:
448,192,192734,1,0,0:0:0:0:
64,192,192802,1,8,0:0:0:0:
192,192,192802,1,0,0:0:0:0:
320,192,192802,1,0,0:0:0:0:
448,192,192870,1,0,0:0:0:0:
320,192,192939,1,0,0:0:0:0:
192,192,193007,1,0,0:0:0:0:
64,192,193075,128,8,193279:0:0:0:0:
448,192,193075,128,0,193143:0:0:0:0:
192,192,193143,128,0,193211:0:0:0:0:
320,192,193211,128,0,193279:0:0:0:0:
448,192,193211,128,0,193348:0:0:0:0:
192,192,193279,128,0,193348:0:0:0:0:
64,192,193348,1,8,0:0:0:0:
320,192,193348,1,0,0:0:0:0:
192,192,193416,1,0,0:0:0:0:
320,192,193484,1,0,0:0:0:0:
448,192,193552,1,0,0:0:0:0:
64,192,193620,1,8,0:0:0:0:
192,192,193620,1,0,0:0:0:0:
320,192,193620,1,0,0:0:0:0:
448,192,193689,1,0,0:0:0:0:
64,192,193757,1,0,0:0:0:0:
192,192,193825,1,0,0:0:0:0:
64,192,193893,1,8,0:0:0:0:
320,192,193893,1,0,0:0:0:0:
448,192,193893,1,0,0:0:0:0:
192,192,193961,1,0,0:0:0:0:
320,192,194029,1,0,0:0:0:0:
64,192,194098,1,0,0:0:0:0:
320,192,194166,128,8,194234:0:0:0:0:
448,192,194166,128,0,194370:0:0:0:0:
192,192,194234,128,0,194302:0:0:0:0:
64,192,194302,128,0,194370:0:0:0:0:
320,192,194302,128,0,194439:0:0:0:0:
192,192,194370,128,0,194439:0:0:0:0:
64,192,194439,128,8,194643:0:0:0:0:
448,192,194439,128,0,194507:0:0:0:0:
320,192,194507,128,0,194575:0:0:0:0:
192,192,194575,128,8,194643:0:0:0:0:
448,192,194575,128,0,194711:0:0:0:0:
320,192,194643,128,0,194711:0:0:0:0:
64,192,194711,1,4,0:0:0:0:
192,192,194711,1,8,0:0:0:0:
320,192,194779,1,0,0:0:0:0:
64,192,194848,1,8,0:0:0:0:
192,192,194848,1,0,0:0:0:0:
448,192,194916,1,0,0:0:0:0:
192,192,194984,1,8,0:0:0:0:
320,192,194984,1,0,0:0:0:0:
64,192,195052,1,0,0:0:0:0:
320,192,195120,1,8,0:0:0:0:
448,192,195120,1,0,0:0:0:0:
192,192,195189,1,0,0:0:0:0:
64,192,195257,1,8,0:0:0:0:
448,192,195257,1,0,0:0:0:0:
320,192,195325,1,0,0:0:0:0:
64,192,195393,1,8,0:0:0:0:
192,192,195393,1,0,0:0:0:0:
448,192,195461,1,0,0:0:0:0:
192,192,195529,1,8,0:0:0:0:
320,192,195529,1,0,0:0:0:0:
64,192,195598,1,0,0:0:0:0:
320,192,195666,1,8,0:0:0:0:
448,192,195666,1,0,0:0:0:0:
192,192,195734,1,0,0:0:0:0:
64,192,195802,1,8,0:0:0:0:
448,192,195802,1,4,0:0:0:0:
320,192,195870,1,8,0:0:0:0:
64,192,195939,1,8,0:0:0:0:
192,192,195939,1,0,0:0:0:0:
320,192,196007,1,8,0:0:0:0:
448,192,196007,1,0,0:0:0:0:
64,192,196075,1,8,0:0:0:0:
192,192,196075,1,0,0:0:0:0:
448,192,196143,1,8,0:0:0:0:
64,192,196211,1,8,0:0:0:0:
320,192,196211,1,0,0:0:0:0:
192,192,196279,1,8,0:0:0:0:
320,192,196348,1,8,0:0:0:0:
448,192,196348,1,0,0:0:0:0:
64,192,196416,1,8,0:0:0:0:
192,192,196416,1,0,0:0:0:0:
320,192,196484,1,8,0:0:0:0:
448,192,196484,1,0,0:0:0:0:
64,192,196552,1,8,0:0:0:0:
192,192,196552,1,0,0:0:0:0:
320,192,196620,1,8,0:0:0:0:
448,192,196620,1,0,0:0:0:0:
64,192,196689,1,8,0:0:0:0:
192,192,196689,1,0,0:0:0:0:
320,192,196757,1,8,0:0:0:0:
448,192,196757,1,0,0:0:0:0:
64,192,196825,1,0,0:0:0:0:
192,192,196893,1,4,0:0:0:0:
320,192,196893,1,0,0:0:0:70:Kick 15.wav
448,192,196893,1,0,0:0:0:0:
192,192,197029,1,8,0:0:0:0:
64,192,197166,1,8,0:0:0:0:
320,192,197166,1,0,0:0:0:0:
448,192,197166,1,0,0:0:0:0:
320,192,197302,1,8,0:0:0:0:
64,192,197439,1,8,0:0:0:0:
192,192,197439,1,0,0:0:0:0:
448,192,197439,1,0,0:0:0:0:
192,192,197575,1,8,0:0:0:0:
320,192,197575,1,0,0:0:0:0:
448,192,197643,1,8,0:0:0:0:
64,192,197711,1,8,0:0:0:0:
192,192,197711,1,0,0:0:0:0:
320,192,197711,1,0,0:0:0:0:
64,192,197848,1,8,0:0:0:0:
192,192,197984,1,8,0:0:0:0:
320,192,197984,1,4,0:0:0:0:
448,192,197984,1,0,0:0:0:0:
64,192,198120,1,8,0:0:0:0:
320,192,198120,1,0,0:0:0:0:
448,192,198120,1,0,0:0:0:0:
64,192,198257,1,8,0:0:0:0:
192,192,198257,1,0,0:0:0:0:
448,192,198257,1,0,0:0:0:0:
64,192,198393,1,8,0:0:0:0:
192,192,198393,1,0,0:0:0:0:
320,192,198393,1,0,0:0:0:0:
192,192,198529,1,8,0:0:0:0:
320,192,198529,1,0,0:0:0:0:
448,192,198529,1,0,0:0:0:0:
64,192,198666,1,8,0:0:0:0:
320,192,198666,1,0,0:0:0:0:
192,192,198734,1,0,0:0:0:0:
64,192,198802,1,8,0:0:0:0:
320,192,198802,1,0,0:0:0:0:
448,192,198802,1,0,0:0:0:0:
448,192,198939,1,8,0:0:0:0:
64,192,199075,1,8,0:0:0:0:
192,192,199075,1,4,0:0:0:0:
320,192,199075,1,0,0:0:0:0:
320,192,199211,1,8,0:0:0:0:
64,192,199348,1,8,0:0:0:0:
192,192,199348,1,0,0:0:0:0:
448,192,199348,1,0,0:0:0:0:
64,192,199484,1,8,0:0:0:0:
192,192,199484,1,0,0:0:0:0:
320,192,199484,1,0,0:0:0:0:
192,192,199620,1,8,0:0:0:0:
320,192,199620,1,0,0:0:0:0:
448,192,199620,1,0,0:0:0:0:
320,192,199757,1,8,0:0:0:0:
448,192,199757,1,0,0:0:0:0:
192,192,199825,1,0,0:0:0:0:
64,192,199893,1,8,0:0:0:0:
320,192,199893,1,0,0:0:0:0:
448,192,199893,1,0,0:0:0:0:
64,192,200029,1,8,0:0:0:0:
192,192,200166,1,8,0:0:0:0:
320,192,200166,1,4,0:0:0:0:
448,192,200166,1,0,0:0:0:0:
320,192,200302,1,8,0:0:0:0:
64,192,200439,1,8,0:0:0:0:
192,192,200439,1,0,0:0:0:0:
448,192,200439,1,0,0:0:0:0:
192,192,200575,1,8,0:0:0:0:
64,192,200711,1,8,0:0:0:0:
320,192,200711,1,0,0:0:0:0:
448,192,200711,1,0,0:0:0:0:
192,192,200848,1,8,0:0:0:0:
448,192,200848,1,0,0:0:0:0:
320,192,200916,1,0,0:0:0:0:
64,192,200984,1,8,0:0:0:0:
192,192,200984,1,0,0:0:0:0:
320,192,201052,1,8,0:0:0:0:
448,192,201052,1,0,0:0:0:0:
64,192,201120,1,8,0:0:0:0:
192,192,201120,1,0,0:0:0:0:
320,192,201189,1,8,0:0:0:0:
448,192,201189,1,0,0:0:0:0:
64,192,201257,1,4,0:0:0:0:
192,192,201257,1,8,0:0:0:0:
320,192,201325,1,8,0:0:0:0:
64,192,201393,1,8,0:0:0:0:
448,192,201393,1,0,0:0:0:0:
192,192,201461,1,8,0:0:0:0:
320,192,201529,1,8,0:0:0:0:
448,192,201529,1,0,0:0:0:0:
64,192,201598,1,8,0:0:0:0:
192,192,201598,1,0,0:0:0:0:
320,192,201666,1,8,0:0:0:0:
448,192,201666,1,0,0:0:0:0:
192,192,201734,1,8,0:0:0:0:
64,192,201802,1,8,0:0:0:0:
448,192,201802,1,0,0:0:0:0:
320,192,201870,1,8,0:0:0:0:
64,192,201939,1,8,0:0:0:0:
192,192,201939,1,0,0:0:0:0:
448,192,202007,1,8,0:0:0:0:
64,192,202075,1,8,0:0:0:0:
320,192,202075,1,0,0:0:0:0:
192,192,202143,1,8,0:0:0:0:
320,192,202211,1,8,0:0:0:0:
448,192,202211,1,0,0:0:0:0:
192,192,202279,1,8,0:0:0:0:
64,192,202348,1,4,0:0:0:0:
448,192,202348,1,8,0:0:0:0:
320,192,202416,1,8,0:0:0:0:
64,192,202484,1,8,0:0:0:0:
192,192,202484,1,0,0:0:0:0:
448,192,202552,1,8,0:0:0:0:
192,192,202620,1,8,0:0:0:0:
320,192,202620,1,0,0:0:0:0:
64,192,202689,1,8,0:0:0:0:
192,192,202757,1,8,0:0:0:0:
448,192,202757,1,0,0:0:0:0:
320,192,202825,1,8,0:0:0:0:
64,192,202893,1,8,0:0:0:0:
192,192,202893,1,0,0:0:0:0:
320,192,202961,1,8,0:0:0:0:
448,192,202961,1,0,0:0:0:0:
64,192,203029,1,8,0:0:0:0:
192,192,203029,1,0,0:0:0:0:
320,192,203098,1,8,0:0:0:0:
448,192,203098,1,0,0:0:0:0:
64,192,203166,1,8,0:0:0:0:
192,192,203166,1,0,0:0:0:0:
320,192,203234,1,8,0:0:0:0:
448,192,203234,1,0,0:0:0:0:
64,192,203302,1,8,0:0:0:0:
192,192,203302,1,0,0:0:0:0:
320,192,203370,1,8,0:0:0:0:
64,192,203439,1,4,0:0:0:0:
192,192,203439,1,0,0:0:0:70:LR_Air Dart Snare.wav
448,192,203439,1,0,0:0:0:0:
64,192,203711,1,0,0:0:0:70:LR_Air Dart Snare.wav
192,192,203711,1,0,0:0:0:0:
320,192,203711,1,0,0:0:0:0:
64,192,203802,1,0,0:0:0:0:
320,192,203893,1,0,0:0:0:70:LR_Air Dart Snare.wav
448,192,203893,1,0,0:0:0:0:
192,192,203984,1,0,0:0:0:70:LR_Air Dart Snare.wav
320,192,203984,1,0,0:0:0:0:
448,192,203984,1,0,0:0:0:0:
64,192,204166,1,0,0:0:0:0:
64,192,204257,1,0,0:0:0:70:LR_Air Dart Snare.wav
192,192,204257,1,0,0:0:0:0:
448,192,204257,1,0,0:0:0:0:
320,192,204439,1,0,0:0:0:70:LR_Air Dart Snare.wav
448,192,204439,1,0,0:0:0:0:
64,192,204529,128,0,205620:0:0:0:70:LR_Air Dart Snare.wav
448,192,204529,1,0,0:0:0:0:
192,192,205143,1,0,0:0:0:0:
192,192,205211,1,0,0:0:0:0:
320,192,205279,1,0,0:0:0:0:
448,192,205348,128,0,205484:0:0:0:0:
192,192,205620,128,4,205757:0:0:0:0:
320,192,205620,128,0,205757:0:0:0:70:Kick 15.wav
448,192,205620,1,0,0:0:0:0:
64,192,205757,128,0,205825:0:0:0:70:Kick 15.wav
448,192,205757,128,0,205825:0:0:0:0:
192,192,205825,128,0,205961:0:0:0:70:Kick 15.wav
320,192,205825,128,0,205893:0:0:0:0:
64,192,205893,128,0,206098:0:0:0:70:Kick 15.wav
448,192,205893,128,0,206166:0:0:0:0:
192,192,206029,128,0,206098:0:0:0:70:Kick 15.wav
320,192,206029,128,0,206166:0:0:0:0:
64,192,206166,128,0,206439:0:0:0:70:Kick 15.wav
192,192,206166,128,0,206302:0:0:0:0:
320,192,206234,128,0,206370:0:0:0:0:
448,192,206302,128,0,206370:0:0:0:0:
192,192,206370,128,0,206507:0:0:0:0:
320,192,206439,128,0,206643:0:0:0:70:Kick 15.wav
448,192,206439,128,0,206711:0:0:0:0:
64,192,206575,128,0,206711:0:0:0:0:
192,192,206575,128,0,206643:0:0:0:0:
192,192,206711,128,0,206848:0:0:0:70:Kick 15.wav
320,192,206711,128,0,206916:0:0:0:0:
448,192,206779,128,0,206984:0:0:0:0:
64,192,206848,128,0,206984:0:0:0:0:
192,192,206984,128,0,207189:0:0:0:70:Kick 15.wav
320,192,206984,128,0,207120:0:0:0:0:
64,192,207052,128,0,207257:0:0:0:0:
448,192,207120,128,0,207257:0:0:0:0:
192,192,207257,128,0,207393:0:0:0:70:Kick 15.wav
320,192,207257,128,0,207461:0:0:0:0:
448,192,207325,128,0,207529:0:0:0:0:
64,192,207393,128,0,207529:0:0:0:0:
192,192,207529,128,0,207734:0:0:0:70:Kick 15.wav
320,192,207529,128,0,207666:0:0:0:0:
64,192,207598,128,0,207802:0:0:0:0:
320,192,207802,128,0,208007:0:0:0:70:Kick 15.wav
448,192,207802,128,0,208075:0:0:0:0:
64,192,207939,128,0,208075:0:0:0:0:
192,192,207939,128,0,208007:0:0:0:0:
192,192,208075,128,0,208348:0:0:0:70:Kick 15.wav
320,192,208075,128,0,208279:0:0:0:0:
64,192,208211,128,0,208348:0:0:0:0:
448,192,208211,128,0,208279:0:0:0:0:
320,192,208348,128,0,208484:0:0:0:70:Kick 15.wav
448,192,208348,128,0,208620:0:0:0:0:
192,192,208416,128,0,208552:0:0:0:0:
64,192,208484,128,0,208552:0:0:0:0:
320,192,208552,128,0,208689:0:0:0:0:
64,192,208620,128,0,208893:0:0:0:70:Kick 15.wav
192,192,208620,128,0,208825:0:0:0:0:
320,192,208757,128,0,208825:0:0:0:0:
448,192,208757,128,0,208893:0:0:0:0:
192,192,208893,128,0,209098:0:0:0:70:Kick 15.wav
320,192,208893,128,0,209029:0:0:0:0:
64,192,208961,128,0,209166:0:0:0:0:
448,192,209029,128,0,209166:0:0:0:0:
192,192,209166,128,0,209302:0:0:0:70:Kick 15.wav
320,192,209166,128,0,209370:0:0:0:0:
448,192,209234,128,0,209439:0:0:0:0:
64,192,209302,128,0,209370:0:0:0:0:
64,192,209439,128,0,209507:0:0:0:70:Kick 15.wav
192,192,209439,128,0,209507:0:0:0:0:
320,192,209439,128,0,209711:0:0:0:0:
192,192,209575,128,0,209711:0:0:0:0:
448,192,209575,128,0,209643:0:0:0:0:
64,192,209711,128,0,209916:0:0:0:70:Kick 15.wav
448,192,209711,128,0,209984:0:0:0:0:
192,192,209848,128,0,209916:0:0:0:70:Kick 15.wav
320,192,209848,128,0,209984:0:0:0:0:
64,192,209984,128,4,210257:0:0:0:0:
192,192,209984,128,0,210189:0:0:0:70:Kick 15.wav
320,192,210120,128,0,210189:0:0:0:0:
448,192,210120,128,0,210257:0:0:0:0:
192,192,210257,128,0,210529:0:0:0:70:Kick 15.wav
320,192,210257,128,0,210461:0:0:0:0:
64,192,210393,128,0,210461:0:0:0:0:
448,192,210393,128,0,210529:0:0:0:0:
64,192,210529,128,0,210802:0:0:0:70:Kick 15.wav
320,192,210529,128,0,210666:0:0:0:0:
192,192,210598,128,0,210734:0:0:0:0:
448,192,210666,128,0,210734:0:0:0:0:
320,192,210734,128,0,210870:0:0:0:0:
192,192,210802,128,0,211007:0:0:0:70:Kick 15.wav
448,192,210802,128,0,211075:0:0:0:0:
64,192,210939,128,0,211075:0:0:0:0:
320,192,210939,128,0,211007:0:0:0:0:
192,192,211075,128,0,211279:0:0:0:70:Kick 15.wav
320,192,211075,128,0,211348:0:0:0:0:
64,192,211143,128,0,211211:0:0:0:0:
448,192,211211,128,0,211348:0:0:0:0:
64,192,211348,128,0,211620:0:0:0:70:Kick 15.wav
192,192,211348,128,0,211552:0:0:0:0:
320,192,211416,128,0,211484:0:0:0:0:
448,192,211484,128,0,211620:0:0:0:0:
192,192,211620,128,0,211825:0:0:0:70:Kick 15.wav
320,192,211620,128,0,211893:0:0:0:0:
64,192,211689,128,0,211757:0:0:0:0:
448,192,211757,128,0,211893:0:0:0:0:
64,192,211893,128,0,212029:0:0:0:70:Kick 15.wav
192,192,211893,128,0,211961:0:0:0:0:
192,192,212029,128,0,212098:0:0:0:70:Kick 15.wav
320,192,212029,128,0,212098:0:0:0:0:
64,192,212098,128,0,212166:0:0:0:70:Kick 15.wav
448,192,212098,128,0,212166:0:0:0:0:
192,192,212166,128,0,212439:0:0:0:70:Kick 15.wav
320,192,212166,128,0,212370:0:0:0:0:
64,192,212302,128,0,212439:0:0:0:0:
448,192,212302,128,0,212370:0:0:0:0:
320,192,212439,128,0,212643:0:0:0:70:Kick 15.wav
448,192,212439,128,0,212643:0:0:0:0:
64,192,212575,128,0,212711:0:0:0:0:
192,192,212575,128,0,212643:0:0:0:0:
192,192,212711,128,0,212916:0:0:0:70:Kick 15.wav
320,192,212711,128,0,212779:0:0:0:0:
448,192,212711,128,0,212779:0:0:0:0:
64,192,212848,128,0,212916:0:0:0:70:Kick 15.wav
320,192,212848,128,0,212916:0:0:0:0:
448,192,212848,128,0,213052:0:0:0:0:
64,192,212984,128,0,213257:0:0:0:70:Kick 15.wav
192,192,212984,128,0,213052:0:0:0:0:
320,192,212984,128,0,213052:0:0:0:0:
192,192,213120,128,0,213302:0:0:0:70:Kick 15.wav
320,192,213120,128,0,213348:0:0:0:0:
448,192,213120,128,0,213393:0:0:0:0:
64,192,213393,128,0,213461:0:0:0:70:Kick 15.wav
192,192,213393,128,0,213461:0:0:0:0:
320,192,213461,128,0,213598:0:0:0:70:Kick 15.wav
448,192,213461,128,0,213529:0:0:0:0:
64,192,213529,128,0,213666:0:0:0:70:Kick 15.wav
192,192,213529,128,0,213598:0:0:0:0:
320,192,213666,128,0,213734:0:0:0:70:Kick 15.wav
448,192,213666,128,0,213734:0:0:0:0:
64,192,213734,128,0,213802:0:0:0:70:Kick 15.wav
192,192,213734,128,0,213870:0:0:0:0:
320,192,213802,128,0,213870:0:0:0:70:Kick 15.wav
448,192,213802,128,0,213939:0:0:0:0:
64,192,213939,128,0,214007:0:0:0:70:Kick 15.wav
192,192,213939,128,0,214007:0:0:0:0:
320,192,214007,128,0,214143:0:0:0:70:Kick 15.wav
448,192,214007,128,0,214075:0:0:0:0:
64,192,214075,128,0,214211:0:0:0:70:Kick 15.wav
192,192,214075,128,0,214211:0:0:0:0:
320,192,214211,128,0,214348:0:0:0:0:
448,192,214211,128,0,214348:0:0:0:0:
64,192,214348,128,4,214620:0:0:0:0:
192,192,214348,128,0,214552:0:0:0:70:Kick 15.wav
320,192,214484,128,0,214552:0:0:0:0:
448,192,214484,128,0,214620:0:0:0:0:
192,192,214620,128,0,214893:0:0:0:70:Kick 15.wav
320,192,214620,128,0,214825:0:0:0:0:
64,192,214757,128,0,214893:0:0:0:0:
448,192,214757,128,0,214825:0:0:0:0:
320,192,214893,128,0,215166:0:0:0:70:Kick 15.wav
448,192,214893,128,0,215029:0:0:0:0:
64,192,214961,128,0,215098:0:0:0:0:
192,192,215029,128,0,215098:0:0:0:0:
448,192,215098,128,0,215234:0:0:0:0:
64,192,215166,128,0,215439:0:0:0:70:Kick 15.wav
192,192,215166,128,0,215370:0:0:0:0:
320,192,215302,128,0,215370:0:0:0:0:
448,192,215302,128,0,215439:0:0:0:0:
192,192,215439,128,0,215643:0:0:0:70:Kick 15.wav
320,192,215439,128,0,215575:0:0:0:0:
64,192,215507,128,0,215711:0:0:0:0:
448,192,215575,128,0,215711:0:0:0:0:
192,192,215711,128,0,215848:0:0:0:70:Kick 15.wav
320,192,215711,128,0,215916:0:0:0:0:
448,192,215779,128,0,215984:0:0:0:0:
64,192,215848,128,0,215984:0:0:0:0:
192,192,215984,128,0,216189:0:0:0:70:Kick 15.wav
320,192,215984,128,0,216120:0:0:0:0:
64,192,216052,128,0,216257:0:0:0:0:
448,192,216120,128,0,216189:0:0:0:0:
192,192,216257,128,0,216529:0:0:0:70:Kick 15.wav
320,192,216257,128,0,216325:0:0:0:0:
448,192,216257,128,0,216325:0:0:0:0:
64,192,216393,128,0,216461:0:0:0:70:Kick 15.wav
320,192,216393,128,0,216461:0:0:0:0:
448,192,216393,128,0,216529:0:0:0:0:
64,192,216529,128,0,216734:0:0:0:70:Kick 15.wav
320,192,216529,128,0,216802:0:0:0:0:
192,192,216666,128,0,216734:0:0:0:0:
448,192,216666,128,0,216802:0:0:0:0:
64,192,216802,128,0,217075:0:0:0:70:Kick 15.wav
192,192,216802,128,0,217007:0:0:0:0:
320,192,216939,128,0,217007:0:0:0:0:
448,192,216939,128,0,217075:0:0:0:0:
192,192,217075,128,0,217348:0:0:0:70:Kick 15.wav
320,192,217075,128,0,217211:0:0:0:0:
448,192,217143,128,0,217279:0:0:0:0:
64,192,217211,128,0,217279:0:0:0:0:
320,192,217279,128,0,217416:0:0:0:0:
64,192,217348,128,0,217620:0:0:0:70:Kick 15.wav
448,192,217348,128,0,217552:0:0:0:0:
192,192,217484,128,0,217552:0:0:0:0:
320,192,217484,128,0,217620:0:0:0:0:
192,192,217620,128,0,217757:0:0:0:70:Kick 15.wav
448,192,217620,128,0,217893:0:0:0:0:
320,192,217689,128,0,217825:0:0:0:0:
64,192,217757,128,0,217893:0:0:0:70:Kick 15.wav
192,192,217893,128,0,218098:0:0:0:70:Kick 15.wav
320,192,217893,128,0,218029:0:0:0:0:
64,192,217961,128,0,218166:0:0:0:0:
448,192,218029,128,0,218098:0:0:0:0:
192,192,218166,128,0,218439:0:0:0:70:Kick 15.wav
320,192,218166,128,0,218234:0:0:0:0:
448,192,218166,128,0,218234:0:0:0:0:
64,192,218302,128,0,218370:0:0:0:0:
448,192,218302,128,0,218439:0:0:0:0:
64,192,218439,128,0,218711:0:0:0:70:Kick 15.wav
320,192,218439,128,0,218643:0:0:0:0:
192,192,218575,128,0,218711:0:0:0:70:Kick 15.wav
448,192,218575,128,0,218643:0:0:0:0:
320,192,218711,128,4,218916:0:0:0:0:
448,192,218711,128,0,218984:0:0:0:70:Kick 15.wav
64,192,218848,128,0,218984:0:0:0:0:
192,192,218848,128,0,218916:0:0:0:0:
192,192,218984,128,0,219189:0:0:0:70:Kick 15.wav
320,192,218984,128,0,219257:0:0:0:0:
64,192,219120,128,0,219257:0:0:0:0:
448,192,219120,128,0,219189:0:0:0:0:
192,192,219257,128,0,219393:0:0:0:70:Kick 15.wav
448,192,219257,128,0,219529:0:0:0:0:
64,192,219325,128,0,219461:0:0:0:0:
320,192,219393,128,0,219461:0:0:0:0:
192,192,219461,128,0,219598:0:0:0:0:
64,192,219529,128,0,219802:0:0:0:70:Kick 15.wav
320,192,219529,128,0,219734:0:0:0:0:
192,192,219666,128,0,219734:0:0:0:70:Kick 15.wav
448,192,219666,128,0,219802:0:0:0:0:
192,192,219802,128,4,219939:0:0:0:0:
320,192,219802,128,0,220007:0:0:0:70:Kick 15.wav
448,192,219870,128,0,220075:0:0:0:0:
64,192,219939,128,0,220075:0:0:0:0:
192,192,220075,128,0,220279:0:0:0:70:Kick 15.wav
320,192,220075,128,0,220211:0:0:0:0:
64,192,220143,128,0,220348:0:0:0:0:
448,192,220211,128,0,220348:0:0:0:0:
192,192,220348,128,0,220484:0:0:0:70:Kick 15.wav
320,192,220348,128,0,220552:0:0:0:0:
448,192,220416,128,0,220620:0:0:0:0:
64,192,220484,128,0,220552:0:0:0:70:Kick 15.wav
64,192,220620,128,0,220757:0:0:0:70:Kick 15.wav
192,192,220620,128,0,220689:0:0:0:0:
320,192,220620,128,0,220689:0:0:0:0:
320,192,220757,128,0,220825:0:0:0:70:Kick 15.wav
448,192,220757,128,0,220825:0:0:0:0:
64,192,220825,128,0,220893:0:0:0:70:Kick 15.wav
192,192,220825,128,0,220961:0:0:0:0:
320,192,220893,128,4,221098:0:0:0:0:
448,192,220893,128,0,221166:0:0:0:70:Kick 15.wav
64,192,221029,128,0,221166:0:0:0:70:Kick 15.wav
192,192,221029,128,0,221098:0:0:0:0:
192,192,221166,128,0,221370:0:0:0:70:Kick 15.wav
320,192,221166,128,0,221370:0:0:0:0:
64,192,221302,128,0,221370:0:0:0:0:
448,192,221302,128,0,221439:0:0:0:0:
64,192,221439,128,4,221643:0:0:0:0:
192,192,221439,128,0,221507:0:0:0:70:Kick 15.wav
320,192,221439,128,0,221507:0:0:0:0:
320,192,221575,128,0,221779:0:0:0:0:
448,192,221575,128,0,221643:0:0:0:0:
64,192,221711,128,4,221779:0:0:0:0:
192,192,221711,128,0,222075:0:0:0:70:Kick 15.wav
448,192,221711,128,0,221779:0:0:0:0:
64,192,221848,128,4,222120:0:0:0:0:
320,192,221848,128,0,222029:0:0:0:70:Kick 15.wav
448,192,221848,128,0,221984:0:0:0:0:
320,192,222120,128,0,222189:0:0:0:70:Kick 15.wav
448,192,222120,128,0,222189:0:0:0:0:
64,192,222189,128,0,222257:0:0:0:70:Kick 15.wav
192,192,222189,128,0,222325:0:0:0:0:
320,192,222257,128,4,222393:0:0:0:0:
448,192,222257,128,0,222529:0:0:0:70:Kick 15.wav
64,192,222529,128,4,222666:0:0:0:0:
192,192,222529,128,0,222598:0:0:0:70:Kick 15.wav
320,192,222529,128,0,222598:0:0:0:0:
192,192,222666,128,0,222734:0:0:0:0:
320,192,222666,128,0,222734:0:0:0:0:
448,192,222666,128,0,222802:0:0:0:0:
64,192,222802,128,4,222870:0:0:0:0:
192,192,222802,128,0,222870:0:0:0:70:Kick 15.wav
320,192,222870,128,0,222939:0:0:0:70:Kick 15.wav
448,192,222870,128,0,222939:0:0:0:0:
64,192,222939,128,0,223007:0:0:0:70:Kick 15.wav
192,192,222939,128,0,223007:0:0:0:0:
320,192,223007,128,0,223075:0:0:0:70:Kick 15.wav
448,192,223007,128,0,223075:0:0:0:0:
64,192,223075,128,4,223348:0:0:0:0:
192,192,223211,128,0,223484:0:0:0:0:
320,192,223348,128,0,223620:0:0:0:0:
448,192,223484,128,0,223620:0:0:0:0:
64,192,223620,128,0,223893:0:0:0:0:
192,192,223620,128,0,223757:0:0:0:0:
320,192,223893,128,0,224029:0:0:0:0:
448,192,223893,1,0,0:0:0:0:
64,192,224029,1,0,0:0:0:0:
192,192,224029,128,0,224166:0:0:0:0:
320,192,224166,1,0,0:0:0:0:
64,192,224234,1,0,0:0:0:70:LR_Air Dart Snare.wav
320,192,224302,1,0,0:0:0:70:LR_Air Dart Snare.wav
64,192,224370,1,0,0:0:0:70:LR_Air Dart Snare.wav
320,192,224439,1,0,0:0:0:70:LR_Air Dart Snare.wav
192,192,224507,1,0,0:0:0:70:LR_Air Dart Snare.wav
448,192,224575,1,0,0:0:0:70:LR_Air Dart Snare.wav
192,192,224643,1,0,0:0:0:70:LR_Air Dart Snare.wav
320,192,224711,1,0,0:0:0:70:LR_Air Dart Snare.wav
64,192,224779,1,0,0:0:0:70:LR_Air Dart Snare.wav
320,192,224848,1,2,0:0:0:0:
192,192,224984,1,2,0:0:0:0:
320,192,224984,1,0,0:0:0:0:
64,192,225052,1,2,0:0:0:0:
448,192,225052,1,0,0:0:0:0:
192,192,225120,128,0,225257:0:0:0:70:LR_Air Dart Snare.wav
320,192,225120,128,0,225189:0:0:0:0:
64,192,225257,128,4,225393:0:0:0:0:
320,192,225257,128,0,225461:0:0:0:70:Kick 15.wav
448,192,225257,128,0,225325:0:0:0:0:
192,192,225325,128,0,225393:0:0:0:0:
448,192,225393,128,0,225529:0:0:0:0:
64,192,225461,128,0,225529:0:0:0:0:
192,192,225529,128,0,225666:0:0:0:70:Kick 15.wav
320,192,225529,128,0,225734:0:0:0:0:
448,192,225598,128,0,225666:0:0:0:0:
64,192,225666,128,0,225802:0:0:0:0:
192,192,225734,128,0,225802:0:0:0:0:
320,192,225802,128,0,225870:0:0:0:70:Kick 15.wav
448,192,225802,128,0,226007:0:0:0:0:
192,192,225870,128,0,225939:0:0:0:0:
64,192,225939,128,0,226007:0:0:0:0:
320,192,225939,128,0,226075:0:0:0:0:
192,192,226007,128,0,226075:0:0:0:0:
64,192,226075,128,0,226279:0:0:0:70:Kick 15.wav
448,192,226075,128,0,226211:0:0:0:0:
320,192,226143,128,0,226211:0:0:0:0:
192,192,226211,128,0,226279:0:0:0:0:
448,192,226279,128,0,226348:0:0:0:0:
64,192,226348,128,0,226416:0:0:0:70:Kick 15.wav
192,192,226348,128,0,226484:0:0:0:0:
320,192,226348,128,0,226416:0:0:0:0:
64,192,226484,128,0,226552:0:0:0:70:Kick 15.wav
320,192,226484,128,0,226552:0:0:0:0:
448,192,226484,128,0,226620:0:0:0:0:
64,192,226620,128,0,226757:0:0:0:70:Kick 15.wav
192,192,226620,128,0,226689:0:0:0:0:
320,192,226620,128,0,226825:0:0:0:0:
448,192,226689,128,0,226757:0:0:0:0:
192,192,226757,128,0,226893:0:0:0:0:
64,192,226825,128,0,226893:0:0:0:0:
320,192,226893,128,0,227029:0:0:0:70:Kick 15.wav
448,192,226893,128,0,227098:0:0:0:0:
192,192,226961,128,0,227098:0:0:0:0:
64,192,227029,128,0,227098:0:0:0:0:
320,192,227098,128,0,227166:0:0:0:0:
64,192,227166,128,0,227234:0:0:0:70:Kick 15.wav
192,192,227166,128,0,227234:0:0:0:0:
320,192,227234,128,0,227302:0:0:0:70:Kick 15.wav
448,192,227234,128,0,227302:0:0:0:0:
64,192,227302,128,0,227370:0:0:0:70:Kick 15.wav
192,192,227302,128,0,227370:0:0:0:0:
320,192,227370,128,0,227439:0:0:0:70:Kick 15.wav
448,192,227370,128,0,227439:0:0:0:0:
64,192,227439,128,0,227575:0:0:0:70:Kick 15.wav
192,192,227439,128,0,227643:0:0:0:0:
448,192,227507,128,0,227575:0:0:0:0:
320,192,227575,128,0,227711:0:0:0:0:
64,192,227643,128,0,227711:0:0:0:0:
192,192,227711,128,0,227916:0:0:0:70:Kick 15.wav
448,192,227711,128,0,227848:0:0:0:0:
320,192,227779,128,0,227848:0:0:0:0:
64,192,227848,128,0,227984:0:0:0:0:
448,192,227916,128,0,227984:0:0:0:0:
192,192,227984,128,0,228052:0:0:0:70:Kick 15.wav
320,192,227984,128,0,228189:0:0:0:0:
64,192,228052,128,0,228120:0:0:0:0:
192,192,228120,128,0,228257:0:0:0:0:
448,192,228120,128,0,228189:0:0:0:0:
64,192,228189,128,0,228257:0:0:0:0:
320,192,228257,128,0,228393:0:0:0:70:Kick 15.wav
448,192,228257,128,0,228461:0:0:0:0:
192,192,228325,128,0,228393:0:0:0:0:
64,192,228393,128,0,228529:0:0:0:0:
192,192,228461,128,0,228529:0:0:0:0:
320,192,228529,128,0,228734:0:0:0:70:Kick 15.wav
448,192,228529,128,0,228666:0:0:0:0:
64,192,228598,128,0,228666:0:0:0:0:
192,192,228666,128,0,228802:0:0:0:0:
448,192,228734,128,0,228802:0:0:0:0:
64,192,228802,128,0,228939:0:0:0:70:Kick 15.wav
320,192,228802,128,0,229007:0:0:0:0:
192,192,228870,128,0,228939:0:0:0:0:
448,192,228939,128,0,229075:0:0:0:0:
192,192,229007,128,0,229075:0:0:0:0:
64,192,229075,128,0,229279:0:0:0:70:Kick 15.wav
320,192,229075,128,0,229211:0:0:0:0:
448,192,229143,128,0,229211:0:0:0:0:
192,192,229211,128,0,229348:0:0:0:0:
320,192,229279,128,0,229348:0:0:0:0:
64,192,229348,128,0,229416:0:0:0:70:Kick 15.wav
448,192,229348,128,0,229552:0:0:0:0:
192,192,229416,128,0,229484:0:0:0:0:
64,192,229484,128,0,229620:0:0:0:70:Kick 15.wav
320,192,229484,128,0,229552:0:0:0:0:
192,192,229552,128,0,229620:0:0:0:0:
320,192,229620,128,4,229757:0:0:0:0:
448,192,229620,128,0,229825:0:0:0:70:Kick 15.wav
64,192,229689,128,0,229757:0:0:0:0:
192,192,229757,128,0,229893:0:0:0:0:
320,192,229825,128,0,229893:0:0:0:0:
64,192,229893,128,0,230029:0:0:0:70:Kick 15.wav
448,192,229893,128,0,230098:0:0:0:0:
192,192,229961,128,0,230029:0:0:0:0:
320,192,230029,128,0,230098:0:0:0:0:
192,192,230098,128,0,230166:0:0:0:0:
64,192,230166,128,0,230302:0:0:0:70:Kick 15.wav
320,192,230166,128,0,230234:0:0:0:0:
448,192,230166,128,0,230234:0:0:0:0:
192,192,230302,128,0,230370:0:0:0:70:Kick 15.wav
320,192,230302,128,0,230370:0:0:0:0:
448,192,230302,128,0,230439:0:0:0:0:
64,192,230439,128,0,230711:0:0:0:70:Kick 15.wav
192,192,230439,128,0,230507:0:0:0:0:
320,192,230439,128,0,230507:0:0:0:0:
192,192,230575,128,4,230757:0:0:0:0:
320,192,230575,128,0,230802:0:0:0:70:Kick 15.wav
448,192,230575,128,0,230848:0:0:0:0:
64,192,230848,128,0,230916:0:0:0:70:Kick 15.wav
192,192,230848,128,0,230916:0:0:0:0:
320,192,230916,128,0,230984:0:0:0:70:Kick 15.wav
448,192,230916,128,0,231052:0:0:0:0:
64,192,230984,128,4,231052:0:0:0:0:
192,192,230984,128,0,231120:0:0:0:70:Kick 15.wav
320,192,231120,128,0,231189:0:0:0:70:Kick 15.wav
448,192,231120,128,0,231189:0:0:0:0:
64,192,231189,128,0,231325:0:0:0:70:Kick 15.wav
192,192,231189,128,0,231257:0:0:0:0:
320,192,231257,128,4,231325:0:0:0:0:
448,192,231257,128,0,231393:0:0:0:70:Kick 15.wav
192,192,231325,128,0,231393:0:0:0:0:
64,192,231393,128,0,231529:0:0:0:70:Kick 15.wav
320,192,231393,128,0,231461:0:0:0:0:
192,192,231461,128,0,231529:0:0:0:0:
320,192,231529,128,4,231666:0:0:0:0:
448,192,231529,128,0,231734:0:0:0:70:Kick 15.wav
64,192,231598,128,0,231666:0:0:0:0:
192,192,231666,128,0,231802:0:0:0:0:
320,192,231734,128,0,231802:0:0:0:0:
64,192,231802,128,4,232007:0:0:0:0:
448,192,231802,128,0,231939:0:0:0:70:Kick 15.wav
320,192,231870,128,0,231939:0:0:0:0:
192,192,231939,128,0,232075:0:0:0:0:
448,192,232007,128,0,232075:0:0:0:0:
64,192,232075,128,0,232211:0:0:0:70:Kick 15.wav
320,192,232075,128,0,232279:0:0:0:0:
192,192,232143,128,0,232211:0:0:0:0:
448,192,232211,128,0,232348:0:0:0:0:
64,192,232279,128,0,232348:0:0:0:0:
192,192,232348,128,0,232552:0:0:0:70:Kick 15.wav
320,192,232348,128,0,232416:0:0:0:0:
448,192,232416,128,0,232484:0:0:0:0:
64,192,232484,128,0,232552:0:0:0:0:
320,192,232484,128,0,232620:0:0:0:0:
448,192,232552,128,0,232620:0:0:0:0:
64,192,232620,128,0,232825:0:0:0:70:Kick 15.wav
192,192,232620,128,0,232757:0:0:0:0:
320,192,232689,128,0,232757:0:0:0:0:
448,192,232757,128,0,232893:0:0:0:0:
192,192,232825,128,0,232893:0:0:0:0:
64,192,232893,128,0,233098:0:0:0:70:Kick 15.wav
320,192,232893,128,0,233029:0:0:0:0:
448,192,232961,128,0,233029:0:0:0:0:
192,192,233029,128,0,233166:0:0:0:0:
320,192,233098,128,0,233166:0:0:0:0:
64,192,233166,128,0,233302:0:0:0:70:Kick 15.wav
448,192,233166,128,0,233370:0:0:0:0:
192,192,233234,128,0,233302:0:0:0:0:
320,192,233302,128,0,233370:0:0:0:0:
64,192,233370,128,0,233439:0:0:0:0:
192,192,233439,1,0,0:0:0:70:Kick 15.wav
320,192,233439,1,0,0:0:0:0:
448,192,233484,1,0,0:0:0:0:
192,192,233529,1,0,0:0:0:0:
320,192,233575,1,0,0:0:0:0:
448,192,233620,1,0,0:0:0:0:
192,192,233666,1,0,0:0:0:0:
64,192,233711,1,0,0:0:0:0:
320,192,233757,1,0,0:0:0:0:
192,192,233802,1,0,0:0:0:0:
448,192,233848,1,0,0:0:0:0:
320,192,233893,1,0,0:0:0:0:
64,192,233939,1,0,0:0:0:0:
192,192,233984,128,4,234052:0:0:0:0:
320,192,233984,128,0,234052:0:0:0:70:Kick 15.wav
448,192,233984,128,0,234189:0:0:0:0:
64,192,234120,128,0,234189:0:0:0:70:Kick 15.wav
192,192,234120,128,0,234257:0:0:0:0:
320,192,234120,128,0,234189:0:0:0:0:
64,192,234257,128,0,234393:0:0:0:70:Kick 15.wav
320,192,234257,128,0,234461:0:0:0:0:
448,192,234257,1,0,0:0:0:0:
192,192,234325,128,0,234393:0:0:0:0:
448,192,234393,128,0,234529:0:0:0:0:
64,192,234461,128,0,234529:0:0:0:0:
192,192,234529,128,0,234734:0:0:0:70:Kick 15.wav
320,192,234529,128,0,234598:0:0:0:0:
448,192,234598,128,0,234666:0:0:0:0:
64,192,234666,128,0,234734:0:0:0:0:
320,192,234666,128,0,234802:0:0:0:0:
448,192,234734,128,0,234802:0:0:0:0:
64,192,234802,128,0,234870:0:0:0:70:Kick 15.wav
192,192,234802,128,0,234939:0:0:0:0:
320,192,234870,128,0,234939:0:0:0:0:
64,192,234939,128,0,235007:0:0:0:70:Kick 15.wav
448,192,234939,128,0,235007:0:0:0:0:
192,192,235007,128,0,235075:0:0:0:70:Kick 15.wav
320,192,235007,128,0,235075:0:0:0:0:
64,192,235075,128,0,235279:0:0:0:70:Kick 15.wav
448,192,235075,128,0,235211:0:0:0:0:
192,192,235143,128,0,235211:0:0:0:0:
320,192,235211,128,0,235348:0:0:0:70:Kick 15.wav
192,192,235279,128,0,235348:0:0:0:0:
64,192,235348,128,0,235484:0:0:0:70:Kick 15.wav
448,192,235348,128,0,235552:0:0:0:0:
192,192,235416,128,0,235484:0:0:0:0:
320,192,235484,128,0,235620:0:0:0:0:
64,192,235552,128,0,235620:0:0:0:0:
192,192,235620,128,0,235689:0:0:0:70:Kick 15.wav
448,192,235620,128,0,235689:0:0:0:0:
320,192,235689,128,0,235757:0:0:0:0:
64,192,235757,1,0,0:0:0:0:
192,192,235802,1,0,0:0:0:0:
320,192,235848,1,0,0:0:0:0:
64,192,235893,1,0,0:0:0:0:
448,192,235932,1,0,0:0:0:0:
320,192,235971,1,0,0:0:0:0:
192,192,236010,1,0,0:0:0:0:
320,192,236049,1,0,0:0:0:0:
448,192,236088,1,0,0:0:0:0:
64,192,236166,128,4,236370:0:0:0:0:
192,192,236166,128,0,236234:0:0:0:70:Kick 15.wav
320,192,236166,128,0,236234:0:0:0:0:
192,192,236302,128,0,236439:0:0:0:70:Kick 15.wav
320,192,236302,128,0,236370:0:0:0:0:
448,192,236302,128,0,236370:0:0:0:0:
64,192,236439,128,0,236575:0:0:0:70:Kick 15.wav
320,192,236439,1,0,0:0:0:0:
448,192,236439,128,0,236643:0:0:0:0:
192,192,236507,128,0,236575:0:0:0:0:
320,192,236575,128,0,236711:0:0:0:70:Kick 15.wav
64,192,236643,128,0,236711:0:0:0:0:
192,192,236711,128,0,236779:0:0:0:70:Kick 15.wav
448,192,236711,128,0,236916:0:0:0:0:
320,192,236779,128,0,236848:0:0:0:0:
64,192,236848,128,0,236916:0:0:0:70:Kick 15.wav
192,192,236848,128,0,236984:0:0:0:0:
320,192,236916,128,0,236984:0:0:0:0:
64,192,236984,128,0,237120:0:0:0:70:Kick 15.wav
448,192,236984,128,0,237052:0:0:0:0:
192,192,237052,128,0,237120:0:0:0:0:
320,192,237120,128,0,237189:0:0:0:70:Kick 15.wav
448,192,237120,128,0,237189:0:0:0:0:
64,192,237189,128,0,237257:0:0:0:70:Kick 15.wav
192,192,237189,128,0,237257:0:0:0:0:
320,192,237257,128,4,237393:0:0:0:0:
448,192,237257,128,0,237393:0:0:0:70:Kick 15.wav
64,192,237393,1,0,0:0:0:70:Kick 15.wav
192,192,237393,1,0,0:0:0:0:
320,192,237461,1,0,0:0:0:70:Kick 15.wav
448,192,237461,1,0,0:0:0:0:
64,192,237529,1,0,0:0:0:70:Kick 15.wav
192,192,237529,1,0,0:0:0:0:
320,192,237598,1,0,0:0:0:0:
64,192,237666,1,0,0:0:0:70:Kick 15.wav
448,192,237666,1,0,0:0:0:0:
192,192,237734,1,0,0:0:0:70:Kick 15.wav
320,192,237734,1,0,0:0:0:0:
64,192,237802,1,0,0:0:0:70:Kick 15.wav
448,192,237802,1,0,0:0:0:0:
192,192,237870,1,0,0:0:0:70:Kick 15.wav
320,192,237870,1,0,0:0:0:0:
64,192,237939,1,0,0:0:0:70:Kick 15.wav
448,192,237939,1,0,0:0:0:0:
192,192,238007,1,0,0:0:0:70:Kick 15.wav
320,192,238007,1,0,0:0:0:0:
64,192,238075,128,0,238279:0:0:0:70:LR_Air Dart Snare.wav
448,192,238075,128,0,238143:0:0:0:0:
320,192,238143,128,0,238211:0:0:0:0:
192,192,238211,128,0,238279:0:0:0:0:
448,192,238211,128,0,238348:0:0:0:0:
320,192,238279,128,0,238348:0:0:0:0:
64,192,238348,1,4,0:0:0:0:
192,192,238348,1,0,0:0:0:70:Kick 15.wav
320,192,238416,1,0,0:0:0:70:Kick 15.wav
448,192,238416,1,0,0:0:0:0:
64,192,238484,1,0,0:0:0:70:Kick 15.wav
192,192,238484,1,0,0:0:0:0:
320,192,238552,1,0,0:0:0:70:Kick 15.wav
448,192,238552,1,0,0:0:0:0:
64,192,238620,1,4,0:0:0:0:
192,192,238620,1,0,0:0:0:70:Kick 15.wav
320,192,238654,1,0,0:0:0:70:Kick 15.wav
448,192,238689,1,0,0:0:0:70:Kick 15.wav
64,192,238757,1,0,0:0:0:70:Kick 15.wav
192,192,238757,1,0,0:0:0:0:
320,192,238825,1,0,0:0:0:70:Kick 15.wav
448,192,238825,1,0,0:0:0:0:
64,192,238893,1,4,0:0:0:0:
192,192,238893,1,0,0:0:0:70:Kick 15.wav
320,192,238927,1,0,0:0:0:70:Kick 15.wav
448,192,238961,1,0,0:0:0:70:Kick 15.wav
64,192,239029,1,0,0:0:0:70:Kick 15.wav
192,192,239029,1,0,0:0:0:0:
320,192,239064,1,0,0:0:0:70:Kick 15.wav
448,192,239098,1,0,0:0:0:70:Kick 15.wav
64,192,239166,128,4,239302:0:0:0:0:
192,192,239166,1,0,0:0:0:70:Kick 15.wav
320,192,239166,1,0,0:0:0:0:
192,192,239302,128,4,239575:0:0:0:0:
320,192,239302,128,0,239507:0:0:0:70:Kick 15.wav
448,192,239302,128,0,239439:0:0:0:0:
64,192,239575,1,4,0:0:0:0:
320,192,239575,1,0,0:0:0:70:Kick 15.wav
448,192,239575,128,0,239711:0:0:0:0:
64,192,239711,128,4,239848:0:0:0:0:
192,192,239711,128,0,239916:0:0:0:70:Kick 15.wav
320,192,239711,128,0,239984:0:0:0:0:
64,192,239984,1,4,0:0:0:0:
448,192,239984,128,0,240189:0:0:0:70:Kick 15.wav
192,192,240120,128,0,240257:0:0:0:0:
64,192,240189,128,0,240257:0:0:0:0:
320,192,240257,128,4,240461:0:0:0:0:
448,192,240257,128,0,240461:0:0:0:70:Kick 15.wav
192,192,240393,128,0,240529:0:0:0:0:
64,192,240529,1,6,0:0:0:0:
320,192,240529,128,0,241620:0:0:0:70:wind.wav
64,192,240802,128,0,241620:0:0:0:0:
448,192,241620,1,0,0:0:0:0:
192,192,241689,1,0,0:0:0:0:
448,192,241757,1,0,0:0:0:0:
192,192,241825,1,0,0:0:0:0:
320,192,241893,1,0,0:0:0:0:
64,192,241961,1,0,0:0:0:0:
320,192,242029,1,0,0:0:0:0:
64,192,242098,1,0,0:0:0:0:
320,192,242166,1,0,0:0:0:0:
448,192,242166,1,0,0:0:0:0:
192,192,242234,1,0,0:0:0:0:
64,192,242302,1,0,0:0:0:0:
448,192,242302,1,0,0:0:0:0:
320,192,242370,1,0,0:0:0:0:
64,192,242439,1,0,0:0:0:0:
192,192,242439,1,0,0:0:0:0:
448,192,242507,1,0,0:0:0:0:
64,192,242575,1,0,0:0:0:0:
320,192,242575,1,0,0:0:0:0:
192,192,242643,1,0,0:0:0:0:
320,192,242711,1,0,0:0:0:70:LR_Air Dart Snare.wav
448,192,242711,1,0,0:0:0:0:
192,192,242779,1,0,0:0:0:0:
448,192,242848,1,0,0:0:0:0:
320,192,242916,1,0,0:0:0:0:
64,192,242984,1,0,0:0:0:70:LR_Air Dart Snare.wav
192,192,242984,1,0,0:0:0:0:
448,192,243075,1,0,0:0:0:0:
64,192,243166,1,0,0:0:0:70:LR_Air Dart Snare.wav
64,192,243257,1,0,0:0:0:70:LR_Air Dart Snare.wav
192,192,243257,1,0,0:0:0:0:
320,192,243257,1,0,0:0:0:0:
192,192,243439,1,0,0:0:0:0:
64,192,243529,1,0,0:0:0:70:LR_Air Dart Snare.wav
192,192,243529,1,0,0:0:0:0:
448,192,243529,1,0,0:0:0:0:
320,192,243711,1,0,0:0:0:70:LR_Air Dart Snare.wav
448,192,243711,1,0,0:0:0:0:
192,192,243802,128,0,244893:0:0:0:70:LR_Air Dart Snare.wav
448,192,243802,1,0,0:0:0:0:
64,192,244893,128,4,245098:0:0:0:0:
320,192,244893,128,8,245064:0:0:0:0:
448,192,244893,128,0,245029:0:0:0:70:wind.wav
64,192,245166,128,8,245302:0:0:0:0:
192,192,245166,128,0,245336:0:0:0:0:
320,192,245166,128,0,245370:0:0:0:0:
192,192,245439,128,8,245643:0:0:0:0:
320,192,245439,128,0,245609:0:0:0:0:
448,192,245439,128,0,245575:0:0:0:0:
64,192,245711,128,8,245893:0:0:0:0:
320,192,245711,128,0,245893:0:0:0:0:
448,192,245711,128,0,245814:0:0:0:0:
192,192,245802,128,0,245893:0:0:0:0:
448,192,245893,128,0,246075:0:0:0:0:
64,192,245984,128,8,246189:0:0:0:0:
192,192,245984,128,0,246154:0:0:0:0:
320,192,245984,128,0,246120:0:0:0:0:
64,192,246257,128,8,246439:0:0:0:0:
192,192,246257,128,0,246348:0:0:0:0:
448,192,246257,128,0,246348:0:0:0:0:
320,192,246348,128,0,246439:0:0:0:0:
192,192,246439,128,0,246529:0:0:0:0:
64,192,246529,128,8,246620:0:0:0:0:
320,192,246529,128,0,246620:0:0:0:0:
448,192,246529,128,0,246711:0:0:0:0:
192,192,246620,128,0,246711:0:0:0:0:
320,192,246711,128,0,246802:0:0:0:0:
64,192,246802,128,8,246893:0:0:0:0:
192,192,246802,128,0,246893:0:0:0:0:
448,192,246802,128,0,246984:0:0:0:0:
320,192,246893,128,0,246984:0:0:0:0:
64,192,246984,128,8,247302:0:0:0:0:
192,192,246984,128,0,247257:0:0:0:0:
320,192,247075,128,8,247211:0:0:0:0:
448,192,247075,128,0,247166:0:0:0:0:
448,192,247257,128,8,247348:0:0:0:0:
192,192,247348,128,8,247529:0:0:0:0:
320,192,247348,128,0,247439:0:0:0:0:
64,192,247439,128,0,247529:0:0:0:0:
320,192,247529,1,8,0:0:0:0:
448,192,247529,128,0,247620:0:0:0:0:
64,192,247620,1,8,0:0:0:0:
192,192,247620,128,0,247711:0:0:0:0:
320,192,247711,128,8,247802:0:0:0:0:
448,192,247711,1,0,0:0:0:0:
64,192,247802,128,8,247893:0:0:0:0:
192,192,247802,1,0,0:0:0:0:
320,192,247893,1,8,0:0:0:0:
448,192,247893,128,0,247984:0:0:0:0:
64,192,247984,1,8,0:0:0:0:
192,192,247984,128,0,248075:0:0:0:0:
320,192,248075,128,8,248166:0:0:0:0:
448,192,248075,1,0,0:0:0:0:
64,192,248302,128,0,248439:0:0:0:0:
320,192,248302,128,0,248575:0:0:0:0:
448,192,248575,1,0,0:0:0:0:
64,192,248711,128,0,248848:0:0:0:0:
192,192,248711,128,0,248984:0:0:0:0:
320,192,248984,128,0,249257:0:0:0:0:
448,192,248984,128,0,249120:0:0:0:0:
64,192,249257,1,4,0:0:0:0:
192,192,249257,1,0,0:0:0:70:Kick 15.wav
320,192,249348,1,0,0:0:0:0:
192,192,249439,1,0,0:0:0:0:
448,192,249439,1,0,0:0:0:0:
64,192,249529,1,0,0:0:0:70:Kick 15.wav
192,192,249529,1,0,0:0:0:0:
320,192,249529,1,0,0:0:0:0:
448,192,249620,1,0,0:0:0:0:
192,192,249711,1,0,0:0:0:0:
320,192,249711,1,0,0:0:0:0:
64,192,249802,1,0,0:0:0:70:Kick 15.wav
192,192,249802,1,0,0:0:0:0:
448,192,249802,1,0,0:0:0:0:
320,192,249893,1,0,0:0:0:0:
64,192,249984,1,0,0:0:0:0:
192,192,249984,1,0,0:0:0:0:
192,192,250075,1,0,0:0:0:70:Kick 15.wav
320,192,250075,1,0,0:0:0:0:
448,192,250075,1,0,0:0:0:0:
64,192,250166,1,0,0:0:0:0:
192,192,250257,1,0,0:0:0:0:
320,192,250257,1,0,0:0:0:0:
64,192,250348,1,0,0:0:0:70:Kick 15.wav
320,192,250348,1,0,0:0:0:0:
448,192,250348,1,0,0:0:0:0:
192,192,250439,1,0,0:0:0:0:
320,192,250529,1,0,0:0:0:0:
448,192,250529,1,0,0:0:0:0:
64,192,250620,1,0,0:0:0:70:Kick 15.wav
192,192,250620,1,0,0:0:0:0:
320,192,250620,1,0,0:0:0:0:
448,192,250711,1,0,0:0:0:0:
64,192,250802,1,0,0:0:0:0:
192,192,250802,1,0,0:0:0:0:
64,192,250893,1,0,0:0:0:70:Kick 15.wav
320,192,250893,1,0,0:0:0:0:
448,192,250893,1,0,0:0:0:0:
192,192,250984,1,0,0:0:0:0:
64,192,251075,1,0,0:0:0:0:
448,192,251075,1,0,0:0:0:0:
192,192,251166,1,0,0:0:0:70:Kick 15.wav
320,192,251166,1,0,0:0:0:0:
448,192,251166,1,0,0:0:0:0:
64,192,251257,1,0,0:0:0:0:
192,192,251348,1,0,0:0:0:70:Kick 15.wav
320,192,251348,1,0,0:0:0:0:
448,192,251348,1,0,0:0:0:0:
64,192,251439,1,0,0:0:0:70:Kick 15.wav
192,192,251439,1,0,0:0:0:0:
320,192,251439,1,0,0:0:0:0:
448,192,251529,1,0,0:0:0:0:
192,192,251620,1,0,0:0:0:0:
320,192,251620,1,0,0:0:0:0:
64,192,251711,1,0,0:0:0:70:Kick 15.wav
192,192,251711,1,0,0:0:0:0:
448,192,251711,1,0,0:0:0:0:
320,192,251802,1,0,0:0:0:0:
64,192,251893,1,0,0:0:0:0:
192,192,251893,1,0,0:0:0:0:
64,192,251984,1,0,0:0:0:70:Kick 15.wav
320,192,251984,1,0,0:0:0:0:
448,192,251984,1,0,0:0:0:0:
192,192,252075,1,0,0:0:0:0:
320,192,252166,1,0,0:0:0:0:
448,192,252166,1,0,0:0:0:0:
64,192,252257,1,0,0:0:0:70:Kick 15.wav
192,192,252257,1,0,0:0:0:0:
448,192,252257,1,0,0:0:0:0:
320,192,252348,1,0,0:0:0:0:
64,192,252439,1,0,0:0:0:70:Kick 15.wav
192,192,252439,1,0,0:0:0:0:
448,192,252439,1,0,0:0:0:0:
192,192,252529,128,4,253007:0:0:0:0:
320,192,252529,128,0,252939:0:0:0:70:Kick 15.wav
448,192,252529,128,0,252870:0:0:0:0:
64,192,252802,128,0,253075:0:0:0:0:
320,192,253075,1,0,0:0:0:0:
448,192,253075,128,0,253348:0:0:0:0:
320,192,253211,128,0,253348:0:0:0:0:
64,192,253348,128,0,253484:0:0:0:70:Kick 15.wav
192,192,253348,128,0,253416:0:0:0:0:
192,192,253484,128,0,253620:0:0:0:70:Kick 15.wav
320,192,253484,128,0,253552:0:0:0:0:
64,192,253620,1,4,0:0:0:0:
448,192,253620,1,0,0:0:0:70:Kick 15.wav
320,192,253711,1,0,0:0:0:0:
192,192,253802,1,0,0:0:0:0:
448,192,253802,1,0,0:0:0:0:
64,192,253893,1,0,0:0:0:70:Kick 15.wav
320,192,253893,1,0,0:0:0:0:
448,192,253893,1,0,0:0:0:0:
192,192,253984,1,0,0:0:0:0:
320,192,254075,1,0,0:0:0:0:
448,192,254075,1,0,0:0:0:0:
64,192,254166,1,0,0:0:0:70:Kick 15.wav
192,192,254166,1,0,0:0:0:0:
448,192,254166,1,0,0:0:0:0:
320,192,254257,1,0,0:0:0:0:
64,192,254348,1,0,0:0:0:0:
192,192,254348,1,0,0:0:0:0:
192,192,254439,1,0,0:0:0:70:Kick 15.wav
320,192,254439,1,0,0:0:0:0:
448,192,254439,1,0,0:0:0:0:
64,192,254529,1,0,0:0:0:0:
192,192,254620,1,0,0:0:0:0:
320,192,254620,1,0,0:0:0:0:
64,192,254711,1,0,0:0:0:70:Kick 15.wav
192,192,254711,1,0,0:0:0:0:
448,192,254711,1,0,0:0:0:0:
320,192,254802,1,0,0:0:0:0:
64,192,254893,1,0,0:0:0:0:
192,192,254893,1,0,0:0:0:0:
64,192,254984,1,0,0:0:0:70:Kick 15.wav
320,192,254984,1,0,0:0:0:0:
448,192,254984,1,0,0:0:0:0:
192,192,255075,1,0,0:0:0:0:
320,192,255166,1,0,0:0:0:0:
448,192,255166,1,0,0:0:0:0:
64,192,255257,1,0,0:0:0:70:Kick 15.wav
192,192,255257,1,0,0:0:0:0:
448,192,255257,1,0,0:0:0:0:
320,192,255348,1,0,0:0:0:0:
192,192,255439,1,0,0:0:0:0:
448,192,255439,1,0,0:0:0:0:
64,192,255529,1,0,0:0:0:70:Kick 15.wav
192,192,255529,1,0,0:0:0:0:
320,192,255529,1,0,0:0:0:0:
448,192,255620,1,0,0:0:0:0:
64,192,255711,1,0,0:0:0:70:Kick 15.wav
192,192,255711,1,0,0:0:0:0:
320,192,255711,1,0,0:0:0:0:
192,192,255802,1,0,0:0:0:70:Kick 15.wav
320,192,255802,1,0,0:0:0:0:
448,192,255802,1,0,0:0:0:0:
64,192,255893,1,0,0:0:0:0:
192,192,255984,1,0,0:0:0:0:
320,192,255984,1,0,0:0:0:0:
64,192,256075,1,0,0:0:0:70:Kick 15.wav
320,192,256075,1,0,0:0:0:0:
448,192,256075,1,0,0:0:0:0:
192,192,256166,1,0,0:0:0:0:
320,192,256257,1,0,0:0:0:0:
448,192,256257,1,0,0:0:0:0:
64,192,256348,1,0,0:0:0:70:Kick 15.wav
192,192,256348,1,0,0:0:0:0:
448,192,256348,1,0,0:0:0:0:
320,192,256439,1,0,0:0:0:0:
64,192,256529,1,0,0:0:0:70:Kick 15.wav
192,192,256529,1,0,0:0:0:0:
448,192,256529,1,0,0:0:0:0:
64,192,256620,1,0,0:0:0:70:Kick 15.wav
320,192,256620,1,0,0:0:0:0:
448,192,256620,1,0,0:0:0:0:
192,192,256711,1,0,0:0:0:0:
64,192,256802,1,0,0:0:0:70:Kick 15.wav
320,192,256802,1,0,0:0:0:0:
448,192,256802,1,0,0:0:0:0:
64,192,256893,128,4,257166:0:0:0:0:
192,192,256893,128,0,256961:0:0:0:70:Kick 15.wav
448,192,256893,1,0,0:0:0:0:
192,192,257029,128,0,257166:0:0:0:0:
320,192,257029,128,0,257098:0:0:0:0:
320,192,257166,128,0,257439:0:0:0:0:
448,192,257166,128,0,257234:0:0:0:0:
192,192,257302,128,0,257370:0:0:0:0:
448,192,257302,128,0,257439:0:0:0:0:
192,192,257439,128,0,257711:0:0:0:0:
320,192,257529,128,0,257711:0:0:0:0:
448,192,257620,128,0,257711:0:0:0:0:
64,192,257711,128,0,257893:0:0:0:0:
192,192,257802,128,0,257893:0:0:0:0:
320,192,257893,1,0,0:0:0:0:
64,192,257984,1,0,0:0:0:70:Kick 15.wav
448,192,257984,1,0,0:0:0:0:
192,192,258029,1,0,0:0:0:0:
320,192,258075,1,0,0:0:0:0:
448,192,258120,1,0,0:0:0:0:
192,192,258166,1,0,0:0:0:0:
320,192,258211,1,0,0:0:0:0:
448,192,258257,1,0,0:0:0:0:
64,192,258302,1,0,0:0:0:0:
192,192,258348,1,0,0:0:0:0:
320,192,258393,1,0,0:0:0:70:Kick 15.wav
448,192,258393,1,0,0:0:0:0:
64,192,258439,1,0,0:0:0:0:
192,192,258484,1,0,0:0:0:0:
320,192,258529,1,4,0:0:0:0:
448,192,258529,1,0,0:0:0:70:Kick 15.wav
192,192,258620,1,0,0:0:0:0:
320,192,258711,1,0,0:0:0:0:
448,192,258711,1,0,0:0:0:0:
64,192,258802,1,0,0:0:0:70:Kick 15.wav
192,192,258802,1,0,0:0:0:0:
448,192,258802,1,0,0:0:0:0:
320,192,258893,1,0,0:0:0:0:
64,192,258984,1,0,0:0:0:0:
192,192,258984,1,0,0:0:0:0:
192,192,259075,1,0,0:0:0:70:Kick 15.wav
320,192,259075,1,0,0:0:0:0:
448,192,259075,1,0,0:0:0:0:
64,192,259166,1,0,0:0:0:0:
192,192,259257,1,0,0:0:0:0:
448,192,259257,1,0,0:0:0:0:
64,192,259348,1,0,0:0:0:70:Kick 15.wav
320,192,259348,1,0,0:0:0:0:
448,192,259348,1,0,0:0:0:0:
192,192,259439,1,0,0:0:0:0:
320,192,259529,1,0,0:0:0:0:
448,192,259529,1,0,0:0:0:0:
64,192,259620,1,0,0:0:0:70:Kick 15.wav
192,192,259620,1,0,0:0:0:0:
320,192,259620,1,0,0:0:0:0:
448,192,259711,1,0,0:0:0:0:
64,192,259802,1,0,0:0:0:0:
320,192,259802,1,0,0:0:0:0:
64,192,259893,1,0,0:0:0:70:Kick 15.wav
192,192,259893,1,0,0:0:0:0:
448,192,259893,1,0,0:0:0:0:
320,192,259984,1,0,0:0:0:0:
64,192,260075,1,0,0:0:0:70:Kick 15.wav
192,192,260075,1,0,0:0:0:0:
448,192,260075,1,0,0:0:0:0:
192,192,260166,1,0,0:0:0:70:Kick 15.wav
320,192,260166,1,0,0:0:0:0:
448,192,260166,1,0,0:0:0:0:
64,192,260257,1,0,0:0:0:0:
192,192,260348,1,0,0:0:0:0:
320,192,260348,1,0,0:0:0:0:
64,192,260439,1,0,0:0:0:70:Kick 15.wav
192,192,260439,1,0,0:0:0:0:
448,192,260439,1,0,0:0:0:0:
320,192,260529,1,0,0:0:0:0:
64,192,260620,1,0,0:0:0:0:
192,192,260620,1,0,0:0:0:0:
64,192,260711,1,0,0:0:0:70:Kick 15.wav
320,192,260711,1,0,0:0:0:0:
448,192,260711,1,0,0:0:0:0:
192,192,260802,1,0,0:0:0:0:
64,192,260893,1,0,0:0:0:70:Kick 15.wav
320,192,260893,1,0,0:0:0:0:
448,192,260893,1,0,0:0:0:0:
64,192,260984,1,0,0:0:0:70:Kick 15.wav
192,192,260984,1,0,0:0:0:0:
448,192,260984,1,0,0:0:0:0:
320,192,261075,1,0,0:0:0:0:
64,192,261166,1,0,0:0:0:70:Kick 15.wav
192,192,261166,1,0,0:0:0:0:
448,192,261166,1,0,0:0:0:0:
64,192,261257,1,4,0:0:0:0:
320,192,261257,1,0,0:0:0:70:Kick 15.wav
448,192,261257,1,0,0:0:0:0:
192,192,261348,1,0,0:0:0:0:
64,192,261439,1,0,0:0:0:0:
320,192,261439,1,0,0:0:0:0:
320,192,261529,1,0,0:0:0:0:
448,192,261529,1,0,0:0:0:0:
192,192,261575,1,0,0:0:0:0:
64,192,261620,1,0,0:0:0:0:
448,192,261666,1,0,0:0:0:0:
320,192,261711,1,0,0:0:0:0:
192,192,261757,1,0,0:0:0:0:
64,192,261802,128,0,262348:0:0:0:0:
448,192,261802,1,0,0:0:0:0:
192,192,261939,128,0,262302:0:0:0:0:
320,192,262075,128,8,262257:0:0:0:0:
448,192,262075,128,0,262211:0:0:0:0:
320,192,262348,1,4,0:0:0:0:
448,192,262348,1,0,0:0:0:70:Kick 15.wav
64,192,262484,1,0,0:0:0:70:Kick 15.wav
192,192,262484,1,0,0:0:0:0:
320,192,262552,1,0,0:0:0:70:Kick 15.wav
64,192,262620,128,4,262825:0:0:0:0:
192,192,262620,128,0,263064:0:0:0:70:Kick 15.wav
448,192,262620,128,0,262825:0:0:0:0:
64,192,262893,128,4,263029:0:0:0:0:
320,192,262893,128,0,263098:0:0:0:70:Kick 15.wav
448,192,262893,128,0,263302:0:0:0:0:
64,192,263166,128,4,263575:0:0:0:0:
192,192,263166,128,0,263370:0:0:0:70:Kick 15.wav
320,192,263166,128,0,263336:0:0:0:0:
192,192,263439,128,4,263609:0:0:0:0:
320,192,263439,128,0,263507:0:0:0:70:Kick 15.wav
448,192,263439,128,0,263643:0:0:0:0:
320,192,263575,128,0,263848:0:0:0:0:
64,192,263711,128,4,263916:0:0:0:0:
192,192,263711,128,0,263882:0:0:0:70:Kick 15.wav
448,192,263711,128,0,263779:0:0:0:0:
448,192,263848,128,0,264189:0:0:0:0:
64,192,263984,128,4,264052:0:0:0:0:
192,192,263984,128,0,264120:0:0:0:70:Kick 15.wav
320,192,263984,128,0,264154:0:0:0:0:
64,192,264120,128,0,264461:0:0:0:0:
192,192,264257,128,4,264427:0:0:0:0:
320,192,264257,128,0,264393:0:0:0:70:Kick 15.wav
448,192,264257,128,0,264325:0:0:0:0:
448,192,264393,128,0,264529:0:0:0:0:
64,192,264529,128,4,264666:0:0:0:0:
192,192,264529,128,0,264666:0:0:0:70:kick09.wav
320,192,264529,128,0,264598:0:0:0:0:
320,192,264666,128,0,264734:0:0:0:70:kick09.wav
448,192,264666,128,0,264734:0:0:0:0:
64,192,264734,128,0,264802:0:0:0:70:kick09.wav
192,192,264734,128,0,264802:0:0:0:0:
320,192,264802,128,4,264870:0:0:0:0:
448,192,264802,128,0,264870:0:0:0:70:kick09.wav
192,192,265075,128,4,265143:0:0:0:0:
320,192,265075,128,0,265143:0:0:0:70:kick09.wav
64,192,265348,128,4,265620:0:0:0:0:
320,192,265348,128,0,265416:0:0:0:70:kick09.wav
448,192,265348,128,0,265416:0:0:0:0:
192,192,265484,128,4,265620:0:0:0:0:
320,192,265484,128,0,265620:0:0:0:70:kick09.wav
448,192,265484,128,0,265620:0:0:0:0:
64,192,265757,128,8,266029:0:0:0:0:
448,192,265757,128,0,265893:0:0:0:0:
192,192,266029,1,0,0:0:0:0:
192,192,266166,128,0,266439:0:0:0:0:
320,192,266166,128,0,266302:0:0:0:0:
64,192,266439,1,0,0:0:0:70:LR_Air Dart Snare.wav
320,192,266439,1,0,0:0:0:0:
448,192,266439,1,0,0:0:0:0:
64,192,266575,1,2,0:0:0:0:
192,192,266575,1,0,0:0:0:0:
320,192,266643,1,2,0:0:0:0:
448,192,266643,1,0,0:0:0:0:
64,192,266711,128,4,266848:0:0:0:0:
192,192,266711,128,0,266779:0:0:0:70:Kick 15.wav
320,192,266711,1,0,0:0:0:0:
448,192,266848,1,0,0:0:0:0:
64,192,266984,128,0,267120:0:0:0:70:Kick 15.wav
192,192,266984,128,0,267052:0:0:0:0:
320,192,266984,1,0,0:0:0:0:
448,192,267120,1,0,0:0:0:0:
64,192,267257,128,0,267393:0:0:0:70:Kick 15.wav
192,192,267257,1,0,0:0:0:0:
320,192,267257,128,0,267325:0:0:0:0:
64,192,267529,128,0,267666:0:0:0:70:Kick 15.wav
192,192,267529,1,0,0:0:0:0:
448,192,267529,128,0,267598:0:0:0:0:
192,192,267802,128,0,267870:0:0:0:70:Kick 15.wav
320,192,267802,128,0,267939:0:0:0:0:
448,192,267802,1,0,0:0:0:0:
64,192,268075,1,0,0:0:0:70:Kick 15.wav
192,192,268075,128,0,268143:0:0:0:0:
320,192,268075,128,0,268211:0:0:0:0:
192,192,268348,1,0,0:0:0:70:Kick 15.wav
320,192,268348,128,0,268484:0:0:0:0:
448,192,268348,128,0,268416:0:0:0:0:
192,192,268620,1,0,0:0:0:70:Kick 15.wav
320,192,268620,128,0,268757:0:0:0:0:
448,192,268620,128,0,268689:0:0:0:0:
64,192,268893,128,0,269029:0:0:0:70:Kick 15.wav
192,192,268893,128,0,268961:0:0:0:0:
320,192,268893,1,0,0:0:0:0:
448,192,269029,1,0,0:0:0:0:
64,192,269166,128,0,269302:0:0:0:70:Kick 15.wav
192,192,269166,128,0,269234:0:0:0:0:
320,192,269166,1,0,0:0:0:0:
448,192,269302,1,0,0:0:0:0:
64,192,269439,1,0,0:0:0:70:Kick 15.wav
192,192,269439,128,0,269575:0:0:0:0:
320,192,269439,128,0,269507:0:0:0:0:
448,192,269507,1,0,0:0:0:0:
64,192,269575,1,0,0:0:0:0:
192,192,269711,128,0,269848:0:0:0:70:Kick 15.wav
320,192,269711,1,0,0:0:0:0:
448,192,269711,128,0,269779:0:0:0:0:
64,192,269848,1,0,0:0:0:0:
192,192,269984,1,4,0:0:0:0:
320,192,269984,128,0,270802:0:0:0:70:Kick 15.wav
448,192,269984,1,0,0:0:0:0:
64,192,270802,1,0,0:0:0:70:Kick 15.wav
192,192,270802,128,0,270870:0:0:0:0:
448,192,270802,128,0,270870:0:0:0:0:
64,192,270939,128,0,271007:0:0:0:70:Kick 15.wav
192,192,270939,1,0,0:0:0:0:
320,192,270939,128,0,271007:0:0:0:0:
192,192,271075,128,4,271143:0:0:0:0:
320,192,271075,1,0,0:0:0:70:Kick 15.wav
448,192,271075,128,0,271211:0:0:0:0:
64,192,271348,1,0,0:0:0:70:Kick 15.wav
192,192,271348,128,0,271416:0:0:0:0:
448,192,271348,128,0,271484:0:0:0:0:
320,192,271484,1,0,0:0:0:0:
64,192,271620,128,0,271689:0:0:0:70:Kick 15.wav
192,192,271620,1,0,0:0:0:0:
320,192,271620,128,0,271757:0:0:0:0:
64,192,271893,128,0,271961:0:0:0:70:Kick 15.wav
192,192,271893,1,0,0:0:0:0:
320,192,271893,128,0,272029:0:0:0:0:
192,192,272166,128,0,272302:0:0:0:70:Kick 15.wav
320,192,272166,1,0,0:0:0:0:
448,192,272166,128,0,272234:0:0:0:0:
192,192,272439,128,0,272575:0:0:0:70:Kick 15.wav
320,192,272439,1,0,0:0:0:0:
448,192,272439,128,0,272507:0:0:0:0:
64,192,272711,128,0,272848:0:0:0:70:Kick 15.wav
192,192,272711,1,0,0:0:0:0:
320,192,272711,128,0,272779:0:0:0:0:
192,192,272893,128,0,272984:0:0:0:70:Kick 15.wav
320,192,272893,1,0,0:0:0:0:
64,192,272984,128,0,273120:0:0:0:70:Kick 15.wav
320,192,272984,128,0,273052:0:0:0:0:
448,192,272984,1,0,0:0:0:0:
64,192,273257,1,0,0:0:0:70:Kick 15.wav
192,192,273257,128,0,273325:0:0:0:0:
448,192,273257,128,0,273393:0:0:0:0:
320,192,273393,1,0,0:0:0:0:
192,192,273529,128,0,273598:0:0:0:70:Kick 15.wav
320,192,273529,1,0,0:0:0:0:
448,192,273529,128,0,273666:0:0:0:0:
64,192,273666,1,0,0:0:0:0:
192,192,273802,128,0,273870:0:0:0:70:Kick 15.wav
320,192,273802,128,0,273939:0:0:0:0:
448,192,273802,1,0,0:0:0:0:
64,192,273870,1,0,0:0:0:0:
448,192,273939,1,0,0:0:0:0:
64,192,274075,1,0,0:0:0:70:Kick 15.wav
192,192,274075,128,0,274143:0:0:0:0:
320,192,274075,128,0,274211:0:0:0:0:
448,192,274211,1,0,0:0:0:0:
64,192,274348,128,4,274620:0:0:0:0:
320,192,274348,1,0,0:0:0:70:Kick 15.wav
448,192,274348,1,0,0:0:0:0:
192,192,274484,128,0,274620:0:0:0:0:
320,192,274484,128,0,274620:0:0:0:0:
448,192,274620,128,0,274893:0:0:0:0:
320,192,274689,128,0,274893:0:0:0:0:
192,192,274757,128,0,274893:0:0:0:0:
64,192,274893,128,0,275302:0:0:0:0:
192,192,275029,128,0,275302:0:0:0:0:
320,192,275166,128,0,275439:0:0:0:70:LR_Air Dart Snare.wav
64,192,275439,128,4,275507:0:0:0:0:
192,192,275439,1,0,0:0:0:70:Kick 15.wav
448,192,275439,128,0,275575:0:0:0:0:
320,192,275575,1,0,0:0:0:0:
192,192,275711,1,0,0:0:0:70:Kick 15.wav
448,192,275711,128,0,275848:0:0:0:0:
320,192,275848,1,0,0:0:0:0:
64,192,275984,1,0,0:0:0:70:Kick 15.wav
320,192,275984,128,0,276120:0:0:0:0:
64,192,276257,1,0,0:0:0:70:Kick 15.wav
320,192,276257,128,0,276393:0:0:0:0:
192,192,276529,128,0,276666:0:0:0:70:Kick 15.wav
448,192,276529,1,0,0:0:0:0:
192,192,276802,128,0,276939:0:0:0:70:Kick 15.wav
448,192,276802,1,0,0:0:0:0:
64,192,277075,128,0,277211:0:0:0:70:Kick 15.wav
320,192,277075,1,0,0:0:0:0:
64,192,277348,128,0,277484:0:0:0:70:Kick 15.wav
320,192,277348,1,0,0:0:0:0:
192,192,277620,1,0,0:0:0:60:Kick 15.wav
448,192,277620,128,0,277757:0:0:0:0:
320,192,277757,1,0,0:0:0:0:
192,192,277893,1,0,0:0:0:60:Kick 15.wav
448,192,277893,128,0,278029:0:0:0:0:
64,192,278029,1,0,0:0:0:0:
64,192,278166,128,0,278302:0:0:0:60:Kick 15.wav
448,192,278166,1,0,0:0:0:0:
320,192,278234,1,0,0:0:0:0:
192,192,278302,1,0,0:0:0:0:
64,192,278439,128,0,278575:0:0:0:60:Kick 15.wav
448,192,278439,1,0,0:0:0:0:
192,192,278575,1,0,0:0:0:0:
320,192,278711,128,0,278848:0:0:0:50:Kick 15.wav
192,192,278984,128,0,279120:0:0:0:50:Kick 15.wav
64,192,279257,128,0,279393:0:0:0:50:Kick 15.wav
320,192,279529,128,0,279666:0:0:0:50:Kick 15.wav
192,192,279666,128,0,279802:0:0:0:50:Kick 15.wav
64,192,279802,1,0,0:0:0:50:Kick 15.wav
448,192,279802,128,0,279939:0:0:0:0:
320,192,279939,1,0,0:0:0:0:
192,192,280075,1,0,0:0:0:50:Kick 15.wav
320,192,280075,128,0,280211:0:0:0:0:
448,192,280211,1,0,0:0:0:0:
64,192,280348,1,0,0:0:0:50:Kick 15.wav
192,192,280348,1,0,0:0:0:0:
320,192,280620,1,0,0:0:0:50:Kick 15.wav
448,192,280620,1,0,0:0:0:0:
64,192,281984,1,0,0:0:0:0:
448,192,281984,1,0,0:0:0:0:
192,192,282120,1,0,0:0:0:0:
320,192,282257,1,0,0:0:0:0:
448,192,282257,1,0,0:0:0:0:
64,192,282393,1,0,0:0:0:0:
320,192,282529,1,0,0:0:0:0:
448,192,282529,1,0,0:0:0:0:
192,192,282598,1,0,0:0:0:0:
64,192,282666,1,0,0:0:0:0:
320,192,282802,1,0,0:0:0:0:
448,192,282802,1,0,0:0:0:0:
64,192,282939,1,0,0:0:0:0:
192,192,282939,1,0,0:0:0:0:
192,192,284166,1,2,0:0:0:0:
320,192,284166,1,4,0:0:0:0:
448,192,284166,1,0,0:0:0:70:wind.wav
