osu file format v14

[General]
AudioFilename: Laur - Vindication.mp3
AudioLeadIn: 0
PreviewTime: 80008
Countdown: 0
SampleSet: Normal
StackLeniency: 0.7
Mode: 1
LetterboxInBreaks: 0
WidescreenStoryboard: 0

[Editor]
DistanceSpacing: 1.4
BeatDivisor: 4
GridSize: 32
TimelineZoom: 3.299999

[Metadata]
Title:Vindication
TitleUnicode:Vindication
Artist:Laur
ArtistUnicode:Laur
Creator:aabc271
Version:Inner Oni
Source:Arcaea
Tags:Taiko Piano Violin Drumstep Artcore Instrumental Rhythm Video Game lowiro Adverse Prelude Hikari 光 Nardoxyribonucleic
BeatmapID:2308307
BeatmapSetID:1104532

[Difficulty]
HPDrainRate:6
CircleSize:5
OverallDifficulty:6
ApproachRate:7
SliderMultiplier:1.4
SliderTickRate:1

[Events]
//Background and Video events
0,0,"BG.jpg",0,65
//Break Periods
//Storyboard Layer 0 (Background)
//Storyboard Layer 1 (Fail)
//Storyboard Layer 2 (Pass)
//Storyboard Layer 3 (Foreground)
//Storyboard Layer 4 (Overlay)
//Storyboard Sound Samples

[TimingPoints]
95,344.827586206897,4,1,0,24,1,0
95,-138.888888888889,4,1,0,24,0,0
11129,-125,4,1,0,52,0,0
20957,-125,4,1,0,28,0,0
22163,-96.1538461538461,4,1,0,100,0,0
44232,-96.1538461538461,4,1,0,84,0,0
45612,-125,4,1,0,84,0,0
49750,-113.636363636364,4,1,0,90,0,0
50008,-111.731843575419,4,1,0,90,0,0
50095,-111.111111111111,4,1,0,90,0,0
50267,-109.89010989011,4,1,0,90,0,0
50439,-108.695652173913,4,1,0,91,0,0
50526,-108.108108108108,4,1,0,91,0,0
50612,-107.52688172043,4,1,0,91,0,0
50698,-106.951871657754,4,1,0,91,0,0
50784,-106.382978723404,4,1,0,91,0,0
50957,-105.263157894737,4,1,0,91,0,0
51129,-104.166666666667,4,1,0,92,0,0
51388,-102.564102564103,4,1,0,92,0,0
51474,-102.040816326531,4,1,0,92,0,0
51646,-101.010101010101,4,1,0,92,0,0
51819,-100,4,1,0,93,0,0
51905,-99.5024875621891,4,1,0,93,0,0
51991,-99.009900990099,4,1,0,93,0,0
52077,-98.5221674876848,4,1,0,93,0,0
52163,-98.0392156862745,4,1,0,93,0,0
52336,-97.0873786407768,4,1,0,93,0,0
52508,-96.1538461538461,4,1,0,94,0,0
52681,-95.2380952380953,4,1,0,94,0,0
52853,-94.3396226415094,4,1,0,94,0,0
53026,-93.4579439252338,4,1,0,94,0,0
53198,-92.5925925925926,4,1,0,95,0,0
53284,-92.1658986175117,4,1,0,95,0,0
53370,-91.7431192660552,4,1,0,95,0,0
53457,-91.3242009132422,4,1,0,95,0,0
53543,-90.9090909090909,4,1,0,95,0,0
53600,-90.6344410876133,4,1,0,95,0,0
53658,-90.3614457831325,4,1,0,95,0,0
53715,-90.0900900900901,4,1,0,95,0,0
53801,-89.6860986547085,4,1,0,95,0,0
53888,-89.2857142857143,4,1,0,96,0,0
54060,-88.4955752212389,4,1,0,28,0,0
55181,-147.058823529412,4,1,0,92,0,0
55957,-71.4285714285714,4,1,0,92,0,0
56129,-82.6446280991736,4,1,0,92,0,0
56215,-83.6820083682008,4,1,0,92,0,0
56301,-84.7457627118644,4,1,0,92,0,0
56388,-85.8369098712446,4,1,0,92,0,0
56474,-86.9565217391304,4,1,0,92,0,0
56646,-89.2857142857143,4,1,0,92,0,0
56819,-91.743119266055,4,1,0,92,0,0
56905,-93.0232558139535,4,1,0,92,0,0
56991,-94.3396226415094,4,1,0,92,0,0
57077,-95.6937799043062,4,1,0,92,0,0
57163,-97.0873786407767,4,1,0,92,0,0
57336,-100,4,1,0,92,0,0
58026,-113.636363636364,4,1,0,80,0,0
58370,-125,4,1,0,80,0,0
58715,-78.125,4,1,0,92,0,0
58888,-90.9090909090909,4,1,0,92,0,0
58974,-91.743119266055,4,1,0,92,0,0
59060,-92.5925925925926,4,1,0,92,0,0
59146,-93.4579439252336,4,1,0,92,0,0
59232,-94.3396226415094,4,1,0,92,0,0
59405,-96.1538461538461,4,1,0,88,0,0
59577,-98.0392156862745,4,1,0,88,0,0
59750,-100,4,1,0,88,0,0
59922,-102.040816326531,4,1,0,88,0,0
59980,-102.739726027397,4,1,0,88,0,0
60037,-103.448275862069,4,1,0,88,0,0
60095,-104.166666666667,4,1,0,88,0,0
60267,-106.382978723404,4,1,0,88,0,0
60353,-107.52688172043,4,1,0,88,0,0
60439,-108.695652173913,4,1,0,88,0,0
60612,-111.111111111111,4,1,0,88,0,0
60784,-113.636363636364,4,1,0,80,0,0
61474,-78.125,4,1,0,92,0,0
61646,-100,4,1,0,92,0,0
61991,-83.3333333333333,4,1,0,92,0,0
62163,-89.6860986547085,4,1,0,90,0,0
62336,-97.0873786407767,4,1,0,88,0,0
62508,-98.0392156862745,4,1,0,88,0,0
62681,-99.009900990099,4,1,0,88,0,0
62853,-100,4,1,0,88,0,0
63026,-101.010101010101,4,1,0,88,0,0
63112,-101.522842639594,4,1,0,88,0,0
63198,-102.040816326531,4,1,0,88,0,0
63370,-103.092783505155,4,1,0,88,0,0
63543,-104.166666666667,4,1,0,92,0,0
63888,-102.040816326531,4,1,0,92,0,0
64750,-100,4,1,0,92,0,0
66991,-71.4285714285714,4,1,0,96,0,0
67681,-100,4,1,0,88,0,0
68026,-71.4285714285714,4,1,0,96,0,0
69060,-125,4,1,0,88,0,0
69750,-71.4285714285714,4,1,0,96,0,0
70439,-100,4,1,0,88,0,0
70784,-80.6451612903226,4,1,0,92,0,0
71819,-113.636363636364,4,1,0,88,0,0
72508,-80.6451612903226,4,1,0,96,0,0
73026,-80.6451612903226,4,1,0,92,0,0
73198,-88.1057268722467,4,1,0,90,0,0
73370,-97.0873786407767,4,1,0,88,0,0
73543,-98.0392156862745,4,1,0,88,0,0
73715,-99.009900990099,4,1,0,88,0,0
73888,-100,4,1,0,88,0,0
74060,-101.010101010101,4,1,0,88,0,0
74146,-101.522842639594,4,1,0,88,0,0
74232,-102.040816326531,4,1,0,88,0,0
74319,-102.564102564103,4,1,0,88,0,0
74405,-103.092783505155,4,1,0,88,0,0
74577,-104.166666666667,4,1,0,92,0,0
74922,-102.040816326531,4,1,0,92,0,0
75784,-100,4,1,0,92,0,0
78026,-138.888888888889,4,1,0,28,0,0
80095,-138.888888888889,4,1,0,36,0,0
91129,-125,4,1,0,56,0,0
93198,-125,4,1,0,58,0,0
95267,-125,4,1,0,60,0,0
96646,-125,4,1,0,62,0,0
101474,-113.636363636364,4,1,0,88,0,0
102163,-96.1538461538461,4,1,0,100,0,1
113198,-95.2380952380952,4,1,0,100,0,1
118715,-94.3396226415094,4,1,0,100,0,1
124232,-94.3396226415094,4,1,0,92,0,0
124922,-89.2857142857143,4,1,0,100,0,1
126991,-89.2857142857143,4,1,0,92,0,0
127336,-100,4,1,0,92,0,0
130439,-89.2857142857143,4,1,0,100,0,1
132508,-89.2857142857143,4,1,0,92,0,0
132681,-93.4579439252336,4,1,0,92,0,0
133888,-96.6183574879227,4,1,0,92,0,0
134060,-100,4,1,0,92,0,0
135957,-89.2857142857143,4,1,0,100,0,1
138026,-89.2857142857143,4,1,0,92,0,0
138370,-100,4,1,0,92,0,0
141474,-89.2857142857143,4,1,0,100,0,1
143543,-89.2857142857143,4,1,0,92,0,0

[HitObjects]
256,192,95,5,8,0:0:0:0:
256,192,784,5,0,0:0:0:0:
256,192,957,5,8,0:0:0:0:
256,192,1129,5,0,0:0:0:0:
256,192,1301,5,8,0:0:0:0:
256,192,1474,1,8,0:0:0:0:
256,192,1819,5,0,0:0:0:0:
256,192,2163,1,0,0:0:0:0:
256,192,2508,5,8,0:0:0:0:
256,192,2853,1,8,0:0:0:0:
256,192,3370,5,0,0:0:0:0:
256,192,3888,1,0,0:0:0:0:
256,192,4405,5,8,0:0:0:0:
256,192,4577,1,8,0:0:0:0:
256,192,4750,5,0,0:0:0:0:
256,192,4922,1,0,0:0:0:0:
256,192,5267,5,8,0:0:0:0:
256,192,5612,1,8,0:0:0:0:
256,192,6301,1,8,0:0:0:0:
256,192,6474,5,0,0:0:0:0:
256,192,6646,1,0,0:0:0:0:
256,192,6819,5,8,0:0:0:0:
256,192,6991,5,0,0:0:0:0:
256,192,7336,5,8,0:0:0:0:
256,192,7681,1,8,0:0:0:0:
256,192,8026,5,0,0:0:0:0:
256,192,8370,5,8,0:0:0:0:
256,192,8888,1,8,0:0:0:0:
256,192,9232,5,0,0:0:0:0:
256,192,9405,5,8,0:0:0:0:
256,192,9577,5,0,0:0:0:0:
256,192,9750,1,0,0:0:0:0:
256,192,10439,1,0,0:0:0:0:
256,192,10612,5,8,0:0:0:0:
256,192,10784,1,8,0:0:0:0:
256,192,11129,1,8,0:0:0:0:
256,192,11301,1,8,0:0:0:0:
256,192,11474,5,0,0:0:0:0:
256,192,11646,1,0,0:0:0:0:
256,192,11991,5,8,0:0:0:0:
256,192,12163,1,8,0:0:0:0:
256,192,12336,5,0,0:0:0:0:
256,192,12508,5,8,0:0:0:0:
256,192,12853,1,8,0:0:0:0:
256,192,13198,5,0,0:0:0:0:
256,192,13543,1,0,0:0:0:0:
256,192,13888,5,8,0:0:0:0:
256,192,14405,5,0,0:0:0:0:
256,192,14922,1,0,0:0:0:0:
256,192,15439,5,8,0:0:0:0:
256,192,15612,1,8,0:0:0:0:
256,192,15784,5,0,0:0:0:0:
256,192,15957,1,0,0:0:0:0:
256,192,16301,1,0,0:0:0:0:
256,192,16646,5,8,0:0:0:0:
256,192,17336,5,0,0:0:0:0:
256,192,17508,5,8,0:0:0:0:
256,192,17681,5,0,0:0:0:0:
256,192,17853,5,8,0:0:0:0:
256,192,18026,1,8,0:0:0:0:
256,192,18370,1,8,0:0:0:0:
256,192,18715,5,0,0:0:0:0:
256,192,19060,1,0,0:0:0:0:
256,192,19405,1,0,0:0:0:0:
256,192,19922,1,0,0:0:0:0:
256,192,20267,1,0,0:0:0:0:
256,192,20439,5,8,0:0:0:0:
256,192,20784,5,0,0:0:0:0:
256,192,20957,12,0,21819,0:0:0:0:
256,192,22163,5,12,0:0:0:0:
256,192,22336,5,0,0:0:0:0:
256,192,22508,1,0,0:0:0:0:
256,192,22595,1,0,0:0:0:0:
256,192,22681,5,8,0:0:0:0:
256,192,22853,5,0,0:0:0:0:
256,192,23198,5,8,0:0:0:0:
256,192,23370,5,0,0:0:0:0:
256,192,23543,1,0,0:0:0:0:
256,192,23629,1,0,0:0:0:0:
256,192,23715,5,8,0:0:0:0:
256,192,23888,5,0,0:0:0:0:
256,192,24060,5,8,0:0:0:0:
256,192,24232,5,0,0:0:0:0:
256,192,24405,1,0,0:0:0:0:
256,192,24491,5,8,0:0:0:0:
256,192,24577,1,8,0:0:0:0:
256,192,24750,5,0,0:0:0:0:
256,192,24922,5,8,0:0:0:0:
256,192,25095,5,0,0:0:0:0:
256,192,25267,1,0,0:0:0:0:
256,192,25353,1,0,0:0:0:0:
256,192,25439,5,8,0:0:0:0:
256,192,25612,5,0,0:0:0:0:
256,192,25957,5,8,0:0:0:0:
256,192,26129,5,0,0:0:0:0:
256,192,26301,1,0,0:0:0:0:
256,192,26388,1,0,0:0:0:0:
256,192,26474,5,8,0:0:0:0:
256,192,26646,5,0,0:0:0:0:
256,192,26819,5,8,0:0:0:0:
256,192,26905,1,8,0:0:0:0:
256,192,26991,5,0,0:0:0:0:
256,192,27163,1,0,0:0:0:0:
256,192,27250,1,0,0:0:0:0:
256,192,27336,5,8,0:0:0:0:
256,192,27422,1,8,0:0:0:0:
256,192,27508,1,8,0:0:0:0:
256,192,27681,1,12,0:0:0:0:
256,192,27853,5,0,0:0:0:0:
256,192,28026,1,0,0:0:0:0:
256,192,28112,1,0,0:0:0:0:
256,192,28198,5,8,0:0:0:0:
256,192,28370,5,0,0:0:0:0:
256,192,28715,5,8,0:0:0:0:
256,192,28888,5,0,0:0:0:0:
256,192,29060,1,0,0:0:0:0:
256,192,29146,1,0,0:0:0:0:
256,192,29232,5,8,0:0:0:0:
256,192,29405,5,0,0:0:0:0:
256,192,29577,5,8,0:0:0:0:
256,192,29750,1,0,0:0:0:0:
256,192,29922,1,0,0:0:0:0:
256,192,30008,5,8,0:0:0:0:
256,192,30095,1,8,0:0:0:0:
256,192,30267,5,0,0:0:0:0:
256,192,30439,5,8,0:0:0:0:
256,192,30612,5,0,0:0:0:0:
256,192,30784,1,0,0:0:0:0:
256,192,30870,1,0,0:0:0:0:
256,192,30957,5,8,0:0:0:0:
256,192,31129,5,0,0:0:0:0:
256,192,31474,5,8,0:0:0:0:
256,192,31646,5,0,0:0:0:0:
256,192,31819,1,0,0:0:0:0:
256,192,31905,1,0,0:0:0:0:
256,192,31991,5,8,0:0:0:0:
256,192,32163,5,0,0:0:0:0:
256,192,32336,5,8,0:0:0:0:
256,192,32508,1,8,0:0:0:0:
256,192,32594,1,8,0:0:0:0:
256,192,32680,5,0,0:0:0:0:
256,192,32766,1,0,0:0:0:0:
256,192,32853,1,0,0:0:0:0:
256,192,33198,5,12,0:0:0:0:
256,192,33370,5,0,0:0:0:0:
256,192,33457,1,0,0:0:0:0:
256,192,33543,1,0,0:0:0:0:
256,192,33715,5,8,0:0:0:0:
256,192,34060,5,0,0:0:0:0:
256,192,34232,5,8,0:0:0:0:
256,192,34405,1,8,0:0:0:0:
256,192,34491,1,8,0:0:0:0:
256,192,34577,5,0,0:0:0:0:
256,192,34750,5,8,0:0:0:0:
256,192,34922,5,0,0:0:0:0:
256,192,35008,1,0,0:0:0:0:
256,192,35095,5,8,0:0:0:0:
256,192,35267,5,0,0:0:0:0:
256,192,35439,1,0,0:0:0:0:
256,192,35526,1,0,0:0:0:0:
256,192,35612,5,8,0:0:0:0:
256,192,35698,1,8,0:0:0:0:
256,192,35784,1,8,0:0:0:0:
256,192,35957,1,8,0:0:0:0:
256,192,36129,5,0,0:0:0:0:
256,192,36215,5,8,0:0:0:0:
256,192,36301,5,0,0:0:0:0:
256,192,36474,5,8,0:0:0:0:
256,192,36819,5,0,0:0:0:0:
256,192,36991,5,8,0:0:0:0:
256,192,37163,1,8,0:0:0:0:
256,192,37250,1,8,0:0:0:0:
256,192,37336,5,0,0:0:0:0:
256,192,37508,5,8,0:0:0:0:
256,192,37681,5,0,0:0:0:0:
256,192,37767,1,0,0:0:0:0:
256,192,37853,5,8,0:0:0:0:
256,192,38026,5,0,0:0:0:0:
256,192,38198,1,0,0:0:0:0:
256,192,38284,1,0,0:0:0:0:
256,192,38370,5,8,0:0:0:0:
256,192,38457,5,0,0:0:0:0:
256,192,38543,5,8,0:0:0:0:
256,192,38715,1,12,0:0:0:0:
256,192,38888,5,0,0:0:0:0:
256,192,38974,1,0,0:0:0:0:
256,192,39060,1,0,0:0:0:0:
256,192,39232,5,8,0:0:0:0:
256,192,39577,5,0,0:0:0:0:
256,192,39750,5,8,0:0:0:0:
256,192,39922,1,8,0:0:0:0:
256,192,40008,1,8,0:0:0:0:
256,192,40095,5,0,0:0:0:0:
256,192,40267,5,8,0:0:0:0:
256,192,40439,5,0,0:0:0:0:
256,192,40526,1,0,0:0:0:0:
256,192,40612,5,8,0:0:0:0:
256,192,40784,5,0,0:0:0:0:
256,192,40957,1,0,0:0:0:0:
256,192,41043,1,0,0:0:0:0:
256,192,41129,5,8,0:0:0:0:
256,192,41215,1,8,0:0:0:0:
256,192,41301,1,8,0:0:0:0:
256,192,41474,1,8,0:0:0:0:
256,192,41646,1,8,0:0:0:0:
256,192,41732,5,0,0:0:0:0:
256,192,41819,1,0,0:0:0:0:
256,192,41991,1,0,0:0:0:0:
256,192,42336,1,0,0:0:0:0:
256,192,42508,5,8,0:0:0:0:
256,192,42681,1,8,0:0:0:0:
256,192,42767,1,8,0:0:0:0:
256,192,42853,5,0,0:0:0:0:
256,192,43026,5,8,0:0:0:0:
256,192,43198,5,0,0:0:0:0:
256,192,43284,1,0,0:0:0:0:
256,192,43370,5,8,0:0:0:0:
256,192,43543,1,8,0:0:0:0:
256,192,43629,1,8,0:0:0:0:
256,192,43715,5,0,0:0:0:0:
256,192,43801,1,0,0:0:0:0:
256,192,43888,1,0,0:0:0:0:
256,192,44232,1,4,0:0:0:0:
256,192,45612,5,8,0:0:0:0:
256,192,46129,1,8,0:0:0:0:
256,192,46646,5,0,0:0:0:0:
256,192,46991,1,0,0:0:0:0:
256,192,47508,5,8,0:0:0:0:
256,192,48026,5,0,0:0:0:0:
256,192,49750,1,4,0:0:0:0:
256,192,50008,5,8,0:0:0:0:
256,192,50095,5,0,0:0:0:0:
256,192,50267,5,8,0:0:0:0:
256,192,50439,5,0,0:0:0:0:
256,192,50526,1,0,0:0:0:0:
256,192,50612,5,8,0:0:0:0:
256,192,50698,1,8,0:0:0:0:
256,192,50784,5,0,0:0:0:0:
256,192,50957,5,8,0:0:0:0:
256,192,51129,5,4,0:0:0:0:
256,192,51388,5,8,0:0:0:0:
256,192,51474,5,0,0:0:0:0:
256,192,51646,1,0,0:0:0:0:
256,192,51819,1,0,0:0:0:0:
256,192,51905,1,0,0:0:0:0:
256,192,51991,5,8,0:0:0:0:
256,192,52077,1,8,0:0:0:0:
256,192,52163,1,8,0:0:0:0:
256,192,52336,1,8,0:0:0:0:
256,192,52508,1,12,0:0:0:0:
256,192,52681,5,0,0:0:0:0:
256,192,52853,5,8,0:0:0:0:
256,192,53026,5,0,0:0:0:0:
256,192,53198,5,8,0:0:0:0:
256,192,53284,1,8,0:0:0:0:
256,192,53370,5,0,0:0:0:0:
256,192,53457,1,0,0:0:0:0:
256,192,53543,5,8,0:0:0:0:
256,192,53600,5,0,0:0:0:0:
256,192,53658,1,0,0:0:0:0:
256,192,53715,5,8,0:0:0:0:
256,192,53801,1,8,0:0:0:0:
256,192,53888,5,0,0:0:0:0:
256,192,54060,12,0,55095,0:0:0:0:
256,192,55267,5,0,0:0:0:0:
256,192,55957,5,12,0:0:0:0:
256,192,56129,5,0,0:0:0:0:
256,192,56215,5,8,0:0:0:0:
256,192,56301,1,8,0:0:0:0:
256,192,56388,1,8,0:0:0:0:
256,192,56474,5,0,0:0:0:0:
256,192,56646,1,8,0:0:0:0:
256,192,56819,5,0,0:0:0:0:
256,192,56905,5,8,0:0:0:0:
256,192,56991,1,8,0:0:0:0:
256,192,57077,5,0,0:0:0:0:
256,192,57163,1,0,0:0:0:0:
256,192,57336,2,4,P|192:96|256:64,1,210,0|0,0:0|0:0,0:0:0:0:
256,192,58026,5,8,0:0:0:0:
256,192,58370,5,0,0:0:0:0:
256,192,58715,5,12,0:0:0:0:
256,192,58888,5,0,0:0:0:0:
256,192,58974,5,8,0:0:0:0:
256,192,59060,1,8,0:0:0:0:
256,192,59146,1,8,0:0:0:0:
256,192,59232,5,0,0:0:0:0:
256,192,59405,5,8,0:0:0:0:
256,192,59577,5,0,0:0:0:0:
256,192,59750,5,8,0:0:0:0:
256,192,59922,5,0,0:0:0:0:
256,192,59980,1,0,0:0:0:0:
256,192,60037,1,0,0:0:0:0:
256,192,60095,5,8,0:0:0:0:
256,192,60267,5,0,0:0:0:0:
256,192,60353,5,8,0:0:0:0:
256,192,60439,1,8,0:0:0:0:
256,192,60612,5,0,0:0:0:0:
256,192,60784,2,0,P|192:128|256:64,1,184.800005639649
256,192,61474,5,12,0:0:0:0:
256,192,61646,5,0,0:0:0:0:
256,192,61732,5,8,0:0:0:0:
256,192,61819,5,0,0:0:0:0:
256,192,61991,5,12,0:0:0:0:
256,192,62336,1,8,0:0:0:0:
256,192,62508,5,0,0:0:0:0:
256,192,62681,1,0,0:0:0:0:
256,192,62853,5,8,0:0:0:0:
256,192,63026,5,0,0:0:0:0:
256,192,63112,5,8,0:0:0:0:
256,192,63198,5,0,0:0:0:0:
256,192,63370,1,0,0:0:0:0:
256,192,63543,5,12,0:0:0:0:
256,192,63888,1,8,0:0:0:0:
256,192,64060,5,0,0:0:0:0:
256,192,64146,1,0,0:0:0:0:
256,192,64232,1,0,0:0:0:0:
256,192,64405,5,8,0:0:0:0:
256,192,64750,1,8,0:0:0:0:
256,192,64922,5,0,0:0:0:0:
256,192,65095,1,0,0:0:0:0:
256,192,65181,5,8,0:0:0:0:
256,192,65267,1,8,0:0:0:0:
256,192,65439,5,0,0:0:0:0:
256,192,65612,5,8,0:0:0:0:
256,192,65784,1,8,0:0:0:0:
256,192,65870,1,8,0:0:0:0:
256,192,65957,5,0,0:0:0:0:
256,192,66129,1,0,0:0:0:0:
256,192,66301,5,12,0:0:0:0:
256,192,66991,1,12,0:0:0:0:
256,192,67163,1,12,0:0:0:0:
256,192,67336,1,12,0:0:0:0:
256,192,67681,5,0,0:0:0:0:
256,192,68026,5,12,0:0:0:0:
256,192,68198,1,12,0:0:0:0:
256,192,68370,5,0,0:0:0:0:
256,192,68543,5,8,0:0:0:0:
256,192,68629,1,8,0:0:0:0:
256,192,68715,1,8,0:0:0:0:
256,192,69060,5,4,0:0:0:0:
256,192,69750,5,12,0:0:0:0:
256,192,69922,1,12,0:0:0:0:
256,192,70095,1,12,0:0:0:0:
256,192,70439,5,0,0:0:0:0:
256,192,70784,1,0,0:0:0:0:
256,192,70957,5,8,0:0:0:0:
256,192,71129,5,0,0:0:0:0:
256,192,71301,5,8,0:0:0:0:
256,192,71388,1,8,0:0:0:0:
256,192,71474,5,0,0:0:0:0:
256,192,71819,1,0,0:0:0:0:
256,192,71905,1,0,0:0:0:0:
256,192,71991,5,8,0:0:0:0:
256,192,72077,1,8,0:0:0:0:
256,192,72163,5,0,0:0:0:0:
256,192,72336,5,8,0:0:0:0:
256,192,72508,1,12,0:0:0:0:
256,192,72681,1,12,0:0:0:0:
256,192,72853,1,12,0:0:0:0:
256,192,73026,5,4,0:0:0:0:
256,192,73370,5,8,0:0:0:0:
256,192,73543,5,0,0:0:0:0:
256,192,73715,1,0,0:0:0:0:
256,192,73888,5,8,0:0:0:0:
256,192,74060,5,0,0:0:0:0:
256,192,74146,5,8,0:0:0:0:
256,192,74232,1,8,0:0:0:0:
256,192,74319,1,8,0:0:0:0:
256,192,74405,5,0,0:0:0:0:
256,192,74577,5,12,0:0:0:0:
256,192,74922,1,8,0:0:0:0:
256,192,75095,5,0,0:0:0:0:
256,192,75181,1,0,0:0:0:0:
256,192,75267,1,0,0:0:0:0:
256,192,75439,5,8,0:0:0:0:
256,192,75784,1,8,0:0:0:0:
256,192,75957,5,0,0:0:0:0:
256,192,76129,1,0,0:0:0:0:
256,192,76215,5,8,0:0:0:0:
256,192,76301,1,8,0:0:0:0:
256,192,76474,5,0,0:0:0:0:
256,192,76646,5,8,0:0:0:0:
256,192,76819,1,8,0:0:0:0:
256,192,76905,1,8,0:0:0:0:
256,192,76991,5,0,0:0:0:0:
256,192,77163,1,0,0:0:0:0:
256,192,77336,5,12,0:0:0:0:
256,192,78715,12,0,79922,0:0:0:0:
256,192,80095,5,4,0:0:0:0:
256,192,80784,5,8,0:0:0:0:
256,192,81819,1,8,0:0:0:0:
256,192,82163,1,8,0:0:0:0:
256,192,82508,5,0,0:0:0:0:
256,192,82853,5,8,0:0:0:0:
256,192,83543,1,8,0:0:0:0:
256,192,83888,5,0,0:0:0:0:
256,192,84232,5,8,0:0:0:0:
256,192,84922,1,8,0:0:0:0:
256,192,85267,5,0,0:0:0:0:
256,192,85612,5,8,0:0:0:0:
256,192,85957,5,0,0:0:0:0:
256,192,86129,5,8,0:0:0:0:
256,192,86474,5,0,0:0:0:0:
256,192,86819,5,8,0:0:0:0:
256,192,86991,1,8,0:0:0:0:
256,192,87336,5,0,0:0:0:0:
256,192,87681,1,0,0:0:0:0:
256,192,88026,5,8,0:0:0:0:
256,192,88370,1,8,0:0:0:0:
256,192,88715,1,8,0:0:0:0:
256,192,88888,5,0,0:0:0:0:
256,192,89232,5,8,0:0:0:0:
256,192,89405,1,8,0:0:0:0:
256,192,89577,5,0,0:0:0:0:
256,192,89750,1,0,0:0:0:0:
256,192,90439,1,0,0:0:0:0:
256,192,90612,5,8,0:0:0:0:
256,192,90784,1,8,0:0:0:0:
256,192,91129,1,8,0:0:0:0:
256,192,91474,5,0,0:0:0:0:
256,192,91819,1,0,0:0:0:0:
256,192,91991,1,0,0:0:0:0:
256,192,92163,5,8,0:0:0:0:
256,192,92508,5,0,0:0:0:0:
256,192,93198,1,0,0:0:0:0:
256,192,93370,5,8,0:0:0:0:
256,192,93543,1,8,0:0:0:0:
256,192,93715,5,0,0:0:0:0:
256,192,93888,5,8,0:0:0:0:
256,192,94232,5,0,0:0:0:0:
256,192,94577,1,0,0:0:0:0:
256,192,94750,1,0,0:0:0:0:
256,192,94922,5,8,0:0:0:0:
256,192,95267,1,8,0:0:0:0:
256,192,95612,5,0,0:0:0:0:
256,192,95784,1,0,0:0:0:0:
256,192,95957,5,8,0:0:0:0:
256,192,96301,1,8,0:0:0:0:
256,192,96646,1,12,0:0:0:0:
256,192,97336,5,0,0:0:0:0:
256,192,97508,5,8,0:0:0:0:
256,192,97681,1,8,0:0:0:0:
256,192,97853,5,0,0:0:0:0:
256,192,98026,5,8,0:0:0:0:
256,192,98370,5,0,0:0:0:0:
256,192,98715,1,0,0:0:0:0:
256,192,98888,1,0,0:0:0:0:
256,192,99060,5,8,0:0:0:0:
256,192,99405,1,8,0:0:0:0:
256,192,99750,5,0,0:0:0:0:
256,192,99922,5,8,0:0:0:0:
256,192,100439,1,8,0:0:0:0:
256,192,100612,5,0,0:0:0:0:
256,192,100784,1,0,0:0:0:0:
256,192,101474,5,8,0:0:0:0:
256,192,101560,1,8,0:0:0:0:
256,192,101646,5,0,0:0:0:0:
256,192,101819,1,0,0:0:0:0:
256,192,101905,5,8,0:0:0:0:
256,192,101991,1,8,0:0:0:0:
256,192,102163,1,12,0:0:0:0:
256,192,102508,1,8,0:0:0:0:
256,192,102681,5,0,0:0:0:0:
256,192,103026,1,0,0:0:0:0:
256,192,103198,1,0,0:0:0:0:
256,192,103370,5,8,0:0:0:0:
256,192,103543,1,8,0:0:0:0:
256,192,103715,1,8,0:0:0:0:
256,192,103801,1,8,0:0:0:0:
256,192,103888,5,0,0:0:0:0:
256,192,104060,5,8,0:0:0:0:
256,192,104232,5,0,0:0:0:0:
256,192,104405,1,0,0:0:0:0:
256,192,104491,1,0,0:0:0:0:
256,192,104577,5,8,0:0:0:0:
256,192,104663,1,8,0:0:0:0:
256,192,104750,1,8,0:0:0:0:
256,192,104922,1,8,0:0:0:0:
256,192,105095,1,8,0:0:0:0:
256,192,105181,1,8,0:0:0:0:
256,192,105267,5,0,0:0:0:0:
256,192,105440,1,0,0:0:0:0:
256,192,105784,1,0,0:0:0:0:
256,192,105957,5,8,0:0:0:0:
256,192,106129,5,0,0:0:0:0:
256,192,106301,5,8,0:0:0:0:
256,192,106474,5,0,0:0:0:0:
256,192,106560,5,8,0:0:0:0:
256,192,106647,1,8,0:0:0:0:
256,192,106732,1,8,0:0:0:0:
256,192,106819,5,0,0:0:0:0:
256,192,106991,5,8,0:0:0:0:
256,192,107163,1,8,0:0:0:0:
256,192,107250,1,8,0:0:0:0:
256,192,107336,5,0,0:0:0:0:
256,192,107508,1,0,0:0:0:0:
256,192,107681,5,8,0:0:0:0:
256,192,108026,1,8,0:0:0:0:
256,192,108198,5,0,0:0:0:0:
256,192,108543,1,0,0:0:0:0:
256,192,108715,1,0,0:0:0:0:
256,192,108888,5,8,0:0:0:0:
256,192,109060,5,0,0:0:0:0:
256,192,109232,1,0,0:0:0:0:
256,192,109319,1,0,0:0:0:0:
256,192,109405,5,8,0:0:0:0:
256,192,109577,1,8,0:0:0:0:
256,192,109750,5,0,0:0:0:0:
256,192,109922,1,0,0:0:0:0:
256,192,110008,1,0,0:0:0:0:
256,192,110095,5,8,0:0:0:0:
256,192,110181,1,8,0:0:0:0:
256,192,110267,1,8,0:0:0:0:
256,192,110439,5,0,0:0:0:0:
256,192,110612,1,0,0:0:0:0:
256,192,110698,1,0,0:0:0:0:
256,192,110784,5,8,0:0:0:0:
256,192,110957,5,0,0:0:0:0:
256,192,111301,5,8,0:0:0:0:
256,192,111474,1,8,0:0:0:0:
256,192,111646,5,0,0:0:0:0:
256,192,111819,1,0,0:0:0:0:
256,192,111991,1,0,0:0:0:0:
256,192,112077,1,0,0:0:0:0:
256,192,112163,5,8,0:0:0:0:
256,192,112250,1,8,0:0:0:0:
256,192,112336,5,0,0:0:0:0:
256,192,112508,1,0,0:0:0:0:
256,192,112681,1,0,0:0:0:0:
256,192,112767,5,8,0:0:0:0:
256,192,112853,1,8,0:0:0:0:
256,192,113026,5,0,0:0:0:0:
256,192,113198,5,12,0:0:0:0:
256,192,113371,5,0,0:0:0:0:
256,192,113457,5,8,0:0:0:0:
256,192,113543,1,8,0:0:0:0:
256,192,113715,5,0,0:0:0:0:
256,192,114060,5,8,0:0:0:0:
256,192,114232,1,8,0:0:0:0:
256,192,114405,5,0,0:0:0:0:
256,192,114577,1,0,0:0:0:0:
256,192,114750,1,0,0:0:0:0:
256,192,114836,5,8,0:0:0:0:
256,192,114922,1,8,0:0:0:0:
256,192,115095,1,8,0:0:0:0:
256,192,115267,1,8,0:0:0:0:
256,192,115353,1,8,0:0:0:0:
256,192,115439,5,0,0:0:0:0:
256,192,115526,1,0,0:0:0:0:
256,192,115612,5,8,0:0:0:0:
256,192,115784,1,8,0:0:0:0:
256,192,115957,1,8,0:0:0:0:
256,192,116129,1,8,0:0:0:0:
256,192,116215,1,8,0:0:0:0:
256,192,116301,5,0,0:0:0:0:
256,192,116474,1,0,0:0:0:0:
256,192,116819,5,8,0:0:0:0:
256,192,116991,5,0,0:0:0:0:
256,192,117163,1,0,0:0:0:0:
256,192,117336,5,8,0:0:0:0:
256,192,117508,1,8,0:0:0:0:
256,192,117595,1,8,0:0:0:0:
256,192,117681,5,0,0:0:0:0:
256,192,117853,1,0,0:0:0:0:
256,192,117939,1,0,0:0:0:0:
256,192,118026,5,8,0:0:0:0:
256,192,118198,5,0,0:0:0:0:
256,192,118284,1,0,0:0:0:0:
256,192,118370,5,8,0:0:0:0:
256,192,118457,5,0,0:0:0:0:
256,192,118543,5,8,0:0:0:0:
256,192,118715,1,12,0:0:0:0:
256,192,118888,1,8,0:0:0:0:
256,192,118974,1,8,0:0:0:0:
256,192,119060,1,8,0:0:0:0:
256,192,119232,5,0,0:0:0:0:
256,192,119577,5,8,0:0:0:0:
256,192,119750,1,8,0:0:0:0:
256,192,119922,5,0,0:0:0:0:
256,192,120095,5,8,0:0:0:0:
256,192,120267,1,8,0:0:0:0:
256,192,120353,1,8,0:0:0:0:
256,192,120439,5,0,0:0:0:0:
256,192,120612,1,0,0:0:0:0:
256,192,120698,1,0,0:0:0:0:
256,192,120784,5,8,0:0:0:0:
256,192,120957,5,0,0:0:0:0:
256,192,121043,1,0,0:0:0:0:
256,192,121129,5,8,0:0:0:0:
256,192,121215,1,8,0:0:0:0:
256,192,121301,1,8,0:0:0:0:
256,192,121474,1,12,0:0:0:0:
256,192,121646,5,0,0:0:0:0:
256,192,121732,5,8,0:0:0:0:
256,192,121819,1,8,0:0:0:0:
256,192,121991,1,8,0:0:0:0:
256,192,122163,1,8,0:0:0:0:
256,192,122250,1,8,0:0:0:0:
256,192,122336,5,0,0:0:0:0:
256,192,122422,1,0,0:0:0:0:
256,192,122508,5,8,0:0:0:0:
256,192,122681,5,0,0:0:0:0:
256,192,122853,5,12,0:0:0:0:
256,192,123026,5,0,0:0:0:0:
256,192,123112,5,8,0:0:0:0:
256,192,123198,5,0,0:0:0:0:
256,192,123370,1,0,0:0:0:0:
256,192,123457,1,0,0:0:0:0:
256,192,123543,5,8,0:0:0:0:
256,192,123715,1,8,0:0:0:0:
256,192,123888,5,0,0:0:0:0:
256,192,124060,5,8,0:0:0:0:
256,192,124232,5,0,0:0:0:0:
256,192,124922,5,0,0:0:0:0:
256,192,124965,5,8,0:0:0:0:
256,192,125095,5,0,0:0:0:0:
256,192,125138,5,8,0:0:0:0:
256,192,125267,5,0,0:0:0:0:
256,192,125353,1,0,0:0:0:0:
256,192,125439,5,8,0:0:0:0:
256,192,125612,5,0,0:0:0:0:
256,192,125655,1,0,0:0:0:0:
256,192,125784,1,0,0:0:0:0:
256,192,125827,1,0,0:0:0:0:
256,192,125957,5,8,0:0:0:0:
256,192,126043,5,0,0:0:0:0:
256,192,126129,5,8,0:0:0:0:
256,192,126301,1,8,0:0:0:0:
256,192,126345,1,8,0:0:0:0:
256,192,126474,1,8,0:0:0:0:
256,192,126517,1,8,0:0:0:0:
256,192,126646,1,8,0:0:0:0:
256,192,126732,5,0,0:0:0:0:
256,192,126819,5,8,0:0:0:0:
256,192,126991,5,4,0:0:0:0:
256,192,127336,5,8,0:0:0:0:
256,192,127422,5,0,0:0:0:0:
256,192,127508,5,8,0:0:0:0:
256,192,127595,1,8,0:0:0:0:
256,192,127681,5,0,0:0:0:0:
256,192,127853,5,8,0:0:0:0:
256,192,127939,1,8,0:0:0:0:
256,192,128026,5,0,0:0:0:0:
256,192,128198,1,0,0:0:0:0:
256,192,128370,1,0,0:0:0:0:
256,192,128715,1,0,0:0:0:0:
256,192,128888,1,0,0:0:0:0:
256,192,129060,5,8,0:0:0:0:
256,192,129232,5,0,0:0:0:0:
256,192,129319,1,0,0:0:0:0:
256,192,129405,5,8,0:0:0:0:
256,192,129577,5,0,0:0:0:0:
256,192,129750,1,0,0:0:0:0:
256,192,130439,1,0,0:0:0:0:
256,192,130482,1,0,0:0:0:0:
256,192,130612,1,0,0:0:0:0:
256,192,130655,1,0,0:0:0:0:
256,192,130784,1,0,0:0:0:0:
256,192,130870,1,0,0:0:0:0:
256,192,130957,5,8,0:0:0:0:
256,192,131129,1,8,0:0:0:0:
256,192,131172,1,8,0:0:0:0:
256,192,131301,1,8,0:0:0:0:
256,192,131345,1,8,0:0:0:0:
256,192,131474,1,8,0:0:0:0:
256,192,131560,5,0,0:0:0:0:
256,192,131646,5,8,0:0:0:0:
256,192,131819,5,0,0:0:0:0:
256,192,131862,5,8,0:0:0:0:
256,192,131991,5,0,0:0:0:0:
256,192,132034,5,8,0:0:0:0:
256,192,132163,5,0,0:0:0:0:
256,192,132250,1,0,0:0:0:0:
256,192,132336,5,8,0:0:0:0:
256,192,132508,5,0,0:0:0:0:
256,192,132681,5,8,0:0:0:0:
256,192,132767,5,0,0:0:0:0:
256,192,132853,5,8,0:0:0:0:
256,192,132939,1,8,0:0:0:0:
256,192,133026,5,0,0:0:0:0:
256,192,133198,1,0,0:0:0:0:
256,192,133370,5,8,0:0:0:0:
256,192,133457,1,8,0:0:0:0:
256,192,133543,5,0,0:0:0:0:
256,192,133715,1,0,0:0:0:0:
256,192,134060,1,0,0:0:0:0:
256,192,134232,5,8,0:0:0:0:
256,192,134405,5,0,0:0:0:0:
256,192,134577,5,8,0:0:0:0:
256,192,134750,5,0,0:0:0:0:
256,192,134836,5,8,0:0:0:0:
256,192,134922,1,8,0:0:0:0:
256,192,135008,5,0,0:0:0:0:
256,192,135095,1,0,0:0:0:0:
256,192,135267,1,0,0:0:0:0:
256,192,135526,5,8,0:0:0:0:
256,192,135612,5,0,0:0:0:0:
256,192,135784,1,0,0:0:0:0:
256,192,135957,5,8,0:0:0:0:
256,192,136000,1,8,0:0:0:0:
256,192,136129,1,8,0:0:0:0:
256,192,136172,1,8,0:0:0:0:
256,192,136301,5,0,0:0:0:0:
256,192,136388,1,0,0:0:0:0:
256,192,136474,5,8,0:0:0:0:
256,192,136646,5,0,0:0:0:0:
256,192,136689,1,0,0:0:0:0:
256,192,136819,1,0,0:0:0:0:
256,192,136862,1,0,0:0:0:0:
256,192,136991,5,8,0:0:0:0:
256,192,137077,5,0,0:0:0:0:
256,192,137163,5,8,0:0:0:0:
256,192,137336,1,8,0:0:0:0:
256,192,137379,5,0,0:0:0:0:
256,192,137508,5,8,0:0:0:0:
256,192,137551,5,0,0:0:0:0:
256,192,137681,5,8,0:0:0:0:
256,192,137767,1,8,0:0:0:0:
256,192,137853,1,8,0:0:0:0:
256,192,138026,5,4,0:0:0:0:
256,192,138370,5,8,0:0:0:0:
256,192,138457,5,0,0:0:0:0:
256,192,138543,1,0,0:0:0:0:
256,192,138629,5,8,0:0:0:0:
256,192,138715,5,0,0:0:0:0:
256,192,138888,5,8,0:0:0:0:
256,192,138974,1,8,0:0:0:0:
256,192,139060,5,0,0:0:0:0:
256,192,139232,1,4,0:0:0:0:
256,192,139577,1,0,0:0:0:0:
256,192,139663,1,0,0:0:0:0:
256,192,139750,5,8,0:0:0:0:
256,192,139836,5,0,0:0:0:0:
256,192,139922,1,0,0:0:0:0:
256,192,140095,5,8,0:0:0:0:
256,192,140267,5,0,0:0:0:0:
256,192,140353,5,8,0:0:0:0:
256,192,140439,1,8,0:0:0:0:
256,192,140526,1,8,0:0:0:0:
256,192,140612,5,0,0:0:0:0:
256,192,140784,1,0,0:0:0:0:
256,192,141043,5,8,0:0:0:0:
256,192,141129,5,0,0:0:0:0:
256,192,141301,1,0,0:0:0:0:
256,192,141474,1,0,0:0:0:0:
256,192,141517,1,0,0:0:0:0:
256,192,141646,1,0,0:0:0:0:
256,192,141689,1,0,0:0:0:0:
256,192,141819,1,0,0:0:0:0:
256,192,141905,1,0,0:0:0:0:
256,192,141991,5,8,0:0:0:0:
256,192,142163,1,8,0:0:0:0:
256,192,142207,1,8,0:0:0:0:
256,192,142336,1,8,0:0:0:0:
256,192,142379,1,8,0:0:0:0:
256,192,142508,1,8,0:0:0:0:
256,192,142595,5,0,0:0:0:0:
256,192,142681,5,8,0:0:0:0:
256,192,142853,1,8,0:0:0:0:
256,192,142896,5,0,0:0:0:0:
256,192,143026,5,8,0:0:0:0:
256,192,143069,5,0,0:0:0:0:
256,192,143198,5,8,0:0:0:0:
256,192,143284,1,8,0:0:0:0:
256,192,143370,1,8,0:0:0:0:
256,192,143543,5,4,0:0:0:0:
