osu file format v14

[General]
AudioFilename: audio.mp3
AudioLeadIn: 0
PreviewTime: 14
Countdown: 0
SampleSet: Soft
StackLeniency: 0.7
Mode: 0
LetterboxInBreaks: 0
WidescreenStoryboard: 0

[Editor]
Bookmarks: 22082,24841,27600,30358,33117,35876,38634,41393,44151,53807,77255,102082,124151,129669,135186,140703,143462
DistanceSpacing: 0.8
BeatDivisor: 4
GridSize: 8
TimelineZoom: 3.099999

[Metadata]
Title:Vindication
TitleUnicode:Vindication
Artist:Laur
ArtistUnicode:Laur
Creator:Hanazawa Kana
Version:Hikari
Source:Arcaea
Tags:
BeatmapID:2153822
BeatmapSetID:1017504

[Difficulty]
HPDrainRate:5
CircleSize:4
OverallDifficulty:8
ApproachRate:9.6
SliderMultiplier:1.6
SliderTickRate:1

[Events]
//Background and Video events
0,0,"bg.jpg",0,0
//Break Periods
//Storyboard Layer 0 (Background)
//Storyboard Layer 1 (Fail)
//Storyboard Layer 2 (Pass)
//Storyboard Layer 3 (Foreground)
//Storyboard Layer 4 (Overlay)
//Storyboard Sound Samples

[TimingPoints]
14,344.827586206897,4,2,1,40,1,0
3289,-83.3333333333333,4,2,1,40,0,0
3807,-100,4,2,1,40,0,0
5531,-83.3333333333333,4,2,1,40,0,0
6220,-100,4,2,1,40,0,0
8289,-83.3333333333333,4,2,1,40,0,0
8807,-76.9230769230769,4,2,1,40,0,0
9151,-100,4,2,1,40,0,0
13807,-83.3333333333333,4,2,1,40,0,0
14324,-125,4,2,1,40,0,0
14841,-100,4,2,1,40,0,0
16565,-83.3333333333333,4,2,1,40,0,0
16910,-100,4,2,1,40,0,0
18289,-90.9090909090909,4,2,1,40,0,0
20703,-125,4,2,1,40,0,0
21220,-250.000000000001,4,2,1,40,0,0
22082,-66.6666666666667,4,2,1,70,0,0
23117,-76.9230769230769,4,2,1,70,0,0
23634,-90.9090909090909,4,2,1,70,0,0
24496,-111.111111111111,4,2,1,70,0,0
24841,-66.6666666666667,4,2,1,70,0,0
25014,-76.9230769230769,4,2,1,70,0,0
25186,-90.9090909090909,4,2,1,70,0,0
26910,-100,4,2,1,70,0,0
27255,-111.111111111111,4,2,1,70,0,0
27600,-66.6666666666667,4,2,1,70,0,0
27772,-83.3333333333333,4,2,1,70,0,0
28117,-100,4,2,1,70,0,0
30358,-66.6666666666667,4,2,1,70,0,0
30531,-83.3333333333333,4,2,1,70,0,0
33117,-66.6666666666667,4,2,1,70,0,0
33289,-83.3333333333333,4,2,1,70,0,0
35876,-66.6666666666667,4,2,1,70,0,0
36048,-83.3333333333333,4,2,1,70,0,0
38634,-66.6666666666667,4,2,1,70,0,0
38807,-83.3333333333333,4,2,1,70,0,0
41393,-66.6666666666667,4,2,1,70,0,0
41565,-83.3333333333333,4,2,1,70,0,0
44151,-200,4,2,1,40,0,0
51048,-142.857142857143,4,2,1,50,0,0
53807,-200,4,2,1,40,0,0
55100,-200,4,2,1,5,0,0
55186,-50,4,2,1,70,0,0
55876,-100,4,2,1,70,0,0
57255,-47.6190476190476,4,2,1,70,0,0
57858,-47.6190476190476,4,2,1,5,0,0
57945,-250,4,2,1,70,0,0
58203,-250,4,2,1,5,0,0
58289,-25,4,2,1,70,0,0
58634,-58.8235294117647,4,2,1,70,0,0
59151,-90.9090909090909,4,2,1,70,0,0
59669,-47.6190476190476,4,2,1,70,0,0
60703,-52.6315789473684,4,2,1,70,0,0
61393,-76.9230769230769,4,2,1,70,0,0
61910,-500,4,2,1,70,0,0
62686,-500,4,2,1,5,0,0
62772,-58.8235294117647,4,2,1,70,0,0
62858,-58.8235294117647,4,2,1,5,0,0
62945,-58.8235294117647,4,2,1,70,0,0
63031,-58.8235294117647,4,2,1,5,0,0
63117,-33.3333333333333,4,2,1,70,0,0
63376,-33.3333333333333,4,2,1,5,0,0
63462,-166.666666666667,4,2,1,70,0,0
66220,-500,4,2,1,70,0,0
66824,-500,4,2,1,5,0,0
66910,-71.4285714285714,4,2,1,70,0,0
66996,-71.4285714285714,4,2,1,5,0,0
67082,-62.5,4,2,1,70,0,0
67169,-62.5,4,2,1,5,0,0
67255,-55.5555555555556,4,2,1,70,0,0
67514,-55.5555555555556,4,2,1,5,0,0
67600,-50,4,2,1,70,0,0
67945,-71.4285714285714,4,2,1,70,0,0
68117,-62.5,4,2,1,70,0,0
68634,-50,4,2,1,70,0,0
68893,-50,4,2,1,5,0,0
68979,-62.5,4,2,1,70,0,0
69669,-71.4285714285714,4,2,1,70,0,0
69755,-71.4285714285714,4,2,1,5,0,0
69841,-62.5,4,2,1,70,0,0
69927,-62.5,4,2,1,5,0,0
70014,-55.5555555555556,4,2,1,70,0,0
70272,-55.5555555555556,4,2,1,5,0,0
70358,-47.6190476190476,4,2,1,70,0,0
70789,-47.6190476190476,4,2,1,5,0,0
70876,-33.3333333333333,4,2,1,70,0,0
71048,-83.3333333333333,4,2,1,70,0,0
72686,-83.3333333333333,4,2,1,5,0,0
72772,-83.3333333333333,4,2,1,70,0,0
72858,-83.3333333333333,4,2,1,5,0,0
72945,-58.8235294117647,4,2,1,70,0,0
73720,-58.8235294117647,4,2,1,5,0,0
73807,-66.6666666666667,4,2,1,70,0,0
73893,-66.6666666666667,4,2,1,5,0,0
73979,-50,4,2,1,70,0,0
74496,-166.666666666667,4,2,1,70,0,0
77255,-1000,4,2,1,70,0,0
78807,-333.333333333333,4,2,1,40,0,0
80014,-200,4,2,1,40,0,0
86393,-125,4,2,1,40,0,0
100703,-166.666666666667,4,2,1,40,0,0
101393,-111.111111111111,4,2,1,50,0,0
102082,-66.6666666666666,4,2,1,70,0,0
102600,-76.9230769230769,4,2,1,70,0,0
102686,-76.9230769230769,4,2,1,5,0,0
102772,-76.9230769230769,4,2,1,70,0,0
102945,-66.6666666666667,4,2,1,70,0,0
103031,-66.6666666666667,4,2,1,5,0,0
103117,-66.6666666666667,4,2,1,70,0,0
103203,-66.6666666666667,4,2,1,5,0,0
103289,-66.6666666666667,4,2,1,70,0,0
103376,-66.6666666666667,4,2,1,5,0,0
103462,-66.6666666666667,4,2,1,70,0,0
103720,-66.6666666666667,4,2,1,5,0,0
103807,-66.6666666666667,4,2,1,70,0,0
104755,-66.6666666666667,4,2,1,5,0,0
104841,-66.6666666666667,4,2,1,70,0,0
105100,-66.6666666666667,4,2,1,5,0,0
105186,-66.6666666666667,4,2,1,70,0,0
105272,-66.6666666666667,4,2,1,5,0,0
105358,-66.6666666666667,4,2,1,70,0,0
105789,-66.6666666666667,4,2,1,5,0,0
105876,-66.6666666666667,4,2,1,70,0,0
105962,-66.6666666666667,4,2,1,5,0,0
106048,-66.6666666666667,4,2,1,70,0,0
106134,-66.6666666666667,4,2,1,5,0,0
106220,-58.8235294117647,4,2,1,70,0,0
106479,-58.8235294117647,4,2,1,5,0,0
106565,-66.6666666666667,4,2,1,70,0,0
106651,-66.6666666666667,4,2,1,5,0,0
106738,-66.6666666666667,4,2,1,70,0,0
106996,-66.6666666666667,4,2,1,5,0,0
107082,-66.6666666666667,4,2,1,70,0,0
107600,-58.8235294117647,4,2,1,70,0,0
108117,-76.9230769230769,4,2,1,70,0,0
108203,-76.9230769230769,4,2,1,5,0,0
108289,-76.9230769230769,4,2,1,70,0,0
108462,-66.6666666666667,4,2,1,70,0,0
108548,-66.6666666666667,4,2,1,5,0,0
108634,-66.6666666666667,4,2,1,70,0,0
108720,-66.6666666666667,4,2,1,5,0,0
108807,-66.6666666666667,4,2,1,70,0,0
108893,-66.6666666666667,4,2,1,5,0,0
108979,-66.6666666666667,4,2,1,70,0,0
110617,-66.6666666666667,4,2,1,5,0,0
110703,-66.6666666666667,4,2,1,70,0,0
110789,-66.6666666666667,4,2,1,5,0,0
110876,-66.6666666666667,4,2,1,70,0,0
111307,-66.6666666666667,4,2,1,5,0,0
111393,-66.6666666666667,4,2,1,70,0,0
111479,-66.6666666666667,4,2,1,5,0,0
111565,-66.6666666666667,4,2,1,70,0,0
111651,-66.6666666666667,4,2,1,5,0,0
111738,-58.8235294117647,4,2,1,70,0,0
111996,-58.8235294117647,4,2,1,5,0,0
112082,-66.6666666666667,4,2,1,70,0,0
113376,-66.6666666666667,4,2,1,5,0,0
113462,-66.6666666666667,4,2,1,70,0,0
114065,-66.6666666666667,4,2,1,5,0,0
114151,-66.6666666666667,4,2,1,70,0,0
114238,-66.6666666666667,4,2,1,5,0,0
114324,-66.6666666666667,4,2,1,70,0,0
114410,-66.6666666666667,4,2,1,5,0,0
114496,-66.6666666666667,4,2,1,70,0,0
114927,-66.6666666666667,4,2,1,5,0,0
115014,-66.6666666666667,4,2,1,70,0,0
115445,-66.6666666666667,4,2,1,5,0,0
115531,-66.6666666666667,4,2,1,70,0,0
115876,-58.8235294117647,4,2,1,70,0,0
116134,-58.8235294117647,4,2,1,5,0,0
116220,-66.6666666666667,4,2,1,70,0,0
116824,-66.6666666666667,4,2,1,5,0,0
116910,-66.6666666666667,4,2,1,70,0,0
116996,-66.6666666666667,4,2,1,5,0,0
117082,-66.6666666666667,4,2,1,70,0,0
117169,-66.6666666666667,4,2,1,5,0,0
117255,-66.6666666666667,4,2,1,70,0,0
118634,-52.6315789473684,4,2,1,70,0,0
119496,-66.6666666666667,4,2,1,70,0,0
119582,-66.6666666666667,4,2,1,5,0,0
119669,-66.6666666666667,4,2,1,70,0,0
119755,-66.6666666666667,4,2,1,5,0,0
119841,-66.6666666666667,4,2,1,70,0,0
119927,-66.6666666666667,4,2,1,5,0,0
120014,-58.8235294117647,4,2,1,70,0,0
120358,-55.5555555555556,4,2,1,70,0,0
120617,-55.5555555555556,4,2,1,5,0,0
120703,-66.6666666666667,4,2,1,70,0,0
121393,-50,4,2,1,70,0,0
121651,-50,4,2,1,5,0,0
121738,-66.6666666666667,4,2,1,70,0,0
122341,-66.6666666666667,4,2,1,5,0,0
122427,-66.6666666666667,4,2,1,70,0,0
122514,-66.6666666666667,4,2,1,5,0,0
122600,-66.6666666666667,4,2,1,70,0,0
122686,-66.6666666666667,4,2,1,5,0,0
122772,-47.6190476190476,4,2,1,70,0,0
123031,-47.6190476190476,4,2,1,5,0,0
123117,-66.6666666666667,4,2,1,70,0,0
124841,-83.3333333333333,4,2,1,80,0,0
126910,-66.6666666666667,4,2,1,80,0,0
127600,-58.8235294117647,4,2,1,80,0,0
127945,-71.4285714285714,4,2,1,80,0,0
129669,-125,4,2,1,80,0,0
130358,-71.4285714285714,4,2,1,80,0,0
132427,-62.5,4,2,1,80,0,0
133634,-71.4285714285714,4,2,1,80,0,0
134151,-66.6666666666667,4,2,1,80,0,0
134410,-66.6666666666667,4,2,1,5,0,0
134496,-125,4,2,1,80,0,0
135100,-125,4,2,1,5,0,0
135186,-76.9230769230769,4,2,1,80,0,0
137945,-71.4285714285714,4,2,1,80,0,0
138548,-71.4285714285714,4,2,1,5,0,0
138634,-90.9090909090909,4,2,1,80,0,0
139151,-76.9230769230769,4,2,1,80,0,0
140186,-62.5,4,2,1,80,0,0
140703,-66.6666666666667,4,2,1,80,0,0

[Colours]
Combo1 : 34,173,225
Combo2 : 230,141,248
Combo3 : 33,105,194
Combo4 : 224,180,215

[HitObjects]
0,38,14,5,0,0:0:0:0:
110,66,703,5,0,0:0:0:0:
85,78,876,1,0,0:0:0:0:
180,140,1048,1,0,0:0:0:0:
205,148,1220,1,0,0:0:0:0:
385,193,1393,6,0,P|343:202|271:226,1,80
415,107,1738,2,0,P|395:68|381:100,1,80
477,302,2082,2,0,P|434:288|376:278,1,80
512,191,2427,2,0,P|504:157|484:199,1,80
359,360,2772,6,0,B|321:348|307:297|307:297|261:361|182:322,1,200
168,265,3289,6,0,B|158:231|188:211|188:211|234:273|164:354,1,191.999994140625
64,344,3807,2,0,P|22:329|-5:300,2,80
293,184,4266,5,0,0:0:0:0:
288,196,4324,5,0,0:0:0:0:
328,117,4496,1,0,0:0:0:0:
301,37,4669,1,0,0:0:0:0:
215,61,4841,2,0,P|170:74|135:79,1,80
482,187,5186,2,0,P|416:167|390:156,1,80
151,313,5531,6,0,B|224:365|253:296|308:246|347:297|324:331|324:331|305:287|335:229,1,287.999991210938
491,275,6220,5,0,0:0:0:0:
467,348,6393,1,0,0:0:0:0:
392,367,6565,1,0,0:0:0:0:
325,332,6738,1,0,0:0:0:0:
162,229,6910,5,0,0:0:0:0:
90,258,7082,1,0,0:0:0:0:
209,144,7255,5,0,0:0:0:0:
155,309,7427,1,0,0:0:0:0:
11,52,7600,5,0,0:0:0:0:
74,340,7772,1,0,0:0:0:0:
236,269,7945,5,0,0:0:0:0:
223,349,8117,1,0,0:0:0:0:
460,192,8289,6,0,B|477:269|393:291|406:342|406:342|415:321|431:315,1,191.999994140625
343,109,8807,6,0,P|373:172|369:218,1,103.999995239258
209,72,9151,5,0,0:0:0:0:
435,17,9324,1,0,0:0:0:0:
196,61,9496,1,0,0:0:0:0:
201,202,9669,6,0,B|170:181|159:148|159:148|67:189|67:189|62:147|21:133,1,240
40,26,10358,5,0,0:0:0:0:
46,42,10531,1,0,0:0:0:0:
47,58,10703,1,0,0:0:0:0:
15,327,11048,5,0,0:0:0:0:
0,245,11220,1,0,0:0:0:0:
254,123,11393,1,0,0:0:0:0:
280,39,11565,2,0,P|313:47|363:52,1,80
496,166,11910,5,0,0:0:0:0:
462,241,12082,1,0,0:0:0:0:
284,274,12255,1,0,0:0:0:0:
332,362,12427,2,0,P|352:315|357:271,1,80
425,326,12772,2,0,P|392:280|378:237,1,80
263,262,13117,6,0,P|291:211|297:178,1,80
460,214,13462,2,0,P|424:170|413:133,1,80
118,188,13807,6,0,P|214:115|183:46,1,191.999994140625
512,91,14324,6,0,P|470:81|423:7,1,128
337,118,14841,5,0,0:0:0:0:
304,39,15014,1,0,0:0:0:0:
337,118,15186,1,0,0:0:0:0:
287,245,15358,5,0,0:0:0:0:
470,260,15531,1,0,0:0:0:0:
351,344,15703,1,0,0:0:0:0:
274,360,15876,2,0,B|230:342|230:342|142:347,1,120
82,340,16220,2,0,P|70:297|134:264,1,120
202,252,16565,6,0,P|128:225|124:146,1,143.999995605469
70,100,16910,6,0,P|85:59|99:21,1,80
185,92,17255,1,0,0:0:0:0:
211,19,17427,2,0,P|215:84|218:114,1,80
332,32,17772,1,0,0:0:0:0:
330,118,17945,6,0,P|320:70|307:32,1,80
462,342,18289,6,0,P|478:297|507:245,1,88.000002685547
298,284,18634,5,0,0:0:0:0:
276,212,18807,1,0,0:0:0:0:
443,150,18979,5,0,0:0:0:0:
457,72,19151,1,0,0:0:0:0:
210,362,19324,2,0,P|281:332|401:306,1,176.000005371094
66,264,19841,6,0,P|101:313|154:302,1,88.000002685547
37,160,20186,5,0,0:0:0:0:
30,365,20358,2,0,P|82:340|131:344,1,88.000002685547
249,370,20703,6,0,P|281:314|261:244,1,128
199,199,21220,6,0,P|180:125|209:80,1,128
281,58,22082,6,0,L|189:78,1,60.0000022888184
451,178,22255,1,0,0:0:0:0:
404,78,22427,2,0,P|430:73|465:68,1,60.0000022888184
357,158,22600,6,0,B|368:237|368:237|379:252|379:252|393:346,1,180.000006866455
457,276,22945,2,0,P|484:289|515:299,1,60.0000022888184
378,318,23117,6,0,B|302:333|302:333|293:343|293:343|208:365,1,155.999992858887
150,325,23462,2,0,P|118:336|94:342,1,51.999997619629
243,360,23634,6,0,B|252:296|252:296|264:279|264:279|271:223,1,132.00000402832
321,126,23979,2,0,P|326:147|338:174,1,44.0000013427735
259,215,24151,6,0,B|197:223|197:223|176:214|176:214|103:222,1,132.00000402832
60,251,24496,2,0,P|29:215|24:170,1,71.9999978027344
90,59,24841,6,0,L|16:43,1,60.0000022888184
239,90,25014,2,0,L|227:144,1,51.999997619629
146,129,25186,1,0,0:0:0:0:
379,192,25358,6,0,L|434:186,1,44.0000013427735
237,271,25531,2,0,L|227:349,1,44.0000013427735
317,298,25703,1,0,0:0:0:0:
414,99,25876,6,0,L|419:34,1,44.0000013427735
434,269,26048,2,0,L|498:284,1,44.0000013427735
509,210,26220,1,0,0:0:0:0:
150,311,26393,6,0,L|156:365,1,44.0000013427735
58,167,26565,2,0,L|1:158,1,44.0000013427735
10,241,26738,1,0,0:0:0:0:
245,216,26910,6,0,P|309:172|363:169,1,120
419,187,27255,2,0,P|370:168|334:132,1,71.9999978027344
173,95,27600,6,0,L|186:20,1,60.0000022888184
150,185,27772,2,0,L|160:242,1,47.9999985351563
313,88,27945,5,0,0:0:0:0:
355,249,28117,2,0,L|366:296,2,40
401,82,28462,5,0,0:0:0:0:
284,310,28634,2,0,L|265:356,2,40
246,137,28979,5,0,0:0:0:0:
428,339,29151,2,0,L|457:373,2,40
463,141,29496,5,0,0:0:0:0:
165,349,29669,2,0,L|111:339,3,40
51,362,30014,2,0,P|36:295|24:255,1,80
133,74,30358,6,0,L|118:143,1,60.0000022888184
195,275,30531,2,0,L|265:302,1,47.9999985351563
392,251,30703,5,0,0:0:0:0:
325,379,30876,1,0,0:0:0:0:
321,358,30962,1,0,0:0:0:0:
317,334,31048,1,0,0:0:0:0:
338,191,31220,5,0,0:0:0:0:
480,327,31393,1,0,0:0:0:0:
486,302,31479,1,0,0:0:0:0:
493,276,31565,1,0,0:0:0:0:
424,136,31738,5,0,0:0:0:0:
239,292,31910,1,0,0:0:0:0:
226,252,31996,1,0,0:0:0:0:
213,206,32082,1,0,0:0:0:0:
254,63,32255,5,0,0:0:0:0:
412,384,32427,6,0,L|401:328,2,47.9999985351563
329,337,32772,2,0,L|340:391,2,47.9999985351563
450,204,33117,6,0,L|472:122,1,60.0000022888184
264,109,33289,2,0,L|248:40,1,47.9999985351563
380,265,33462,2,0,P|367:234|360:205,1,47.9999985351563
181,139,33634,2,0,P|127:155|51:175,1,95.9999970703126
74,174,33979,6,0,L|89:100,1,47.9999985351563
253,62,34151,1,0,0:0:0:0:
297,84,34238,1,0,0:0:0:0:
344,72,34324,1,0,0:0:0:0:
249,297,34496,2,0,P|259:267|266:233,1,47.9999985351563
388,144,34669,2,0,L|489:171,1,95.9999970703126
502,165,35014,6,0,L|490:230,1,47.9999985351563
346,298,35186,1,0,0:0:0:0:
352,260,35272,1,0,0:0:0:0:
349,226,35358,1,0,0:0:0:0:
323,194,35445,1,0,0:0:0:0:
296,167,35531,6,0,P|285:119|290:47,1,95.9999970703126
43,80,35876,6,0,L|112:63,1,60.0000022888184
217,187,36048,2,0,L|170:179,1,47.9999985351563
137,323,36220,1,0,0:0:0:0:
142,305,36307,1,0,0:0:0:0:
216,281,36393,2,0,L|274:270,2,47.9999985351563
338,182,36738,1,0,0:0:0:0:
346,201,36824,1,0,0:0:0:0:
403,256,36910,2,0,L|460:270,2,47.9999985351563
500,57,37255,5,0,0:0:0:0:
492,82,37341,1,0,0:0:0:0:
432,136,37427,2,0,L|447:192,2,47.9999985351563
236,147,37772,1,0,0:0:0:0:
264,145,37858,1,0,0:0:0:0:
338,182,37945,2,0,L|356:131,2,47.9999985351563
183,37,38289,2,0,L|249:45,2,47.9999985351563
59,174,38634,6,0,L|38:104,1,60.0000022888184
219,291,38807,5,0,0:0:0:0:
192,281,38893,1,0,0:0:0:0:
164,272,38979,1,0,0:0:0:0:
137,281,39065,1,0,0:0:0:0:
110,293,39151,1,0,0:0:0:0:
219,291,39324,5,0,0:0:0:0:
189,256,39410,1,0,0:0:0:0:
159,226,39496,1,0,0:0:0:0:
134,256,39582,1,0,0:0:0:0:
110,293,39668,1,0,0:0:0:0:
219,295,39841,5,0,0:0:0:0:
192,305,39927,1,0,0:0:0:0:
164,314,40013,1,0,0:0:0:0:
110,293,40186,5,0,0:0:0:0:
219,295,40358,5,0,0:0:0:0:
189,330,40444,1,0,0:0:0:0:
159,360,40530,1,0,0:0:0:0:
110,293,40702,5,0,0:0:0:0:
111,213,40876,1,0,0:0:0:0:
347,347,41048,5,0,0:0:0:0:
336,271,41220,1,0,0:0:0:0:
459,130,41393,6,0,L|442:198,1,60.0000022888184
338,39,41565,5,0,0:0:0:0:
346,76,41651,1,0,0:0:0:0:
356,113,41738,1,0,0:0:0:0:
364,150,41824,1,0,0:0:0:0:
321,130,41910,5,0,0:0:0:0:
294,117,41996,1,0,0:0:0:0:
264,116,42082,1,0,0:0:0:0:
228,134,42169,1,0,0:0:0:0:
192,150,42255,1,0,0:0:0:0:
149,143,42341,1,0,0:0:0:0:
100,150,42427,5,0,0:0:0:0:
128,175,42514,1,0,0:0:0:0:
125,213,42600,1,0,0:0:0:0:
98,238,42686,1,0,0:0:0:0:
59,239,42772,1,0,0:0:0:0:
37,206,42858,1,0,0:0:0:0:
82,291,42945,5,0,0:0:0:0:
125,269,43031,1,0,0:0:0:0:
178,283,43117,1,0,0:0:0:0:
224,315,43203,1,0,0:0:0:0:
273,326,43289,1,0,0:0:0:0:
326,308,43376,1,0,0:0:0:0:
372,276,43462,5,0,0:0:0:0:
374,294,43548,1,0,0:0:0:0:
376,313,43634,1,0,0:0:0:0:
378,332,43720,1,0,0:0:0:0:
405,200,43807,5,0,0:0:0:0:
408,180,43893,1,0,0:0:0:0:
412,160,43979,1,0,0:0:0:0:
415,140,44065,1,0,0:0:0:0:
319,171,44151,5,0,0:0:0:0:
325,182,44324,5,0,0:0:0:0:
408,124,44496,5,0,0:0:0:0:
404,137,44669,5,0,0:0:0:0:
209,172,45186,5,0,0:0:0:0:
211,271,45531,2,0,P|224:231|229:188,1,80
168,141,46048,2,0,P|157:107|152:57,1,80
85,23,46565,2,0,P|54:34|36:43,1,40
10,116,46910,6,0,P|50:118|74:165,1,80
121,211,47427,2,0,P|110:237|94:295,1,80
146,351,47945,2,0,L|162:373,3,20
239,369,48289,6,0,L|258:350,3,20
327,323,48634,2,0,L|358:331,3,20
414,283,48979,2,0,L|433:277,3,20
496,324,49324,2,0,L|494:347,3,20
464,159,49669,5,0,0:0:0:0:
468,178,49841,1,0,0:0:0:0:
358,43,50014,1,0,0:0:0:0:
379,121,50186,2,0,L|371:152,4,20
329,216,50703,2,0,L|295:207,3,20
287,197,51048,6,0,P|230:198|176:247,1,111.999996582031
114,284,51565,2,0,L|128:320,4,27.9999991455078
44,209,52082,2,0,L|24:235,2,27.9999991455078
110,98,52427,5,0,0:0:0:0:
93,96,52600,1,0,0:0:0:0:
372,56,52772,1,0,0:0:0:0:
297,91,52945,1,0,0:0:0:0:
402,193,53117,5,0,0:0:0:0:
382,188,53203,1,0,0:0:0:0:
304,173,53289,1,0,0:0:0:0:
272,187,53376,1,0,0:0:0:0:
321,247,53462,5,0,0:0:0:0:
345,282,53519,1,0,0:0:0:0:
349,262,53577,1,0,0:0:0:0:
362,308,53634,5,0,0:0:0:0:
352,349,53691,1,0,0:0:0:0:
369,338,53749,1,0,0:0:0:0:
391,371,53807,6,0,B|292:312|193:258|147:284|122:337,1,300
118,347,55186,6,0,B|136:223|136:223|74:199|74:199|83:250|218:201|259:152|259:152|253:108|253:108|231:152|246:209|285:246,1,560
328,249,55876,5,0,0:0:0:0:
343,243,55962,1,0,0:0:0:0:
356,234,56048,1,0,0:0:0:0:
365,220,56134,1,0,0:0:0:0:
381,241,56220,5,0,0:0:0:0:
384,228,56306,1,0,0:0:0:0:
384,214,56392,1,0,0:0:0:0:
379,202,56478,1,0,0:0:0:0:
410,212,56565,5,0,0:0:0:0:
409,202,56651,1,0,0:0:0:0:
406,193,56737,1,0,0:0:0:0:
400,186,56823,1,0,0:0:0:0:
422,178,56910,5,0,0:0:0:0:
418,172,56996,1,0,0:0:0:0:
413,169,57082,1,0,0:0:0:0:
408,167,57168,1,0,0:0:0:0:
401,246,57255,6,0,B|322:91|322:91|293:118|293:118|296:152|296:152|277:184|277:184|235:194|235:194|207:218|207:218|162:258|162:258|234:118|124:74,1,587.999982055665
174,32,57945,6,0,L|229:23,1,48
151,111,58289,6,0,B|65:113|33:73|41:24|76:3,1,160
466,271,58634,6,0,B|415:227|393:218|342:245|320:289|260:272|304:201|218:154|150:208,1,340.000006484985
116,265,59151,5,0,0:0:0:0:
215,358,59324,2,0,B|194:308|194:308|203:256,1,88.000002685547
250,205,59582,5,0,0:0:0:0:
320,144,59669,2,0,B|344:106|344:106|322:73|322:73|287:95|287:95|292:149,1,167.999994873047
318,252,59927,5,0,0:0:0:0:
362,323,60014,5,0,0:0:0:0:
512,260,60186,1,0,0:0:0:0:
433,377,60358,1,0,0:0:0:0:
512,343,60531,1,0,0:0:0:0:
392,252,60703,6,0,B|419:253|438:288|438:288|482:196|376:156|308:85|283:4|459:0|559:74|532:171|356:155|360:188|306:173|301:160,1,531.999985794068
273,128,61393,6,0,B|223:142|223:142|201:182|201:182|162:198|162:198|119:175|119:175|41:199,1,259.999988098145
1,136,61910,6,0,L|13:63,1,72
17,52,62772,6,0,P|49:60|87:89,1,68.0000012969971
273,128,62945,2,0,P|240:137|203:160,1,68.0000012969971
87,327,63117,6,0,P|102:198|214:323,1,360.000013732911
33,377,63462,6,0,L|39:324,1,47.9999985351563
287,355,63807,1,0,0:0:0:0:
190,368,63979,1,0,0:0:0:0:
498,225,64151,1,0,0:0:0:0:
287,156,64324,2,0,L|279:97,1,47.9999985351563
453,54,64669,6,0,L|442:104,1,47.9999985351563
181,67,65014,1,0,0:0:0:0:
354,38,65186,1,0,0:0:0:0:
3,103,65358,2,0,L|11:49,1,47.9999985351563
126,161,65703,5,0,0:0:0:0:
357,248,65876,1,0,0:0:0:0:
6,244,66048,1,0,0:0:0:0:
427,160,66220,6,0,L|483:168,1,56
491,160,66910,6,0,P|499:193|503:226,1,55.9999982910157
297,384,67082,2,0,P|312:352|319:316,1,64
164,109,67255,2,0,B|245:85|279:51|279:51|256:109|294:134,1,215.999993408203
363,105,67600,6,0,B|279:128|257:207|258:245|293:285|355:254|374:208,1,240
414,234,67945,6,0,P|377:238|339:245,1,55.9999982910157
144,342,68117,2,0,P|82:318|65:297,1,64
39,113,68289,1,0,0:0:0:0:
159,240,68462,5,0,0:0:0:0:
206,174,68548,1,0,0:0:0:0:
212,94,68634,2,0,B|193:27|193:27|178:83|266:103|365:50,1,240
409,43,68979,6,0,B|334:52|251:203|419:359|610:113|349:-40|275:178|312:271,1,448
317,296,69669,6,0,P|309:265|305:228,1,55.9999982910157
122,174,69841,2,0,P|132:140|151:104,1,64
3,367,70014,2,0,B|51:318|52:271|52:271|82:324|145:316,1,215.999993408203
210,285,70358,6,0,P|204:187|77:204,1,251.999992309571
242,374,70703,2,0,P|222:332|232:286,1,83.9999974365235
306,241,70876,6,0,P|333:191|290:106,1,120.000004577637
237,22,71048,5,0,0:0:0:0:
247,99,71220,5,0,0:0:0:0:
504,102,71393,5,0,0:0:0:0:
509,17,71565,5,0,0:0:0:0:
381,77,71738,5,0,0:0:0:0:
387,89,71824,1,0,0:0:0:0:
389,199,71996,1,0,0:0:0:0:
394,208,72082,1,0,0:0:0:0:
478,279,72255,1,0,0:0:0:0:
279,337,72427,5,0,0:0:0:0:
379,363,72600,2,0,L|383:306,1,47.9999985351563
182,311,72772,2,0,L|194:378,1,47.9999985351563
224,207,72945,6,0,B|121:161|39:336|39:336|118:264|89:172|3:120|3:120|20:172|96:122,1,612.000011672974
115,55,73807,6,0,P|137:29|146:4,1,60.0000022888184
174,109,73979,6,0,B|231:107|231:107|217:100|217:100|263:102|263:102|248:94|248:94|292:97|292:97|280:91|280:91|317:80|317:80|364:128|364:128|406:91|406:91|471:95,1,400
494,199,74496,6,0,L|504:131,1,47.9999985351563
315,225,74841,1,0,0:0:0:0:
343,308,75014,1,0,0:0:0:0:
371,24,75186,1,0,0:0:0:0:
212,166,75358,2,0,L|161:161,1,47.9999985351563
45,94,75703,6,0,L|97:86,1,47.9999985351563
315,225,76048,1,0,0:0:0:0:
130,240,76220,1,0,0:0:0:0:
501,210,76393,2,0,L|513:158,1,47.9999985351563
225,273,76738,5,0,0:0:0:0:
443,319,76910,1,0,0:0:0:0:
13,301,77082,1,0,0:0:0:0:
424,102,77255,6,0,L|440:40,1,64
446,29,78807,6,0,L|463:83,1,47.9999985351563
62,134,80014,5,0,0:0:0:0:
66,135,80703,2,0,P|46:211|29:308,1,160
254,119,81738,5,0,0:0:0:0:
320,162,82082,1,0,0:0:0:0:
399,155,82427,1,0,0:0:0:0:
462,105,82772,2,0,P|465:67|474:20,1,80
187,77,83462,5,0,0:0:0:0:
117,116,83807,1,0,0:0:0:0:
39,98,84151,2,0,P|34:55|28:10,1,80
11,274,84841,5,0,0:0:0:0:
78,230,85186,1,0,0:0:0:0:
152,260,85531,2,0,P|194:271|243:279,1,80
490,232,86393,5,0,0:0:0:0:
489,256,86565,1,0,0:0:0:0:
408,262,86738,1,0,0:0:0:0:
402,340,86910,6,0,P|388:286|371:261,1,64
414,207,87255,2,0,P|429:173|452:146,1,64
290,221,87600,6,0,P|266:172|244:143,1,64
250,80,87945,2,0,P|209:58|172:47,1,64
381,27,88289,5,0,0:0:0:0:
347,133,88634,5,0,0:0:0:0:
354,124,88807,1,0,0:0:0:0:
491,286,89151,5,0,0:0:0:0:
427,237,89324,1,0,0:0:0:0:
373,300,89496,1,0,0:0:0:0:
297,273,89669,2,0,P|233:249|169:235,1,128
81,35,90358,5,0,0:0:0:0:
52,107,90531,1,0,0:0:0:0:
66,25,90703,1,0,0:0:0:0:
11,187,91048,6,0,P|18:227|22:263,1,64
106,291,91393,2,0,P|83:327|64:364,1,64
81,116,91738,6,0,P|97:153|108:191,1,64
272,274,92082,2,0,P|241:298|205:340,1,64
218,83,92427,6,0,B|237:115|232:144|232:144|256:123|292:120,1,128
470,46,93117,5,0,0:0:0:0:
454,128,93289,1,0,0:0:0:0:
441,26,93462,5,0,0:0:0:0:
472,140,93634,1,0,0:0:0:0:
415,246,93807,6,0,P|426:276|443:317,1,64
296,337,94151,2,0,P|281:374|265:400,1,64
325,134,94496,6,0,P|322:167|322:205,1,64
132,301,94841,2,0,P|96:329|59:334,1,64
67,134,95186,5,0,0:0:0:0:
99,63,95531,1,0,0:0:0:0:
176,72,95876,1,0,0:0:0:0:
191,149,96220,1,0,0:0:0:0:
124,186,96565,6,0,B|137:159|134:131|134:131|165:193|165:193|182:252|182:252|224:312,1,256
300,341,97427,5,0,0:0:0:0:
435,277,97600,1,0,0:0:0:0:
431,294,97772,1,0,0:0:0:0:
325,203,97945,6,0,P|287:209|260:222,1,64
41,249,98289,2,0,P|78:254|112:265,1,64
288,292,98634,2,0,P|326:289|353:268,1,64
89,338,98979,2,0,P|44:332|21:320,1,64
191,336,99324,5,0,0:0:0:0:
189,259,99496,1,0,0:0:0:0:
52,175,99669,5,0,0:0:0:0:
91,104,99841,1,0,0:0:0:0:
336,119,100014,5,0,0:0:0:0:
283,57,100186,1,0,0:0:0:0:
192,159,100358,5,0,0:0:0:0:
193,133,100531,1,0,0:0:0:0:
305,361,100703,6,0,B|286:308|286:308|293:260|293:260|273:178,1,167.999994873047
276,178,101393,5,0,0:0:0:0:
256,216,101479,1,0,0:0:0:0:
222,242,101565,1,0,0:0:0:0:
179,247,101651,1,0,0:0:0:0:
150,212,101738,5,0,0:0:0:0:
223,221,101824,1,0,0:0:0:0:
286,271,101910,1,0,0:0:0:0:
351,319,101996,1,0,0:0:0:0:
429,329,102082,6,0,B|476:334|499:317|523:282|523:282|505:239|480:218|396:223,1,240.000009155274
352,171,102600,6,0,P|351:140|346:104,1,51.999997619629
425,210,102772,1,0,0:0:0:0:
267,124,102945,6,0,P|256:98|236:66,1,60.0000022888184
478,74,103117,2,0,P|443:72|390:119,1,60.0000022888184
267,215,103289,2,0,P|270:246|292:276,1,60.0000022888184
159,16,103462,6,0,B|85:15|43:68|43:68|66:78|88:138,1,180.000006866455
4,134,103807,1,0,0:0:0:0:
4,134,103979,1,0,0:0:0:0:
151,338,104151,2,0,B|140:272|140:272|166:246|169:213,1,120.000004577637
29,269,104496,6,0,P|67:216|205:237,1,180.000006866455
254,253,104841,2,0,B|286:226|286:226|293:135|293:135|249:80,1,180.000006866455
176,67,105186,6,0,L|191:135,1,60.0000022888184
240,268,105358,1,0,0:0:0:0:
240,268,105531,1,0,0:0:0:0:
430,175,105703,6,0,P|393:183|343:199,1,60.0000022888184
312,352,105876,2,0,P|343:363|382:374,1,60.0000022888184
143,192,106048,2,0,P|106:196|65:207,1,60.0000022888184
97,373,106220,6,0,B|153:274|7:235|87:126,1,204.000003890991
51,97,106565,6,0,P|84:107|117:113,1,60.0000022888184
194,31,106738,1,0,0:0:0:0:
282,157,106910,2,0,P|249:167|222:181,1,60.0000022888184
203,52,107082,1,0,0:0:0:0:
240,268,107255,1,0,0:0:0:0:
216,261,107341,1,0,0:0:0:0:
196,256,107427,1,0,0:0:0:0:
413,117,107600,6,0,B|430:87|472:86|472:86|411:46|316:103|385:233,1,272.000005187988
436,243,108117,6,0,L|489:253,1,51.999997619629
478,166,108289,1,0,0:0:0:0:
331,333,108462,6,0,P|341:305|350:277,1,60.0000022888184
217,132,108634,2,0,P|211:100|199:67,1,60.0000022888184
73,342,108807,2,0,P|98:327|128:302,1,60.0000022888184
315,205,108979,6,0,P|335:134|330:84,1,120.000004577637
387,351,109324,2,0,P|379:277|345:277,1,120.000004577637
134,218,109669,2,0,P|206:250|276:233,1,120.000004577637
389,204,110014,2,0,P|342:166|321:225,1,120.000004577637
41,361,110358,6,0,B|91:347|119:317|119:317|165:344|226:347,1,180.000006866455
278,354,110703,2,0,P|298:320|300:290,1,60.0000022888184
239,164,110876,1,0,0:0:0:0:
239,164,111048,1,0,0:0:0:0:
446,187,111220,6,0,P|412:195|383:205,1,60.0000022888184
236,59,111393,2,0,P|266:72|313:93,1,60.0000022888184
416,340,111565,2,0,P|435:315|455:285,1,60.0000022888184
488,53,111738,6,0,B|398:33|367:150|277:89,1,204.000003890991
204,73,112082,6,0,L|215:8,1,60.0000022888184
313,190,112255,1,0,0:0:0:0:
123,143,112427,2,0,L|106:73,1,60.0000022888184
220,288,112600,1,0,0:0:0:0:
159,240,112686,1,0,0:0:0:0:
88,234,112772,2,0,P|151:215|227:198,1,120.000004577637
394,238,113117,6,0,B|445:212|445:212|459:114|375:103,1,180.000006866455
310,77,113462,2,0,P|339:11|407:107,1,240.000009155274
512,320,113979,6,0,P|471:310|433:305,1,60.0000022888184
306,213,114151,2,0,P|296:181|289:143,1,60.0000022888184
145,365,114324,2,0,P|174:353|207:338,1,60.0000022888184
325,250,114496,6,0,P|318:173|313:107,1,120.000004577637
233,23,114841,2,0,P|229:58|219:93,1,60.0000022888184
105,291,115014,2,0,P|42:288|-4:222,1,120.000004577637
5,160,115358,2,0,P|11:125|17:97,1,60.0000022888184
251,21,115531,2,0,P|311:37|393:53,1,120.000004577637
496,150,115876,6,0,B|478:247|381:194|358:302,1,204.000003890991
284,302,116220,6,0,P|288:332|299:366,1,60.0000022888184
452,313,116393,1,0,0:0:0:0:
452,313,116565,1,0,0:0:0:0:
227,182,116738,6,0,P|224:213|213:259,1,60.0000022888184
116,299,116910,2,0,P|124:327|135:355,1,60.0000022888184
259,82,117082,2,0,P|280:108|307:128,1,60.0000022888184
108,160,117255,2,0,P|60:195|5:220,1,120.000004577637
52,84,117600,5,0,0:0:0:0:
49,90,117772,1,0,0:0:0:0:
380,127,117945,5,0,0:0:0:0:
152,304,118117,1,0,0:0:0:0:
496,341,118289,5,0,0:0:0:0:
420,318,118376,1,0,0:0:0:0:
346,293,118462,1,0,0:0:0:0:
273,265,118548,1,0,0:0:0:0:
197,234,118634,6,0,B|102:115|178:32|245:55|323:136|106:200|106:200|105:235|105:235|79:284|25:316|-1:247|34:233|56:240|92:266,1,607.999983764649
198,370,119496,6,0,P|228:354|272:344,1,60.0000022888184
414,227,119669,2,0,P|445:239|479:251,1,60.0000022888184
233,99,119841,2,0,P|195:107|134:115,1,60.0000022888184
502,62,120014,6,0,B|438:84|380:31|380:31|377:69|351:95,1,204.000003890991
321,233,120358,6,0,P|392:195|316:103,1,215.999993408203
283,26,120703,5,0,0:0:0:0:
283,26,120876,1,0,0:0:0:0:
242,280,121048,2,0,B|222:246|169:239|169:239|150:176|71:168,1,180.000006866455
106,95,121393,6,0,B|87:170|87:170|99:207|99:207|87:237|87:237|67:249|67:249|5:365,1,240
174,324,121738,5,0,0:0:0:0:
242,362,121910,2,0,B|290:358|314:337|314:337|341:355|381:357,1,120.000004577637
469,124,122255,2,0,P|479:158|493:192,1,60.0000022888184
369,279,122427,2,0,P|379:247|386:214,1,60.0000022888184
441,15,122600,2,0,P|424:44|401:73,1,60.0000022888184
64,106,122772,6,0,B|100:103|130:84|130:84|185:108|233:112|233:112|259:83|311:78,1,251.999992309571
382,137,123117,5,0,0:0:0:0:
236,288,123289,5,0,0:0:0:0:
297,240,123376,1,0,0:0:0:0:
300,164,123462,1,0,0:0:0:0:
377,326,123634,5,0,0:0:0:0:
300,348,123807,1,0,0:0:0:0:
223,366,123979,1,0,0:0:0:0:
28,212,124151,5,0,0:0:0:0:
125,246,124324,1,0,0:0:0:0:
127,261,124410,1,0,0:0:0:0:
128,274,124496,1,0,0:0:0:0:
99,366,124669,1,0,0:0:0:0:
63,355,124755,1,0,0:0:0:0:
28,344,124841,6,0,L|17:288,1,47.9999985351563
137,192,125014,2,0,L|147:250,1,47.9999985351563
78,251,125186,6,0,L|88:299,1,47.9999985351563
205,194,125359,2,0,L|197:147,1,47.9999985351563
146,238,125531,6,0,L|137:192,1,47.9999985351563
256,88,125704,2,0,L|264:135,1,47.9999985351563
195,146,125876,6,0,L|205:194,1,47.9999985351563
323,91,126049,2,0,L|315:44,1,47.9999985351563
180,69,126220,6,0,L|111:64,1,47.9999985351563
335,171,126393,2,0,L|401:164,1,47.9999985351563
67,138,126565,2,0,L|12:123,1,47.9999985351563
406,251,126738,2,0,L|477:239,1,47.9999985351563
3,337,126910,6,0,B|128:297|136:199|136:199|94:219|84:245|83:286|148:330|239:292,1,420.000016021729
285,357,127600,2,0,B|378:371|365:248|448:254,1,204.000003890991
480,328,127945,6,0,L|475:390,1,55.9999982910157
468,328,128117,2,0,L|463:390,1,55.9999982910157
450,34,128289,5,0,0:0:0:0:
467,108,128634,1,0,0:0:0:0:
450,34,128979,5,0,0:0:0:0:
467,108,129151,1,0,0:0:0:0:
253,141,129324,1,0,0:0:0:0:
261,21,129496,1,0,0:0:0:0:
426,217,129669,6,0,P|378:205|351:202,1,64
289,235,130014,1,0,0:0:0:0:
289,235,130186,1,0,0:0:0:0:
150,121,130358,6,0,L|164:188,1,55.9999982910157
171,291,130531,2,0,L|96:305,1,55.9999982910157
21,369,130703,2,0,L|7:302,1,55.9999982910157
0,199,130876,2,0,L|75:185,1,55.9999982910157
171,291,131048,6,0,L|96:305,1,55.9999982910157
9,314,131220,2,0,L|21:369,1,55.9999982910157
55,188,131393,2,0,L|0:199,1,55.9999982910157
161,175,131565,2,0,L|150:121,1,55.9999982910157
263,324,131738,6,0,L|331:311,1,55.9999982910157
509,318,131910,2,0,L|488:254,1,55.9999982910157
500,83,132082,2,0,L|432:96,1,55.9999982910157
254,89,132254,2,0,L|275:153,1,55.9999982910157
388,212,132427,6,0,B|341:184|341:184|267:323|267:323|246:314|246:314|210:187|210:187|182:183|182:183|124:239,1,448
77,175,133117,1,0,0:0:0:0:
79,292,133289,1,0,0:0:0:0:
96,296,133376,1,0,0:0:0:0:
115,300,133462,1,0,0:0:0:0:
62,192,133634,6,0,B|81:130|53:34|53:34|111:109|184:85,1,279.999991455078
250,130,134151,2,0,P|246:55|169:95,1,180.000006866455
237,151,134496,6,0,B|415:166|395:39|340:27,1,224
331,38,135186,5,0,0:0:0:0:
473,143,135358,1,0,0:0:0:0:
464,188,135445,1,0,0:0:0:0:
454,235,135531,1,0,0:0:0:0:
490,346,135703,1,0,0:0:0:0:
367,260,135876,6,0,L|305:267,1,51.999997619629
177,352,136048,2,0,L|246:362,1,51.999997619629
367,260,136220,6,0,L|305:267,1,51.999997619629
26,286,136393,2,0,L|97:277,1,51.999997619629
228,359,136565,6,0,L|177:352,1,51.999997619629
77,279,136738,2,0,L|26:286,1,51.999997619629
367,260,136910,6,0,L|305:267,1,51.999997619629
77,279,137082,2,0,L|26:286,1,51.999997619629
502,198,137255,6,0,L|443:186,1,51.999997619629
144,179,137427,2,0,L|85:163,1,51.999997619629
407,69,137600,6,0,L|337:95,1,51.999997619629
226,333,137772,2,0,L|170:359,1,51.999997619629
0,57,137945,6,0,B|50:1|50:1|123:48|123:48|145:97|145:97|242:138|242:138|282:75,1,391.99998803711
345,116,138634,6,0,B|309:63|309:63|429:42|429:42|437:109,1,220.000006713867
448,150,139151,5,0,0:0:0:0:
439,165,139238,1,0,0:0:0:0:
479,224,139324,5,0,0:0:0:0:
464,214,139410,1,0,0:0:0:0:
505,272,139496,5,0,0:0:0:0:
510,253,139582,1,0,0:0:0:0:
498,330,139669,5,0,0:0:0:0:
512,319,139755,1,0,0:0:0:0:
447,355,139841,5,0,0:0:0:0:
471,370,139927,1,0,0:0:0:0:
373,328,140014,6,0,L|433:308,1,51.999997619629
320,268,140186,6,0,B|287:265|287:265|246:297,1,64
176,336,140358,5,0,0:0:0:0:
186,313,140445,1,0,0:0:0:0:
168,239,140531,5,0,0:0:0:0:
156,225,140617,1,0,0:0:0:0:
183,155,140703,6,0,P|128:214|65:212,1,120.000004577637
71,46,141048,1,0,0:0:0:0:
92,45,141134,1,0,0:0:0:0:
121,66,141220,1,0,0:0:0:0:
143,62,141307,1,0,0:0:0:0:
161,46,141393,6,0,L|225:62,1,60.0000022888184
287,127,141565,2,0,L|350:117,1,60.0000022888184
483,185,141738,2,0,L|421:175,1,60.0000022888184
346,117,141910,2,0,L|287:127,1,60.0000022888184
92,218,142082,6,0,L|150:236,1,60.0000022888184
255,277,142255,2,0,L|322:267,1,60.0000022888184
486,310,142427,2,0,L|419:297,1,60.0000022888184
314,268,142600,2,0,L|255:277,1,60.0000022888184
86,327,142772,6,0,L|30:307,1,60.0000022888184
430,331,142945,2,0,L|486:310,1,60.0000022888184
115,256,143117,6,0,L|58:235,1,60.0000022888184
458,239,143289,2,0,L|403:261,1,60.0000022888184
254,35,143462,5,0,0:0:0:0:
