osu file format v14

[General]
AudioFilename: audio.mp3
AudioLeadIn: 0
PreviewTime: 45028
Countdown: 0
SampleSet: None
StackLeniency: 0.7
Mode: 1
LetterboxInBreaks: 0
WidescreenStoryboard: 1

[Editor]
DistanceSpacing: 1
BeatDivisor: 1
GridSize: 32
TimelineZoom: 2.800004

[Metadata]
Title:Ultima Weapon
TitleUnicode:Ultima Weapon
Artist:Laur
ArtistUnicode:Laur
Creator:yea
Version:Vulkin's Kantan
Source:
Tags:speedcore hardcore
BeatmapID:1309544
BeatmapSetID:604073

[Difficulty]
HPDrainRate:7
CircleSize:5
OverallDifficulty:2
ApproachRate:9
SliderMultiplier:1.4
SliderTickRate:1

[Events]
//Background and Video events
0,0,"background.jpg",0,0
//Break Periods
2,23346,26781
2,68522,73369
2,91110,93134
2,93934,95252
2,96757,100193
2,130640,135487
//Storyboard Layer 0 (Background)
//Storyboard Layer 1 (Fail)
//Storyboard Layer 2 (Pass)
//Storyboard Layer 3 (Foreground)
//Storyboard Sound Samples

[TimingPoints]
558,176.470588235294,4,1,0,95,1,0
34440,-100,4,1,0,95,0,1
45028,-100,4,1,0,95,0,0
45734,-100,4,1,0,95,0,1
57028,-117.647058823529,4,1,0,95,0,0
102205,-100,4,1,0,95,0,1
106440,-100,4,1,0,95,0,0
107852,-100,4,1,0,95,0,1
119146,-100,4,1,0,95,0,0
124793,-100,4,1,0,95,0,1
130440,-100,4,1,0,95,0,0
141734,-100,4,1,0,95,0,1
147381,-100,4,1,0,95,0,0
155852,-100,4,1,0,95,0,1
157263,-100,4,1,0,95,0,0

[HitObjects]
256,192,558,5,0,0:0:0:0:
256,192,1969,1,0,0:0:0:0:
256,192,2675,1,8,0:0:0:0:
256,192,3028,1,8,0:0:0:0:
256,192,3381,1,0,0:0:0:0:
256,192,4793,1,0,0:0:0:0:
256,192,5499,1,8,0:0:0:0:
256,192,5852,1,8,0:0:0:0:
256,192,6205,1,0,0:0:0:0:
256,192,7616,1,0,0:0:0:0:
256,192,8322,1,8,0:0:0:0:
256,192,8675,1,8,0:0:0:0:
256,192,9028,1,0,0:0:0:0:
256,192,9734,1,8,0:0:0:0:
256,192,10087,1,8,0:0:0:0:
256,192,10440,8,0,11499,0:0:0:0:
256,192,11852,5,12,0:0:0:0:
256,192,13263,1,0,0:0:0:0:
256,192,14675,1,8,0:0:0:0:
256,192,16087,1,8,0:0:0:0:
256,192,16793,1,8,0:0:0:0:
256,192,17499,1,8,0:0:0:0:
256,192,18910,1,0,0:0:0:0:
256,192,20322,1,8,0:0:0:0:
256,192,21028,1,8,0:0:0:0:
256,192,21734,1,0,0:0:0:0:
256,192,22087,1,0,0:0:0:0:
256,192,22440,1,8,0:0:0:0:
256,192,22793,1,0,0:0:0:0:
256,192,23146,1,12,0:0:0:0:
256,192,27381,5,0,0:0:0:0:
256,192,27910,1,0,0:0:0:0:
256,192,28440,1,8,0:0:0:0:
256,192,28793,1,4,0:0:0:0:
256,192,29852,1,8,0:0:0:0:
256,192,30205,1,4,0:0:0:0:
256,192,31263,1,8,0:0:0:0:
256,192,31616,1,0,0:0:0:0:
256,192,31969,1,0,0:0:0:0:
256,192,32322,1,0,0:0:0:0:
256,192,32675,1,0,0:0:0:0:
256,192,32852,1,0,0:0:0:0:
256,192,33028,1,0,0:0:0:0:
256,192,34087,1,8,0:0:0:0:
256,192,34440,1,4,0:0:0:0:
256,192,35146,1,8,0:0:0:0:
256,192,35499,1,8,0:0:0:0:
256,192,35852,1,0,0:0:0:0:
256,192,36557,1,8,0:0:0:0:
256,192,36910,1,8,0:0:0:0:
256,192,37087,1,8,0:0:0:0:
256,192,37263,1,0,0:0:0:0:
256,192,37969,1,8,0:0:0:0:
256,192,38322,1,8,0:0:0:0:
256,192,38675,1,0,0:0:0:0:
256,192,39381,1,0,0:0:0:0:
256,192,39734,1,8,0:0:0:0:
256,192,39910,1,0,0:0:0:0:
256,192,40087,1,4,0:0:0:0:
256,192,40793,1,8,0:0:0:0:
256,192,41146,1,8,0:0:0:0:
256,192,41499,1,0,0:0:0:0:
256,192,42205,1,8,0:0:0:0:
256,192,42557,1,8,0:0:0:0:
256,192,42734,1,8,0:0:0:0:
256,192,42910,1,0,0:0:0:0:
256,192,43616,1,8,0:0:0:0:
256,192,43969,1,8,0:0:0:0:
256,192,44322,1,0,0:0:0:0:
32,32,45028,2,0,L|480:384,1,560
256,192,46440,1,8,0:0:0:0:
256,192,47146,1,8,0:0:0:0:
256,192,47852,1,0,0:0:0:0:
256,192,48205,1,8,0:0:0:0:
256,192,48557,1,8,0:0:0:0:
256,192,49263,1,8,0:0:0:0:
256,192,49969,1,8,0:0:0:0:
256,192,50675,1,0,0:0:0:0:
256,192,50852,1,0,0:0:0:0:
256,192,51028,1,8,0:0:0:0:
256,192,51381,1,8,0:0:0:0:
256,192,52087,1,8,0:0:0:0:
256,192,52793,1,8,0:0:0:0:
256,192,53499,1,0,0:0:0:0:
256,192,53852,1,8,0:0:0:0:
256,192,54205,1,8,0:0:0:0:
256,192,54910,1,8,0:0:0:0:
256,192,55263,1,8,0:0:0:0:
256,192,55440,1,8,0:0:0:0:
256,192,55616,1,0,0:0:0:0:
256,192,55969,1,0,0:0:0:0:
256,192,56322,1,8,0:0:0:0:
256,192,57028,1,4,0:0:0:0:
256,192,57734,1,0,0:0:0:0:
256,192,58087,1,8,0:0:0:0:
256,192,58440,1,0,0:0:0:0:
256,192,59146,1,8,0:0:0:0:
256,192,59499,1,8,0:0:0:0:
256,192,59852,1,0,0:0:0:0:
256,192,60557,1,0,0:0:0:0:
256,192,60910,1,8,0:0:0:0:
256,192,61263,1,0,0:0:0:0:
256,192,61969,1,8,0:0:0:0:
256,192,62322,1,8,0:0:0:0:
256,192,62499,1,8,0:0:0:0:
256,192,62675,1,4,0:0:0:0:
256,192,63381,1,0,0:0:0:0:
256,192,63734,1,8,0:0:0:0:
256,192,64087,1,0,0:0:0:0:
256,192,64793,1,8,0:0:0:0:
256,192,65146,1,8,0:0:0:0:
256,192,65499,1,0,0:0:0:0:
256,192,66205,1,8,0:0:0:0:
256,192,66557,1,0,0:0:0:0:
256,192,66910,1,8,0:0:0:0:
256,192,68322,1,4,0:0:0:0:
256,192,73969,5,8,0:0:0:0:
256,192,74675,1,8,0:0:0:0:
256,192,75381,1,8,0:0:0:0:
256,192,75734,1,0,0:0:0:0:
256,192,76087,1,8,0:0:0:0:
256,192,76793,1,8,0:0:0:0:
256,192,77499,1,8,0:0:0:0:
256,192,78205,1,8,0:0:0:0:
256,192,78557,1,0,0:0:0:0:
256,192,78910,1,8,0:0:0:0:
256,192,79263,1,0,0:0:0:0:
256,192,79616,1,8,0:0:0:0:
256,192,80322,1,8,0:0:0:0:
256,192,81028,1,8,0:0:0:0:
256,192,81381,1,0,0:0:0:0:
256,192,81734,1,8,0:0:0:0:
256,192,82440,1,8,0:0:0:0:
256,192,83146,1,8,0:0:0:0:
256,192,83852,1,0,0:0:0:0:
256,192,84205,1,8,0:0:0:0:
256,192,84381,1,0,0:0:0:0:
256,192,84734,1,8,0:0:0:0:
256,192,84910,1,8,0:0:0:0:
256,192,85263,1,0,0:0:0:0:
256,192,86322,1,8,0:0:0:0:
256,192,86675,1,0,0:0:0:0:
256,192,87734,1,8,0:0:0:0:
256,192,88087,1,0,0:0:0:0:
256,192,89146,1,8,0:0:0:0:
256,192,89499,1,0,0:0:0:0:
256,192,89852,1,0,0:0:0:0:
256,192,90205,1,8,0:0:0:0:
256,192,90557,1,0,0:0:0:0:
256,192,90910,1,12,0:0:0:0:
256,192,93734,5,0,0:0:0:0:
256,192,95852,5,8,0:0:0:0:
256,192,96557,1,4,0:0:0:0:
256,192,100793,5,8,0:0:0:0:
256,192,101322,1,8,0:0:0:0:
256,192,101852,1,8,0:0:0:0:
256,192,102205,1,4,0:0:0:0:
256,192,103263,1,0,0:0:0:0:
256,192,103616,1,4,0:0:0:0:
256,192,104675,1,8,0:0:0:0:
256,192,105028,1,0,0:0:0:0:
256,192,105734,1,0,0:0:0:0:
256,192,106087,1,8,0:0:0:0:
256,192,106440,1,0,0:0:0:0:
256,192,107499,1,8,0:0:0:0:
256,192,107852,1,4,0:0:0:0:
256,192,108557,1,0,0:0:0:0:
256,192,108910,1,8,0:0:0:0:
256,192,109263,1,0,0:0:0:0:
256,192,109969,1,8,0:0:0:0:
256,192,110322,1,8,0:0:0:0:
256,192,110675,1,0,0:0:0:0:
256,192,111381,1,0,0:0:0:0:
256,192,111734,1,8,0:0:0:0:
256,192,112087,1,0,0:0:0:0:
256,192,112793,1,8,0:0:0:0:
256,192,113499,1,4,0:0:0:0:
256,192,114205,1,0,0:0:0:0:
256,192,114557,1,8,0:0:0:0:
256,192,114910,1,0,0:0:0:0:
256,192,115616,1,8,0:0:0:0:
256,192,115969,1,8,0:0:0:0:
256,192,116322,1,0,0:0:0:0:
256,192,117028,1,0,0:0:0:0:
256,192,117381,1,8,0:0:0:0:
224,192,117734,2,0,L|230:198,64,8.75
256,192,119146,1,4,0:0:0:0:
256,192,119852,1,0,0:0:0:0:
256,192,120205,1,8,0:0:0:0:
256,192,120557,1,0,0:0:0:0:
256,192,121263,1,8,0:0:0:0:
256,192,121616,1,8,0:0:0:0:
256,192,121793,1,8,0:0:0:0:
256,192,121969,1,0,0:0:0:0:
256,192,122675,1,0,0:0:0:0:
256,192,123028,1,8,0:0:0:0:
256,192,123381,1,0,0:0:0:0:
256,192,124087,1,8,0:0:0:0:
256,192,124263,1,0,0:0:0:0:
256,192,124440,1,8,0:0:0:0:
256,192,124793,1,4,0:0:0:0:
256,192,125499,1,0,0:0:0:0:
256,192,125852,1,8,0:0:0:0:
256,192,126205,1,0,0:0:0:0:
256,192,126910,1,8,0:0:0:0:
256,192,127263,1,8,0:0:0:0:
256,192,127440,1,8,0:0:0:0:
256,192,127616,1,0,0:0:0:0:
256,192,128322,1,0,0:0:0:0:
256,192,128675,1,8,0:0:0:0:
256,192,129028,1,0,0:0:0:0:
256,192,129734,1,8,0:0:0:0:
256,192,130440,1,4,0:0:0:0:
256,192,136087,5,4,0:0:0:0:
256,192,138205,1,0,0:0:0:0:
256,192,138910,1,8,0:0:0:0:
256,192,140322,1,8,0:0:0:0:
256,192,140852,1,8,0:0:0:0:
256,192,141381,1,8,0:0:0:0:
256,192,141734,1,4,0:0:0:0:
256,192,142440,1,0,0:0:0:0:
256,192,143146,1,0,0:0:0:0:
256,192,143852,1,0,0:0:0:0:
256,192,144205,1,8,0:0:0:0:
256,192,144557,1,4,0:0:0:0:
256,192,145263,1,0,0:0:0:0:
256,192,145969,1,0,0:0:0:0:
256,192,146675,1,8,0:0:0:0:
256,192,147381,1,12,0:0:0:0:
256,192,148087,1,0,0:0:0:0:
256,192,148440,1,8,0:0:0:0:
256,192,148793,1,8,0:0:0:0:
256,192,149499,1,8,0:0:0:0:
256,192,149852,1,0,0:0:0:0:
256,192,150205,1,8,0:0:0:0:
256,192,150910,1,0,0:0:0:0:
256,192,151263,1,8,0:0:0:0:
256,192,151616,1,8,0:0:0:0:
256,192,152322,1,0,0:0:0:0:
256,192,153028,1,12,0:0:0:0:
256,192,153734,1,0,0:0:0:0:
256,192,154087,1,8,0:0:0:0:
256,192,154440,1,8,0:0:0:0:
256,192,155146,1,8,0:0:0:0:
256,192,155499,1,0,0:0:0:0:
256,192,155852,1,8,0:0:0:0:
256,192,156557,1,8,0:0:0:0:
256,192,157263,1,0,0:0:0:0:
256,192,158322,1,8,0:0:0:0:
256,192,158675,1,4,0:0:0:0:
256,192,161499,8,0,163969,0:0:0:0:
256,192,164322,5,4,0:0:0:0:
