osu file format v14

[General]
AudioFilename: audio.mp3
AudioLeadIn: 0
PreviewTime: 45028
Countdown: 0
SampleSet: Normal
StackLeniency: 0.7
Mode: 1
LetterboxInBreaks: 0
WidescreenStoryboard: 0

[Editor]
Bookmarks: 11852,34440,45734,56322,73969,119146,141734,151616
DistanceSpacing: 1
BeatDivisor: 4
GridSize: 32
TimelineZoom: 5.500001

[Metadata]
Title:Ultima Weapon
TitleUnicode:Ultima Weapon
Artist:Laur
ArtistUnicode:Laur
Creator:yea
Version:Ura Oni
Source:
Tags:speedcore hardcore
BeatmapID:1278193
BeatmapSetID:604073

[Difficulty]
HPDrainRate:5
CircleSize:5
OverallDifficulty:7
ApproachRate:9
SliderMultiplier:1.4
SliderTickRate:1

[Events]
//Background and Video events
0,0,"background.jpg",0,0
//Break Periods
2,23346,26781
2,130640,135487
2,158875,163722
//Storyboard Layer 0 (Background)
//Storyboard Layer 1 (Fail)
//Storyboard Layer 2 (Pass)
//Storyboard Layer 3 (Foreground)
//Storyboard Sound Samples

[TimingPoints]
558,176.470588235294,4,1,0,95,1,0
558,-133.333333333333,4,1,0,95,0,0
10440,-33.3333333333333,4,1,0,95,0,0
11852,-200,4,1,0,95,0,0
27381,-133.333333333333,4,1,0,95,0,0
33734,-80,4,1,0,95,0,0
34440,-100,4,1,0,95,0,0
45734,-100,4,1,0,95,0,1
51557,-100,4,1,0,95,0,1
57028,-117.647058823529,4,1,0,95,0,0
62234,-100,4,1,0,95,0,0
67175,-105.263157894737,4,1,0,95,0,0
67440,-111.111111111111,4,1,0,95,0,0
67616,-117.647058823529,4,1,0,95,0,0
67793,-125,4,1,0,95,0,0
68322,-133.333333333333,4,1,0,95,0,0
95852,-100,4,1,0,95,0,0
96557,-117.647058823529,4,1,0,95,0,0
100793,-100,4,1,0,95,0,0
102205,-100,4,1,0,95,0,1
104675,-100,4,1,0,95,0,0
107499,-80,4,1,0,95,0,0
107852,-100,4,1,0,95,0,0
119146,-100,4,1,0,95,0,1
130440,-100,4,1,0,95,0,0
155852,-100,4,1,0,95,0,1
157263,-100,4,1,0,95,0,0
157528,-105.263157894737,4,1,0,95,0,0
157793,-111.111111111111,4,1,0,95,0,0
157969,-117.647058823529,4,1,0,95,0,0
158146,-125,4,1,0,95,0,0
158675,-133.333333333333,4,1,0,95,0,0
164322,-57.1428571428571,4,1,0,95,0,0

[HitObjects]
256,128,558,5,4,0:0:0:0:
256,192,734,1,8,0:0:0:0:
256,192,910,1,8,0:0:0:0:
256,192,1087,1,0,0:0:0:0:
256,192,1263,1,0,0:0:0:0:
256,192,1440,1,8,0:0:0:0:
256,192,1616,1,0,0:0:0:0:
256,192,1793,1,8,0:0:0:0:
256,192,1969,1,0,0:0:0:0:
256,192,2146,1,8,0:0:0:0:
256,192,2322,1,8,0:0:0:0:
256,192,2410,1,8,0:0:0:0:
256,192,2499,1,0,0:0:0:0:
256,192,2587,1,0,0:0:0:0:
256,192,2675,1,8,0:0:0:0:
256,192,2763,1,8,0:0:0:0:
256,192,2852,1,0,0:0:0:0:
256,192,2940,1,0,0:0:0:0:
256,192,3028,1,8,0:0:0:0:
256,192,3381,1,0,0:0:0:0:
256,192,3469,1,0,0:0:0:0:
256,192,3557,1,8,0:0:0:0:
256,192,3646,1,0,0:0:0:0:
256,192,3734,1,8,0:0:0:0:
256,192,3910,1,8,0:0:0:0:
256,192,3999,1,8,0:0:0:0:
256,192,4087,1,0,0:0:0:0:
256,192,4263,1,8,0:0:0:0:
256,192,4793,1,0,0:0:0:0:
256,192,4881,1,0,0:0:0:0:
256,192,4969,1,8,0:0:0:0:
256,192,5057,1,0,0:0:0:0:
256,192,5146,1,8,0:0:0:0:
256,192,5234,1,8,0:0:0:0:
256,192,5322,1,0,0:0:0:0:
256,192,5410,1,8,0:0:0:0:
256,192,5499,1,0,0:0:0:0:
256,192,5587,1,0,0:0:0:0:
256,192,5675,1,8,0:0:0:0:
256,192,5763,1,0,0:0:0:0:
256,192,5852,1,8,0:0:0:0:
256,128,6205,5,4,0:0:0:0:
256,192,6381,1,8,0:0:0:0:
256,192,6557,1,8,0:0:0:0:
256,192,6734,1,0,0:0:0:0:
256,192,6910,1,0,0:0:0:0:
256,192,7087,1,8,0:0:0:0:
256,192,7263,1,0,0:0:0:0:
256,192,7440,1,8,0:0:0:0:
256,192,7616,1,0,0:0:0:0:
256,192,7793,1,8,0:0:0:0:
256,192,7969,1,8,0:0:0:0:
256,192,8146,1,0,0:0:0:0:
256,192,8322,1,0,0:0:0:0:
256,192,8410,1,0,0:0:0:0:
256,192,8499,1,8,0:0:0:0:
256,192,8587,1,0,0:0:0:0:
256,192,8675,1,8,0:0:0:0:
256,192,9028,1,0,0:0:0:0:
256,192,9116,1,0,0:0:0:0:
256,192,9204,1,8,0:0:0:0:
256,192,9293,1,8,0:0:0:0:
256,192,9381,1,0,0:0:0:0:
256,192,9469,1,8,0:0:0:0:
256,192,9557,1,8,0:0:0:0:
256,192,9646,1,8,0:0:0:0:
256,192,9734,1,0,0:0:0:0:
256,192,9822,1,0,0:0:0:0:
256,192,9910,1,8,0:0:0:0:
256,192,9999,1,0,0:0:0:0:
256,192,10087,1,8,0:0:0:0:
256,192,10440,12,0,11499,0:0:0:0:
256,128,11852,5,4,0:0:0:0:
256,192,12557,1,8,0:0:0:0:
256,192,13263,1,0,0:0:0:0:
256,192,13969,1,8,0:0:0:0:
256,128,14675,1,12,0:0:0:0:
256,192,15381,1,8,0:0:0:0:
256,192,16087,1,0,0:0:0:0:
256,192,16793,1,8,0:0:0:0:
256,128,17499,1,12,0:0:0:0:
256,192,18205,1,8,0:0:0:0:
256,192,18910,1,0,0:0:0:0:
256,192,19616,1,8,0:0:0:0:
256,192,20322,1,0,0:0:0:0:
256,192,21028,1,8,0:0:0:0:
256,192,21734,1,0,0:0:0:0:
256,192,22440,1,8,0:0:0:0:
256,128,23146,1,4,0:0:0:0:
256,192,27381,5,8,0:0:0:0:
256,192,27469,1,8,0:0:0:0:
256,192,27557,1,0,0:0:0:0:
256,192,27646,1,0,0:0:0:0:
256,192,27734,1,8,0:0:0:0:
256,192,27822,1,0,0:0:0:0:
256,192,27910,1,8,0:0:0:0:
256,192,27999,1,8,0:0:0:0:
256,192,28087,1,0,0:0:0:0:
256,192,28175,1,0,0:0:0:0:
256,192,28263,1,8,0:0:0:0:
256,192,28352,1,0,0:0:0:0:
256,192,28440,1,8,0:0:0:0:
256,192,28528,1,8,0:0:0:0:
256,192,28616,1,0,0:0:0:0:
256,192,28705,1,0,0:0:0:0:
256,128,28793,1,12,0:0:0:0:
256,192,29852,1,0,0:0:0:0:
256,192,29940,1,0,0:0:0:0:
256,192,30028,1,8,0:0:0:0:
256,192,30116,1,8,0:0:0:0:
256,192,30205,1,0,0:0:0:0:
256,128,31263,1,12,0:0:0:0:
256,192,31616,1,0,0:0:0:0:
256,192,31793,1,0,0:0:0:0:
256,192,31969,1,0,0:0:0:0:
256,192,32146,1,0,0:0:0:0:
256,192,32322,1,0,0:0:0:0:
256,192,32410,1,0,0:0:0:0:
256,192,32499,1,0,0:0:0:0:
256,192,32587,1,8,0:0:0:0:
256,192,32675,1,0,0:0:0:0:
256,192,32763,1,8,0:0:0:0:
256,192,32852,1,0,0:0:0:0:
256,192,32940,1,8,0:0:0:0:
256,128,33734,1,4,0:0:0:0:
256,128,34087,1,12,0:0:0:0:
256,192,34440,5,0,0:0:0:0:
256,192,34528,1,8,0:0:0:0:
256,192,34616,1,0,0:0:0:0:
256,192,34660,1,0,0:0:0:0:
256,192,34705,1,8,0:0:0:0:
256,192,34793,1,0,0:0:0:0:
256,192,34881,1,0,0:0:0:0:
256,192,34969,1,8,0:0:0:0:
256,192,35057,1,8,0:0:0:0:
256,192,35146,1,0,0:0:0:0:
256,192,35190,1,0,0:0:0:0:
256,192,35234,1,8,0:0:0:0:
256,192,35278,1,8,0:0:0:0:
256,192,35322,1,0,0:0:0:0:
256,192,35410,1,0,0:0:0:0:
256,192,35499,1,8,0:0:0:0:
256,192,35543,1,8,0:0:0:0:
256,192,35587,1,0,0:0:0:0:
256,192,35631,1,0,0:0:0:0:
256,192,35675,1,8,0:0:0:0:
256,192,35719,1,0,0:0:0:0:
256,192,35763,1,8,0:0:0:0:
256,192,35852,5,0,0:0:0:0:
256,192,35896,1,0,0:0:0:0:
256,192,35940,1,8,0:0:0:0:
256,192,36028,1,0,0:0:0:0:
256,192,36116,1,8,0:0:0:0:
256,192,36205,1,0,0:0:0:0:
256,192,36249,1,0,0:0:0:0:
256,192,36293,1,8,0:0:0:0:
256,192,36381,1,0,0:0:0:0:
256,192,36469,1,0,0:0:0:0:
256,192,36558,1,8,0:0:0:0:
256,192,36602,1,8,0:0:0:0:
256,192,36646,1,0,0:0:0:0:
256,192,36690,1,0,0:0:0:0:
256,192,36734,1,8,0:0:0:0:
256,192,36778,1,8,0:0:0:0:
256,192,36822,1,0,0:0:0:0:
256,192,36911,1,8,0:0:0:0:
256,192,36999,1,0,0:0:0:0:
256,192,37087,1,8,0:0:0:0:
256,192,37131,1,8,0:0:0:0:
256,192,37175,1,0,0:0:0:0:
256,192,37263,5,0,0:0:0:0:
256,192,37307,1,0,0:0:0:0:
256,192,37352,1,8,0:0:0:0:
256,192,37439,1,8,0:0:0:0:
256,192,37528,1,0,0:0:0:0:
256,192,37616,1,8,0:0:0:0:
256,192,37660,1,8,0:0:0:0:
256,192,37705,1,0,0:0:0:0:
256,192,37792,1,8,0:0:0:0:
256,192,37881,1,0,0:0:0:0:
256,192,37969,1,0,0:0:0:0:
256,192,38057,1,8,0:0:0:0:
256,192,38145,1,0,0:0:0:0:
256,192,38234,1,8,0:0:0:0:
256,192,38322,1,0,0:0:0:0:
256,192,38366,1,0,0:0:0:0:
256,192,38410,1,8,0:0:0:0:
256,192,38455,1,0,0:0:0:0:
256,192,38498,1,8,0:0:0:0:
256,192,38543,1,8,0:0:0:0:
256,192,38587,1,0,0:0:0:0:
256,192,38631,1,8,0:0:0:0:
256,192,38675,5,0,0:0:0:0:
256,192,38763,1,8,0:0:0:0:
256,192,38807,1,8,0:0:0:0:
256,192,38851,1,0,0:0:0:0:
256,192,38940,1,8,0:0:0:0:
256,192,39028,1,0,0:0:0:0:
256,192,39072,1,0,0:0:0:0:
256,192,39116,1,8,0:0:0:0:
256,192,39204,1,0,0:0:0:0:
256,192,39293,1,8,0:0:0:0:
256,128,39381,1,4,0:0:0:0:
256,128,39557,1,12,0:0:0:0:
256,192,39734,1,8,0:0:0:0:
256,192,39778,1,8,0:0:0:0:
256,192,39822,1,8,0:0:0:0:
256,192,39866,1,8,0:0:0:0:
256,192,39910,1,8,0:0:0:0:
256,192,39955,1,8,0:0:0:0:
256,192,39999,1,8,0:0:0:0:
256,192,40043,1,8,0:0:0:0:
256,192,40087,5,0,0:0:0:0:
256,192,40175,1,8,0:0:0:0:
256,192,40263,1,0,0:0:0:0:
256,192,40307,1,0,0:0:0:0:
256,192,40352,1,8,0:0:0:0:
256,192,40440,1,0,0:0:0:0:
256,192,40528,1,0,0:0:0:0:
256,192,40616,1,8,0:0:0:0:
256,192,40704,1,8,0:0:0:0:
256,192,40793,1,0,0:0:0:0:
256,192,40837,1,0,0:0:0:0:
256,192,40881,1,8,0:0:0:0:
256,192,40925,1,8,0:0:0:0:
256,192,40969,1,0,0:0:0:0:
256,192,41057,1,0,0:0:0:0:
256,192,41146,1,8,0:0:0:0:
256,192,41190,1,8,0:0:0:0:
256,192,41234,1,0,0:0:0:0:
256,192,41278,1,0,0:0:0:0:
256,192,41322,1,8,0:0:0:0:
256,192,41366,1,8,0:0:0:0:
256,192,41410,1,8,0:0:0:0:
256,192,41499,5,0,0:0:0:0:
256,192,41543,1,0,0:0:0:0:
256,192,41587,1,8,0:0:0:0:
256,192,41675,1,0,0:0:0:0:
256,192,41763,1,8,0:0:0:0:
256,192,41852,1,0,0:0:0:0:
256,192,41896,1,0,0:0:0:0:
256,192,41940,1,8,0:0:0:0:
256,192,42028,1,0,0:0:0:0:
256,192,42116,1,0,0:0:0:0:
256,192,42205,1,8,0:0:0:0:
256,192,42249,1,8,0:0:0:0:
256,192,42293,1,0,0:0:0:0:
256,192,42337,1,0,0:0:0:0:
256,192,42381,1,8,0:0:0:0:
256,192,42425,1,8,0:0:0:0:
256,192,42469,1,0,0:0:0:0:
256,192,42558,1,8,0:0:0:0:
256,192,42646,1,0,0:0:0:0:
256,192,42734,1,8,0:0:0:0:
256,192,42778,1,8,0:0:0:0:
256,192,42822,1,0,0:0:0:0:
256,192,42910,5,0,0:0:0:0:
256,192,42954,1,0,0:0:0:0:
256,192,42999,1,8,0:0:0:0:
256,192,43086,1,8,0:0:0:0:
256,192,43175,1,0,0:0:0:0:
256,192,43263,1,8,0:0:0:0:
256,192,43307,1,8,0:0:0:0:
256,192,43352,1,0,0:0:0:0:
256,192,43439,1,8,0:0:0:0:
256,192,43528,1,0,0:0:0:0:
256,192,43616,1,0,0:0:0:0:
256,192,43704,1,8,0:0:0:0:
256,192,43792,1,0,0:0:0:0:
256,192,43881,1,8,0:0:0:0:
256,192,43969,1,0,0:0:0:0:
256,192,44013,1,0,0:0:0:0:
256,192,44057,1,8,0:0:0:0:
256,192,44102,1,0,0:0:0:0:
256,192,44146,1,0,0:0:0:0:
256,192,44190,1,8,0:0:0:0:
256,192,44234,1,8,0:0:0:0:
256,192,44278,1,8,0:0:0:0:
256,192,44322,5,0,0:0:0:0:
256,192,44410,1,8,0:0:0:0:
256,192,44454,1,8,0:0:0:0:
256,192,44498,1,0,0:0:0:0:
256,192,44587,1,8,0:0:0:0:
256,192,44675,1,0,0:0:0:0:
256,192,44719,1,0,0:0:0:0:
256,192,44763,1,8,0:0:0:0:
256,192,44851,1,0,0:0:0:0:
256,192,44940,1,8,0:0:0:0:
256,128,45028,1,4,0:0:0:0:
256,192,45734,1,0,0:0:0:0:
256,192,45778,1,0,0:0:0:0:
256,192,45822,1,8,0:0:0:0:
256,192,45910,1,0,0:0:0:0:
256,192,45999,1,0,0:0:0:0:
256,192,46087,1,0,0:0:0:0:
256,192,46175,1,8,0:0:0:0:
256,192,46263,1,0,0:0:0:0:
256,192,46352,1,0,0:0:0:0:
256,192,46440,1,0,0:0:0:0:
256,192,46484,1,0,0:0:0:0:
256,192,46528,1,8,0:0:0:0:
256,192,46616,1,0,0:0:0:0:
256,192,46705,1,0,0:0:0:0:
256,192,46793,1,8,0:0:0:0:
256,192,46837,1,8,0:0:0:0:
256,192,46881,1,0,0:0:0:0:
256,192,46969,1,8,0:0:0:0:
256,192,47013,1,8,0:0:0:0:
256,192,47057,1,0,0:0:0:0:
256,192,47146,1,8,0:0:0:0:
256,192,47190,1,8,0:0:0:0:
256,192,47234,1,0,0:0:0:0:
256,192,47322,1,0,0:0:0:0:
256,192,47410,1,0,0:0:0:0:
256,192,47499,1,0,0:0:0:0:
256,192,47587,1,8,0:0:0:0:
256,192,47675,1,0,0:0:0:0:
256,192,47763,1,0,0:0:0:0:
256,192,47852,1,0,0:0:0:0:
256,192,47896,1,0,0:0:0:0:
256,192,47940,1,8,0:0:0:0:
256,192,48028,1,0,0:0:0:0:
256,192,48116,1,0,0:0:0:0:
256,192,48205,1,8,0:0:0:0:
256,192,48249,1,8,0:0:0:0:
256,192,48293,1,0,0:0:0:0:
256,192,48337,1,0,0:0:0:0:
256,192,48381,1,8,0:0:0:0:
256,192,48469,1,8,0:0:0:0:
256,192,48557,1,0,0:0:0:0:
256,192,48602,1,0,0:0:0:0:
256,192,48646,1,8,0:0:0:0:
256,192,48734,1,0,0:0:0:0:
256,192,48822,1,0,0:0:0:0:
256,192,48910,1,0,0:0:0:0:
256,192,48999,1,8,0:0:0:0:
256,192,49087,1,0,0:0:0:0:
256,192,49175,1,0,0:0:0:0:
256,192,49263,1,0,0:0:0:0:
256,192,49307,1,0,0:0:0:0:
256,192,49352,1,8,0:0:0:0:
256,192,49440,1,0,0:0:0:0:
256,192,49528,1,0,0:0:0:0:
256,192,49616,1,8,0:0:0:0:
256,192,49660,1,8,0:0:0:0:
256,192,49705,1,0,0:0:0:0:
256,192,49793,1,8,0:0:0:0:
256,192,49837,1,8,0:0:0:0:
256,192,49881,1,0,0:0:0:0:
256,192,49969,1,8,0:0:0:0:
256,192,50013,1,8,0:0:0:0:
256,192,50057,1,0,0:0:0:0:
256,192,50146,1,0,0:0:0:0:
256,192,50234,1,8,0:0:0:0:
256,192,50322,1,0,0:0:0:0:
256,192,50410,1,8,0:0:0:0:
256,192,50499,1,0,0:0:0:0:
256,192,50587,1,0,0:0:0:0:
256,192,50675,1,0,0:0:0:0:
256,192,50719,1,0,0:0:0:0:
256,192,50763,1,8,0:0:0:0:
256,192,50852,1,0,0:0:0:0:
256,192,50940,1,8,0:0:0:0:
256,192,51028,1,0,0:0:0:0:
256,192,51072,1,0,0:0:0:0:
256,192,51116,1,8,0:0:0:0:
256,192,51160,1,0,0:0:0:0:
256,192,51205,1,0,0:0:0:0:
256,192,51249,1,8,0:0:0:0:
256,192,51293,1,8,0:0:0:0:
256,192,51337,1,0,0:0:0:0:
256,192,51381,1,8,0:0:0:0:
256,192,51425,1,8,0:0:0:0:
256,192,51469,1,0,0:0:0:0:
256,192,51557,5,0,0:0:0:0:
256,192,51645,1,0,0:0:0:0:
256,192,51733,1,0,0:0:0:0:
256,192,51822,1,8,0:0:0:0:
256,192,51910,1,0,0:0:0:0:
256,192,51998,1,0,0:0:0:0:
256,192,52086,1,8,0:0:0:0:
256,192,52131,1,8,0:0:0:0:
256,192,52175,1,0,0:0:0:0:
256,192,52263,1,8,0:0:0:0:
256,192,52352,1,0,0:0:0:0:
256,192,52440,1,8,0:0:0:0:
256,192,52484,1,8,0:0:0:0:
256,192,52528,1,0,0:0:0:0:
256,192,52616,1,8,0:0:0:0:
256,192,52660,1,8,0:0:0:0:
256,192,52704,1,0,0:0:0:0:
256,192,52792,1,8,0:0:0:0:
256,192,52836,1,8,0:0:0:0:
256,192,52880,1,0,0:0:0:0:
256,192,52969,1,0,0:0:0:0:
256,192,53057,1,0,0:0:0:0:
256,192,53145,1,0,0:0:0:0:
256,192,53233,1,8,0:0:0:0:
256,192,53322,1,0,0:0:0:0:
256,192,53410,1,0,0:0:0:0:
256,192,53498,1,0,0:0:0:0:
256,192,53543,1,0,0:0:0:0:
256,192,53587,1,8,0:0:0:0:
256,192,53675,1,0,0:0:0:0:
256,192,53763,1,8,0:0:0:0:
256,192,53852,1,0,0:0:0:0:
256,192,53896,1,0,0:0:0:0:
256,192,53940,1,8,0:0:0:0:
256,192,53984,1,0,0:0:0:0:
256,192,54028,1,8,0:0:0:0:
256,192,54072,1,8,0:0:0:0:
256,192,54116,1,0,0:0:0:0:
256,192,54160,1,8,0:0:0:0:
256,192,54204,1,0,0:0:0:0:
256,192,54249,1,0,0:0:0:0:
256,192,54292,1,8,0:0:0:0:
256,192,54380,1,0,0:0:0:0:
256,192,54469,1,8,0:0:0:0:
256,192,54557,1,0,0:0:0:0:
256,192,54645,1,0,0:0:0:0:
256,192,54733,1,0,0:0:0:0:
256,192,54822,1,8,0:0:0:0:
256,192,54910,1,0,0:0:0:0:
256,192,54955,1,0,0:0:0:0:
256,192,54998,1,8,0:0:0:0:
256,192,55086,1,0,0:0:0:0:
256,192,55175,1,8,0:0:0:0:
256,192,55263,1,8,0:0:0:0:
256,192,55307,1,8,0:0:0:0:
256,192,55351,1,0,0:0:0:0:
256,192,55439,1,8,0:0:0:0:
256,192,55483,1,8,0:0:0:0:
256,192,55528,1,0,0:0:0:0:
256,192,55616,1,8,0:0:0:0:
256,192,55660,1,8,0:0:0:0:
256,192,55704,1,0,0:0:0:0:
256,192,55749,1,0,0:0:0:0:
256,192,55792,1,8,0:0:0:0:
256,192,55836,1,8,0:0:0:0:
256,192,55880,1,0,0:0:0:0:
256,192,55925,1,0,0:0:0:0:
256,192,55969,1,8,0:0:0:0:
256,192,56013,1,8,0:0:0:0:
256,192,56057,1,0,0:0:0:0:
256,192,56102,1,0,0:0:0:0:
256,192,56146,1,8,0:0:0:0:
256,192,56190,1,0,0:0:0:0:
256,192,56234,1,8,0:0:0:0:
256,128,56322,1,4,0:0:0:0:
256,192,57028,5,0,0:0:0:0:
256,192,57116,1,8,0:0:0:0:
256,192,57293,1,0,0:0:0:0:
256,192,57381,1,8,0:0:0:0:
256,192,57557,1,0,0:0:0:0:
256,192,57646,1,0,0:0:0:0:
256,192,57734,1,0,0:0:0:0:
256,192,57822,1,8,0:0:0:0:
256,192,57999,1,0,0:0:0:0:
256,128,58087,1,12,0:0:0:0:
256,192,58440,5,0,0:0:0:0:
256,192,58528,1,8,0:0:0:0:
256,192,58705,1,0,0:0:0:0:
256,192,58793,1,8,0:0:0:0:
256,192,58969,1,0,0:0:0:0:
256,192,59058,1,0,0:0:0:0:
256,192,59146,1,0,0:0:0:0:
256,192,59234,1,8,0:0:0:0:
256,192,59411,1,8,0:0:0:0:
256,128,59499,1,4,0:0:0:0:
256,192,59852,5,0,0:0:0:0:
256,192,59940,1,8,0:0:0:0:
256,192,60117,1,0,0:0:0:0:
256,192,60205,1,8,0:0:0:0:
256,192,60381,1,0,0:0:0:0:
256,192,60470,1,0,0:0:0:0:
256,192,60558,1,0,0:0:0:0:
256,192,60646,1,8,0:0:0:0:
256,192,60823,1,0,0:0:0:0:
256,128,60911,1,12,0:0:0:0:
256,192,61263,5,0,0:0:0:0:
256,192,61351,1,8,0:0:0:0:
256,192,61528,1,0,0:0:0:0:
256,192,61616,1,8,0:0:0:0:
256,192,61792,1,0,0:0:0:0:
256,192,61881,1,0,0:0:0:0:
256,192,61969,1,0,0:0:0:0:
256,192,62057,1,8,0:0:0:0:
256,192,62234,1,8,0:0:0:0:
256,128,62322,1,4,0:0:0:0:
256,192,62675,5,0,0:0:0:0:
256,192,62763,1,0,0:0:0:0:
256,192,62807,1,0,0:0:0:0:
256,192,62852,1,8,0:0:0:0:
256,192,62940,1,0,0:0:0:0:
256,192,63028,1,8,0:0:0:0:
256,192,63072,1,8,0:0:0:0:
256,192,63116,1,8,0:0:0:0:
256,192,63205,1,0,0:0:0:0:
256,192,63293,1,8,0:0:0:0:
256,192,63381,1,0,0:0:0:0:
256,192,63469,1,0,0:0:0:0:
256,192,63513,1,0,0:0:0:0:
256,192,63557,1,0,0:0:0:0:
256,192,63646,1,0,0:0:0:0:
256,128,63734,1,12,0:0:0:0:
256,192,64087,1,0,0:0:0:0:
256,192,64175,1,0,0:0:0:0:
256,192,64219,1,0,0:0:0:0:
256,192,64263,1,8,0:0:0:0:
256,192,64352,1,0,0:0:0:0:
256,192,64440,1,8,0:0:0:0:
256,192,64484,1,8,0:0:0:0:
256,192,64528,1,0,0:0:0:0:
256,192,64616,1,0,0:0:0:0:
256,192,64705,1,8,0:0:0:0:
256,192,64793,1,0,0:0:0:0:
256,192,64881,1,0,0:0:0:0:
256,192,64925,1,0,0:0:0:0:
256,192,64969,1,0,0:0:0:0:
256,192,65057,1,8,0:0:0:0:
256,128,65146,1,4,0:0:0:0:
256,192,65499,1,0,0:0:0:0:
256,192,65543,1,0,0:0:0:0:
256,192,65587,1,8,0:0:0:0:
256,192,65631,1,8,0:0:0:0:
256,192,65675,1,0,0:0:0:0:
256,192,65719,1,0,0:0:0:0:
256,192,65763,1,8,0:0:0:0:
256,192,65807,1,8,0:0:0:0:
256,192,65852,1,8,0:0:0:0:
256,192,65940,1,0,0:0:0:0:
256,192,66028,1,0,0:0:0:0:
256,192,66072,1,0,0:0:0:0:
256,192,66116,1,0,0:0:0:0:
256,192,66160,1,0,0:0:0:0:
256,192,66205,1,0,0:0:0:0:
256,192,66293,1,8,0:0:0:0:
256,192,66337,1,8,0:0:0:0:
256,192,66381,1,8,0:0:0:0:
256,192,66469,1,0,0:0:0:0:
256,192,66557,1,8,0:0:0:0:
256,192,66602,1,8,0:0:0:0:
256,192,66646,1,8,0:0:0:0:
256,192,66690,1,8,0:0:0:0:
256,192,66734,1,8,0:0:0:0:
256,192,66778,1,8,0:0:0:0:
256,192,66822,1,8,0:0:0:0:
256,192,66866,1,8,0:0:0:0:
256,192,66910,1,0,0:0:0:0:
256,192,67175,1,8,0:0:0:0:
256,192,67440,1,8,0:0:0:0:
256,192,67616,1,8,0:0:0:0:
256,192,67793,1,8,0:0:0:0:
256,192,67969,1,8,0:0:0:0:
96,320,68322,2,8,L|320:320,14,210.000008010865
256,192,73969,5,0,0:0:0:0:
256,192,74322,1,0,0:0:0:0:
256,192,74675,1,8,0:0:0:0:
256,192,75028,1,0,0:0:0:0:
256,192,75381,1,0,0:0:0:0:
256,192,75557,1,0,0:0:0:0:
256,192,75646,1,0,0:0:0:0:
256,192,75734,1,0,0:0:0:0:
256,192,75910,1,0,0:0:0:0:
256,192,76087,1,8,0:0:0:0:
256,192,76440,1,0,0:0:0:0:
256,192,76616,1,0,0:0:0:0:
256,192,76793,1,0,0:0:0:0:
256,192,77146,1,8,0:0:0:0:
256,192,77499,1,0,0:0:0:0:
256,192,77675,1,8,0:0:0:0:
256,192,77852,1,0,0:0:0:0:
256,192,78028,1,0,0:0:0:0:
256,192,78205,1,0,0:0:0:0:
256,192,78557,1,8,0:0:0:0:
256,192,78734,1,8,0:0:0:0:
256,192,78910,1,0,0:0:0:0:
256,192,79175,12,0,79440,0:0:0:0:
256,192,79616,5,0,0:0:0:0:
256,192,79969,1,0,0:0:0:0:
256,192,80322,1,8,0:0:0:0:
256,192,80675,1,0,0:0:0:0:
256,192,81028,1,0,0:0:0:0:
256,192,81204,1,0,0:0:0:0:
256,192,81293,1,0,0:0:0:0:
256,192,81381,1,0,0:0:0:0:
256,192,81557,1,0,0:0:0:0:
256,192,81734,1,8,0:0:0:0:
256,192,82087,1,0,0:0:0:0:
256,192,82263,1,0,0:0:0:0:
256,192,82440,1,0,0:0:0:0:
256,192,82793,1,8,0:0:0:0:
256,192,83146,1,0,0:0:0:0:
256,192,83322,1,8,0:0:0:0:
256,192,83499,1,0,0:0:0:0:
256,192,83675,1,0,0:0:0:0:
256,192,83852,1,0,0:0:0:0:
256,192,83940,1,8,0:0:0:0:
256,192,84116,1,8,0:0:0:0:
256,192,84204,1,8,0:0:0:0:
256,192,84381,1,8,0:0:0:0:
256,192,84557,1,0,0:0:0:0:
256,192,84734,1,8,0:0:0:0:
256,128,84910,1,12,0:0:0:0:
256,192,85263,5,0,0:0:0:0:
256,192,85440,1,0,0:0:0:0:
256,192,85616,1,0,0:0:0:0:
256,192,85793,1,0,0:0:0:0:
256,192,85969,1,0,0:0:0:0:
256,192,86146,1,0,0:0:0:0:
256,192,86322,1,8,0:0:0:0:
256,192,86499,1,8,0:0:0:0:
256,192,86675,1,0,0:0:0:0:
256,192,86852,1,0,0:0:0:0:
256,192,87028,1,0,0:0:0:0:
256,192,87205,1,0,0:0:0:0:
256,192,87381,1,0,0:0:0:0:
256,192,87557,1,0,0:0:0:0:
256,192,87734,1,0,0:0:0:0:
256,192,87910,1,0,0:0:0:0:
256,192,87999,1,0,0:0:0:0:
256,192,88087,1,0,0:0:0:0:
256,192,88263,1,0,0:0:0:0:
256,192,88440,1,8,0:0:0:0:
256,192,88616,1,0,0:0:0:0:
256,192,88793,1,8,0:0:0:0:
256,192,88969,1,0,0:0:0:0:
256,192,89146,1,8,0:0:0:0:
256,192,89322,1,8,0:0:0:0:
256,192,89410,1,0,0:0:0:0:
256,192,89499,1,8,0:0:0:0:
256,192,89675,1,0,0:0:0:0:
256,192,89852,1,8,0:0:0:0:
256,192,90028,1,0,0:0:0:0:
96,288,90205,2,0,L|416:288,1,315.000012016297
256,128,90910,1,4,0:0:0:0:
64,288,95852,2,0,L|416:288,1,350
256,128,96557,5,4,0:0:0:0:
256,192,96734,1,8,0:0:0:0:
256,192,96999,1,0,0:0:0:0:
256,192,97087,1,0,0:0:0:0:
256,192,97263,1,0,0:0:0:0:
256,192,97352,1,8,0:0:0:0:
256,192,97440,1,8,0:0:0:0:
256,192,97528,1,0,0:0:0:0:
256,192,97616,1,8,0:0:0:0:
256,192,97969,5,0,0:0:0:0:
256,192,98146,1,8,0:0:0:0:
256,192,98234,1,0,0:0:0:0:
256,192,98411,1,0,0:0:0:0:
256,192,98499,1,0,0:0:0:0:
256,192,98675,1,0,0:0:0:0:
256,192,98764,1,8,0:0:0:0:
256,192,98852,1,8,0:0:0:0:
256,192,98940,1,0,0:0:0:0:
256,192,99028,1,0,0:0:0:0:
256,192,99116,1,8,0:0:0:0:
256,192,99205,1,8,0:0:0:0:
256,192,99293,1,8,0:0:0:0:
256,192,99381,5,0,0:0:0:0:
256,192,99558,1,8,0:0:0:0:
256,192,99646,1,0,0:0:0:0:
256,192,99823,1,0,0:0:0:0:
256,192,99911,1,0,0:0:0:0:
256,192,100087,1,0,0:0:0:0:
256,192,100176,1,8,0:0:0:0:
256,192,100264,1,8,0:0:0:0:
256,192,100352,1,0,0:0:0:0:
256,192,100440,1,8,0:0:0:0:
256,192,100793,5,8,0:0:0:0:
256,192,100881,1,8,0:0:0:0:
256,192,100969,1,0,0:0:0:0:
256,192,101058,1,0,0:0:0:0:
256,192,101146,1,8,0:0:0:0:
256,192,101234,1,0,0:0:0:0:
256,192,101322,1,8,0:0:0:0:
256,192,101411,1,8,0:0:0:0:
256,192,101499,1,0,0:0:0:0:
256,192,101587,1,0,0:0:0:0:
256,192,101675,1,8,0:0:0:0:
256,192,101764,1,0,0:0:0:0:
256,192,101852,1,8,0:0:0:0:
256,192,101940,1,8,0:0:0:0:
256,192,102028,1,0,0:0:0:0:
256,192,102117,1,0,0:0:0:0:
256,128,102205,1,12,0:0:0:0:
256,192,103263,1,0,0:0:0:0:
256,192,103381,1,8,0:0:0:0:
256,192,103499,1,0,0:0:0:0:
256,192,103616,1,8,0:0:0:0:
256,128,104675,1,12,0:0:0:0:
256,192,105028,1,0,0:0:0:0:
256,192,105146,1,0,0:0:0:0:
256,192,105263,1,0,0:0:0:0:
256,192,105381,1,8,0:0:0:0:
256,192,105440,1,8,0:0:0:0:
256,192,105499,1,0,0:0:0:0:
256,192,105616,1,0,0:0:0:0:
256,192,105734,1,8,0:0:0:0:
256,192,105793,1,8,0:0:0:0:
256,192,105852,1,0,0:0:0:0:
256,192,105910,1,8,0:0:0:0:
256,192,105969,1,0,0:0:0:0:
96,288,106087,2,0,L|256:288,2,140
256,128,107499,5,12,0:0:0:0:
256,192,107852,5,0,0:0:0:0:
256,192,107969,1,0,0:0:0:0:
256,192,108087,1,0,0:0:0:0:
256,192,108205,1,0,0:0:0:0:
256,192,108263,1,8,0:0:0:0:
256,192,108322,1,0,0:0:0:0:
256,192,108440,1,0,0:0:0:0:
256,192,108557,1,0,0:0:0:0:
256,192,108616,1,0,0:0:0:0:
256,192,108675,1,8,0:0:0:0:
256,192,108793,1,0,0:0:0:0:
256,128,108910,1,12,0:0:0:0:
256,192,109146,1,0,0:0:0:0:
256,192,109263,1,0,0:0:0:0:
256,192,109381,1,0,0:0:0:0:
256,192,109499,1,0,0:0:0:0:
256,192,109616,1,8,0:0:0:0:
256,192,109675,1,8,0:0:0:0:
256,192,109734,1,8,0:0:0:0:
256,192,109852,1,0,0:0:0:0:
256,128,109969,1,4,0:0:0:0:
256,192,110146,1,0,0:0:0:0:
256,128,110322,1,12,0:0:0:0:
256,192,110557,1,0,0:0:0:0:
256,192,110675,5,0,0:0:0:0:
256,192,110792,1,0,0:0:0:0:
256,192,110910,1,0,0:0:0:0:
256,192,111028,1,0,0:0:0:0:
256,192,111086,1,8,0:0:0:0:
256,192,111146,1,8,0:0:0:0:
256,192,111263,1,0,0:0:0:0:
256,192,111380,1,0,0:0:0:0:
256,192,111439,1,0,0:0:0:0:
256,192,111498,1,8,0:0:0:0:
256,192,111616,1,0,0:0:0:0:
256,128,111733,1,12,0:0:0:0:
256,192,111969,1,0,0:0:0:0:
256,192,112086,1,0,0:0:0:0:
256,192,112204,1,0,0:0:0:0:
256,192,112322,1,0,0:0:0:0:
256,192,112439,1,8,0:0:0:0:
256,192,112498,1,8,0:0:0:0:
256,192,112557,1,8,0:0:0:0:
256,192,112675,1,0,0:0:0:0:
256,128,112792,1,4,0:0:0:0:
256,192,112969,1,0,0:0:0:0:
256,192,113145,1,8,0:0:0:0:
256,192,113190,1,8,0:0:0:0:
256,192,113234,1,8,0:0:0:0:
256,192,113278,1,8,0:0:0:0:
256,192,113322,1,8,0:0:0:0:
256,192,113366,1,8,0:0:0:0:
256,192,113410,1,8,0:0:0:0:
256,192,113455,1,8,0:0:0:0:
256,192,113499,5,0,0:0:0:0:
256,192,113616,1,0,0:0:0:0:
256,192,113734,1,0,0:0:0:0:
256,192,113852,1,0,0:0:0:0:
256,192,113910,1,8,0:0:0:0:
256,192,113969,1,0,0:0:0:0:
256,192,114087,1,0,0:0:0:0:
256,192,114204,1,0,0:0:0:0:
256,192,114263,1,0,0:0:0:0:
256,192,114322,1,8,0:0:0:0:
256,192,114440,1,0,0:0:0:0:
256,128,114557,1,12,0:0:0:0:
256,192,114793,1,0,0:0:0:0:
256,192,114910,1,0,0:0:0:0:
256,192,115028,1,0,0:0:0:0:
256,192,115146,1,0,0:0:0:0:
256,192,115263,1,8,0:0:0:0:
256,192,115322,1,0,0:0:0:0:
256,192,115381,1,8,0:0:0:0:
256,192,115499,1,0,0:0:0:0:
256,128,115616,1,4,0:0:0:0:
256,192,115793,1,0,0:0:0:0:
256,128,115969,1,12,0:0:0:0:
256,192,116205,1,0,0:0:0:0:
256,192,116322,5,0,0:0:0:0:
256,192,116439,1,0,0:0:0:0:
256,192,116557,1,0,0:0:0:0:
256,192,116675,1,0,0:0:0:0:
256,192,116733,1,8,0:0:0:0:
256,192,116792,1,0,0:0:0:0:
256,192,116910,1,0,0:0:0:0:
256,192,117027,1,0,0:0:0:0:
256,192,117086,1,0,0:0:0:0:
256,192,117145,1,8,0:0:0:0:
256,192,117263,1,0,0:0:0:0:
256,128,117380,1,12,0:0:0:0:
256,192,117616,1,0,0:0:0:0:
96,288,117734,2,0,L|256:288,3,140
256,128,118440,1,12,0:0:0:0:
256,192,119146,5,0,0:0:0:0:
256,192,119190,1,0,0:0:0:0:
256,192,119234,1,8,0:0:0:0:
256,192,119322,1,0,0:0:0:0:
256,192,119410,1,8,0:0:0:0:
256,192,119499,1,0,0:0:0:0:
256,192,119587,1,0,0:0:0:0:
256,192,119675,1,0,0:0:0:0:
256,192,119763,1,0,0:0:0:0:
256,192,119807,1,0,0:0:0:0:
256,192,119852,1,8,0:0:0:0:
256,192,119896,1,0,0:0:0:0:
256,192,119940,1,8,0:0:0:0:
256,192,120028,1,0,0:0:0:0:
256,192,120116,1,8,0:0:0:0:
256,192,120205,1,8,0:0:0:0:
256,192,120249,1,8,0:0:0:0:
256,192,120293,1,0,0:0:0:0:
256,192,120381,1,8,0:0:0:0:
256,192,120425,1,8,0:0:0:0:
256,192,120469,1,0,0:0:0:0:
256,192,120557,1,0,0:0:0:0:
256,192,120602,1,0,0:0:0:0:
256,192,120646,1,8,0:0:0:0:
256,192,120690,1,8,0:0:0:0:
256,192,120734,1,0,0:0:0:0:
256,192,120822,1,8,0:0:0:0:
256,192,120910,1,0,0:0:0:0:
256,192,120999,1,0,0:0:0:0:
256,192,121087,1,0,0:0:0:0:
256,192,121175,1,0,0:0:0:0:
256,192,121263,1,8,0:0:0:0:
256,192,121307,1,8,0:0:0:0:
256,192,121352,1,8,0:0:0:0:
256,192,121440,1,0,0:0:0:0:
256,192,121528,1,8,0:0:0:0:
256,192,121616,1,8,0:0:0:0:
256,192,121660,1,8,0:0:0:0:
256,192,121705,1,0,0:0:0:0:
256,192,121749,1,8,0:0:0:0:
256,192,121793,1,0,0:0:0:0:
256,192,121837,1,0,0:0:0:0:
256,192,121881,1,8,0:0:0:0:
256,192,121969,5,0,0:0:0:0:
256,192,122013,1,0,0:0:0:0:
256,192,122057,1,8,0:0:0:0:
256,192,122145,1,0,0:0:0:0:
256,192,122233,1,8,0:0:0:0:
256,192,122322,1,0,0:0:0:0:
256,192,122410,1,0,0:0:0:0:
256,192,122498,1,0,0:0:0:0:
256,192,122586,1,0,0:0:0:0:
256,192,122630,1,0,0:0:0:0:
256,192,122675,1,8,0:0:0:0:
256,192,122719,1,8,0:0:0:0:
256,192,122763,1,0,0:0:0:0:
256,192,122851,1,0,0:0:0:0:
256,192,122939,1,8,0:0:0:0:
256,192,123028,1,8,0:0:0:0:
256,192,123072,1,8,0:0:0:0:
256,192,123116,1,0,0:0:0:0:
256,192,123205,1,8,0:0:0:0:
256,192,123248,1,8,0:0:0:0:
256,192,123292,1,0,0:0:0:0:
256,192,123380,1,0,0:0:0:0:
256,192,123425,1,0,0:0:0:0:
256,192,123469,1,8,0:0:0:0:
256,192,123513,1,8,0:0:0:0:
256,192,123557,1,0,0:0:0:0:
256,192,123645,1,8,0:0:0:0:
256,192,123733,1,0,0:0:0:0:
256,192,123822,1,0,0:0:0:0:
256,192,123910,1,0,0:0:0:0:
256,192,123999,1,0,0:0:0:0:
256,192,124086,1,8,0:0:0:0:
256,192,124130,1,8,0:0:0:0:
256,192,124175,1,0,0:0:0:0:
256,192,124263,1,0,0:0:0:0:
256,192,124351,1,8,0:0:0:0:
256,192,124439,1,0,0:0:0:0:
256,192,124483,1,0,0:0:0:0:
256,192,124528,1,8,0:0:0:0:
256,192,124572,1,0,0:0:0:0:
256,192,124616,1,8,0:0:0:0:
256,192,124660,1,8,0:0:0:0:
256,192,124704,1,0,0:0:0:0:
256,192,124749,1,8,0:0:0:0:
256,192,124793,5,0,0:0:0:0:
256,192,124837,1,0,0:0:0:0:
256,192,124881,1,8,0:0:0:0:
256,192,124969,1,0,0:0:0:0:
256,192,125057,1,8,0:0:0:0:
256,192,125102,1,8,0:0:0:0:
256,192,125146,1,0,0:0:0:0:
256,192,125234,1,8,0:0:0:0:
256,192,125322,1,0,0:0:0:0:
256,192,125410,1,0,0:0:0:0:
256,192,125454,1,0,0:0:0:0:
256,192,125499,1,8,0:0:0:0:
256,192,125543,1,8,0:0:0:0:
256,192,125587,1,0,0:0:0:0:
256,192,125675,1,0,0:0:0:0:
256,192,125763,1,8,0:0:0:0:
256,192,125852,1,8,0:0:0:0:
256,192,125896,1,8,0:0:0:0:
256,192,125940,1,0,0:0:0:0:
256,192,126028,1,8,0:0:0:0:
256,192,126072,1,8,0:0:0:0:
256,192,126116,1,0,0:0:0:0:
256,192,126204,1,0,0:0:0:0:
256,192,126249,1,0,0:0:0:0:
256,192,126293,1,8,0:0:0:0:
256,192,126337,1,8,0:0:0:0:
256,192,126381,1,0,0:0:0:0:
256,192,126469,1,8,0:0:0:0:
256,192,126557,1,0,0:0:0:0:
256,192,126602,1,0,0:0:0:0:
256,192,126646,1,8,0:0:0:0:
256,192,126734,1,0,0:0:0:0:
256,192,126822,1,8,0:0:0:0:
256,192,126910,1,8,0:0:0:0:
256,192,126954,1,8,0:0:0:0:
256,192,126999,1,0,0:0:0:0:
256,192,127087,1,0,0:0:0:0:
256,192,127175,1,8,0:0:0:0:
256,192,127263,1,8,0:0:0:0:
256,192,127307,1,8,0:0:0:0:
256,192,127352,1,0,0:0:0:0:
256,192,127396,1,8,0:0:0:0:
256,192,127440,1,0,0:0:0:0:
256,192,127484,1,0,0:0:0:0:
256,192,127528,1,8,0:0:0:0:
256,192,127572,1,8,0:0:0:0:
256,192,127616,5,0,0:0:0:0:
256,192,127660,1,0,0:0:0:0:
256,192,127704,1,8,0:0:0:0:
256,192,127792,1,0,0:0:0:0:
256,192,127880,1,8,0:0:0:0:
256,192,127969,1,0,0:0:0:0:
256,192,128057,1,0,0:0:0:0:
256,192,128145,1,0,0:0:0:0:
256,192,128233,1,0,0:0:0:0:
256,192,128277,1,0,0:0:0:0:
256,192,128322,1,8,0:0:0:0:
256,192,128366,1,0,0:0:0:0:
256,192,128410,1,8,0:0:0:0:
256,192,128498,1,0,0:0:0:0:
256,192,128586,1,8,0:0:0:0:
256,192,128675,1,8,0:0:0:0:
256,192,128719,1,8,0:0:0:0:
256,192,128763,1,0,0:0:0:0:
256,192,128851,1,8,0:0:0:0:
256,192,128895,1,8,0:0:0:0:
256,192,128939,1,0,0:0:0:0:
256,192,129027,1,0,0:0:0:0:
256,192,129072,1,0,0:0:0:0:
256,192,129116,1,8,0:0:0:0:
256,192,129160,1,8,0:0:0:0:
256,192,129204,1,0,0:0:0:0:
256,192,129249,1,0,0:0:0:0:
256,192,129292,1,8,0:0:0:0:
256,192,129337,1,8,0:0:0:0:
256,192,129380,1,0,0:0:0:0:
256,192,129425,1,8,0:0:0:0:
256,192,129469,1,8,0:0:0:0:
256,192,129513,1,8,0:0:0:0:
256,192,129557,1,0,0:0:0:0:
256,192,129602,1,0,0:0:0:0:
256,192,129645,1,8,0:0:0:0:
96,320,129734,2,0,L|256:320,3,140
256,128,130440,1,4,0:0:0:0:
256,192,136087,5,0,0:0:0:0:
256,192,136263,1,8,0:0:0:0:
256,192,136440,1,0,0:0:0:0:
256,192,136616,1,8,0:0:0:0:
256,192,136793,1,0,0:0:0:0:
256,192,136969,1,8,0:0:0:0:
256,192,137146,1,0,0:0:0:0:
256,192,137322,1,8,0:0:0:0:
256,192,137499,1,0,0:0:0:0:
256,192,137675,1,8,0:0:0:0:
256,192,137852,1,0,0:0:0:0:
256,192,138028,1,8,0:0:0:0:
256,192,138205,1,8,0:0:0:0:
256,192,138381,1,0,0:0:0:0:
256,192,138558,1,0,0:0:0:0:
256,192,138734,1,8,0:0:0:0:
256,192,138910,1,0,0:0:0:0:
256,192,139087,1,8,0:0:0:0:
256,192,139263,1,0,0:0:0:0:
256,192,139440,1,8,0:0:0:0:
256,192,139616,1,0,0:0:0:0:
256,192,139793,1,8,0:0:0:0:
256,192,139969,1,0,0:0:0:0:
256,192,140146,1,8,0:0:0:0:
256,192,140322,5,0,0:0:0:0:
256,192,140410,1,0,0:0:0:0:
256,192,140498,1,8,0:0:0:0:
256,192,140587,1,0,0:0:0:0:
256,192,140675,1,8,0:0:0:0:
256,192,140763,1,8,0:0:0:0:
256,192,140851,1,0,0:0:0:0:
256,192,140940,1,8,0:0:0:0:
256,192,141028,1,0,0:0:0:0:
256,192,141116,1,0,0:0:0:0:
256,192,141204,1,8,0:0:0:0:
256,192,141293,1,0,0:0:0:0:
256,192,141381,1,8,0:0:0:0:
256,192,141469,1,8,0:0:0:0:
256,192,141557,1,0,0:0:0:0:
256,192,141646,1,8,0:0:0:0:
256,192,141734,1,8,0:0:0:0:
256,192,141778,1,0,0:0:0:0:
256,192,141822,1,8,0:0:0:0:
256,192,141999,1,0,0:0:0:0:
256,192,142043,1,0,0:0:0:0:
256,192,142087,1,8,0:0:0:0:
256,192,142263,1,8,0:0:0:0:
256,192,142352,1,0,0:0:0:0:
256,192,142440,1,0,0:0:0:0:
256,192,142484,1,0,0:0:0:0:
256,192,142528,1,8,0:0:0:0:
256,192,142705,1,0,0:0:0:0:
256,192,142749,1,0,0:0:0:0:
256,192,142793,1,8,0:0:0:0:
256,192,142969,1,8,0:0:0:0:
256,192,143146,5,0,0:0:0:0:
256,192,143190,1,0,0:0:0:0:
256,192,143234,1,8,0:0:0:0:
256,192,143411,1,0,0:0:0:0:
256,192,143455,1,0,0:0:0:0:
256,192,143499,1,8,0:0:0:0:
256,192,143675,1,8,0:0:0:0:
256,192,143764,1,0,0:0:0:0:
256,192,143852,1,0,0:0:0:0:
256,192,143896,1,0,0:0:0:0:
256,192,143940,1,8,0:0:0:0:
256,192,143984,1,8,0:0:0:0:
256,192,144028,1,0,0:0:0:0:
256,192,144072,1,0,0:0:0:0:
256,192,144117,1,0,0:0:0:0:
256,192,144161,1,0,0:0:0:0:
256,192,144205,1,8,0:0:0:0:
256,192,144249,1,8,0:0:0:0:
256,192,144293,1,0,0:0:0:0:
256,192,144337,1,0,0:0:0:0:
256,192,144381,1,8,0:0:0:0:
256,192,144425,1,8,0:0:0:0:
256,192,144469,1,0,0:0:0:0:
256,192,144557,5,0,0:0:0:0:
256,192,144601,1,0,0:0:0:0:
256,192,144645,1,8,0:0:0:0:
256,192,144822,1,0,0:0:0:0:
256,192,144866,1,0,0:0:0:0:
256,192,144910,1,8,0:0:0:0:
256,192,145086,1,8,0:0:0:0:
256,192,145175,1,0,0:0:0:0:
256,192,145263,1,0,0:0:0:0:
256,192,145307,1,0,0:0:0:0:
256,192,145351,1,8,0:0:0:0:
256,192,145528,1,0,0:0:0:0:
256,192,145572,1,0,0:0:0:0:
256,192,145616,1,8,0:0:0:0:
256,192,145792,1,8,0:0:0:0:
256,192,145969,5,0,0:0:0:0:
256,192,146013,1,0,0:0:0:0:
256,192,146057,1,8,0:0:0:0:
256,192,146234,1,0,0:0:0:0:
256,192,146322,1,0,0:0:0:0:
256,192,146410,1,0,0:0:0:0:
256,192,146499,1,0,0:0:0:0:
256,192,146587,1,0,0:0:0:0:
96,288,146675,2,0,L|544:288,1,420
256,192,147381,5,0,0:0:0:0:
256,128,147469,1,12,0:0:0:0:
256,192,147646,1,0,0:0:0:0:
256,128,147734,1,12,0:0:0:0:
256,192,147822,1,8,0:0:0:0:
256,192,147910,1,0,0:0:0:0:
256,192,147999,1,0,0:0:0:0:
256,192,148087,1,8,0:0:0:0:
256,192,148131,1,8,0:0:0:0:
256,192,148175,1,0,0:0:0:0:
256,192,148263,1,8,0:0:0:0:
256,192,148307,1,8,0:0:0:0:
256,192,148352,1,0,0:0:0:0:
256,192,148440,1,8,0:0:0:0:
256,192,148484,1,8,0:0:0:0:
256,192,148528,1,8,0:0:0:0:
256,192,148616,1,0,0:0:0:0:
256,192,148705,1,8,0:0:0:0:
256,192,148793,5,0,0:0:0:0:
256,128,148881,1,12,0:0:0:0:
256,192,149058,1,0,0:0:0:0:
256,128,149146,1,12,0:0:0:0:
256,192,149234,1,8,0:0:0:0:
256,192,149322,1,0,0:0:0:0:
256,192,149411,1,8,0:0:0:0:
256,192,149499,1,8,0:0:0:0:
256,192,149543,1,8,0:0:0:0:
256,192,149587,1,0,0:0:0:0:
256,192,149675,1,8,0:0:0:0:
256,192,149719,1,8,0:0:0:0:
256,192,149764,1,0,0:0:0:0:
256,192,149852,1,8,0:0:0:0:
256,192,149896,1,8,0:0:0:0:
256,192,149940,1,0,0:0:0:0:
256,192,149984,1,8,0:0:0:0:
256,192,150028,1,0,0:0:0:0:
256,192,150117,1,8,0:0:0:0:
256,192,150205,5,0,0:0:0:0:
256,128,150293,1,12,0:0:0:0:
256,192,150470,1,0,0:0:0:0:
256,128,150558,1,12,0:0:0:0:
256,192,150646,1,8,0:0:0:0:
256,192,150734,1,0,0:0:0:0:
256,192,150822,1,8,0:0:0:0:
256,192,150911,1,8,0:0:0:0:
256,192,150955,1,8,0:0:0:0:
256,192,150999,1,0,0:0:0:0:
256,192,151087,1,8,0:0:0:0:
256,192,151131,1,8,0:0:0:0:
256,192,151176,1,0,0:0:0:0:
256,192,151264,1,8,0:0:0:0:
256,192,151308,1,8,0:0:0:0:
256,192,151352,1,8,0:0:0:0:
256,192,151440,1,0,0:0:0:0:
256,192,151529,1,8,0:0:0:0:
256,192,151616,5,0,0:0:0:0:
256,128,151704,1,12,0:0:0:0:
256,192,151881,1,0,0:0:0:0:
256,128,151969,1,12,0:0:0:0:
256,192,152057,1,8,0:0:0:0:
256,192,152145,1,0,0:0:0:0:
256,192,152234,1,8,0:0:0:0:
256,192,152322,1,8,0:0:0:0:
256,192,152366,1,8,0:0:0:0:
256,192,152410,1,0,0:0:0:0:
256,192,152498,1,8,0:0:0:0:
256,192,152542,1,8,0:0:0:0:
256,192,152587,1,0,0:0:0:0:
256,192,152675,1,8,0:0:0:0:
256,192,152719,1,8,0:0:0:0:
256,192,152763,1,0,0:0:0:0:
256,192,152807,1,8,0:0:0:0:
256,192,152851,1,0,0:0:0:0:
256,192,152896,1,8,0:0:0:0:
256,192,152940,1,0,0:0:0:0:
256,192,153028,5,0,0:0:0:0:
256,128,153116,1,12,0:0:0:0:
256,192,153205,1,0,0:0:0:0:
256,192,153293,1,0,0:0:0:0:
256,192,153381,1,8,0:0:0:0:
256,192,153425,1,0,0:0:0:0:
256,192,153469,1,8,0:0:0:0:
256,192,153557,1,0,0:0:0:0:
256,192,153646,1,0,0:0:0:0:
256,192,153734,1,8,0:0:0:0:
256,192,153778,1,8,0:0:0:0:
256,192,153822,1,0,0:0:0:0:
256,192,153866,1,0,0:0:0:0:
256,192,153910,1,8,0:0:0:0:
256,192,153954,1,8,0:0:0:0:
256,192,153999,1,0,0:0:0:0:
256,128,154087,1,12,0:0:0:0:
256,192,154440,5,0,0:0:0:0:
256,192,154528,1,8,0:0:0:0:
256,192,154617,1,0,0:0:0:0:
256,192,154705,1,0,0:0:0:0:
256,192,154793,1,8,0:0:0:0:
256,192,154837,1,0,0:0:0:0:
256,192,154881,1,8,0:0:0:0:
256,192,154969,1,0,0:0:0:0:
256,192,155058,1,0,0:0:0:0:
256,192,155146,1,8,0:0:0:0:
256,192,155190,1,8,0:0:0:0:
256,192,155234,1,0,0:0:0:0:
256,192,155278,1,0,0:0:0:0:
256,192,155322,1,8,0:0:0:0:
256,192,155366,1,8,0:0:0:0:
256,192,155411,1,0,0:0:0:0:
256,128,155499,1,4,0:0:0:0:
64,288,155852,2,0,L|320:288,4,245
256,192,157263,1,8,0:0:0:0:
256,192,157528,1,8,0:0:0:0:
256,192,157793,1,8,0:0:0:0:
256,192,157969,1,8,0:0:0:0:
256,192,158146,1,8,0:0:0:0:
256,192,158322,1,8,0:0:0:0:
256,128,158675,1,4,0:0:0:0:
256,128,164322,5,4,0:0:0:0:
