osu file format v14

[General]
AudioFilename: audio.mp3
AudioLeadIn: 0
PreviewTime: 45028
Countdown: 0
SampleSet: Normal
StackLeniency: 0.7
Mode: 1
LetterboxInBreaks: 0
WidescreenStoryboard: 0

[Editor]
Bookmarks: 11852,34440,45734,56322,73969,119146,141734
DistanceSpacing: 1
BeatDivisor: 4
GridSize: 32
TimelineZoom: 3.800002

[Metadata]
Title:Ultima Weapon
TitleUnicode:Ultima Weapon
Artist:Laur
ArtistUnicode:Laur
Creator:yea
Version:Nishizumi's Ultimate Oni
Source:
Tags:speedcore hardcore
BeatmapID:1284067
BeatmapSetID:604073

[Difficulty]
HPDrainRate:4
CircleSize:4
OverallDifficulty:8
ApproachRate:6
SliderMultiplier:1.4
SliderTickRate:1

[Events]
//Background and Video events
0,0,"background.jpg",0,0
//Break Periods
//Storyboard Layer 0 (Background)
//Storyboard Layer 1 (Fail)
//Storyboard Layer 2 (Pass)
//Storyboard Layer 3 (Foreground)
//Storyboard Sound Samples

[TimingPoints]
558,176.470588235294,4,1,0,95,1,0
11146,-100,4,1,0,63,0,0
11190,-100,4,1,0,65,0,0
11234,-100,4,1,0,67,0,0
11278,-100,4,1,0,69,0,0
11322,-100,4,1,0,71,0,0
11366,-100,4,1,0,73,0,0
11410,-100,4,1,0,75,0,0
11455,-100,4,1,0,77,0,0
11499,-100,4,1,0,79,0,0
11543,-100,4,1,0,81,0,0
11587,-100,4,1,0,83,0,0
11631,-100,4,1,0,85,0,0
11675,-100,4,1,0,87,0,0
11719,-100,4,1,0,89,0,0
11763,-100,4,1,0,91,0,0
11807,-100,4,1,0,93,0,0
11852,-100,4,1,0,95,0,0
11896,-125,4,1,0,95,0,0
23190,-111.111111111111,4,1,0,95,0,0
34396,-100,4,1,0,95,0,0
45734,-100,4,1,0,95,0,1
51557,-100,4,1,0,95,0,1
57028,-100,4,1,0,95,0,0
73925,-142.857142857143,4,1,0,95,0,0
85396,-140.845070422535,4,1,0,95,0,0
85572,-138.888888888889,4,1,0,95,0,0
85749,-136.986301369863,4,1,0,95,0,0
85925,-135.135135135135,4,1,0,95,0,0
86102,-133.333333333333,4,1,0,95,0,0
86278,-131.578947368421,4,1,0,95,0,0
86455,-129.87012987013,4,1,0,95,0,0
86631,-128.205128205128,4,1,0,95,0,0
86807,-126.582278481013,4,1,0,95,0,0
86984,-125,4,1,0,95,0,0
87160,-123.456790123457,4,1,0,95,0,0
87337,-121.951219512195,4,1,0,95,0,0
87513,-120.481927710843,4,1,0,95,0,0
87690,-119.047619047619,4,1,0,95,0,0
87866,-117.647058823529,4,1,0,95,0,0
87955,-116.279069767442,4,1,0,95,0,0
88043,-114.942528735632,4,1,0,95,0,0
88219,-113.636363636364,4,1,0,95,0,0
88396,-112.359550561798,4,1,0,95,0,0
88572,-111.111111111111,4,1,0,95,0,0
88749,-109.89010989011,4,1,0,95,0,0
88925,-108.695652173913,4,1,0,95,0,0
89102,-107.52688172043,4,1,0,95,0,0
89278,-106.382978723404,4,1,0,95,0,0
89344,-105.263157894737,4,1,0,95,0,0
89388,-104.166666666667,4,1,0,95,0,0
89432,-103.092783505155,4,1,0,95,0,0
89477,-102.040816326531,4,1,0,95,0,0
89631,-101.010101010101,4,1,0,95,0,0
89830,-100,4,1,0,95,0,0
89984,-99.009900990099,4,1,0,95,0,0
90955,-100,4,1,0,95,0,0
96513,-125,4,1,0,95,0,0
107807,-100,4,1,0,95,0,0
107852,-100,4,1,0,95,0,1
119146,-100,4,1,0,95,0,1
130440,-100,4,1,0,95,0,0
136043,-111.111111111111,4,1,0,95,0,0
141690,-100,4,1,0,95,0,0
153028,-100,4,1,0,95,0,1
157263,-100,4,1,0,95,0,0

[HitObjects]
256,192,558,5,4,0:0:0:0:
256,192,734,1,0,0:0:0:0:
256,192,910,1,8,0:0:0:0:
256,192,1087,1,8,0:0:0:0:
256,192,1175,1,0,0:0:0:0:
256,192,1263,1,8,0:0:0:0:
256,192,1352,1,8,0:0:0:0:
256,192,1440,1,0,0:0:0:0:
256,192,1616,1,8,0:0:0:0:
256,192,1793,1,8,0:0:0:0:
256,192,1881,1,8,0:0:0:0:
256,192,1969,1,0,0:0:0:0:
256,192,2146,1,0,0:0:0:0:
256,192,2322,1,8,0:0:0:0:
256,192,2499,1,0,0:0:0:0:
256,192,2587,1,8,0:0:0:0:
256,192,2675,1,8,0:0:0:0:
256,192,2763,1,8,0:0:0:0:
256,192,2852,1,0,0:0:0:0:
256,192,3028,1,8,0:0:0:0:
256,192,3205,1,0,0:0:0:0:
256,192,3293,1,8,0:0:0:0:
256,192,3381,1,0,0:0:0:0:
256,192,3557,1,0,0:0:0:0:
256,192,3734,1,8,0:0:0:0:
256,192,3910,1,8,0:0:0:0:
256,192,3999,1,8,0:0:0:0:
256,192,4087,1,8,0:0:0:0:
256,192,4175,1,0,0:0:0:0:
256,192,4263,1,0,0:0:0:0:
256,192,4440,1,8,0:0:0:0:
256,192,4616,1,8,0:0:0:0:
256,192,4705,1,8,0:0:0:0:
256,192,4793,1,0,0:0:0:0:
256,192,4969,1,0,0:0:0:0:
256,192,5146,1,8,0:0:0:0:
256,192,5322,1,0,0:0:0:0:
256,192,5410,1,0,0:0:0:0:
256,192,5499,1,0,0:0:0:0:
256,192,5587,1,8,0:0:0:0:
256,192,5675,1,0,0:0:0:0:
256,192,5852,1,12,0:0:0:0:
256,192,6028,1,8,0:0:0:0:
256,192,6205,1,4,0:0:0:0:
256,192,6381,1,0,0:0:0:0:
256,192,6557,1,8,0:0:0:0:
256,192,6734,1,8,0:0:0:0:
256,192,6822,1,0,0:0:0:0:
256,192,6910,1,8,0:0:0:0:
256,192,6999,1,8,0:0:0:0:
256,192,7087,1,0,0:0:0:0:
256,192,7263,1,8,0:0:0:0:
256,192,7440,1,8,0:0:0:0:
256,192,7528,1,8,0:0:0:0:
256,192,7616,1,0,0:0:0:0:
256,192,7793,1,0,0:0:0:0:
256,192,7969,1,8,0:0:0:0:
256,192,8146,1,0,0:0:0:0:
256,192,8234,1,8,0:0:0:0:
256,192,8322,1,8,0:0:0:0:
256,192,8410,1,8,0:0:0:0:
256,192,8499,1,0,0:0:0:0:
256,192,8675,1,8,0:0:0:0:
256,192,8852,1,0,0:0:0:0:
256,192,8940,1,8,0:0:0:0:
256,192,9028,1,0,0:0:0:0:
256,192,9204,1,0,0:0:0:0:
256,192,9381,1,8,0:0:0:0:
256,192,9557,1,8,0:0:0:0:
256,192,9646,1,8,0:0:0:0:
256,192,9734,1,8,0:0:0:0:
256,192,9822,1,0,0:0:0:0:
256,192,9910,1,0,0:0:0:0:
256,192,10087,1,8,0:0:0:0:
256,192,10263,1,8,0:0:0:0:
256,192,10352,1,8,0:0:0:0:
256,192,10440,1,4,0:0:0:0:
256,192,11146,5,8,0:0:0:0:
256,192,11190,1,8,0:0:0:0:
256,192,11234,1,8,0:0:0:0:
256,192,11278,1,8,0:0:0:0:
256,192,11322,1,8,0:0:0:0:
256,192,11366,1,8,0:0:0:0:
256,192,11410,1,8,0:0:0:0:
256,192,11455,1,8,0:0:0:0:
256,192,11499,1,8,0:0:0:0:
256,192,11543,1,8,0:0:0:0:
256,192,11587,1,8,0:0:0:0:
256,192,11631,1,8,0:0:0:0:
256,192,11675,1,8,0:0:0:0:
256,192,11719,1,8,0:0:0:0:
256,192,11763,1,8,0:0:0:0:
256,192,11807,1,8,0:0:0:0:
256,192,11852,1,0,0:0:0:0:
256,192,12557,1,8,0:0:0:0:
256,192,13263,1,4,0:0:0:0:
256,192,13969,1,8,0:0:0:0:
256,192,14675,1,4,0:0:0:0:
256,192,15381,1,8,0:0:0:0:
256,192,16087,1,4,0:0:0:0:
256,192,16793,1,4,0:0:0:0:
256,192,17499,1,4,0:0:0:0:
256,192,18205,1,8,0:0:0:0:
256,192,18910,1,4,0:0:0:0:
256,192,19616,1,8,0:0:0:0:
256,192,20322,1,4,0:0:0:0:
256,192,21028,1,8,0:0:0:0:
256,192,21734,1,4,0:0:0:0:
256,192,22440,1,8,0:0:0:0:
256,192,23146,1,4,0:0:0:0:
256,192,27381,1,8,0:0:0:0:
256,192,27469,1,8,0:0:0:0:
256,192,27557,1,0,0:0:0:0:
256,192,27646,1,0,0:0:0:0:
256,192,27734,1,0,0:0:0:0:
256,192,27822,1,0,0:0:0:0:
256,192,27910,1,8,0:0:0:0:
256,192,27999,1,8,0:0:0:0:
256,192,28087,1,0,0:0:0:0:
256,192,28175,1,0,0:0:0:0:
256,192,28263,1,0,0:0:0:0:
256,192,28352,1,0,0:0:0:0:
256,192,28440,1,8,0:0:0:0:
256,192,28528,1,0,0:0:0:0:
256,192,28616,1,8,0:0:0:0:
256,192,28705,1,8,0:0:0:0:
256,192,28793,1,4,0:0:0:0:
256,192,29852,1,8,0:0:0:0:
256,192,29896,1,8,0:0:0:0:
256,192,29940,1,8,0:0:0:0:
256,192,30028,1,8,0:0:0:0:
256,192,30116,1,8,0:0:0:0:
256,192,30205,1,4,0:0:0:0:
256,192,31263,1,12,0:0:0:0:
256,192,31616,1,0,0:0:0:0:
256,192,31705,1,8,0:0:0:0:
256,192,31749,1,8,0:0:0:0:
256,192,31793,1,0,0:0:0:0:
256,192,31881,1,8,0:0:0:0:
256,192,31969,1,0,0:0:0:0:
256,192,32057,1,0,0:0:0:0:
256,192,32146,1,8,0:0:0:0:
256,192,32234,1,8,0:0:0:0:
256,192,32322,1,0,0:0:0:0:
256,192,32410,1,0,0:0:0:0:
256,192,32499,1,8,0:0:0:0:
256,192,32587,1,0,0:0:0:0:
256,192,32675,1,8,0:0:0:0:
256,192,32719,1,0,0:0:0:0:
256,192,32763,1,8,0:0:0:0:
256,192,32807,1,0,0:0:0:0:
256,192,32852,1,8,0:0:0:0:
256,192,32896,1,0,0:0:0:0:
256,192,32940,1,8,0:0:0:0:
256,192,32984,1,8,0:0:0:0:
256,192,33028,1,0,0:0:0:0:
256,192,34087,1,12,0:0:0:0:
256,192,34440,1,4,0:0:0:0:
256,192,34528,1,8,0:0:0:0:
256,192,34572,1,8,0:0:0:0:
256,192,34616,1,0,0:0:0:0:
256,192,34705,1,8,0:0:0:0:
256,192,34793,1,0,0:0:0:0:
256,192,34881,1,0,0:0:0:0:
256,192,34969,1,8,0:0:0:0:
256,192,35057,1,0,0:0:0:0:
256,192,35146,1,0,0:0:0:0:
256,192,35234,1,8,0:0:0:0:
256,192,35278,1,8,0:0:0:0:
256,192,35322,1,0,0:0:0:0:
256,192,35410,1,0,0:0:0:0:
256,192,35499,1,8,0:0:0:0:
256,192,35543,1,8,0:0:0:0:
256,192,35587,1,0,0:0:0:0:
256,192,35675,1,8,0:0:0:0:
256,192,35763,1,0,0:0:0:0:
256,192,35852,1,8,0:0:0:0:
256,192,35896,1,8,0:0:0:0:
256,192,35940,1,0,0:0:0:0:
256,192,36028,1,0,0:0:0:0:
256,192,36116,1,8,0:0:0:0:
256,192,36205,1,0,0:0:0:0:
256,192,36249,1,0,0:0:0:0:
256,192,36293,1,0,0:0:0:0:
256,192,36381,1,8,0:0:0:0:
256,192,36469,1,0,0:0:0:0:
256,192,36557,1,8,0:0:0:0:
256,192,36602,1,8,0:0:0:0:
256,192,36646,1,0,0:0:0:0:
256,192,36734,1,8,0:0:0:0:
256,192,36822,1,0,0:0:0:0:
256,192,36866,1,0,0:0:0:0:
256,192,36910,1,0,0:0:0:0:
256,192,36999,1,8,0:0:0:0:
256,192,37087,1,0,0:0:0:0:
256,192,37131,1,0,0:0:0:0:
256,192,37175,1,0,0:0:0:0:
256,192,37219,1,0,0:0:0:0:
256,192,37263,1,8,0:0:0:0:
256,192,37352,1,8,0:0:0:0:
256,192,37440,1,0,0:0:0:0:
256,192,37528,1,8,0:0:0:0:
256,192,37572,1,8,0:0:0:0:
256,192,37616,1,0,0:0:0:0:
256,192,37705,1,0,0:0:0:0:
256,192,37793,1,8,0:0:0:0:
256,192,37881,1,0,0:0:0:0:
256,192,37925,1,0,0:0:0:0:
256,192,37969,1,0,0:0:0:0:
256,192,38057,1,8,0:0:0:0:
256,192,38146,1,0,0:0:0:0:
256,192,38190,1,0,0:0:0:0:
256,192,38234,1,0,0:0:0:0:
256,192,38322,1,8,0:0:0:0:
256,192,38410,1,8,0:0:0:0:
256,192,38499,1,0,0:0:0:0:
256,192,38543,1,0,0:0:0:0:
256,192,38587,1,0,0:0:0:0:
256,192,38631,1,0,0:0:0:0:
256,192,38675,1,8,0:0:0:0:
256,192,38763,1,8,0:0:0:0:
256,192,38852,1,0,0:0:0:0:
256,192,38896,1,0,0:0:0:0:
256,192,38940,1,8,0:0:0:0:
256,192,39028,1,0,0:0:0:0:
256,192,39116,1,8,0:0:0:0:
256,192,39160,1,8,0:0:0:0:
256,192,39205,1,0,0:0:0:0:
256,192,39293,1,0,0:0:0:0:
256,192,39381,1,8,0:0:0:0:
256,192,39425,1,8,0:0:0:0:
256,192,39469,1,8,0:0:0:0:
256,192,39513,1,8,0:0:0:0:
256,192,39557,1,0,0:0:0:0:
256,192,39602,1,0,0:0:0:0:
256,192,39646,1,0,0:0:0:0:
256,192,39690,1,0,0:0:0:0:
256,192,39734,1,8,0:0:0:0:
256,192,39778,1,8,0:0:0:0:
256,192,39822,1,8,0:0:0:0:
256,192,39866,1,8,0:0:0:0:
256,192,39910,1,0,0:0:0:0:
256,192,39955,1,0,0:0:0:0:
256,192,39999,1,8,0:0:0:0:
256,192,40043,1,8,0:0:0:0:
256,192,40087,1,0,0:0:0:0:
256,192,40175,1,8,0:0:0:0:
256,192,40219,1,8,0:0:0:0:
256,192,40263,1,0,0:0:0:0:
256,192,40352,1,8,0:0:0:0:
256,192,40440,1,0,0:0:0:0:
256,192,40528,1,0,0:0:0:0:
256,192,40616,1,8,0:0:0:0:
256,192,40705,1,0,0:0:0:0:
256,192,40749,1,0,0:0:0:0:
256,192,40793,1,0,0:0:0:0:
256,192,40881,1,8,0:0:0:0:
256,192,40925,1,8,0:0:0:0:
256,192,40969,1,0,0:0:0:0:
256,192,41057,1,0,0:0:0:0:
256,192,41146,1,8,0:0:0:0:
288,192,41234,1,8,0:0:0:0:
256,192,41322,1,0,0:0:0:0:
256,192,41366,1,0,0:0:0:0:
256,192,41410,1,0,0:0:0:0:
256,192,41455,1,0,0:0:0:0:
256,192,41499,1,8,0:0:0:0:
256,192,41587,1,8,0:0:0:0:
256,192,41675,1,0,0:0:0:0:
256,192,41763,1,8,0:0:0:0:
256,192,41807,1,8,0:0:0:0:
256,192,41852,1,0,0:0:0:0:
256,192,41940,1,0,0:0:0:0:
256,192,42028,1,8,0:0:0:0:
256,192,42116,1,0,0:0:0:0:
256,192,42160,1,0,0:0:0:0:
256,192,42205,1,8,0:0:0:0:
256,192,42293,1,0,0:0:0:0:
256,192,42381,1,8,0:0:0:0:
256,192,42425,1,8,0:0:0:0:
256,192,42469,1,8,0:0:0:0:
256,192,42557,1,0,0:0:0:0:
256,192,42646,1,0,0:0:0:0:
256,192,42734,1,8,0:0:0:0:
256,192,42778,1,0,0:0:0:0:
256,192,42822,1,8,0:0:0:0:
256,192,42866,1,8,0:0:0:0:
256,192,42910,1,0,0:0:0:0:
256,192,42999,1,8,0:0:0:0:
256,192,43087,1,0,0:0:0:0:
256,192,43175,1,8,0:0:0:0:
256,192,43219,1,8,0:0:0:0:
256,192,43263,1,0,0:0:0:0:
256,192,43352,1,0,0:0:0:0:
256,192,43440,1,8,0:0:0:0:
256,192,43528,1,0,0:0:0:0:
256,192,43572,1,0,0:0:0:0:
256,192,43616,1,0,0:0:0:0:
256,192,43705,1,8,0:0:0:0:
256,192,43749,1,8,0:0:0:0:
256,192,43793,1,0,0:0:0:0:
256,192,43881,1,0,0:0:0:0:
256,192,43969,1,8,0:0:0:0:
256,192,44057,1,8,0:0:0:0:
256,192,44146,1,0,0:0:0:0:
256,192,44190,1,0,0:0:0:0:
256,192,44234,1,0,0:0:0:0:
256,192,44278,1,0,0:0:0:0:
256,192,44322,1,8,0:0:0:0:
256,192,44410,1,8,0:0:0:0:
256,192,44499,1,0,0:0:0:0:
256,192,44587,1,8,0:0:0:0:
256,192,44631,1,8,0:0:0:0:
256,192,44675,1,0,0:0:0:0:
256,192,44763,1,0,0:0:0:0:
256,192,44852,1,8,0:0:0:0:
256,192,44940,1,8,0:0:0:0:
256,192,45028,1,4,0:0:0:0:
256,192,45734,1,8,0:0:0:0:
256,192,45778,1,8,0:0:0:0:
256,192,45822,1,0,0:0:0:0:
256,192,45910,1,8,0:0:0:0:
256,192,45999,1,0,0:0:0:0:
256,192,46043,1,0,0:0:0:0:
256,192,46087,1,0,0:0:0:0:
256,192,46175,1,8,0:0:0:0:
256,192,46263,1,0,0:0:0:0:
256,192,46352,1,0,0:0:0:0:
256,192,46440,1,8,0:0:0:0:
256,192,46484,1,8,0:0:0:0:
256,192,46528,1,0,0:0:0:0:
256,192,46616,1,8,0:0:0:0:
256,192,46705,1,0,0:0:0:0:
256,192,46793,1,8,0:0:0:0:
256,192,46837,1,8,0:0:0:0:
256,192,46881,1,0,0:0:0:0:
256,192,46969,1,8,0:0:0:0:
256,192,47013,1,8,0:0:0:0:
256,192,47057,1,0,0:0:0:0:
256,192,47146,1,8,0:0:0:0:
256,192,47190,1,8,0:0:0:0:
256,192,47234,1,0,0:0:0:0:
256,192,47322,1,8,0:0:0:0:
256,192,47410,1,0,0:0:0:0:
256,192,47455,1,0,0:0:0:0:
256,192,47499,1,0,0:0:0:0:
256,192,47587,1,8,0:0:0:0:
256,192,47675,1,0,0:0:0:0:
256,192,47763,1,0,0:0:0:0:
256,192,47852,1,8,0:0:0:0:
256,192,47896,1,8,0:0:0:0:
256,192,47940,1,0,0:0:0:0:
256,192,48028,1,0,0:0:0:0:
256,192,48116,1,0,0:0:0:0:
256,192,48205,1,8,0:0:0:0:
256,192,48249,1,8,0:0:0:0:
256,192,48293,1,8,0:0:0:0:
256,192,48337,1,8,0:0:0:0:
256,192,48381,1,0,0:0:0:0:
256,192,48469,1,0,0:0:0:0:
256,192,48557,1,8,0:0:0:0:
256,192,48602,1,8,0:0:0:0:
256,192,48646,1,0,0:0:0:0:
256,192,48734,1,8,0:0:0:0:
256,192,48822,1,0,0:0:0:0:
256,192,48866,1,0,0:0:0:0:
256,192,48910,1,0,0:0:0:0:
256,192,48999,1,8,0:0:0:0:
256,192,49087,1,0,0:0:0:0:
256,192,49175,1,0,0:0:0:0:
256,192,49263,1,8,0:0:0:0:
256,192,49307,1,8,0:0:0:0:
256,192,49352,1,0,0:0:0:0:
256,192,49440,1,8,0:0:0:0:
256,192,49528,1,0,0:0:0:0:
256,192,49616,1,8,0:0:0:0:
256,192,49660,1,8,0:0:0:0:
256,192,49705,1,0,0:0:0:0:
256,192,49793,1,8,0:0:0:0:
256,192,49837,1,8,0:0:0:0:
256,192,49881,1,0,0:0:0:0:
256,192,49969,1,8,0:0:0:0:
256,192,50013,1,8,0:0:0:0:
256,192,50057,1,0,0:0:0:0:
256,192,50146,1,8,0:0:0:0:
256,192,50234,1,0,0:0:0:0:
256,192,50278,1,0,0:0:0:0:
256,192,50322,1,0,0:0:0:0:
256,192,50410,1,8,0:0:0:0:
256,192,50499,1,0,0:0:0:0:
256,192,50587,1,0,0:0:0:0:
256,192,50675,1,8,0:0:0:0:
256,192,50719,1,8,0:0:0:0:
256,192,50763,1,0,0:0:0:0:
256,192,50852,1,8,0:0:0:0:
256,192,50940,1,0,0:0:0:0:
256,192,51028,1,8,0:0:0:0:
256,192,51072,1,8,0:0:0:0:
256,192,51116,1,8,0:0:0:0:
256,192,51160,1,8,0:0:0:0:
256,192,51205,1,0,0:0:0:0:
256,192,51249,1,0,0:0:0:0:
256,192,51293,1,0,0:0:0:0:
256,192,51337,1,0,0:0:0:0:
256,192,51381,1,8,0:0:0:0:
256,192,51425,1,8,0:0:0:0:
256,192,51469,1,0,0:0:0:0:
256,192,51557,1,0,0:0:0:0:
256,192,51646,1,8,0:0:0:0:
256,192,51690,1,8,0:0:0:0:
256,192,51734,1,0,0:0:0:0:
256,192,51822,1,0,0:0:0:0:
256,192,51910,1,8,0:0:0:0:
256,192,51999,1,0,0:0:0:0:
256,192,52087,1,8,0:0:0:0:
256,192,52131,1,8,0:0:0:0:
256,192,52175,1,0,0:0:0:0:
256,192,52263,1,0,0:0:0:0:
256,192,52352,1,0,0:0:0:0:
256,192,52440,1,8,0:0:0:0:
256,192,52484,1,8,0:0:0:0:
256,192,52528,1,0,0:0:0:0:
288,192,52616,1,8,0:0:0:0:
256,192,52660,1,8,0:0:0:0:
256,192,52705,1,0,0:0:0:0:
256,192,52793,1,8,0:0:0:0:
256,192,52837,1,8,0:0:0:0:
256,192,52881,1,0,0:0:0:0:
256,192,52969,1,0,0:0:0:0:
256,192,53057,1,8,0:0:0:0:
256,192,53102,1,8,0:0:0:0:
256,192,53146,1,0,0:0:0:0:
256,192,53234,1,0,0:0:0:0:
256,192,53322,1,8,0:0:0:0:
256,192,53410,1,0,0:0:0:0:
256,192,53499,1,8,0:0:0:0:
256,192,53543,1,8,0:0:0:0:
256,192,53587,1,0,0:0:0:0:
256,192,53675,1,0,0:0:0:0:
256,192,53763,1,8,0:0:0:0:
256,192,53852,1,0,0:0:0:0:
256,192,53896,1,0,0:0:0:0:
256,192,53940,1,0,0:0:0:0:
256,192,53984,1,0,0:0:0:0:
256,192,54028,1,8,0:0:0:0:
256,192,54072,1,8,0:0:0:0:
256,192,54116,1,0,0:0:0:0:
256,192,54160,1,0,0:0:0:0:
256,192,54205,1,8,0:0:0:0:
256,192,54249,1,8,0:0:0:0:
256,192,54293,1,0,0:0:0:0:
256,192,54381,1,0,0:0:0:0:
256,192,54469,1,8,0:0:0:0:
256,192,54513,1,8,0:0:0:0:
256,192,54557,1,0,0:0:0:0:
256,192,54646,1,0,0:0:0:0:
256,192,54734,1,8,0:0:0:0:
256,192,54822,1,0,0:0:0:0:
256,192,54910,1,8,0:0:0:0:
256,192,54955,1,8,0:0:0:0:
256,192,54999,1,0,0:0:0:0:
256,192,55087,1,0,0:0:0:0:
256,192,55175,1,0,0:0:0:0:
256,192,55263,1,8,0:0:0:0:
256,192,55307,1,8,0:0:0:0:
256,192,55352,1,0,0:0:0:0:
256,192,55440,1,8,0:0:0:0:
256,192,55484,1,8,0:0:0:0:
256,192,55528,1,0,0:0:0:0:
256,192,55616,1,8,0:0:0:0:
256,192,55660,1,8,0:0:0:0:
256,192,55705,1,8,0:0:0:0:
256,192,55749,1,8,0:0:0:0:
256,192,55793,1,0,0:0:0:0:
256,192,55837,1,0,0:0:0:0:
256,192,55881,1,0,0:0:0:0:
256,192,55925,1,0,0:0:0:0:
256,192,55969,1,8,0:0:0:0:
256,192,56013,1,8,0:0:0:0:
256,192,56057,1,8,0:0:0:0:
256,192,56102,1,8,0:0:0:0:
256,192,56146,1,0,0:0:0:0:
256,192,56190,1,0,0:0:0:0:
256,192,56234,1,8,0:0:0:0:
256,192,56278,1,8,0:0:0:0:
256,192,56322,1,0,0:0:0:0:
256,192,57028,1,0,0:0:0:0:
256,192,57116,1,12,0:0:0:0:
256,192,57293,1,0,0:0:0:0:
256,192,57381,1,12,0:0:0:0:
256,192,57557,1,0,0:0:0:0:
256,192,57646,1,0,0:0:0:0:
256,192,57734,1,0,0:0:0:0:
256,192,57822,1,12,0:0:0:0:
256,192,57999,1,0,0:0:0:0:
256,192,58087,1,12,0:0:0:0:
256,192,58440,1,0,0:0:0:0:
256,192,58528,1,12,0:0:0:0:
256,192,58705,1,0,0:0:0:0:
256,192,58793,1,12,0:0:0:0:
256,192,58969,1,8,0:0:0:0:
256,192,59013,1,8,0:0:0:0:
256,192,59057,1,8,0:0:0:0:
256,192,59146,1,0,0:0:0:0:
256,192,59234,1,12,0:0:0:0:
256,192,59410,1,0,0:0:0:0:
256,192,59499,1,12,0:0:0:0:
256,192,59852,1,0,0:0:0:0:
256,192,59940,1,12,0:0:0:0:
256,192,60116,1,0,0:0:0:0:
256,192,60205,1,12,0:0:0:0:
256,192,60381,1,0,0:0:0:0:
256,192,60469,1,0,0:0:0:0:
256,192,60557,1,0,0:0:0:0:
256,192,60646,1,12,0:0:0:0:
256,192,60822,1,0,0:0:0:0:
256,192,60910,1,12,0:0:0:0:
256,192,61263,1,0,0:0:0:0:
256,192,61352,1,12,0:0:0:0:
256,192,61528,1,0,0:0:0:0:
256,192,61616,1,12,0:0:0:0:
256,192,61793,1,8,0:0:0:0:
256,192,61837,1,8,0:0:0:0:
256,192,61881,1,8,0:0:0:0:
256,192,61969,1,0,0:0:0:0:
256,192,62057,1,12,0:0:0:0:
256,192,62234,1,0,0:0:0:0:
256,192,62322,1,12,0:0:0:0:
256,192,62675,1,4,0:0:0:0:
256,192,62763,1,8,0:0:0:0:
256,192,62807,1,8,0:0:0:0:
256,192,62852,1,8,0:0:0:0:
256,192,62940,1,0,0:0:0:0:
256,192,63028,1,8,0:0:0:0:
256,192,63072,1,8,0:0:0:0:
256,192,63116,1,8,0:0:0:0:
256,192,63205,1,0,0:0:0:0:
256,192,63293,1,8,0:0:0:0:
256,192,63381,1,0,0:0:0:0:
256,192,63469,1,8,0:0:0:0:
256,192,63513,1,8,0:0:0:0:
256,192,63557,1,8,0:0:0:0:
256,192,63646,1,0,0:0:0:0:
256,192,63734,1,12,0:0:0:0:
256,192,64087,1,4,0:0:0:0:
256,192,64175,1,8,0:0:0:0:
256,192,64219,1,8,0:0:0:0:
256,192,64263,1,0,0:0:0:0:
256,192,64352,1,0,0:0:0:0:
256,192,64440,1,8,0:0:0:0:
256,192,64484,1,8,0:0:0:0:
256,192,64528,1,0,0:0:0:0:
256,192,64616,1,0,0:0:0:0:
256,192,64705,1,8,0:0:0:0:
256,192,64793,1,0,0:0:0:0:
256,192,64881,1,8,0:0:0:0:
256,192,64925,1,8,0:0:0:0:
256,192,64969,1,0,0:0:0:0:
256,192,65057,1,0,0:0:0:0:
256,192,65146,1,12,0:0:0:0:
256,192,65499,1,0,0:0:0:0:
256,192,65543,1,0,0:0:0:0:
256,192,65587,1,8,0:0:0:0:
256,192,65631,1,8,0:0:0:0:
256,192,65675,1,8,0:0:0:0:
256,192,65719,1,8,0:0:0:0:
256,192,65763,1,0,0:0:0:0:
256,192,65807,1,0,0:0:0:0:
256,192,65852,1,8,0:0:0:0:
256,192,65896,1,8,0:0:0:0:
256,192,65940,1,8,0:0:0:0:
256,192,65984,1,8,0:0:0:0:
256,192,66028,1,0,0:0:0:0:
256,192,66072,1,0,0:0:0:0:
256,192,66116,1,8,0:0:0:0:
256,192,66160,1,8,0:0:0:0:
256,192,66205,1,0,0:0:0:0:
256,192,66249,1,0,0:0:0:0:
256,192,66293,1,8,0:0:0:0:
256,192,66337,1,8,0:0:0:0:
256,192,66381,1,8,0:0:0:0:
256,192,66425,1,8,0:0:0:0:
256,192,66469,1,0,0:0:0:0:
256,192,66513,1,0,0:0:0:0:
256,192,66557,1,8,0:0:0:0:
256,192,66602,1,8,0:0:0:0:
256,192,66646,1,8,0:0:0:0:
256,192,66690,1,8,0:0:0:0:
256,192,66734,1,8,0:0:0:0:
256,192,66778,1,8,0:0:0:0:
256,192,66822,1,8,0:0:0:0:
256,192,66866,1,8,0:0:0:0:
256,192,66910,1,0,0:0:0:0:
256,192,68322,1,4,0:0:0:0:
256,192,68410,12,0,73881,0:0:0:0:
256,192,73969,5,0,0:0:0:0:
256,192,74146,1,0,0:0:0:0:
256,192,74234,1,0,0:0:0:0:
256,192,74322,1,0,0:0:0:0:
256,192,74499,1,0,0:0:0:0:
256,192,74587,1,0,0:0:0:0:
256,192,74675,1,8,0:0:0:0:
256,192,75028,1,0,0:0:0:0:
256,192,75205,1,8,0:0:0:0:
256,192,75249,1,0,0:0:0:0:
256,192,75293,1,8,0:0:0:0:
256,192,75381,1,0,0:0:0:0:
256,192,75557,1,0,0:0:0:0:
256,192,75646,1,0,0:0:0:0:
256,192,75734,1,0,0:0:0:0:
256,192,75910,1,0,0:0:0:0:
256,192,75999,1,0,0:0:0:0:
256,192,76087,1,8,0:0:0:0:
256,192,76440,1,0,0:0:0:0:
256,192,76616,1,8,0:0:0:0:
256,192,76793,1,0,0:0:0:0:
256,192,76969,1,0,0:0:0:0:
256,192,77057,1,0,0:0:0:0:
256,192,77146,1,0,0:0:0:0:
256,192,77322,1,0,0:0:0:0:
256,192,77410,1,0,0:0:0:0:
256,192,77499,1,8,0:0:0:0:
256,192,77675,1,8,0:0:0:0:
256,192,77763,1,0,0:0:0:0:
256,192,77852,1,8,0:0:0:0:
256,192,78028,1,8,0:0:0:0:
256,192,78116,1,8,0:0:0:0:
256,192,78205,1,0,0:0:0:0:
256,192,78381,1,0,0:0:0:0:
256,192,78469,1,0,0:0:0:0:
256,192,78557,1,0,0:0:0:0:
256,192,78734,1,0,0:0:0:0:
256,192,78822,1,0,0:0:0:0:
256,192,78910,1,8,0:0:0:0:
256,192,79087,1,8,0:0:0:0:
256,192,79175,1,0,0:0:0:0:
256,192,79263,1,8,0:0:0:0:
256,192,79616,1,0,0:0:0:0:
256,192,79793,1,0,0:0:0:0:
256,192,79881,1,0,0:0:0:0:
256,192,79969,1,0,0:0:0:0:
256,192,80146,1,0,0:0:0:0:
256,192,80234,1,0,0:0:0:0:
256,192,80322,1,8,0:0:0:0:
256,192,80499,1,8,0:0:0:0:
256,192,80587,1,0,0:0:0:0:
256,192,80675,1,8,0:0:0:0:
256,192,80852,1,8,0:0:0:0:
256,192,80940,1,8,0:0:0:0:
256,192,81028,1,0,0:0:0:0:
256,192,81205,1,0,0:0:0:0:
256,192,81293,1,8,0:0:0:0:
256,192,81381,1,0,0:0:0:0:
256,192,81557,1,0,0:0:0:0:
256,192,81734,1,8,0:0:0:0:
256,192,82087,1,8,0:0:0:0:
256,192,82263,1,0,0:0:0:0:
256,192,82440,1,0,0:0:0:0:
256,192,82616,1,0,0:0:0:0:
256,192,82705,1,0,0:0:0:0:
256,192,82793,1,0,0:0:0:0:
256,192,82969,1,0,0:0:0:0:
256,192,83057,1,0,0:0:0:0:
256,192,83146,1,8,0:0:0:0:
256,192,83322,1,8,0:0:0:0:
256,192,83410,1,0,0:0:0:0:
256,192,83499,1,8,0:0:0:0:
256,192,83675,1,0,0:0:0:0:
256,192,83763,1,8,0:0:0:0:
256,192,83852,1,0,0:0:0:0:
256,192,84028,1,0,0:0:0:0:
256,192,84205,1,8,0:0:0:0:
256,192,84381,1,0,0:0:0:0:
256,192,84469,1,8,0:0:0:0:
256,192,84557,1,0,0:0:0:0:
256,192,84646,1,0,0:0:0:0:
256,192,84734,1,8,0:0:0:0:
256,192,84910,1,8,0:0:0:0:
256,192,85263,5,4,0:0:0:0:
256,192,85440,1,0,0:0:0:0:
256,192,85616,1,0,0:0:0:0:
256,192,85793,1,0,0:0:0:0:
256,192,85969,1,0,0:0:0:0:
288,192,86146,1,0,0:0:0:0:
256,192,86322,1,0,0:0:0:0:
256,192,86499,1,0,0:0:0:0:
256,192,86675,1,0,0:0:0:0:
256,192,86852,1,0,0:0:0:0:
256,192,87028,1,0,0:0:0:0:
256,192,87205,1,0,0:0:0:0:
256,192,87381,1,0,0:0:0:0:
256,192,87557,1,0,0:0:0:0:
256,192,87734,1,0,0:0:0:0:
256,192,87910,1,0,0:0:0:0:
256,192,87999,1,0,0:0:0:0:
256,192,88087,1,8,0:0:0:0:
256,192,88263,1,8,0:0:0:0:
256,192,88440,1,8,0:0:0:0:
256,192,88616,1,8,0:0:0:0:
256,192,88793,1,8,0:0:0:0:
256,192,88969,1,8,0:0:0:0:
256,192,89146,1,8,0:0:0:0:
256,192,89322,1,8,0:0:0:0:
256,192,89366,1,8,0:0:0:0:
256,192,89410,1,8,0:0:0:0:
256,192,89455,1,8,0:0:0:0:
256,192,89499,1,8,0:0:0:0:
256,192,89675,1,8,0:0:0:0:
256,192,89852,1,8,0:0:0:0:
256,192,90028,1,8,0:0:0:0:
256,192,90205,1,0,0:0:0:0:
256,192,90249,1,0,0:0:0:0:
256,192,90293,1,0,0:0:0:0:
256,192,90337,1,0,0:0:0:0:
256,192,90381,1,0,0:0:0:0:
256,192,90425,1,0,0:0:0:0:
256,192,90469,1,0,0:0:0:0:
256,192,90513,1,0,0:0:0:0:
256,192,90557,1,8,0:0:0:0:
256,192,90602,1,8,0:0:0:0:
256,192,90646,1,8,0:0:0:0:
256,192,90690,1,8,0:0:0:0:
256,192,90734,1,8,0:0:0:0:
256,192,90778,1,8,0:0:0:0:
256,192,90822,1,8,0:0:0:0:
256,192,90866,1,8,0:0:0:0:
256,192,90910,1,0,0:0:0:0:
256,192,90999,12,0,93646,0:0:0:0:
256,192,93734,5,4,0:0:0:0:
256,192,96557,1,12,0:0:0:0:
256,192,96734,1,0,0:0:0:0:
256,192,96822,1,0,0:0:0:0:
256,192,96999,1,0,0:0:0:0:
256,192,97087,1,0,0:0:0:0:
256,192,97263,1,0,0:0:0:0:
256,192,97352,1,8,0:0:0:0:
256,192,97528,1,8,0:0:0:0:
256,192,97616,1,0,0:0:0:0:
256,192,97969,1,8,0:0:0:0:
256,192,98146,1,0,0:0:0:0:
256,192,98234,1,0,0:0:0:0:
256,192,98410,1,0,0:0:0:0:
256,192,98499,1,0,0:0:0:0:
256,192,98675,1,8,0:0:0:0:
256,192,98852,1,0,0:0:0:0:
256,192,99028,1,8,0:0:0:0:
256,192,99116,1,0,0:0:0:0:
256,192,99205,1,8,0:0:0:0:
256,192,99381,1,8,0:0:0:0:
256,192,99557,1,0,0:0:0:0:
256,192,99646,1,0,0:0:0:0:
256,192,99822,1,0,0:0:0:0:
256,192,99910,1,0,0:0:0:0:
256,192,100087,1,0,0:0:0:0:
256,192,100175,1,8,0:0:0:0:
256,192,100352,1,0,0:0:0:0:
256,192,100440,1,8,0:0:0:0:
256,192,100793,1,8,0:0:0:0:
256,192,100881,1,8,0:0:0:0:
256,192,100969,1,0,0:0:0:0:
288,192,101057,1,8,0:0:0:0:
256,192,101146,1,0,0:0:0:0:
256,192,101234,1,0,0:0:0:0:
256,192,101322,1,8,0:0:0:0:
256,192,101410,1,8,0:0:0:0:
256,192,101499,1,0,0:0:0:0:
256,192,101587,1,8,0:0:0:0:
256,192,101675,1,0,0:0:0:0:
256,192,101763,1,0,0:0:0:0:
256,192,101852,1,8,0:0:0:0:
256,192,101940,1,0,0:0:0:0:
256,192,102028,1,8,0:0:0:0:
256,192,102116,1,8,0:0:0:0:
256,192,102205,1,4,0:0:0:0:
256,192,103263,1,8,0:0:0:0:
256,192,103322,1,8,0:0:0:0:
256,192,103381,1,8,0:0:0:0:
256,192,103499,1,8,0:0:0:0:
256,192,103616,1,4,0:0:0:0:
256,192,104675,1,8,0:0:0:0:
256,192,105028,1,0,0:0:0:0:
256,192,105146,1,8,0:0:0:0:
256,192,105263,1,8,0:0:0:0:
256,192,105381,1,8,0:0:0:0:
256,192,105440,1,8,0:0:0:0:
256,192,105499,1,8,0:0:0:0:
256,192,105616,1,8,0:0:0:0:
256,192,105734,1,8,0:0:0:0:
256,192,105793,1,8,0:0:0:0:
256,192,105852,1,8,0:0:0:0:
256,192,105969,1,8,0:0:0:0:
256,192,106087,1,8,0:0:0:0:
256,192,106440,1,4,0:0:0:0:
256,192,107499,1,8,0:0:0:0:
256,192,107852,1,4,0:0:0:0:
256,192,107969,1,8,0:0:0:0:
256,192,108087,1,0,0:0:0:0:
256,192,108205,1,8,0:0:0:0:
256,192,108263,1,8,0:0:0:0:
256,192,108322,1,0,0:0:0:0:
256,192,108440,1,0,0:0:0:0:
256,192,108557,1,8,0:0:0:0:
256,192,108616,1,8,0:0:0:0:
256,192,108675,1,0,0:0:0:0:
256,192,108793,1,0,0:0:0:0:
256,192,108910,1,12,0:0:0:0:
256,192,109146,1,0,0:0:0:0:
256,192,109263,1,8,0:0:0:0:
256,192,109381,1,0,0:0:0:0:
256,192,109499,1,0,0:0:0:0:
256,192,109616,1,8,0:0:0:0:
256,192,109646,1,8,0:0:0:0:
256,192,109675,1,8,0:0:0:0:
256,192,109705,1,8,0:0:0:0:
256,192,109734,1,0,0:0:0:0:
256,192,109852,1,0,0:0:0:0:
256,192,109969,1,12,0:0:0:0:
256,192,110205,1,0,0:0:0:0:
256,192,110322,1,12,0:0:0:0:
256,192,110557,1,0,0:0:0:0:
256,192,110675,1,12,0:0:0:0:
256,192,110793,1,0,0:0:0:0:
256,192,110910,1,0,0:0:0:0:
256,192,111028,1,8,0:0:0:0:
256,192,111087,1,8,0:0:0:0:
256,192,111146,1,0,0:0:0:0:
256,192,111263,1,0,0:0:0:0:
256,192,111381,1,8,0:0:0:0:
256,192,111440,1,8,0:0:0:0:
256,192,111499,1,0,0:0:0:0:
256,192,111616,1,0,0:0:0:0:
256,192,111734,1,12,0:0:0:0:
256,192,111969,1,0,0:0:0:0:
256,192,112087,1,8,0:0:0:0:
256,192,112205,1,0,0:0:0:0:
256,192,112322,1,0,0:0:0:0:
256,192,112440,1,8,0:0:0:0:
256,192,112469,1,8,0:0:0:0:
256,192,112499,1,8,0:0:0:0:
256,192,112528,1,8,0:0:0:0:
256,192,112557,1,0,0:0:0:0:
256,192,112675,1,0,0:0:0:0:
256,192,112793,1,12,0:0:0:0:
256,192,113028,1,0,0:0:0:0:
256,192,113146,1,8,0:0:0:0:
256,192,113190,1,8,0:0:0:0:
256,192,113234,1,8,0:0:0:0:
256,192,113278,1,8,0:0:0:0:
256,192,113322,1,8,0:0:0:0:
256,192,113366,1,8,0:0:0:0:
256,192,113410,1,8,0:0:0:0:
256,192,113455,1,8,0:0:0:0:
256,192,113499,1,0,0:0:0:0:
256,192,113616,1,0,0:0:0:0:
256,192,113734,1,0,0:0:0:0:
256,192,113852,1,8,0:0:0:0:
256,192,113910,1,8,0:0:0:0:
256,192,113969,1,0,0:0:0:0:
256,192,114087,1,0,0:0:0:0:
256,192,114205,1,8,0:0:0:0:
256,192,114263,1,8,0:0:0:0:
256,192,114322,1,0,0:0:0:0:
256,192,114440,1,0,0:0:0:0:
256,192,114557,1,12,0:0:0:0:
256,192,114793,1,0,0:0:0:0:
256,192,114910,1,12,0:0:0:0:
256,192,115028,1,0,0:0:0:0:
256,192,115146,1,0,0:0:0:0:
256,192,115263,1,8,0:0:0:0:
256,192,115293,1,8,0:0:0:0:
256,192,115322,1,8,0:0:0:0:
256,192,115352,1,8,0:0:0:0:
256,192,115381,1,0,0:0:0:0:
256,192,115499,1,0,0:0:0:0:
256,192,115616,1,12,0:0:0:0:
256,192,115852,1,0,0:0:0:0:
256,192,115969,1,12,0:0:0:0:
256,192,116205,1,0,0:0:0:0:
256,192,116322,1,12,0:0:0:0:
256,192,116440,1,0,0:0:0:0:
256,192,116557,1,0,0:0:0:0:
256,192,116675,1,8,0:0:0:0:
256,192,116734,1,8,0:0:0:0:
256,192,116793,1,0,0:0:0:0:
256,192,116910,1,0,0:0:0:0:
256,192,117028,1,8,0:0:0:0:
256,192,117087,1,8,0:0:0:0:
256,192,117146,1,0,0:0:0:0:
256,192,117263,1,0,0:0:0:0:
256,192,117381,1,12,0:0:0:0:
256,192,117616,1,0,0:0:0:0:
256,192,117734,1,8,0:0:0:0:
256,192,117793,1,8,0:0:0:0:
256,192,117852,1,0,0:0:0:0:
256,192,117910,1,8,0:0:0:0:
256,192,117969,1,0,0:0:0:0:
256,192,118028,1,0,0:0:0:0:
256,192,118087,1,8,0:0:0:0:
256,192,118146,1,8,0:0:0:0:
256,192,118205,1,0,0:0:0:0:
256,192,118263,1,8,0:0:0:0:
256,192,118322,1,0,0:0:0:0:
256,192,118381,1,0,0:0:0:0:
256,192,118440,1,12,0:0:0:0:
256,192,119146,1,8,0:0:0:0:
256,192,119190,1,8,0:0:0:0:
256,192,119234,1,0,0:0:0:0:
256,192,119322,1,8,0:0:0:0:
256,192,119411,1,0,0:0:0:0:
256,192,119455,1,0,0:0:0:0:
256,192,119499,1,0,0:0:0:0:
256,192,119543,1,0,0:0:0:0:
256,192,119587,1,8,0:0:0:0:
256,192,119675,1,0,0:0:0:0:
256,192,119764,1,0,0:0:0:0:
256,192,119852,1,8,0:0:0:0:
256,192,119896,1,8,0:0:0:0:
256,192,119940,1,0,0:0:0:0:
256,192,120028,1,8,0:0:0:0:
256,192,120117,1,0,0:0:0:0:
256,192,120205,1,8,0:0:0:0:
256,192,120249,1,8,0:0:0:0:
256,192,120293,1,0,0:0:0:0:
256,192,120381,1,8,0:0:0:0:
256,192,120425,1,8,0:0:0:0:
256,192,120469,1,0,0:0:0:0:
256,192,120558,1,8,0:0:0:0:
256,192,120602,1,8,0:0:0:0:
256,192,120646,1,0,0:0:0:0:
256,192,120734,1,8,0:0:0:0:
256,192,120822,1,0,0:0:0:0:
256,192,120866,1,0,0:0:0:0:
256,192,120911,1,0,0:0:0:0:
256,192,120955,1,0,0:0:0:0:
256,192,120999,1,8,0:0:0:0:
256,192,121087,1,0,0:0:0:0:
256,192,121175,1,0,0:0:0:0:
256,192,121264,1,8,0:0:0:0:
256,192,121308,1,8,0:0:0:0:
256,192,121352,1,0,0:0:0:0:
256,192,121440,1,0,0:0:0:0:
256,192,121528,1,0,0:0:0:0:
256,192,121617,1,8,0:0:0:0:
256,192,121661,1,8,0:0:0:0:
256,192,121705,1,8,0:0:0:0:
256,192,121749,1,8,0:0:0:0:
256,192,121793,1,0,0:0:0:0:
256,192,121881,1,0,0:0:0:0:
256,192,121969,1,8,0:0:0:0:
256,192,122014,1,8,0:0:0:0:
256,192,122058,1,0,0:0:0:0:
256,192,122146,1,8,0:0:0:0:
256,192,122234,1,0,0:0:0:0:
256,192,122278,1,0,0:0:0:0:
256,192,122322,1,0,0:0:0:0:
256,192,122366,1,0,0:0:0:0:
256,192,122411,1,8,0:0:0:0:
256,192,122499,1,0,0:0:0:0:
256,192,122587,1,0,0:0:0:0:
256,192,122675,1,8,0:0:0:0:
256,192,122719,1,8,0:0:0:0:
256,192,122764,1,0,0:0:0:0:
256,192,122852,1,8,0:0:0:0:
256,192,122940,1,0,0:0:0:0:
256,192,123028,1,8,0:0:0:0:
256,192,123072,1,8,0:0:0:0:
256,192,123117,1,0,0:0:0:0:
256,192,123205,1,8,0:0:0:0:
256,192,123249,1,8,0:0:0:0:
256,192,123293,1,0,0:0:0:0:
256,192,123381,1,8,0:0:0:0:
256,192,123425,1,8,0:0:0:0:
256,192,123469,1,0,0:0:0:0:
256,192,123558,1,8,0:0:0:0:
256,192,123646,1,0,0:0:0:0:
256,192,123690,1,0,0:0:0:0:
256,192,123734,1,0,0:0:0:0:
256,192,123778,1,0,0:0:0:0:
256,192,123822,1,8,0:0:0:0:
256,192,123911,1,0,0:0:0:0:
256,192,123999,1,0,0:0:0:0:
256,192,124087,1,8,0:0:0:0:
256,192,124131,1,8,0:0:0:0:
256,192,124175,1,0,0:0:0:0:
256,192,124264,1,8,0:0:0:0:
256,192,124352,1,0,0:0:0:0:
256,192,124440,1,8,0:0:0:0:
256,192,124484,1,8,0:0:0:0:
256,192,124528,1,8,0:0:0:0:
256,192,124572,1,8,0:0:0:0:
256,192,124617,1,0,0:0:0:0:
256,192,124661,1,0,0:0:0:0:
256,192,124705,1,0,0:0:0:0:
256,192,124749,1,0,0:0:0:0:
256,192,124793,1,8,0:0:0:0:
256,192,124837,1,8,0:0:0:0:
256,192,124881,1,0,0:0:0:0:
256,192,124969,1,0,0:0:0:0:
256,192,125058,1,8,0:0:0:0:
256,192,125102,1,8,0:0:0:0:
256,192,125146,1,0,0:0:0:0:
256,192,125190,1,0,0:0:0:0:
256,192,125234,1,0,0:0:0:0:
256,192,125322,1,8,0:0:0:0:
256,192,125411,1,0,0:0:0:0:
256,192,125499,1,8,0:0:0:0:
256,192,125543,1,8,0:0:0:0:
256,192,125587,1,0,0:0:0:0:
256,192,125675,1,0,0:0:0:0:
256,192,125764,1,0,0:0:0:0:
256,192,125852,1,8,0:0:0:0:
256,192,125896,1,8,0:0:0:0:
256,192,125940,1,0,0:0:0:0:
288,192,126028,1,8,0:0:0:0:
256,192,126072,1,8,0:0:0:0:
256,192,126117,1,0,0:0:0:0:
256,192,126205,1,8,0:0:0:0:
256,192,126249,1,8,0:0:0:0:
256,192,126293,1,0,0:0:0:0:
256,192,126381,1,0,0:0:0:0:
256,192,126469,1,8,0:0:0:0:
256,192,126513,1,8,0:0:0:0:
256,192,126558,1,0,0:0:0:0:
256,192,126602,1,0,0:0:0:0:
256,192,126646,1,0,0:0:0:0:
256,192,126734,1,8,0:0:0:0:
256,192,126822,1,0,0:0:0:0:
256,192,126911,1,8,0:0:0:0:
256,192,126955,1,8,0:0:0:0:
256,192,126999,1,0,0:0:0:0:
256,192,127087,1,0,0:0:0:0:
256,192,127175,1,8,0:0:0:0:
256,192,127264,1,0,0:0:0:0:
256,192,127308,1,0,0:0:0:0:
256,192,127352,1,0,0:0:0:0:
256,192,127396,1,0,0:0:0:0:
256,192,127440,1,8,0:0:0:0:
256,192,127484,1,8,0:0:0:0:
256,192,127528,1,0,0:0:0:0:
256,192,127572,1,0,0:0:0:0:
256,192,127617,1,8,0:0:0:0:
256,192,127661,1,8,0:0:0:0:
256,192,127705,1,0,0:0:0:0:
256,192,127793,1,0,0:0:0:0:
256,192,127881,1,8,0:0:0:0:
256,192,127925,1,8,0:0:0:0:
256,192,127969,1,0,0:0:0:0:
256,192,128013,1,0,0:0:0:0:
256,192,128058,1,0,0:0:0:0:
256,192,128146,1,8,0:0:0:0:
256,192,128234,1,0,0:0:0:0:
256,192,128322,1,8,0:0:0:0:
256,192,128367,1,8,0:0:0:0:
256,192,128411,1,0,0:0:0:0:
256,192,128499,1,0,0:0:0:0:
256,192,128587,1,0,0:0:0:0:
256,192,128675,1,8,0:0:0:0:
256,192,128719,1,8,0:0:0:0:
256,192,128764,1,0,0:0:0:0:
256,192,128852,1,8,0:0:0:0:
256,192,128896,1,8,0:0:0:0:
256,192,128940,1,0,0:0:0:0:
256,192,129028,1,8,0:0:0:0:
256,192,129072,1,8,0:0:0:0:
256,192,129117,1,8,0:0:0:0:
256,192,129161,1,8,0:0:0:0:
256,192,129205,1,0,0:0:0:0:
256,192,129249,1,0,0:0:0:0:
256,192,129293,1,0,0:0:0:0:
256,192,129337,1,0,0:0:0:0:
256,192,129381,1,8,0:0:0:0:
256,192,129425,1,8,0:0:0:0:
256,192,129469,1,8,0:0:0:0:
256,192,129514,1,8,0:0:0:0:
256,192,129558,1,0,0:0:0:0:
256,192,129602,1,0,0:0:0:0:
256,192,129646,1,8,0:0:0:0:
256,192,129690,1,8,0:0:0:0:
256,192,129734,1,0,0:0:0:0:
256,192,130440,1,4,0:0:0:0:
256,192,130528,12,0,135999,0:0:0:0:
256,192,136087,5,4,0:0:0:0:
256,192,136263,1,8,0:0:0:0:
256,192,136440,1,8,0:0:0:0:
256,192,136616,1,0,0:0:0:0:
256,192,136793,1,8,0:0:0:0:
256,192,136969,1,0,0:0:0:0:
256,192,137146,1,0,0:0:0:0:
256,192,137322,1,8,0:0:0:0:
256,192,137499,1,0,0:0:0:0:
256,192,137675,1,8,0:0:0:0:
256,192,137852,1,8,0:0:0:0:
256,192,138028,1,0,0:0:0:0:
256,192,138205,1,8,0:0:0:0:
288,192,138381,1,8,0:0:0:0:
256,192,138557,1,0,0:0:0:0:
256,192,138734,1,8,0:0:0:0:
256,192,138910,1,0,0:0:0:0:
256,192,139087,1,8,0:0:0:0:
256,192,139263,1,0,0:0:0:0:
256,192,139440,1,0,0:0:0:0:
256,192,139616,1,8,0:0:0:0:
256,192,139793,1,0,0:0:0:0:
256,192,139969,1,0,0:0:0:0:
256,192,140146,1,8,0:0:0:0:
256,192,140322,1,8,0:0:0:0:
256,192,140410,1,8,0:0:0:0:
256,192,140499,1,0,0:0:0:0:
256,192,140587,1,0,0:0:0:0:
256,192,140675,1,0,0:0:0:0:
256,192,140763,1,0,0:0:0:0:
256,192,140852,1,8,0:0:0:0:
256,192,140940,1,8,0:0:0:0:
256,192,141028,1,0,0:0:0:0:
256,192,141116,1,0,0:0:0:0:
256,192,141205,1,0,0:0:0:0:
256,192,141293,1,0,0:0:0:0:
256,192,141381,1,8,0:0:0:0:
256,192,141469,1,0,0:0:0:0:
256,192,141557,1,8,0:0:0:0:
256,192,141646,1,8,0:0:0:0:
256,192,141734,1,4,0:0:0:0:
256,192,141822,1,8,0:0:0:0:
256,192,141866,1,8,0:0:0:0:
256,192,141910,1,8,0:0:0:0:
256,192,141999,1,4,0:0:0:0:
256,192,142087,1,8,0:0:0:0:
256,192,142131,1,8,0:0:0:0:
256,192,142175,1,8,0:0:0:0:
256,192,142263,1,0,0:0:0:0:
256,192,142352,1,8,0:0:0:0:
256,192,142440,1,4,0:0:0:0:
256,192,142528,1,8,0:0:0:0:
256,192,142572,1,8,0:0:0:0:
256,192,142616,1,8,0:0:0:0:
256,192,142705,1,4,0:0:0:0:
256,192,142793,1,8,0:0:0:0:
256,192,142837,1,8,0:0:0:0:
256,192,142881,1,8,0:0:0:0:
256,192,142969,1,8,0:0:0:0:
256,192,142999,1,8,0:0:0:0:
256,192,143028,1,8,0:0:0:0:
256,192,143057,1,8,0:0:0:0:
256,192,143146,1,0,0:0:0:0:
256,192,143234,1,8,0:0:0:0:
256,192,143278,1,8,0:0:0:0:
256,192,143322,1,8,0:0:0:0:
256,192,143410,1,4,0:0:0:0:
256,192,143499,1,8,0:0:0:0:
256,192,143543,1,8,0:0:0:0:
256,192,143587,1,8,0:0:0:0:
256,192,143675,1,8,0:0:0:0:
256,192,143719,1,8,0:0:0:0:
256,192,143763,1,8,0:0:0:0:
256,192,143807,1,8,0:0:0:0:
256,192,143852,1,0,0:0:0:0:
256,192,143940,1,8,0:0:0:0:
256,192,143984,1,8,0:0:0:0:
256,192,144028,1,0,0:0:0:0:
256,192,144116,1,8,0:0:0:0:
256,192,144160,1,8,0:0:0:0:
256,192,144205,1,0,0:0:0:0:
256,192,144293,1,8,0:0:0:0:
256,192,144337,1,0,0:0:0:0:
256,192,144381,1,8,0:0:0:0:
256,192,144425,1,0,0:0:0:0:
256,192,144469,1,8,0:0:0:0:
256,192,144513,1,8,0:0:0:0:
256,192,144557,1,0,0:0:0:0:
256,192,144646,1,8,0:0:0:0:
256,192,144690,1,8,0:0:0:0:
256,192,144734,1,8,0:0:0:0:
256,192,144822,1,4,0:0:0:0:
256,192,144910,1,8,0:0:0:0:
256,192,144999,1,0,0:0:0:0:
256,192,145087,1,8,0:0:0:0:
256,192,145131,1,8,0:0:0:0:
256,192,145175,1,8,0:0:0:0:
256,192,145263,1,4,0:0:0:0:
256,192,145352,1,8,0:0:0:0:
256,192,145396,1,8,0:0:0:0:
256,192,145440,1,8,0:0:0:0:
256,192,145528,1,4,0:0:0:0:
256,192,145616,1,8,0:0:0:0:
256,192,145660,1,8,0:0:0:0:
256,192,145705,1,8,0:0:0:0:
256,192,145793,1,0,0:0:0:0:
256,192,145881,1,8,0:0:0:0:
256,192,145969,1,4,0:0:0:0:
256,192,146057,1,0,0:0:0:0:
256,192,146102,1,0,0:0:0:0:
256,192,146146,1,8,0:0:0:0:
256,192,146234,1,8,0:0:0:0:
256,192,146278,1,8,0:0:0:0:
256,192,146322,1,0,0:0:0:0:
256,192,146366,1,0,0:0:0:0:
256,192,146410,1,8,0:0:0:0:
256,192,146455,1,8,0:0:0:0:
256,192,146499,1,0,0:0:0:0:
256,192,146543,1,0,0:0:0:0:
256,192,146587,1,8,0:0:0:0:
256,192,146631,1,8,0:0:0:0:
256,192,146675,1,0,0:0:0:0:
256,192,147381,1,0,0:0:0:0:
256,192,147469,1,12,0:0:0:0:
256,192,147646,1,0,0:0:0:0:
256,192,147734,1,12,0:0:0:0:
256,192,147910,1,0,0:0:0:0:
256,192,147955,1,0,0:0:0:0:
256,192,147999,1,0,0:0:0:0:
256,192,148087,1,0,0:0:0:0:
256,192,148175,1,8,0:0:0:0:
256,192,148219,1,8,0:0:0:0:
256,192,148263,1,0,0:0:0:0:
256,192,148352,1,0,0:0:0:0:
256,192,148440,1,8,0:0:0:0:
256,192,148484,1,8,0:0:0:0:
256,192,148528,1,8,0:0:0:0:
256,192,148572,1,8,0:0:0:0:
256,192,148616,1,0,0:0:0:0:
256,192,148705,1,8,0:0:0:0:
256,192,148793,1,0,0:0:0:0:
256,192,148881,1,12,0:0:0:0:
256,192,149057,1,0,0:0:0:0:
256,192,149146,1,12,0:0:0:0:
256,192,149322,1,8,0:0:0:0:
256,192,149410,1,8,0:0:0:0:
256,192,149499,1,4,0:0:0:0:
256,192,149587,1,0,0:0:0:0:
256,192,149631,1,0,0:0:0:0:
256,192,149675,1,8,0:0:0:0:
256,192,149763,1,0,0:0:0:0:
256,192,149852,1,8,0:0:0:0:
256,192,149940,1,0,0:0:0:0:
256,192,150028,1,8,0:0:0:0:
256,192,150057,1,8,0:0:0:0:
256,192,150087,1,8,0:0:0:0:
256,192,150116,1,8,0:0:0:0:
256,192,150205,1,0,0:0:0:0:
256,192,150293,1,12,0:0:0:0:
256,192,150469,1,0,0:0:0:0:
256,192,150557,1,12,0:0:0:0:
256,192,150734,1,0,0:0:0:0:
256,192,150822,1,8,0:0:0:0:
256,192,150910,1,4,0:0:0:0:
256,192,150999,1,0,0:0:0:0:
256,192,151043,1,0,0:0:0:0:
256,192,151087,1,8,0:0:0:0:
256,192,151175,1,0,0:0:0:0:
256,192,151263,1,0,0:0:0:0:
256,192,151307,1,0,0:0:0:0:
256,192,151352,1,8,0:0:0:0:
256,192,151396,1,8,0:0:0:0:
256,192,151440,1,0,0:0:0:0:
256,192,151528,1,8,0:0:0:0:
256,192,151616,1,0,0:0:0:0:
256,192,151705,1,12,0:0:0:0:
256,192,151881,1,0,0:0:0:0:
256,192,151969,1,12,0:0:0:0:
256,192,152146,1,0,0:0:0:0:
256,192,152234,1,8,0:0:0:0:
256,192,152322,1,4,0:0:0:0:
256,192,152410,1,0,0:0:0:0:
256,192,152455,1,0,0:0:0:0:
256,192,152499,1,8,0:0:0:0:
256,192,152587,1,0,0:0:0:0:
256,192,152675,1,8,0:0:0:0:
256,192,152719,1,0,0:0:0:0:
256,192,152763,1,8,0:0:0:0:
256,192,152807,1,0,0:0:0:0:
256,192,152852,1,8,0:0:0:0:
256,192,152896,1,0,0:0:0:0:
256,192,152940,1,8,0:0:0:0:
256,192,152984,1,8,0:0:0:0:
256,192,153028,1,0,0:0:0:0:
256,192,153116,1,8,0:0:0:0:
256,192,153160,1,8,0:0:0:0:
256,192,153205,1,8,0:0:0:0:
256,192,153249,1,8,0:0:0:0:
256,192,153293,1,0,0:0:0:0:
256,192,153381,1,8,0:0:0:0:
256,192,153425,1,8,0:0:0:0:
256,192,153469,1,8,0:0:0:0:
256,192,153513,1,8,0:0:0:0:
256,192,153557,1,0,0:0:0:0:
256,192,153646,1,8,0:0:0:0:
256,192,153734,1,4,0:0:0:0:
256,192,153822,1,8,0:0:0:0:
256,192,153866,1,8,0:0:0:0:
256,192,153910,1,8,0:0:0:0:
256,192,153955,1,8,0:0:0:0:
256,192,153999,1,0,0:0:0:0:
256,192,154087,1,12,0:0:0:0:
256,192,154440,1,4,0:0:0:0:
256,192,154528,1,8,0:0:0:0:
256,192,154572,1,8,0:0:0:0:
256,192,154616,1,8,0:0:0:0:
256,192,154660,1,8,0:0:0:0:
256,192,154705,1,0,0:0:0:0:
256,192,154793,1,8,0:0:0:0:
256,192,154837,1,8,0:0:0:0:
256,192,154881,1,8,0:0:0:0:
256,192,154925,1,8,0:0:0:0:
256,192,154969,1,0,0:0:0:0:
256,192,155057,1,8,0:0:0:0:
256,192,155146,1,4,0:0:0:0:
256,192,155234,1,8,0:0:0:0:
256,192,155278,1,8,0:0:0:0:
256,192,155322,1,8,0:0:0:0:
256,192,155366,1,8,0:0:0:0:
256,192,155410,1,0,0:0:0:0:
256,192,155499,1,12,0:0:0:0:
256,192,155852,1,0,0:0:0:0:
256,192,155896,1,0,0:0:0:0:
256,192,155940,1,8,0:0:0:0:
256,192,155984,1,8,0:0:0:0:
256,192,156028,1,8,0:0:0:0:
256,192,156072,1,8,0:0:0:0:
256,192,156116,1,0,0:0:0:0:
256,192,156160,1,0,0:0:0:0:
256,192,156205,1,8,0:0:0:0:
256,192,156249,1,8,0:0:0:0:
256,192,156293,1,8,0:0:0:0:
256,192,156337,1,8,0:0:0:0:
256,192,156381,1,0,0:0:0:0:
256,192,156425,1,0,0:0:0:0:
256,192,156469,1,8,0:0:0:0:
256,192,156513,1,8,0:0:0:0:
256,192,156557,1,0,0:0:0:0:
256,192,156602,1,0,0:0:0:0:
256,192,156646,1,8,0:0:0:0:
256,192,156690,1,8,0:0:0:0:
256,192,156734,1,8,0:0:0:0:
256,192,156778,1,8,0:0:0:0:
256,192,156822,1,0,0:0:0:0:
256,192,156866,1,0,0:0:0:0:
256,192,156910,1,8,0:0:0:0:
256,192,156955,1,8,0:0:0:0:
256,192,156999,1,8,0:0:0:0:
256,192,157043,1,8,0:0:0:0:
256,192,157087,1,8,0:0:0:0:
256,192,157131,1,8,0:0:0:0:
256,192,157175,1,8,0:0:0:0:
256,192,157205,1,8,0:0:0:0:
256,192,157234,1,8,0:0:0:0:
256,192,157263,1,0,0:0:0:0:
256,192,158675,1,4,0:0:0:0:
