osu file format v14

[General]
AudioFilename: audio.mp3
AudioLeadIn: 0
PreviewTime: 45028
Countdown: 0
SampleSet: Normal
StackLeniency: 0.7
Mode: 1
LetterboxInBreaks: 0
WidescreenStoryboard: 1

[Editor]
Bookmarks: 11852,34440,45734,56322,73969,119146,141734,151616
DistanceSpacing: 1
BeatDivisor: 2
GridSize: 32
TimelineZoom: 2.700003

[Metadata]
Title:Ultima Weapon
TitleUnicode:Ultima Weapon
Artist:Laur
ArtistUnicode:Laur
Creator:yea
Version:Futsuu Collab
Source:
Tags:speedcore hardcore
BeatmapID:1310003
BeatmapSetID:604073

[Difficulty]
HPDrainRate:4
CircleSize:5
OverallDifficulty:4
ApproachRate:9
SliderMultiplier:1.4
SliderTickRate:1

[Events]
//Background and Video events
0,0,"background.jpg",0,0
//Break Periods
2,23346,26781
2,96757,100193
2,130640,135487
//Storyboard Layer 0 (Background)
//Storyboard Layer 1 (Fail)
//Storyboard Layer 2 (Pass)
//Storyboard Layer 3 (Foreground)
//Storyboard Sound Samples

[TimingPoints]
558,176.470588235294,4,1,0,95,1,0
558,-133.333333333333,4,1,0,95,0,0
11852,-200,4,1,0,95,0,0
27381,-133.333333333333,4,1,0,95,0,0
33734,-80,4,1,0,95,0,0
34440,-100,4,1,0,95,0,0
45734,-100,4,1,0,95,0,1
51557,-100,4,1,0,95,0,1
57028,-117.647058823529,4,1,0,95,0,0
62234,-100,4,1,0,95,0,0
67175,-105.263157894737,4,1,0,95,0,0
67440,-111.111111111111,4,1,0,95,0,0
67616,-117.647058823529,4,1,0,95,0,0
67793,-125,4,1,0,95,0,0
68322,-133.333333333333,4,1,0,95,0,0
95852,-100,4,1,0,95,0,0
96557,-117.647058823529,4,1,0,95,0,0
100793,-100,4,1,0,95,0,0
102205,-100,4,1,0,95,0,1
104675,-100,4,1,0,95,0,0
107499,-80,4,1,0,95,0,0
107852,-100,4,1,0,95,0,0
119146,-100,4,1,0,95,0,1
130440,-100,4,1,0,95,0,0
155852,-100,4,1,0,95,0,1
157263,-100,4,1,0,95,0,0
157528,-105.263157894737,4,1,0,95,0,0
157793,-111.111111111111,4,1,0,95,0,0
157969,-117.647058823529,4,1,0,95,0,0
158146,-125,4,1,0,95,0,0
158675,-133.333333333333,4,1,0,95,0,0
164322,-40,4,1,0,95,0,0

[HitObjects]
256,192,558,5,4,0:0:0:0:
256,192,910,1,2,0:0:0:0:
256,192,1616,1,2,0:0:0:0:
256,192,1969,1,2,0:0:0:0:
256,192,2322,1,2,0:0:0:0:
256,192,3028,1,2,0:0:0:0:
256,192,3381,1,0,0:0:0:0:
256,192,3734,1,2,0:0:0:0:
256,192,4087,1,2,0:0:0:0:
256,192,4263,1,2,0:0:0:0:
256,192,4793,1,0,0:0:0:0:
256,192,5146,1,2,0:0:0:0:
256,192,5852,1,2,0:0:0:0:
256,192,6205,1,4,0:0:0:0:
256,192,6557,1,2,0:0:0:0:
256,192,7263,1,2,0:0:0:0:
256,192,7616,1,2,0:0:0:0:
256,192,7969,1,2,0:0:0:0:
256,192,8675,1,2,0:0:0:0:
256,192,9028,1,0,0:0:0:0:
256,192,9381,1,2,0:0:0:0:
256,192,10087,1,2,0:0:0:0:
256,192,10440,12,0,11499,0:0:0:0:
256,192,11852,5,0,0:0:0:0:
256,192,12557,1,2,0:0:0:0:
256,192,13263,1,0,0:0:0:0:
256,192,14675,1,0,0:0:0:0:
256,192,15381,1,0,0:0:0:0:
256,192,16087,1,2,0:0:0:0:
256,192,17499,1,0,0:0:0:0:
256,192,18205,1,2,0:0:0:0:
256,192,18910,1,0,0:0:0:0:
256,192,20322,1,2,0:0:0:0:
256,192,21028,1,2,0:0:0:0:
256,192,21734,1,0,0:0:0:0:
256,192,23146,5,0,0:0:0:0:
256,192,27381,5,2,0:0:0:0:
256,192,27910,1,0,0:0:0:0:
256,192,28440,1,2,0:0:0:0:
256,192,28793,1,4,0:0:0:0:
256,192,29852,1,2,0:0:0:0:
256,192,30205,1,4,0:0:0:0:
256,192,31263,1,2,0:0:0:0:
256,192,31616,1,4,0:0:0:0:
256,192,31969,1,2,0:0:0:0:
256,192,32322,1,4,0:0:0:0:
256,192,32675,1,2,0:0:0:0:
256,192,33028,2,0,L|384:192,3,105.000004005432
256,192,33734,1,4,0:0:0:0:
256,192,34440,1,4,0:0:0:0:
256,192,34616,1,2,0:0:0:0:
256,192,34793,1,0,0:0:0:0:
256,192,35146,1,0,0:0:0:0:
256,192,35499,1,2,0:0:0:0:
256,192,35852,1,4,0:0:0:0:
256,192,36028,1,0,0:0:0:0:
256,192,36205,1,2,0:0:0:0:
256,192,36557,1,0,0:0:0:0:
256,192,36910,1,2,0:0:0:0:
256,192,37263,1,4,0:0:0:0:
256,192,37440,1,0,0:0:0:0:
256,192,37616,1,0,0:0:0:0:
256,192,37969,1,2,0:0:0:0:
256,192,38322,1,2,0:0:0:0:
256,192,38675,1,4,0:0:0:0:
256,192,38852,1,2,0:0:0:0:
256,192,39028,1,0,0:0:0:0:
256,192,39381,1,2,0:0:0:0:
256,192,39557,1,2,0:0:0:0:
256,192,39734,1,0,0:0:0:0:
256,192,40087,1,4,0:0:0:0:
256,192,40263,1,0,0:0:0:0:
256,192,40440,1,0,0:0:0:0:
256,192,40793,1,2,0:0:0:0:
256,192,41146,1,2,0:0:0:0:
256,192,41499,1,4,0:0:0:0:
256,192,41675,1,0,0:0:0:0:
256,192,41852,1,0,0:0:0:0:
256,192,42205,1,2,0:0:0:0:
256,192,42557,1,2,0:0:0:0:
256,192,42910,1,4,0:0:0:0:
256,192,43087,1,0,0:0:0:0:
256,192,43263,1,2,0:0:0:0:
256,192,43616,1,2,0:0:0:0:
256,192,43969,1,2,0:0:0:0:
256,192,44322,1,4,0:0:0:0:
256,192,44499,1,0,0:0:0:0:
256,192,44675,1,2,0:0:0:0:
256,192,45028,1,2,0:0:0:0:
256,192,45734,1,2,0:0:0:0:
256,192,45910,1,0,0:0:0:0:
256,192,46087,1,0,0:0:0:0:
256,192,46263,1,0,0:0:0:0:
256,192,46440,1,2,0:0:0:0:
256,192,46793,1,2,0:0:0:0:
256,192,47146,1,2,0:0:0:0:
256,192,47322,1,0,0:0:0:0:
256,192,47499,1,0,0:0:0:0:
256,192,47675,1,0,0:0:0:0:
256,192,47852,1,2,0:0:0:0:
256,192,48557,1,2,0:0:0:0:
256,192,48734,1,0,0:0:0:0:
256,192,48910,1,0,0:0:0:0:
256,192,49087,1,0,0:0:0:0:
256,192,49263,1,2,0:0:0:0:
256,192,49616,1,2,0:0:0:0:
256,192,49969,1,2,0:0:0:0:
256,192,50146,1,0,0:0:0:0:
256,192,50322,1,0,0:0:0:0:
256,192,50499,1,0,0:0:0:0:
256,192,50675,1,2,0:0:0:0:
256,96,51028,1,2,0:0:0:0:
256,192,51381,1,0,0:0:0:0:
256,192,51557,1,0,0:0:0:0:
256,192,51734,1,2,0:0:0:0:
256,192,51910,1,0,0:0:0:0:
256,192,52087,1,2,0:0:0:0:
256,192,52440,1,0,0:0:0:0:
256,192,52793,1,0,0:0:0:0:
256,192,52969,1,0,0:0:0:0:
256,192,53146,1,2,0:0:0:0:
256,192,53322,1,0,0:0:0:0:
256,192,53499,1,2,0:0:0:0:
256,192,53852,1,2,0:0:0:0:
256,192,54205,1,0,0:0:0:0:
256,192,54381,1,0,0:0:0:0:
256,192,54557,1,2,0:0:0:0:
256,192,54734,1,0,0:0:0:0:
256,192,54910,1,2,0:0:0:0:
256,192,55263,1,2,0:0:0:0:
256,192,55616,1,0,0:0:0:0:
256,192,55793,1,0,0:0:0:0:
256,192,55969,1,0,0:0:0:0:
256,192,56146,1,0,0:0:0:0:
256,192,56322,1,2,0:0:0:0:
256,192,57028,1,0,0:0:0:0:
256,192,57293,1,0,0:0:0:0:
256,192,57557,1,0,0:0:0:0:
256,192,57734,1,2,0:0:0:0:
256,192,58440,1,0,0:0:0:0:
256,192,58705,1,0,0:0:0:0:
256,192,58969,1,0,0:0:0:0:
256,192,59146,1,2,0:0:0:0:
256,192,59852,1,0,0:0:0:0:
256,192,60117,1,0,0:0:0:0:
256,192,60381,1,0,0:0:0:0:
256,192,60558,1,2,0:0:0:0:
256,192,61263,1,0,0:0:0:0:
256,192,61528,1,0,0:0:0:0:
256,192,61792,1,0,0:0:0:0:
256,192,61969,1,2,0:0:0:0:
256,192,62322,1,2,0:0:0:0:
256,192,62675,1,0,0:0:0:0:
256,192,62940,1,0,0:0:0:0:
256,192,63381,1,2,0:0:0:0:
256,192,63734,1,2,0:0:0:0:
256,192,64087,1,0,0:0:0:0:
256,192,64352,1,0,0:0:0:0:
256,192,64793,1,2,0:0:0:0:
256,192,65146,1,2,0:0:0:0:
96,288,65499,2,0,L|256:288,8,140
256,192,68322,12,0,72557,0:0:0:0:
256,192,73969,5,0,0:0:0:0:
256,192,74146,1,0,0:0:0:0:
256,192,74322,1,2,0:0:0:0:
256,192,74675,1,2,0:0:0:0:
256,192,75028,1,2,0:0:0:0:
256,192,75381,1,0,0:0:0:0:
256,192,75557,1,0,0:0:0:0:
256,192,75734,1,2,0:0:0:0:
256,192,76087,1,2,0:0:0:0:
256,192,76793,1,0,0:0:0:0:
256,192,76969,1,0,0:0:0:0:
256,192,77146,1,2,0:0:0:0:
256,192,77499,1,2,0:0:0:0:
256,192,77852,1,2,0:0:0:0:
256,192,78205,1,0,0:0:0:0:
256,192,78381,1,2,0:0:0:0:
256,192,78557,1,0,0:0:0:0:
256,192,78910,1,2,0:0:0:0:
256,192,79263,1,6,0:0:0:0:
256,192,79616,1,0,0:0:0:0:
256,192,79969,1,2,0:0:0:0:
256,192,80146,1,0,0:0:0:0:
256,192,80322,1,2,0:0:0:0:
256,192,80675,1,0,0:0:0:0:
256,192,81028,1,0,0:0:0:0:
256,192,81381,1,0,0:0:0:0:
256,192,81557,1,0,0:0:0:0:
256,192,81734,1,2,0:0:0:0:
256,192,82087,1,0,0:0:0:0:
256,192,82440,1,0,0:0:0:0:
256,192,82793,1,0,0:0:0:0:
256,192,82969,1,0,0:0:0:0:
256,192,83146,1,2,0:0:0:0:
256,192,83499,1,0,0:0:0:0:
256,192,83852,1,0,0:0:0:0:
256,192,84028,1,2,0:0:0:0:
256,192,84205,1,0,0:0:0:0:
256,192,84557,1,2,0:0:0:0:
256,192,85263,1,0,0:0:0:0:
256,192,85616,1,0,0:0:0:0:
256,192,85969,1,0,0:0:0:0:
256,192,86322,1,0,0:0:0:0:
256,192,86675,1,0,0:0:0:0:
256,192,87028,1,0,0:0:0:0:
256,192,87381,1,0,0:0:0:0:
256,192,87734,1,2,0:0:0:0:
256,192,88087,1,0,0:0:0:0:
256,192,88440,1,0,0:0:0:0:
256,192,88793,1,0,0:0:0:0:
256,192,89146,1,0,0:0:0:0:
256,192,89499,1,0,0:0:0:0:
256,192,89852,1,0,0:0:0:0:
256,192,90205,1,6,0:0:0:0:
256,192,90910,12,0,93028,0:0:0:0:
256,192,95852,5,2,0:0:0:0:
256,192,96205,1,0,0:0:0:0:
256,192,96557,5,4,0:0:0:0:
256,192,100793,5,2,0:0:0:0:
256,192,101322,1,0,0:0:0:0:
256,192,101852,1,2,0:0:0:0:
256,192,102205,1,4,0:0:0:0:
256,192,103263,1,2,0:0:0:0:
256,192,103616,1,4,0:0:0:0:
256,192,104675,1,2,0:0:0:0:
256,192,105028,1,4,0:0:0:0:
256,192,105381,1,2,0:0:0:0:
256,192,105734,1,0,0:0:0:0:
256,192,105852,1,0,0:0:0:0:
256,192,105969,1,0,0:0:0:0:
256,192,106087,1,2,0:0:0:0:
256,192,106440,1,2,0:0:0:0:
256,192,106793,1,2,0:0:0:0:
256,192,107146,1,0,0:0:0:0:
256,192,107499,1,6,0:0:0:0:
256,192,107852,1,0,0:0:0:0:
256,192,108205,1,0,0:0:0:0:
256,192,108557,1,0,0:0:0:0:
256,192,108910,1,2,0:0:0:0:
256,192,109263,1,0,0:0:0:0:
256,192,109499,1,2,0:0:0:0:
256,192,109616,1,0,0:0:0:0:
256,192,109852,1,2,0:0:0:0:
256,192,109969,1,0,0:0:0:0:
256,192,110322,1,2,0:0:0:0:
256,192,110675,1,0,0:0:0:0:
256,192,111028,1,0,0:0:0:0:
256,192,111380,1,0,0:0:0:0:
256,192,111733,1,2,0:0:0:0:
256,192,112086,1,0,0:0:0:0:
256,192,112322,1,2,0:0:0:0:
256,192,112439,1,0,0:0:0:0:
256,192,112675,1,2,0:0:0:0:
256,192,112792,1,0,0:0:0:0:
256,192,113145,1,6,0:0:0:0:
256,192,113499,1,0,0:0:0:0:
256,192,113852,1,0,0:0:0:0:
256,192,114204,1,0,0:0:0:0:
256,192,114557,1,2,0:0:0:0:
256,192,114910,1,0,0:0:0:0:
256,192,115146,1,2,0:0:0:0:
256,192,115263,1,0,0:0:0:0:
256,192,115499,1,2,0:0:0:0:
256,192,115616,1,0,0:0:0:0:
256,192,115969,1,2,0:0:0:0:
256,192,116322,1,2,0:0:0:0:
256,192,116675,1,2,0:0:0:0:
256,192,117028,1,2,0:0:0:0:
256,192,117263,1,0,0:0:0:0:
256,192,117381,1,2,0:0:0:0:
96,288,117734,2,0,L|256:288,4,140
256,192,118793,1,0,0:0:0:0:
256,192,119146,1,6,0:0:0:0:
256,192,119322,1,0,0:0:0:0:
256,192,119499,1,0,0:0:0:0:
256,192,119675,1,0,0:0:0:0:
256,192,119852,1,2,0:0:0:0:
256,192,120205,1,2,0:0:0:0:
256,192,120558,1,6,0:0:0:0:
256,192,120734,1,0,0:0:0:0:
256,192,120911,1,0,0:0:0:0:
256,192,121087,1,0,0:0:0:0:
256,192,121264,1,2,0:0:0:0:
256,192,121969,1,6,0:0:0:0:
256,192,122146,1,0,0:0:0:0:
256,192,122322,1,0,0:0:0:0:
256,192,122499,1,0,0:0:0:0:
256,192,122675,1,2,0:0:0:0:
256,192,123028,1,2,0:0:0:0:
256,192,123381,1,6,0:0:0:0:
256,192,123558,1,0,0:0:0:0:
256,192,123734,1,0,0:0:0:0:
256,192,123911,1,0,0:0:0:0:
256,192,124087,1,2,0:0:0:0:
256,192,124440,1,2,0:0:0:0:
256,192,124793,1,4,0:0:0:0:
256,192,124969,1,0,0:0:0:0:
256,192,125146,1,2,0:0:0:0:
256,192,125322,1,0,0:0:0:0:
256,192,125499,1,2,0:0:0:0:
256,192,125852,1,0,0:0:0:0:
256,192,126205,1,4,0:0:0:0:
256,192,126381,1,0,0:0:0:0:
256,192,126558,1,2,0:0:0:0:
256,192,126734,1,0,0:0:0:0:
256,192,126911,1,2,0:0:0:0:
256,192,127617,1,4,0:0:0:0:
256,192,127793,1,0,0:0:0:0:
256,192,127969,1,2,0:0:0:0:
256,192,128146,1,0,0:0:0:0:
256,192,128322,1,2,0:0:0:0:
256,192,128675,1,2,0:0:0:0:
256,192,129028,1,4,0:0:0:0:
256,192,129205,1,0,0:0:0:0:
256,192,129381,1,0,0:0:0:0:
256,192,129558,1,0,0:0:0:0:
256,192,129734,1,6,0:0:0:0:
256,192,130440,1,6,0:0:0:0:
256,192,136087,5,2,0:0:0:0:
256,192,136263,1,0,0:0:0:0:
256,192,136440,1,0,0:0:0:0:
256,192,136793,1,2,0:0:0:0:
256,192,136969,1,0,0:0:0:0:
256,192,137146,1,0,0:0:0:0:
256,192,137499,1,2,0:0:0:0:
256,192,137675,1,0,0:0:0:0:
256,192,137852,1,2,0:0:0:0:
256,192,138205,1,2,0:0:0:0:
256,192,138381,1,2,0:0:0:0:
256,192,138557,1,0,0:0:0:0:
256,192,138910,1,2,0:0:0:0:
256,192,139087,1,0,0:0:0:0:
256,192,139263,1,0,0:0:0:0:
256,192,139616,1,2,0:0:0:0:
256,192,139793,1,0,0:0:0:0:
256,192,139969,1,0,0:0:0:0:
256,192,140322,1,2,0:0:0:0:
256,192,140675,1,0,0:0:0:0:
256,192,141028,1,0,0:0:0:0:
256,192,141381,1,2,0:0:0:0:
256,192,141734,1,0,0:0:0:0:
256,192,141999,1,0,0:0:0:0:
256,192,142263,1,2,0:0:0:0:
256,192,142440,1,0,0:0:0:0:
256,192,142705,1,0,0:0:0:0:
256,192,143146,1,0,0:0:0:0:
256,192,143410,1,0,0:0:0:0:
256,192,143675,1,2,0:0:0:0:
256,192,143852,1,0,0:0:0:0:
256,192,144028,1,0,0:0:0:0:
256,192,144205,1,0,0:0:0:0:
256,192,144557,1,0,0:0:0:0:
256,192,144822,1,0,0:0:0:0:
256,192,145087,1,2,0:0:0:0:
256,192,145263,1,0,0:0:0:0:
256,192,145528,1,0,0:0:0:0:
256,192,145969,1,0,0:0:0:0:
256,192,146146,1,0,0:0:0:0:
256,192,146322,1,0,0:0:0:0:
256,192,146499,1,0,0:0:0:0:
256,192,146675,1,2,0:0:0:0:
256,192,147381,1,0,0:0:0:0:
256,192,147469,1,0,0:0:0:0:
256,192,147646,1,0,0:0:0:0:
256,192,147734,1,0,0:0:0:0:
256,192,148087,1,2,0:0:0:0:
256,192,148175,1,2,0:0:0:0:
256,192,148352,1,2,0:0:0:0:
256,192,148440,1,2,0:0:0:0:
256,192,148793,1,0,0:0:0:0:
256,192,148881,1,0,0:0:0:0:
256,192,149057,1,0,0:0:0:0:
256,192,149146,1,0,0:0:0:0:
256,192,149322,1,0,0:0:0:0:
256,192,149499,1,2,0:0:0:0:
256,192,149587,1,2,0:0:0:0:
256,192,149763,1,2,0:0:0:0:
256,192,149852,1,2,0:0:0:0:
256,192,150205,1,0,0:0:0:0:
256,192,150293,1,0,0:0:0:0:
256,192,150469,1,0,0:0:0:0:
256,192,150557,1,0,0:0:0:0:
256,192,150910,1,2,0:0:0:0:
256,192,151087,1,2,0:0:0:0:
256,192,151263,1,2,0:0:0:0:
256,192,151616,1,0,0:0:0:0:
256,192,151705,1,0,0:0:0:0:
256,192,151881,1,0,0:0:0:0:
256,192,151969,1,0,0:0:0:0:
256,192,152322,1,2,0:0:0:0:
256,192,152410,1,2,0:0:0:0:
256,192,152587,1,2,0:0:0:0:
256,192,152675,1,2,0:0:0:0:
256,192,153028,1,0,0:0:0:0:
256,192,153116,1,0,0:0:0:0:
256,192,153293,1,0,0:0:0:0:
256,192,153381,1,0,0:0:0:0:
256,192,153734,1,2,0:0:0:0:
256,192,153910,1,2,0:0:0:0:
256,192,154087,1,6,0:0:0:0:
256,192,154440,1,0,0:0:0:0:
256,192,154528,1,0,0:0:0:0:
256,192,154705,1,0,0:0:0:0:
256,192,154793,1,0,0:0:0:0:
256,192,154969,1,0,0:0:0:0:
256,192,155146,1,0,0:0:0:0:
256,192,155499,1,6,0:0:0:0:
256,192,155852,1,0,0:0:0:0:
256,192,156028,1,2,0:0:0:0:
256,192,156205,1,0,0:0:0:0:
256,192,156557,1,2,0:0:0:0:
256,192,156734,1,2,0:0:0:0:
256,192,156910,1,2,0:0:0:0:
256,192,156999,1,2,0:0:0:0:
256,192,157087,1,2,0:0:0:0:
256,192,157263,1,0,0:0:0:0:
256,192,157528,1,0,0:0:0:0:
256,192,157793,1,0,0:0:0:0:
256,192,157969,1,2,0:0:0:0:
256,192,158146,1,2,0:0:0:0:
256,192,158322,1,2,0:0:0:0:
256,192,158675,12,0,161146,0:0:0:0:
256,192,161499,5,0,0:0:0:0:
256,192,161675,1,0,0:0:0:0:
256,192,161852,1,2,0:0:0:0:
256,192,162205,1,2,0:0:0:0:
256,192,162381,1,2,0:0:0:0:
256,192,162557,1,0,0:0:0:0:
256,192,162910,1,0,0:0:0:0:
256,192,163087,1,0,0:0:0:0:
256,192,163263,1,2,0:0:0:0:
256,192,163440,1,0,0:0:0:0:
256,192,163616,1,0,0:0:0:0:
256,192,163705,1,0,0:0:0:0:
256,192,163793,1,0,0:0:0:0:
256,192,163969,1,0,0:0:0:0:
256,192,164322,1,4,0:0:0:0:
