osu file format v14

[General]
AudioFilename: audio.mp3
AudioLeadIn: 0
PreviewTime: 45028
Countdown: 0
SampleSet: Normal
StackLeniency: 0.7
Mode: 1
LetterboxInBreaks: 0
WidescreenStoryboard: 0

[Editor]
Bookmarks: 11852,34440,45734,56322,73969,119146,141734,151616
DistanceSpacing: 1
BeatDivisor: 4
GridSize: 32
TimelineZoom: 4.000002

[Metadata]
Title:Ultima Weapon
TitleUnicode:Ultima Weapon
Artist:Laur
ArtistUnicode:Laur
Creator:yea
Version:Oni
Source:
Tags:speedcore hardcore
BeatmapID:1289690
BeatmapSetID:604073

[Difficulty]
HPDrainRate:4
CircleSize:5
OverallDifficulty:6
ApproachRate:9
SliderMultiplier:1.4
SliderTickRate:1

[Events]
//Background and Video events
0,0,"background.jpg",0,0
//Break Periods
2,23346,26781
2,130640,135487
//Storyboard Layer 0 (Background)
//Storyboard Layer 1 (Fail)
//Storyboard Layer 2 (Pass)
//Storyboard Layer 3 (Foreground)
//Storyboard Sound Samples

[TimingPoints]
558,176.470588235294,4,1,0,95,1,0
558,-133.333333333333,4,1,0,95,0,0
11852,-200,4,1,0,95,0,0
27381,-133.333333333333,4,1,0,95,0,0
33734,-80,4,1,0,95,0,0
34440,-111.111111111111,4,1,0,95,0,0
45734,-111.111111111111,4,1,0,95,0,1
56322,-111.111111111111,4,1,0,95,0,0
66910,-111.111111111111,4,1,0,95,0,0
68322,-133.333333333333,4,1,0,95,0,0
95852,-100,4,1,0,95,0,0
96557,-117.647058823529,4,1,0,95,0,0
100793,-111.111111111111,4,1,0,95,0,0
102205,-111.111111111111,4,1,0,95,0,1
104675,-111.111111111111,4,1,0,95,0,0
107499,-80,4,1,0,95,0,0
107852,-111.111111111111,4,1,0,95,0,0
119146,-111.111111111111,4,1,0,95,0,1
130440,-111.111111111111,4,1,0,95,0,0
141734,-100,4,1,0,95,0,0
155852,-111.111111111111,4,1,0,95,0,1
157263,-111.111111111111,4,1,0,95,0,0
158675,-133.333333333333,4,1,0,95,0,0
164322,-57.1428571428571,4,1,0,95,0,0

[HitObjects]
256,128,558,5,4,0:0:0:0:
256,192,734,1,0,0:0:0:0:
256,192,910,1,8,0:0:0:0:
256,192,1087,1,8,0:0:0:0:
256,192,1263,1,0,0:0:0:0:
256,192,1440,1,0,0:0:0:0:
256,192,1616,1,8,0:0:0:0:
256,192,1793,1,8,0:0:0:0:
256,192,1969,1,0,0:0:0:0:
256,192,2146,1,0,0:0:0:0:
256,192,2322,1,8,0:0:0:0:
256,192,2499,1,0,0:0:0:0:
256,192,2675,1,8,0:0:0:0:
256,192,2852,1,0,0:0:0:0:
256,128,3028,1,12,0:0:0:0:
256,192,3381,1,0,0:0:0:0:
256,192,3557,1,0,0:0:0:0:
256,192,3734,1,8,0:0:0:0:
256,192,3910,1,8,0:0:0:0:
256,192,3999,1,8,0:0:0:0:
256,192,4087,1,0,0:0:0:0:
256,192,4263,1,8,0:0:0:0:
256,192,4793,1,0,0:0:0:0:
256,192,4969,1,8,0:0:0:0:
256,192,5146,1,0,0:0:0:0:
256,192,5322,1,8,0:0:0:0:
256,192,5499,1,0,0:0:0:0:
256,192,5675,1,0,0:0:0:0:
256,192,5852,1,8,0:0:0:0:
256,128,6205,5,4,0:0:0:0:
256,192,6381,1,0,0:0:0:0:
256,192,6557,1,8,0:0:0:0:
256,192,6734,1,8,0:0:0:0:
256,192,6910,1,0,0:0:0:0:
256,192,7087,1,0,0:0:0:0:
256,192,7263,1,8,0:0:0:0:
256,192,7440,1,8,0:0:0:0:
256,192,7616,1,0,0:0:0:0:
256,192,7793,1,0,0:0:0:0:
256,192,7881,1,0,0:0:0:0:
256,192,7969,1,8,0:0:0:0:
256,192,8146,1,0,0:0:0:0:
256,192,8322,1,8,0:0:0:0:
256,192,8499,1,0,0:0:0:0:
256,128,8675,1,12,0:0:0:0:
256,192,9028,1,0,0:0:0:0:
256,192,9204,1,0,0:0:0:0:
256,192,9381,1,8,0:0:0:0:
256,192,9469,1,8,0:0:0:0:
256,192,9557,1,8,0:0:0:0:
256,192,9646,1,8,0:0:0:0:
256,192,9734,1,0,0:0:0:0:
256,192,9910,1,8,0:0:0:0:
256,192,9999,1,0,0:0:0:0:
256,192,10087,1,8,0:0:0:0:
256,192,10440,12,0,11499,0:0:0:0:
256,128,11852,5,4,0:0:0:0:
256,192,12557,1,8,0:0:0:0:
256,192,13263,1,0,0:0:0:0:
256,192,13969,1,8,0:0:0:0:
256,192,14675,1,0,0:0:0:0:
256,192,15381,1,8,0:0:0:0:
256,192,16087,1,8,0:0:0:0:
256,128,16793,1,12,0:0:0:0:
256,128,17499,1,4,0:0:0:0:
256,192,18205,1,8,0:0:0:0:
256,192,18910,1,0,0:0:0:0:
256,192,19616,1,8,0:0:0:0:
256,192,20322,1,0,0:0:0:0:
256,192,21028,1,8,0:0:0:0:
256,192,21734,1,0,0:0:0:0:
256,128,22440,1,12,0:0:0:0:
256,128,23146,1,4,0:0:0:0:
256,192,27381,5,8,0:0:0:0:
256,192,27469,1,8,0:0:0:0:
256,192,27557,1,0,0:0:0:0:
256,192,27646,1,0,0:0:0:0:
256,192,27734,1,8,0:0:0:0:
256,192,27910,1,8,0:0:0:0:
256,192,27999,1,8,0:0:0:0:
256,192,28087,1,0,0:0:0:0:
256,192,28175,1,0,0:0:0:0:
256,192,28263,1,8,0:0:0:0:
256,192,28352,1,8,0:0:0:0:
256,192,28440,1,0,0:0:0:0:
256,192,28616,1,0,0:0:0:0:
256,128,28793,1,12,0:0:0:0:
256,192,29852,1,0,0:0:0:0:
256,192,29940,1,0,0:0:0:0:
256,192,30028,1,8,0:0:0:0:
256,192,30116,1,8,0:0:0:0:
256,128,30205,1,4,0:0:0:0:
256,192,31263,1,8,0:0:0:0:
256,192,31616,1,0,0:0:0:0:
256,192,31793,1,0,0:0:0:0:
256,192,31969,1,0,0:0:0:0:
256,192,32146,1,0,0:0:0:0:
256,192,32322,1,0,0:0:0:0:
256,192,32410,1,0,0:0:0:0:
256,192,32499,1,8,0:0:0:0:
256,192,32587,1,0,0:0:0:0:
256,192,32675,1,0,0:0:0:0:
256,192,32763,1,8,0:0:0:0:
256,192,32852,1,0,0:0:0:0:
256,192,32940,1,0,0:0:0:0:
256,128,34087,1,12,0:0:0:0:
256,192,34440,5,0,0:0:0:0:
256,192,34616,1,8,0:0:0:0:
256,192,34793,1,0,0:0:0:0:
256,192,34969,1,8,0:0:0:0:
256,192,35146,1,0,0:0:0:0:
256,192,35322,1,8,0:0:0:0:
256,192,35499,1,0,0:0:0:0:
256,192,35587,1,0,0:0:0:0:
256,192,35675,1,8,0:0:0:0:
256,192,35763,1,8,0:0:0:0:
256,192,35852,1,0,0:0:0:0:
256,192,36028,1,8,0:0:0:0:
256,192,36205,1,0,0:0:0:0:
256,192,36381,1,8,0:0:0:0:
256,192,36557,1,0,0:0:0:0:
256,192,36734,1,0,0:0:0:0:
256,192,36910,1,8,0:0:0:0:
256,192,36999,1,8,0:0:0:0:
256,192,37087,1,0,0:0:0:0:
256,192,37175,1,8,0:0:0:0:
256,192,37263,1,0,0:0:0:0:
256,192,37440,1,8,0:0:0:0:
256,192,37616,1,0,0:0:0:0:
256,192,37793,1,8,0:0:0:0:
256,192,37969,1,0,0:0:0:0:
256,192,38146,1,8,0:0:0:0:
256,192,38322,1,0,0:0:0:0:
256,192,38410,1,0,0:0:0:0:
256,192,38499,1,8,0:0:0:0:
256,192,38587,1,8,0:0:0:0:
256,192,38675,1,0,0:0:0:0:
256,192,38852,1,8,0:0:0:0:
256,192,39028,1,0,0:0:0:0:
256,192,39205,1,8,0:0:0:0:
256,128,39381,1,4,0:0:0:0:
256,128,39557,1,12,0:0:0:0:
256,192,39734,1,8,0:0:0:0:
256,192,39822,1,8,0:0:0:0:
256,192,39910,1,8,0:0:0:0:
256,192,39999,1,8,0:0:0:0:
256,192,40087,5,0,0:0:0:0:
256,192,40263,1,8,0:0:0:0:
256,192,40440,1,0,0:0:0:0:
256,192,40616,1,8,0:0:0:0:
256,192,40793,1,0,0:0:0:0:
256,192,40969,1,8,0:0:0:0:
256,192,41146,1,0,0:0:0:0:
256,192,41234,1,0,0:0:0:0:
256,192,41322,1,8,0:0:0:0:
256,192,41410,1,8,0:0:0:0:
256,192,41499,1,0,0:0:0:0:
256,192,41675,1,8,0:0:0:0:
256,192,41852,1,0,0:0:0:0:
256,192,42028,1,8,0:0:0:0:
256,192,42204,1,0,0:0:0:0:
256,192,42381,1,0,0:0:0:0:
256,192,42557,1,8,0:0:0:0:
256,192,42646,1,8,0:0:0:0:
256,192,42734,1,0,0:0:0:0:
256,192,42822,1,8,0:0:0:0:
256,192,42910,1,0,0:0:0:0:
256,192,43087,1,8,0:0:0:0:
256,192,43263,1,0,0:0:0:0:
256,192,43440,1,8,0:0:0:0:
256,192,43616,1,0,0:0:0:0:
256,192,43793,1,8,0:0:0:0:
256,192,43969,1,0,0:0:0:0:
256,192,44057,1,0,0:0:0:0:
256,192,44146,1,8,0:0:0:0:
256,192,44234,1,8,0:0:0:0:
256,192,44322,1,0,0:0:0:0:
256,192,44499,1,8,0:0:0:0:
256,192,44675,1,0,0:0:0:0:
256,192,44852,1,8,0:0:0:0:
256,128,45028,1,4,0:0:0:0:
256,192,45734,5,0,0:0:0:0:
256,192,45822,1,8,0:0:0:0:
256,192,45910,1,8,0:0:0:0:
256,192,45999,1,0,0:0:0:0:
256,192,46087,1,0,0:0:0:0:
256,192,46175,1,8,0:0:0:0:
256,192,46263,1,0,0:0:0:0:
256,192,46440,1,8,0:0:0:0:
256,192,46528,1,0,0:0:0:0:
256,192,46616,1,0,0:0:0:0:
256,192,46705,1,0,0:0:0:0:
256,192,46793,1,8,0:0:0:0:
256,192,46881,1,0,0:0:0:0:
256,192,46969,1,8,0:0:0:0:
256,192,47057,1,8,0:0:0:0:
256,192,47146,5,0,0:0:0:0:
256,192,47234,1,8,0:0:0:0:
256,192,47322,1,8,0:0:0:0:
256,192,47411,1,0,0:0:0:0:
256,192,47499,1,0,0:0:0:0:
256,192,47587,1,8,0:0:0:0:
256,192,47675,1,0,0:0:0:0:
256,192,47852,1,8,0:0:0:0:
256,192,47940,1,0,0:0:0:0:
256,192,48028,1,0,0:0:0:0:
256,192,48205,1,8,0:0:0:0:
256,192,48557,5,0,0:0:0:0:
256,192,48645,1,8,0:0:0:0:
256,192,48733,1,8,0:0:0:0:
256,192,48822,1,0,0:0:0:0:
256,192,48910,1,0,0:0:0:0:
256,192,48998,1,8,0:0:0:0:
256,192,49086,1,0,0:0:0:0:
256,192,49263,1,8,0:0:0:0:
256,192,49351,1,0,0:0:0:0:
256,192,49439,1,0,0:0:0:0:
256,192,49528,1,0,0:0:0:0:
256,192,49616,1,8,0:0:0:0:
256,192,49704,1,0,0:0:0:0:
256,192,49792,1,8,0:0:0:0:
256,192,49880,1,8,0:0:0:0:
256,192,49969,5,0,0:0:0:0:
256,192,50057,1,8,0:0:0:0:
256,192,50145,1,8,0:0:0:0:
256,192,50234,1,0,0:0:0:0:
256,192,50322,1,0,0:0:0:0:
256,192,50410,1,8,0:0:0:0:
256,192,50498,1,0,0:0:0:0:
256,192,50675,1,8,0:0:0:0:
256,192,50763,1,8,0:0:0:0:
256,192,50852,1,0,0:0:0:0:
256,192,51028,1,8,0:0:0:0:
256,192,51116,1,8,0:0:0:0:
256,192,51205,1,0,0:0:0:0:
256,192,51293,1,8,0:0:0:0:
256,192,51381,1,0,0:0:0:0:
256,192,51469,1,8,0:0:0:0:
256,192,51557,5,8,0:0:0:0:
256,192,51646,1,0,0:0:0:0:
256,192,51734,1,0,0:0:0:0:
256,192,51822,1,8,0:0:0:0:
256,192,51910,1,8,0:0:0:0:
256,192,52087,1,8,0:0:0:0:
256,192,52175,1,8,0:0:0:0:
256,192,52263,1,0,0:0:0:0:
256,192,52352,1,0,0:0:0:0:
256,192,52440,1,8,0:0:0:0:
256,192,52528,1,8,0:0:0:0:
256,192,52616,1,0,0:0:0:0:
256,192,52704,1,0,0:0:0:0:
256,192,52793,5,8,0:0:0:0:
256,192,52881,1,8,0:0:0:0:
256,192,52969,1,0,0:0:0:0:
256,192,53058,1,0,0:0:0:0:
256,192,53146,1,8,0:0:0:0:
256,192,53234,1,0,0:0:0:0:
256,192,53322,1,8,0:0:0:0:
256,192,53499,1,8,0:0:0:0:
256,192,53587,1,8,0:0:0:0:
256,192,53675,1,0,0:0:0:0:
256,192,53763,1,0,0:0:0:0:
256,192,53852,1,8,0:0:0:0:
256,192,53940,1,8,0:0:0:0:
256,192,54028,1,8,0:0:0:0:
256,192,54116,1,8,0:0:0:0:
256,192,54204,5,0,0:0:0:0:
256,192,54292,1,8,0:0:0:0:
256,192,54380,1,0,0:0:0:0:
256,192,54469,1,0,0:0:0:0:
256,192,54557,1,8,0:0:0:0:
256,192,54645,1,8,0:0:0:0:
256,192,54734,1,0,0:0:0:0:
256,192,54822,1,0,0:0:0:0:
256,192,54910,1,8,0:0:0:0:
256,192,54999,1,8,0:0:0:0:
256,192,55087,1,0,0:0:0:0:
256,192,55175,1,0,0:0:0:0:
256,192,55263,1,8,0:0:0:0:
256,192,55351,1,8,0:0:0:0:
256,192,55439,1,0,0:0:0:0:
256,192,55484,1,0,0:0:0:0:
256,192,55527,1,0,0:0:0:0:
128,288,55616,2,0,L|256:288,3,125.999996154785
256,128,56322,1,12,0:0:0:0:
256,192,57028,5,0,0:0:0:0:
256,192,57116,1,8,0:0:0:0:
256,192,57293,1,0,0:0:0:0:
256,192,57381,1,8,0:0:0:0:
256,192,57557,1,0,0:0:0:0:
256,192,57646,1,0,0:0:0:0:
256,192,57734,1,0,0:0:0:0:
256,192,57822,1,8,0:0:0:0:
256,192,57999,1,0,0:0:0:0:
256,192,58087,1,8,0:0:0:0:
256,192,58440,5,0,0:0:0:0:
256,192,58528,1,8,0:0:0:0:
256,192,58705,1,0,0:0:0:0:
256,192,58793,1,8,0:0:0:0:
256,192,58969,1,0,0:0:0:0:
256,192,59058,1,0,0:0:0:0:
256,192,59146,1,0,0:0:0:0:
256,192,59234,1,8,0:0:0:0:
256,192,59411,1,0,0:0:0:0:
256,128,59499,1,12,0:0:0:0:
256,192,59852,5,0,0:0:0:0:
256,192,59940,1,8,0:0:0:0:
256,192,60117,1,0,0:0:0:0:
256,192,60205,1,8,0:0:0:0:
256,192,60381,1,0,0:0:0:0:
256,192,60470,1,0,0:0:0:0:
256,192,60558,1,0,0:0:0:0:
256,192,60646,1,8,0:0:0:0:
256,192,60823,1,0,0:0:0:0:
256,192,60911,1,8,0:0:0:0:
256,192,61263,5,0,0:0:0:0:
256,192,61351,1,8,0:0:0:0:
256,192,61528,1,0,0:0:0:0:
256,192,61616,1,8,0:0:0:0:
256,192,61792,1,0,0:0:0:0:
256,192,61881,1,0,0:0:0:0:
256,192,61969,1,0,0:0:0:0:
256,192,62057,1,8,0:0:0:0:
256,192,62234,1,0,0:0:0:0:
256,192,62322,1,8,0:0:0:0:
256,192,62410,1,8,0:0:0:0:
256,192,62499,1,8,0:0:0:0:
256,192,62587,1,8,0:0:0:0:
256,192,62675,5,0,0:0:0:0:
256,192,62763,1,0,0:0:0:0:
256,192,62852,1,8,0:0:0:0:
256,192,62940,1,8,0:0:0:0:
256,192,63028,1,0,0:0:0:0:
256,192,63205,1,0,0:0:0:0:
256,192,63293,1,0,0:0:0:0:
256,192,63381,1,8,0:0:0:0:
256,192,63469,1,8,0:0:0:0:
256,192,63557,1,8,0:0:0:0:
256,192,63646,1,8,0:0:0:0:
256,128,63734,1,4,0:0:0:0:
256,192,64087,5,0,0:0:0:0:
256,192,64175,1,0,0:0:0:0:
256,192,64264,1,8,0:0:0:0:
256,192,64352,1,8,0:0:0:0:
256,192,64440,1,0,0:0:0:0:
256,192,64617,1,0,0:0:0:0:
256,192,64705,1,0,0:0:0:0:
256,192,64793,1,8,0:0:0:0:
256,192,64881,1,8,0:0:0:0:
256,192,64969,1,0,0:0:0:0:
256,192,65058,1,0,0:0:0:0:
256,128,65146,1,12,0:0:0:0:
256,192,65499,1,0,0:0:0:0:
256,192,65587,1,0,0:0:0:0:
256,192,65675,1,8,0:0:0:0:
256,192,65763,1,8,0:0:0:0:
256,192,65852,1,0,0:0:0:0:
256,192,65940,1,0,0:0:0:0:
256,192,66028,1,0,0:0:0:0:
256,192,66116,1,8,0:0:0:0:
256,192,66205,1,0,0:0:0:0:
256,192,66293,1,8,0:0:0:0:
256,192,66381,1,8,0:0:0:0:
256,192,66469,1,8,0:0:0:0:
128,320,66557,2,8,L|256:320,2,125.999996154785
256,192,68322,12,0,73616,0:0:0:0:
256,192,73969,5,0,0:0:0:0:
256,192,74322,1,8,0:0:0:0:
256,192,74675,1,0,0:0:0:0:
256,192,74852,1,0,0:0:0:0:
256,192,75028,1,8,0:0:0:0:
256,192,75381,1,0,0:0:0:0:
256,192,75734,1,8,0:0:0:0:
256,192,76087,1,0,0:0:0:0:
256,192,76440,1,8,0:0:0:0:
256,192,76793,1,0,0:0:0:0:
256,192,76969,1,0,0:0:0:0:
256,192,77146,1,8,0:0:0:0:
256,192,77499,1,8,0:0:0:0:
256,192,77852,1,0,0:0:0:0:
256,192,78028,1,0,0:0:0:0:
256,192,78205,1,8,0:0:0:0:
256,192,78557,1,0,0:0:0:0:
256,192,78910,1,0,0:0:0:0:
256,192,79175,12,0,79440,0:0:0:0:
256,192,79616,5,0,0:0:0:0:
256,192,79969,1,8,0:0:0:0:
256,192,80322,1,0,0:0:0:0:
256,192,80499,1,0,0:0:0:0:
256,192,80675,1,8,0:0:0:0:
256,192,81028,1,0,0:0:0:0:
256,192,81381,1,8,0:0:0:0:
256,192,81734,1,0,0:0:0:0:
256,192,82087,1,8,0:0:0:0:
256,192,82440,1,0,0:0:0:0:
256,192,82616,1,0,0:0:0:0:
256,192,82793,1,8,0:0:0:0:
256,192,82969,1,0,0:0:0:0:
256,192,83146,1,8,0:0:0:0:
256,192,83322,1,0,0:0:0:0:
256,192,83499,1,0,0:0:0:0:
256,192,83675,1,0,0:0:0:0:
256,192,83852,1,8,0:0:0:0:
256,192,84204,1,8,0:0:0:0:
256,192,84381,1,0,0:0:0:0:
256,192,84557,1,8,0:0:0:0:
256,192,84910,1,0,0:0:0:0:
256,192,85263,5,0,0:0:0:0:
256,192,85616,1,0,0:0:0:0:
256,192,85969,1,0,0:0:0:0:
256,192,86322,1,8,0:0:0:0:
256,192,86675,1,0,0:0:0:0:
256,192,87028,1,0,0:0:0:0:
256,192,87381,1,0,0:0:0:0:
256,192,87734,1,8,0:0:0:0:
256,192,87910,1,0,0:0:0:0:
256,192,88087,1,0,0:0:0:0:
256,192,88440,1,0,0:0:0:0:
256,192,88793,1,0,0:0:0:0:
256,192,89146,1,8,0:0:0:0:
256,192,89499,1,0,0:0:0:0:
256,192,89852,1,0,0:0:0:0:
96,288,90205,2,0,L|416:288,1,315.000012016297
256,128,90910,1,4,0:0:0:0:
64,288,95852,2,0,L|416:288,1,350
256,128,96557,5,4,0:0:0:0:
256,192,96910,1,8,0:0:0:0:
256,192,97263,1,0,0:0:0:0:
256,192,97440,1,0,0:0:0:0:
256,192,97616,1,8,0:0:0:0:
256,192,97969,1,0,0:0:0:0:
256,192,98322,1,8,0:0:0:0:
256,192,98675,1,8,0:0:0:0:
256,192,98852,1,0,0:0:0:0:
256,192,99028,1,8,0:0:0:0:
256,192,99205,1,8,0:0:0:0:
256,192,99381,1,0,0:0:0:0:
256,192,99734,1,8,0:0:0:0:
256,192,100087,1,0,0:0:0:0:
256,192,100263,1,0,0:0:0:0:
256,192,100440,1,8,0:0:0:0:
256,192,100793,5,8,0:0:0:0:
256,192,100881,1,8,0:0:0:0:
256,192,100969,1,0,0:0:0:0:
256,192,101058,1,0,0:0:0:0:
256,192,101146,1,8,0:0:0:0:
256,192,101322,1,8,0:0:0:0:
256,192,101411,1,8,0:0:0:0:
256,192,101499,1,0,0:0:0:0:
256,192,101587,1,0,0:0:0:0:
256,192,101675,1,8,0:0:0:0:
256,192,101764,1,8,0:0:0:0:
256,192,101852,1,0,0:0:0:0:
256,192,102028,1,0,0:0:0:0:
256,128,102205,1,12,0:0:0:0:
256,192,103263,1,0,0:0:0:0:
256,192,103381,1,8,0:0:0:0:
256,192,103499,1,0,0:0:0:0:
256,192,103616,1,0,0:0:0:0:
256,192,104675,1,8,0:0:0:0:
128,288,105028,2,0,L|288:288,6,157.499995193482
256,128,107499,1,12,0:0:0:0:
256,192,107852,5,0,0:0:0:0:
256,192,107969,1,0,0:0:0:0:
256,192,108087,1,0,0:0:0:0:
256,192,108205,1,0,0:0:0:0:
256,192,108440,1,0,0:0:0:0:
256,192,108557,1,0,0:0:0:0:
256,192,108675,1,8,0:0:0:0:
256,192,108793,1,0,0:0:0:0:
256,128,108910,1,12,0:0:0:0:
256,192,109146,1,0,0:0:0:0:
256,192,109263,1,0,0:0:0:0:
256,192,109381,1,0,0:0:0:0:
256,192,109499,1,0,0:0:0:0:
256,192,109616,1,8,0:0:0:0:
256,192,109734,1,8,0:0:0:0:
256,192,109852,1,0,0:0:0:0:
256,128,109969,1,4,0:0:0:0:
256,192,110146,1,0,0:0:0:0:
256,128,110322,1,12,0:0:0:0:
256,192,110557,1,0,0:0:0:0:
256,192,110675,5,0,0:0:0:0:
256,192,110792,1,0,0:0:0:0:
256,192,110910,1,0,0:0:0:0:
256,192,111028,1,0,0:0:0:0:
256,192,111263,1,0,0:0:0:0:
256,192,111380,1,0,0:0:0:0:
256,192,111498,1,8,0:0:0:0:
256,192,111616,1,0,0:0:0:0:
256,128,111733,1,12,0:0:0:0:
256,192,111969,1,0,0:0:0:0:
256,192,112086,1,0,0:0:0:0:
256,192,112204,1,0,0:0:0:0:
256,192,112322,1,0,0:0:0:0:
256,192,112439,1,8,0:0:0:0:
256,192,112498,1,8,0:0:0:0:
256,192,112557,1,8,0:0:0:0:
256,192,112675,1,0,0:0:0:0:
256,128,112792,1,4,0:0:0:0:
256,192,112969,1,0,0:0:0:0:
256,192,113145,1,8,0:0:0:0:
256,192,113234,1,8,0:0:0:0:
256,192,113322,1,8,0:0:0:0:
256,192,113410,1,8,0:0:0:0:
256,192,113499,5,0,0:0:0:0:
256,192,113616,1,0,0:0:0:0:
256,192,113734,1,0,0:0:0:0:
256,192,113852,1,0,0:0:0:0:
256,192,114087,1,0,0:0:0:0:
256,192,114204,1,0,0:0:0:0:
256,192,114322,1,8,0:0:0:0:
256,192,114440,1,0,0:0:0:0:
256,128,114557,1,12,0:0:0:0:
256,192,114793,1,0,0:0:0:0:
256,192,114910,1,0,0:0:0:0:
256,192,115028,1,0,0:0:0:0:
256,192,115146,1,0,0:0:0:0:
256,192,115263,1,8,0:0:0:0:
256,192,115381,1,8,0:0:0:0:
256,192,115499,1,0,0:0:0:0:
256,128,115616,1,4,0:0:0:0:
256,192,115793,1,0,0:0:0:0:
256,128,115969,1,12,0:0:0:0:
256,192,116204,1,0,0:0:0:0:
256,192,116322,5,0,0:0:0:0:
256,192,116439,1,0,0:0:0:0:
256,192,116557,1,0,0:0:0:0:
256,192,116675,1,0,0:0:0:0:
256,192,116910,1,0,0:0:0:0:
256,192,117027,1,0,0:0:0:0:
256,192,117145,1,8,0:0:0:0:
256,192,117263,1,0,0:0:0:0:
256,128,117380,1,12,0:0:0:0:
256,192,117616,1,0,0:0:0:0:
96,320,117734,2,0,L|288:320,2,188.999994232178
256,128,118440,1,12,0:0:0:0:
256,192,119146,5,0,0:0:0:0:
256,192,119234,1,0,0:0:0:0:
256,192,119322,1,8,0:0:0:0:
256,192,119499,1,0,0:0:0:0:
256,192,119587,1,8,0:0:0:0:
256,192,119675,1,0,0:0:0:0:
256,192,119763,1,0,0:0:0:0:
256,192,119852,1,8,0:0:0:0:
256,192,119896,1,8,0:0:0:0:
256,192,119940,1,8,0:0:0:0:
256,192,120028,1,0,0:0:0:0:
256,192,120116,1,0,0:0:0:0:
256,192,120205,1,8,0:0:0:0:
256,192,120381,1,8,0:0:0:0:
256,192,120557,1,8,0:0:0:0:
256,192,120602,1,8,0:0:0:0:
256,192,120646,1,8,0:0:0:0:
256,192,120734,1,0,0:0:0:0:
256,192,120822,1,0,0:0:0:0:
256,192,120910,1,8,0:0:0:0:
256,192,121087,1,0,0:0:0:0:
256,192,121175,1,0,0:0:0:0:
256,192,121263,1,8,0:0:0:0:
256,192,121307,1,8,0:0:0:0:
256,192,121352,1,8,0:0:0:0:
256,192,121440,1,0,0:0:0:0:
256,192,121528,1,0,0:0:0:0:
256,192,121616,1,8,0:0:0:0:
256,192,121660,1,8,0:0:0:0:
256,192,121705,1,8,0:0:0:0:
256,192,121793,1,0,0:0:0:0:
256,192,121969,5,0,0:0:0:0:
256,192,122057,1,0,0:0:0:0:
256,192,122145,1,8,0:0:0:0:
256,192,122233,1,0,0:0:0:0:
256,192,122322,1,0,0:0:0:0:
256,192,122410,1,8,0:0:0:0:
256,192,122498,1,0,0:0:0:0:
256,192,122586,1,0,0:0:0:0:
256,192,122675,1,8,0:0:0:0:
256,192,122719,1,8,0:0:0:0:
256,192,122763,1,8,0:0:0:0:
256,192,122851,1,0,0:0:0:0:
256,192,122939,1,0,0:0:0:0:
256,192,123028,1,8,0:0:0:0:
256,192,123204,1,8,0:0:0:0:
256,192,123380,1,8,0:0:0:0:
256,192,123425,1,8,0:0:0:0:
256,192,123469,1,8,0:0:0:0:
256,192,123557,1,0,0:0:0:0:
256,192,123645,1,0,0:0:0:0:
256,192,123733,1,8,0:0:0:0:
256,192,123910,1,0,0:0:0:0:
256,192,123998,1,0,0:0:0:0:
256,192,124086,1,8,0:0:0:0:
256,192,124130,1,8,0:0:0:0:
256,192,124175,1,8,0:0:0:0:
256,192,124263,1,0,0:0:0:0:
256,192,124351,1,0,0:0:0:0:
256,192,124439,1,8,0:0:0:0:
256,192,124528,1,8,0:0:0:0:
256,192,124616,1,8,0:0:0:0:
256,192,124660,1,8,0:0:0:0:
256,192,124705,1,8,0:0:0:0:
256,192,124749,1,8,0:0:0:0:
256,192,124793,1,0,0:0:0:0:
256,192,124881,1,0,0:0:0:0:
256,192,124969,1,8,0:0:0:0:
256,192,125146,1,8,0:0:0:0:
256,192,125234,1,8,0:0:0:0:
256,192,125322,1,0,0:0:0:0:
256,192,125410,1,0,0:0:0:0:
256,192,125499,1,8,0:0:0:0:
256,192,125543,1,8,0:0:0:0:
256,192,125587,1,0,0:0:0:0:
256,192,125675,1,8,0:0:0:0:
256,192,125763,1,0,0:0:0:0:
256,192,125852,1,8,0:0:0:0:
256,192,125896,1,8,0:0:0:0:
256,192,125940,1,8,0:0:0:0:
256,192,126028,1,0,0:0:0:0:
256,192,126072,1,0,0:0:0:0:
256,192,126116,1,0,0:0:0:0:
256,192,126205,1,8,0:0:0:0:
256,192,126249,1,8,0:0:0:0:
256,192,126293,1,8,0:0:0:0:
256,192,126381,1,0,0:0:0:0:
256,192,126469,1,0,0:0:0:0:
256,192,126557,1,8,0:0:0:0:
256,192,126646,1,8,0:0:0:0:
256,192,126734,1,0,0:0:0:0:
256,192,126822,1,0,0:0:0:0:
256,192,126910,1,8,0:0:0:0:
256,192,126955,1,8,0:0:0:0:
256,192,126999,1,8,0:0:0:0:
256,192,127087,1,0,0:0:0:0:
256,192,127263,1,8,0:0:0:0:
256,192,127307,1,8,0:0:0:0:
256,192,127352,1,8,0:0:0:0:
256,192,127396,1,8,0:0:0:0:
256,192,127440,1,0,0:0:0:0:
256,192,127528,1,8,0:0:0:0:
256,192,127616,1,0,0:0:0:0:
256,192,127660,1,0,0:0:0:0:
256,192,127705,1,0,0:0:0:0:
256,192,127793,1,0,0:0:0:0:
256,192,127881,1,8,0:0:0:0:
256,192,127969,1,0,0:0:0:0:
256,192,128057,1,0,0:0:0:0:
256,192,128146,1,8,0:0:0:0:
256,192,128234,1,0,0:0:0:0:
256,192,128322,1,8,0:0:0:0:
256,192,128366,1,8,0:0:0:0:
256,192,128410,1,8,0:0:0:0:
256,192,128499,1,0,0:0:0:0:
256,192,128587,1,0,0:0:0:0:
256,192,128675,1,8,0:0:0:0:
256,192,128719,1,8,0:0:0:0:
256,192,128763,1,8,0:0:0:0:
256,192,128852,1,0,0:0:0:0:
256,192,128896,1,0,0:0:0:0:
256,192,128940,1,8,0:0:0:0:
256,192,129028,12,8,130440,0:0:0:0:
256,192,136087,5,0,0:0:0:0:
256,192,136263,1,0,0:0:0:0:
256,192,136440,1,8,0:0:0:0:
256,192,136616,1,8,0:0:0:0:
256,192,136793,1,0,0:0:0:0:
256,192,136969,1,0,0:0:0:0:
256,192,137146,1,8,0:0:0:0:
256,192,137322,1,8,0:0:0:0:
256,192,137499,1,0,0:0:0:0:
256,192,137675,1,0,0:0:0:0:
256,192,137852,1,8,0:0:0:0:
256,192,138028,1,0,0:0:0:0:
256,192,138205,1,0,0:0:0:0:
256,192,138381,1,0,0:0:0:0:
256,192,138557,1,8,0:0:0:0:
256,192,138734,1,8,0:0:0:0:
256,192,138910,1,0,0:0:0:0:
256,192,139087,1,0,0:0:0:0:
256,192,139263,1,8,0:0:0:0:
256,192,139440,1,8,0:0:0:0:
256,192,139616,1,0,0:0:0:0:
256,192,139793,1,0,0:0:0:0:
256,192,139969,1,8,0:0:0:0:
256,192,140146,1,0,0:0:0:0:
256,192,140322,5,0,0:0:0:0:
256,192,140410,1,0,0:0:0:0:
256,192,140498,1,0,0:0:0:0:
256,192,140587,1,0,0:0:0:0:
256,192,140675,1,8,0:0:0:0:
256,192,140851,1,8,0:0:0:0:
256,192,140940,1,8,0:0:0:0:
256,192,141028,1,0,0:0:0:0:
256,192,141116,1,0,0:0:0:0:
256,192,141204,1,8,0:0:0:0:
256,192,141293,1,8,0:0:0:0:
256,192,141381,1,0,0:0:0:0:
256,192,141557,1,0,0:0:0:0:
256,128,141734,1,12,0:0:0:0:
256,128,141999,1,12,0:0:0:0:
256,128,142440,1,12,0:0:0:0:
256,128,142705,1,12,0:0:0:0:
256,192,142969,1,8,0:0:0:0:
256,128,143146,1,12,0:0:0:0:
256,128,143410,1,12,0:0:0:0:
256,192,143675,1,8,0:0:0:0:
256,192,143763,1,8,0:0:0:0:
256,192,143852,1,8,0:0:0:0:
256,128,144028,1,12,0:0:0:0:
256,192,144205,1,8,0:0:0:0:
256,192,144293,1,8,0:0:0:0:
256,192,144381,1,8,0:0:0:0:
256,192,144469,1,8,0:0:0:0:
256,192,144557,1,8,0:0:0:0:
256,128,144822,1,12,0:0:0:0:
256,192,145087,1,8,0:0:0:0:
256,192,145175,1,8,0:0:0:0:
256,192,145263,1,8,0:0:0:0:
256,128,145528,1,12,0:0:0:0:
256,128,145969,1,12,0:0:0:0:
256,128,146146,1,4,0:0:0:0:
256,128,146322,1,4,0:0:0:0:
256,128,146499,1,4,0:0:0:0:
256,192,147381,5,0,0:0:0:0:
256,192,147469,1,8,0:0:0:0:
256,192,147646,1,0,0:0:0:0:
256,192,147734,1,8,0:0:0:0:
256,192,147910,1,0,0:0:0:0:
256,192,147999,1,0,0:0:0:0:
256,192,148087,1,0,0:0:0:0:
256,192,148175,1,8,0:0:0:0:
256,192,148263,1,0,0:0:0:0:
256,192,148352,1,0,0:0:0:0:
256,192,148440,1,8,0:0:0:0:
256,192,148528,1,8,0:0:0:0:
256,192,148616,1,0,0:0:0:0:
256,192,148793,1,0,0:0:0:0:
256,192,148881,1,8,0:0:0:0:
256,192,149057,1,0,0:0:0:0:
256,192,149146,1,8,0:0:0:0:
256,192,149322,1,0,0:0:0:0:
256,192,149411,1,0,0:0:0:0:
256,192,149499,1,0,0:0:0:0:
256,192,149587,1,8,0:0:0:0:
256,192,149675,1,0,0:0:0:0:
256,192,149764,1,0,0:0:0:0:
256,192,149852,1,8,0:0:0:0:
256,192,149940,1,8,0:0:0:0:
256,192,150028,1,0,0:0:0:0:
256,192,150205,1,0,0:0:0:0:
256,192,150293,1,8,0:0:0:0:
256,192,150469,1,0,0:0:0:0:
256,192,150557,1,8,0:0:0:0:
256,192,150734,1,0,0:0:0:0:
256,192,150823,1,0,0:0:0:0:
256,192,150911,1,0,0:0:0:0:
256,192,150999,1,8,0:0:0:0:
256,192,151087,1,0,0:0:0:0:
256,192,151176,1,0,0:0:0:0:
256,192,151264,1,8,0:0:0:0:
256,192,151352,1,8,0:0:0:0:
256,192,151440,1,0,0:0:0:0:
256,192,151617,1,0,0:0:0:0:
256,192,151705,1,8,0:0:0:0:
256,192,151969,1,0,0:0:0:0:
256,192,152057,1,8,0:0:0:0:
256,192,152234,1,0,0:0:0:0:
256,192,152323,1,0,0:0:0:0:
256,192,152411,1,0,0:0:0:0:
256,192,152499,1,8,0:0:0:0:
256,192,152587,1,0,0:0:0:0:
256,192,152676,1,0,0:0:0:0:
256,192,152764,1,8,0:0:0:0:
256,192,152852,1,8,0:0:0:0:
256,192,152940,1,0,0:0:0:0:
256,192,153029,1,0,0:0:0:0:
256,192,153117,1,0,0:0:0:0:
256,192,153205,1,8,0:0:0:0:
256,192,153293,1,0,0:0:0:0:
256,192,153381,1,8,0:0:0:0:
256,192,153425,1,8,0:0:0:0:
256,192,153469,1,8,0:0:0:0:
256,192,153557,1,0,0:0:0:0:
256,192,153646,1,0,0:0:0:0:
256,192,153734,1,8,0:0:0:0:
256,192,153822,1,0,0:0:0:0:
256,192,153866,1,0,0:0:0:0:
256,192,153910,1,8,0:0:0:0:
256,192,153998,1,8,0:0:0:0:
256,128,154087,1,4,0:0:0:0:
256,192,154440,1,0,0:0:0:0:
256,192,154528,1,0,0:0:0:0:
256,192,154616,1,8,0:0:0:0:
256,192,154704,1,0,0:0:0:0:
256,192,154792,1,8,0:0:0:0:
256,192,154837,1,8,0:0:0:0:
256,192,154880,1,8,0:0:0:0:
256,192,154968,1,0,0:0:0:0:
256,192,155057,1,0,0:0:0:0:
256,192,155145,1,8,0:0:0:0:
256,192,155233,1,0,0:0:0:0:
256,192,155278,1,0,0:0:0:0:
256,192,155321,1,8,0:0:0:0:
256,192,155409,1,0,0:0:0:0:
256,128,155498,1,12,0:0:0:0:
64,288,155852,2,0,L|128:288,16,62.9999980773926
256,192,158675,12,0,161499,0:0:0:0:
256,128,164322,5,4,0:0:0:0:
