osu file format v14

[General]
AudioFilename: audio.mp3
AudioLeadIn: 0
PreviewTime: 52607
Countdown: 1
SampleSet: Normal
StackLeniency: 0.7
Mode: 1
LetterboxInBreaks: 0
WidescreenStoryboard: 0

[Editor]
Bookmarks: 35087
DistanceSpacing: 1.4
BeatDivisor: 4
GridSize: 32
TimelineZoom: 3.799999

[Metadata]
Title:Terminal Missa
TitleUnicode:Terminal Missa
Artist:Laur
ArtistUnicode:Laur
Creator:Konpaku Sariel
Version:Missa Oni
Source:
Tags:1000 OVER!! Psycho Filth Records extratone Speedcore Electronic Instrumental PFEX016
BeatmapID:2211161
BeatmapSetID:1057894

[Difficulty]
HPDrainRate:7
CircleSize:5
OverallDifficulty:8
ApproachRate:5
SliderMultiplier:1.4
SliderTickRate:1

[Events]
//Background and Video events
0,0,"image!.jpg",0,0
//Break Periods
//Storyboard Layer 0 (Background)
//Storyboard Layer 1 (Fail)
//Storyboard Layer 2 (Pass)
//Storyboard Layer 3 (Foreground)
//Storyboard Layer 4 (Overlay)
//Storyboard Sound Samples

[TimingPoints]
17698,272.727272727273,4,1,0,100,1,0
19811,-25,4,2,0,30,0,0
19948,-100,4,2,0,30,0,0
21175,-100,4,1,0,100,0,0
23902,-25,4,2,0,30,0,0
24038,-100,4,2,0,30,0,0
25538,-100,4,1,0,100,0,0
28538,-25,4,2,0,30,0,0
28675,-100,4,2,0,30,0,0
30720,-100,4,1,0,10,0,0
30857,-97.0873786407767,4,1,0,20,0,0
30993,-93.4579439252336,4,1,0,30,0,0
31129,-90.0900900900901,4,1,0,40,0,0
31266,-86.9565217391304,4,1,0,50,0,0
31402,-84.0336134453781,4,1,0,60,0,0
31538,-81.3008130081301,4,1,0,65,0,0
31675,-78.125,4,1,0,65,0,0
31811,-75.7575757575758,4,1,0,70,0,0
31948,-72.992700729927,4,1,0,70,0,0
32084,-70.4225352112676,4,1,0,80,0,0
32220,-68.0272108843537,4,1,0,80,0,0
32357,-65.7894736842105,4,1,0,90,0,0
32493,-63.2911392405063,4,1,0,90,0,0
32629,-60.9756097560976,4,1,0,90,0,0
32766,-58.8235294117647,4,1,0,90,0,0
32902,-50,4,1,0,100,0,0
33004,-25,4,2,0,5,0,0
35084,-100,4,1,0,100,0,0
35152,-66.6666666666667,4,1,0,100,0,1
42788,-66.6666666666667,4,1,0,100,0,0
42891,-70.9219858156028,4,1,0,100,0,0
43027,-75.187969924812,4,1,0,100,0,0
43163,-79.3650793650794,4,1,0,100,0,0
43232,-81.9672131147541,4,1,0,100,0,0
43300,-84.7457627118644,4,1,0,100,0,0
43368,-86.9565217391304,4,1,0,100,0,0
43436,-89.2857142857143,4,1,0,100,0,0
43504,-91.743119266055,4,1,0,100,0,0
43573,-95.2380952380952,4,1,0,100,0,0
43709,-100,4,1,0,100,0,0
43879,-66.6666666666667,4,1,0,100,0,1
51493,-25,4,2,0,5,0,1
52538,-25,4,1,0,100,0,1
52607,-83.3333333333333,4,1,0,100,0,0
54482,-71.4285714285714,4,1,0,100,0,0
54618,-76.9230769230769,4,1,0,100,0,0
54754,-83.3333333333333,4,1,0,100,0,0
56538,-66.6666666666667,4,1,0,100,0,0
56584,-68.4931506849315,4,1,0,100,0,0
56629,-70.4225352112676,4,1,0,100,0,0
56675,-71.9424460431655,4,1,0,100,0,0
56811,-77.5193798449612,4,1,0,100,0,0
56948,-83.3333333333333,4,1,0,100,0,0
58857,-68.9655172413793,4,1,0,100,0,0
58902,-71.4285714285714,4,1,0,100,0,0
58948,-73.5294117647059,4,1,0,100,0,0
58993,-75.7575757575758,4,1,0,100,0,0
59038,-78.7401574803149,4,1,0,100,0,0
59084,-81.3008130081301,4,1,0,100,0,0
59129,-83.3333333333333,4,1,0,100,0,0
61266,-80,4,1,0,100,0,0
63209,-71.4285714285714,4,1,0,100,0,0
63345,-76.9230769230769,4,1,0,100,0,0
63482,-80,4,1,0,100,0,0
65266,-64.1025641025641,4,1,0,100,0,0
65311,-65.7894736842105,4,1,0,100,0,0
65357,-68.0272108843537,4,1,0,100,0,0
65402,-69.4444444444444,4,1,0,100,0,0
65538,-74.6268656716418,4,1,0,100,0,0
65675,-80,4,1,0,100,0,0
67845,-66.6666666666667,4,1,0,100,0,0
69993,-200,4,1,0,50,0,0
71970,-200,4,1,0,100,0,0
72243,272.727272727273,4,1,0,100,1,0
72243,-200,4,1,0,100,0,0
72720,-222.222222222222,4,2,0,50,0,0
73265,-238.095238095238,4,2,0,50,0,0
73811,-263.157894736842,4,2,0,50,0,0
74356,-285.714285714286,4,2,0,50,0,0
74902,-312.5,4,2,0,50,0,0
75197,-322.58064516129,4,2,0,50,0,0
75288,-330.03300330033,4,2,0,50,0,0
75379,-337.837837837838,4,2,0,50,0,0
75470,-344.827586206897,4,2,0,50,0,0
75993,-370.37037037037,4,2,0,50,0,0
76538,-400,4,2,0,50,0,0
80697,-400,4,1,0,50,0,0
81015,-400,4,2,0,70,0,0
89629,-100,4,1,0,100,0,0
89697,-83.3333333333333,4,1,0,100,0,1
98379,-76.9230769230769,4,1,0,100,0,1
108243,-76.9230769230769,4,1,0,100,0,0
108720,-25,4,2,0,70,0,0
109265,-25,4,1,0,100,0,0
109333,272.727272727273,4,1,0,100,1,1
109333,-66.6666666666667,4,1,0,100,0,1
116969,-66.6666666666667,4,1,0,100,0,0
117446,-100,4,1,0,100,0,0
118060,-62.5,4,1,0,100,0,1
126787,-50,4,1,0,100,0,1
127878,-50,4,1,0,100,0,0

[HitObjects]
256,192,17698,5,4,0:0:0:0:
256,192,19879,12,0,20970,0:0:0:0:
256,192,21243,5,4,0:0:0:0:
256,192,21516,1,4,0:0:0:0:
256,192,21788,1,4,0:0:0:0:
256,192,22061,1,4,0:0:0:0:
256,192,23970,12,0,24788,0:0:0:0:
256,192,25607,5,4,0:0:0:0:
256,192,25879,1,4,0:0:0:0:
256,192,26152,1,4,0:0:0:0:
256,192,26425,1,4,0:0:0:0:
256,192,28607,12,0,30243,0:0:0:0:
256,192,30788,5,0,0:0:0:0:
256,192,30925,1,0,0:0:0:0:
256,192,31061,1,0,0:0:0:0:
256,192,31198,1,0,0:0:0:0:
256,192,31334,1,8,0:0:0:0:
256,192,31470,1,0,0:0:0:0:
256,192,31607,1,0,0:0:0:0:
256,192,31743,1,8,0:0:0:0:
256,192,31879,1,0,0:0:0:0:
256,192,32016,1,0,0:0:0:0:
256,192,32152,1,8,0:0:0:0:
256,192,32288,1,8,0:0:0:0:
256,192,32425,1,0,0:0:0:0:
256,192,32561,1,8,0:0:0:0:
256,192,32698,1,8,0:0:0:0:
256,192,32834,1,8,0:0:0:0:
256,192,32970,1,4,0:0:0:0:
256,192,33038,12,0,34879,0:0:0:0:
256,192,35152,5,0,0:0:0:0:
256,192,35220,1,0,0:0:0:0:
256,192,35288,1,0,0:0:0:0:
256,192,35357,1,0,0:0:0:0:
256,192,35425,1,8,0:0:0:0:
256,192,35493,1,0,0:0:0:0:
256,192,35561,1,0,0:0:0:0:
256,192,35629,1,0,0:0:0:0:
256,192,35698,1,8,0:0:0:0:
256,192,35743,1,8,0:0:0:0:
256,192,35788,1,8,0:0:0:0:
256,192,35834,1,0,0:0:0:0:
256,192,35902,1,0,0:0:0:0:
256,192,35970,1,8,0:0:0:0:
256,192,36016,1,8,0:0:0:0:
256,192,36061,1,8,0:0:0:0:
256,192,36107,1,0,0:0:0:0:
256,192,36175,1,0,0:0:0:0:
256,192,36243,1,8,0:0:0:0:
256,192,36288,1,8,0:0:0:0:
256,192,36334,1,0,0:0:0:0:
256,192,36379,1,0,0:0:0:0:
256,192,36448,1,0,0:0:0:0:
256,192,36516,1,8,0:0:0:0:
256,192,36561,1,8,0:0:0:0:
256,192,36607,1,0,0:0:0:0:
256,192,36652,1,0,0:0:0:0:
256,192,36720,1,0,0:0:0:0:
256,192,36788,1,0,0:0:0:0:
256,192,36857,1,8,0:0:0:0:
256,192,36925,1,0,0:0:0:0:
256,192,36993,1,8,0:0:0:0:
256,192,37061,1,0,0:0:0:0:
256,192,37129,1,0,0:0:0:0:
256,192,37198,1,8,0:0:0:0:
256,192,37243,1,8,0:0:0:0:
256,192,37288,1,8,0:0:0:0:
256,192,37334,1,0,0:0:0:0:
256,192,37402,1,0,0:0:0:0:
256,192,37470,1,0,0:0:0:0:
256,192,37538,1,0,0:0:0:0:
256,192,37607,1,8,0:0:0:0:
256,192,37675,1,0,0:0:0:0:
256,192,37743,1,0,0:0:0:0:
256,192,37811,1,0,0:0:0:0:
256,192,37879,1,8,0:0:0:0:
256,192,37925,1,8,0:0:0:0:
256,192,37970,1,8,0:0:0:0:
256,192,38016,1,0,0:0:0:0:
256,192,38084,1,0,0:0:0:0:
256,192,38152,1,8,0:0:0:0:
256,192,38198,1,8,0:0:0:0:
256,192,38243,1,8,0:0:0:0:
256,192,38288,1,0,0:0:0:0:
256,192,38357,1,0,0:0:0:0:
256,192,38425,1,8,0:0:0:0:
256,192,38470,1,8,0:0:0:0:
256,192,38516,1,0,0:0:0:0:
256,192,38561,1,8,0:0:0:0:
256,192,38607,1,0,0:0:0:0:
256,192,38652,1,0,0:0:0:0:
256,192,38698,1,8,0:0:0:0:
256,192,38743,1,8,0:0:0:0:
256,192,38788,1,0,0:0:0:0:
256,192,38834,1,8,0:0:0:0:
256,192,38879,1,8,0:0:0:0:
256,192,38925,1,8,0:0:0:0:
256,192,38970,1,0,0:0:0:0:
256,192,39107,1,0,0:0:0:0:
256,192,39243,1,8,0:0:0:0:
256,192,39379,1,8,0:0:0:0:
256,192,39425,1,8,0:0:0:0:
256,192,39470,1,8,0:0:0:0:
256,192,39516,1,0,0:0:0:0:
256,192,39584,1,0,0:0:0:0:
256,192,39652,1,8,0:0:0:0:
256,192,39720,1,0,0:0:0:0:
256,192,39788,1,8,0:0:0:0:
256,192,39857,1,8,0:0:0:0:
256,192,39925,1,0,0:0:0:0:
256,192,39993,1,0,0:0:0:0:
256,192,40061,1,8,0:0:0:0:
256,192,40107,1,8,0:0:0:0:
256,192,40152,1,8,0:0:0:0:
256,192,40198,1,0,0:0:0:0:
256,192,40266,1,0,0:0:0:0:
256,192,40334,1,8,0:0:0:0:
256,192,40379,1,8,0:0:0:0:
256,192,40425,1,8,0:0:0:0:
256,192,40470,1,0,0:0:0:0:
256,192,40538,1,0,0:0:0:0:
256,192,40607,1,8,0:0:0:0:
256,192,40652,1,8,0:0:0:0:
256,192,40698,1,0,0:0:0:0:
256,192,40743,1,8,0:0:0:0:
256,192,40788,1,0,0:0:0:0:
256,192,40834,1,0,0:0:0:0:
256,192,40879,1,8,0:0:0:0:
256,192,40925,1,8,0:0:0:0:
256,192,40970,1,0,0:0:0:0:
256,192,41016,1,8,0:0:0:0:
256,192,41061,1,8,0:0:0:0:
256,192,41107,1,8,0:0:0:0:
256,192,41152,1,0,0:0:0:0:
256,192,41220,1,8,0:0:0:0:
256,192,41288,1,0,0:0:0:0:
256,192,41357,1,8,0:0:0:0:
256,192,41425,1,0,0:0:0:0:
256,192,41493,1,0,0:0:0:0:
256,192,41561,1,8,0:0:0:0:
256,192,41607,1,8,0:0:0:0:
256,192,41652,1,8,0:0:0:0:
256,192,41698,1,0,0:0:0:0:
256,192,41766,1,0,0:0:0:0:
256,192,41834,1,8,0:0:0:0:
256,192,41902,1,0,0:0:0:0:
256,192,41970,1,8,0:0:0:0:
256,192,42038,1,8,0:0:0:0:
256,192,42107,1,0,0:0:0:0:
256,192,42175,1,0,0:0:0:0:
256,192,42243,1,8,0:0:0:0:
256,192,42288,1,8,0:0:0:0:
256,192,42334,1,8,0:0:0:0:
256,192,42379,1,0,0:0:0:0:
256,192,42448,1,0,0:0:0:0:
256,192,42516,1,8,0:0:0:0:
256,192,42561,1,8,0:0:0:0:
256,192,42607,1,8,0:0:0:0:
256,192,42652,1,0,0:0:0:0:
256,192,42720,1,0,0:0:0:0:
256,192,42788,1,0,0:0:0:0:
256,192,42925,1,0,0:0:0:0:
256,192,43061,1,8,0:0:0:0:
256,192,43198,1,0,0:0:0:0:
256,192,43266,1,8,0:0:0:0:
256,192,43334,1,0,0:0:0:0:
256,192,43402,1,8,0:0:0:0:
256,192,43470,1,0,0:0:0:0:
256,192,43538,1,0,0:0:0:0:
256,192,43607,1,8,0:0:0:0:
256,192,43743,1,0,0:0:0:0:
256,192,43879,1,0,0:0:0:0:
256,192,43948,1,8,0:0:0:0:
256,192,44016,1,8,0:0:0:0:
256,192,44084,1,8,0:0:0:0:
256,192,44152,1,0,0:0:0:0:
256,192,44220,1,0,0:0:0:0:
256,192,44288,1,8,0:0:0:0:
256,192,44357,1,0,0:0:0:0:
256,192,44425,1,8,0:0:0:0:
256,192,44470,1,8,0:0:0:0:
256,192,44516,1,8,0:0:0:0:
256,192,44561,1,0,0:0:0:0:
256,192,44629,1,0,0:0:0:0:
256,192,44698,1,8,0:0:0:0:
256,192,44743,1,8,0:0:0:0:
256,192,44788,1,8,0:0:0:0:
256,192,44834,1,0,0:0:0:0:
256,192,44902,1,0,0:0:0:0:
256,192,44970,1,8,0:0:0:0:
256,192,45016,1,8,0:0:0:0:
256,192,45061,1,0,0:0:0:0:
256,192,45107,1,0,0:0:0:0:
256,192,45175,1,0,0:0:0:0:
256,192,45243,1,8,0:0:0:0:
256,192,45288,1,8,0:0:0:0:
256,192,45334,1,0,0:0:0:0:
256,192,45379,1,0,0:0:0:0:
256,192,45448,1,0,0:0:0:0:
256,192,45516,1,0,0:0:0:0:
256,192,45584,1,8,0:0:0:0:
256,192,45652,1,0,0:0:0:0:
256,192,45720,1,8,0:0:0:0:
256,192,45788,1,0,0:0:0:0:
256,192,45857,1,0,0:0:0:0:
256,192,45925,1,8,0:0:0:0:
256,192,45970,1,8,0:0:0:0:
256,192,46016,1,8,0:0:0:0:
256,192,46061,1,0,0:0:0:0:
256,192,46129,1,8,0:0:0:0:
256,192,46198,1,8,0:0:0:0:
256,192,46266,1,8,0:0:0:0:
256,192,46334,1,0,0:0:0:0:
256,192,46402,1,0,0:0:0:0:
256,192,46470,1,8,0:0:0:0:
256,192,46538,1,0,0:0:0:0:
256,192,46607,1,8,0:0:0:0:
256,192,46652,1,8,0:0:0:0:
256,192,46698,1,8,0:0:0:0:
256,192,46743,1,0,0:0:0:0:
256,192,46811,1,0,0:0:0:0:
256,192,46879,1,8,0:0:0:0:
256,192,46925,1,8,0:0:0:0:
256,192,46970,1,8,0:0:0:0:
256,192,47016,1,0,0:0:0:0:
256,192,47084,1,0,0:0:0:0:
256,192,47152,1,8,0:0:0:0:
256,192,47198,1,8,0:0:0:0:
256,192,47243,1,0,0:0:0:0:
256,192,47288,1,8,0:0:0:0:
256,192,47334,1,8,0:0:0:0:
256,192,47379,1,0,0:0:0:0:
256,192,47425,1,8,0:0:0:0:
256,192,47470,1,0,0:0:0:0:
256,192,47516,1,0,0:0:0:0:
256,192,47561,1,8,0:0:0:0:
256,192,47607,1,8,0:0:0:0:
256,192,47652,1,8,0:0:0:0:
256,192,47698,1,0,0:0:0:0:
256,192,47970,1,8,0:0:0:0:
256,192,48107,1,8,0:0:0:0:
256,192,48152,1,8,0:0:0:0:
256,192,48198,1,8,0:0:0:0:
256,192,48243,1,0,0:0:0:0:
256,192,48311,1,8,0:0:0:0:
256,192,48379,1,8,0:0:0:0:
256,192,48448,1,0,0:0:0:0:
256,192,48516,1,8,0:0:0:0:
256,192,48584,1,8,0:0:0:0:
256,192,48652,1,0,0:0:0:0:
256,192,48720,1,0,0:0:0:0:
256,192,48788,1,8,0:0:0:0:
256,192,48834,1,8,0:0:0:0:
256,192,48879,1,8,0:0:0:0:
256,192,48925,1,0,0:0:0:0:
256,192,48993,1,0,0:0:0:0:
256,192,49061,1,8,0:0:0:0:
256,192,49107,1,8,0:0:0:0:
256,192,49152,1,8,0:0:0:0:
256,192,49198,1,0,0:0:0:0:
256,192,49266,1,0,0:0:0:0:
256,192,49334,1,8,0:0:0:0:
256,192,49379,1,8,0:0:0:0:
256,192,49425,1,0,0:0:0:0:
256,192,49470,1,8,0:0:0:0:
256,192,49516,1,8,0:0:0:0:
256,192,49561,1,0,0:0:0:0:
256,192,49607,1,8,0:0:0:0:
256,192,49652,1,0,0:0:0:0:
256,192,49698,1,0,0:0:0:0:
256,192,49743,1,8,0:0:0:0:
256,192,49788,1,8,0:0:0:0:
256,192,49834,1,8,0:0:0:0:
256,192,49879,1,0,0:0:0:0:
256,192,49948,1,8,0:0:0:0:
256,192,50016,1,0,0:0:0:0:
256,192,50084,1,8,0:0:0:0:
256,192,50152,1,0,0:0:0:0:
256,192,50220,1,0,0:0:0:0:
256,192,50288,1,8,0:0:0:0:
256,192,50334,1,8,0:0:0:0:
256,192,50379,1,8,0:0:0:0:
256,192,50425,1,0,0:0:0:0:
256,192,50493,1,8,0:0:0:0:
256,192,50561,1,8,0:0:0:0:
256,192,50629,1,0,0:0:0:0:
256,192,50698,1,8,0:0:0:0:
256,192,50766,1,8,0:0:0:0:
256,192,50834,1,0,0:0:0:0:
256,192,50902,1,0,0:0:0:0:
256,192,50970,1,8,0:0:0:0:
256,192,51016,1,8,0:0:0:0:
256,192,51061,1,0,0:0:0:0:
256,192,51107,1,8,0:0:0:0:
256,192,51152,1,8,0:0:0:0:
256,192,51198,1,0,0:0:0:0:
256,192,51243,1,8,0:0:0:0:
256,192,51288,1,8,0:0:0:0:
256,192,51334,1,0,0:0:0:0:
256,192,51379,1,8,0:0:0:0:
256,192,51425,1,8,0:0:0:0:
256,192,51470,1,8,0:0:0:0:
256,192,51516,12,0,52334,0:0:0:0:
256,192,52607,5,0,0:0:0:0:
256,192,52743,1,0,0:0:0:0:
256,192,52879,1,0,0:0:0:0:
256,192,53016,1,8,0:0:0:0:
256,192,53152,1,0,0:0:0:0:
256,192,53288,1,0,0:0:0:0:
256,192,53425,1,8,0:0:0:0:
256,192,53561,1,0,0:0:0:0:
256,192,53629,1,0,0:0:0:0:
256,192,53698,1,0,0:0:0:0:
256,192,53834,1,8,0:0:0:0:
256,192,53970,1,0,0:0:0:0:
256,192,54107,1,0,0:0:0:0:
256,192,54175,1,0,0:0:0:0:
256,192,54243,1,8,0:0:0:0:
256,192,54379,1,0,0:0:0:0:
256,192,54516,1,8,0:0:0:0:
256,192,54550,1,8,0:0:0:0:
256,192,54652,1,8,0:0:0:0:
256,192,54686,1,8,0:0:0:0:
256,192,54788,1,0,0:0:0:0:
256,192,54925,1,0,0:0:0:0:
256,192,55061,1,0,0:0:0:0:
256,192,55198,1,8,0:0:0:0:
256,192,55334,1,0,0:0:0:0:
256,192,55470,1,0,0:0:0:0:
256,192,55607,1,8,0:0:0:0:
256,192,55743,1,0,0:0:0:0:
256,192,55811,1,0,0:0:0:0:
256,192,55879,1,0,0:0:0:0:
256,192,56016,1,8,0:0:0:0:
256,192,56152,1,0,0:0:0:0:
256,192,56288,1,0,0:0:0:0:
256,192,56425,1,8,0:0:0:0:
256,192,56561,1,8,0:0:0:0:
256,192,56607,1,8,0:0:0:0:
256,192,56652,1,8,0:0:0:0:
256,192,56698,1,0,0:0:0:0:
256,192,56834,1,8,0:0:0:0:
256,192,56970,1,0,0:0:0:0:
256,192,57107,1,0,0:0:0:0:
256,192,57243,1,0,0:0:0:0:
256,192,57379,1,8,0:0:0:0:
256,192,57516,1,0,0:0:0:0:
256,192,57652,1,0,0:0:0:0:
256,192,57788,1,8,0:0:0:0:
256,192,57925,1,0,0:0:0:0:
256,192,57993,1,0,0:0:0:0:
256,192,58061,1,0,0:0:0:0:
256,192,58198,1,8,0:0:0:0:
256,192,58334,1,0,0:0:0:0:
256,192,58470,1,0,0:0:0:0:
256,192,58538,1,0,0:0:0:0:
256,192,58607,1,8,0:0:0:0:
256,192,58743,1,0,0:0:0:0:
256,192,58879,1,8,0:0:0:0:
256,192,58925,1,8,0:0:0:0:
256,192,58970,1,8,0:0:0:0:
256,192,59016,1,8,0:0:0:0:
256,192,59061,1,8,0:0:0:0:
256,192,59107,1,8,0:0:0:0:
256,192,59152,1,0,0:0:0:0:
256,192,59288,1,0,0:0:0:0:
256,192,59425,1,0,0:0:0:0:
256,192,59561,1,8,0:0:0:0:
256,192,59698,1,0,0:0:0:0:
256,192,59834,1,0,0:0:0:0:
256,192,59970,1,8,0:0:0:0:
256,192,60107,1,0,0:0:0:0:
256,192,60175,1,0,0:0:0:0:
256,192,60243,1,8,0:0:0:0:
256,192,60379,1,0,0:0:0:0:
256,192,60516,1,8,0:0:0:0:
256,192,60652,1,0,0:0:0:0:
256,192,60720,1,8,0:0:0:0:
256,192,60788,1,0,0:0:0:0:
256,192,61334,1,8,0:0:0:0:
256,192,61402,1,8,0:0:0:0:
256,192,61470,1,0,0:0:0:0:
256,192,61538,1,8,0:0:0:0:
256,192,61607,1,0,0:0:0:0:
256,192,61675,1,0,0:0:0:0:
256,192,61743,1,8,0:0:0:0:
256,192,61811,1,8,0:0:0:0:
256,192,61879,1,0,0:0:0:0:
256,192,61948,1,8,0:0:0:0:
256,192,62016,1,0,0:0:0:0:
256,192,62084,1,0,0:0:0:0:
256,192,62152,1,8,0:0:0:0:
256,192,62220,1,8,0:0:0:0:
256,192,62288,1,0,0:0:0:0:
256,192,62357,1,8,0:0:0:0:
256,192,62425,1,0,0:0:0:0:
256,192,62493,1,0,0:0:0:0:
256,192,62561,1,8,0:0:0:0:
256,192,62629,1,8,0:0:0:0:
256,192,62698,1,0,0:0:0:0:
256,192,62766,1,8,0:0:0:0:
256,192,62834,1,0,0:0:0:0:
256,192,62902,1,0,0:0:0:0:
256,192,62970,1,8,0:0:0:0:
256,192,63107,1,0,0:0:0:0:
256,192,63243,1,8,0:0:0:0:
256,192,63277,1,8,0:0:0:0:
256,192,63379,1,8,0:0:0:0:
256,192,63413,1,8,0:0:0:0:
256,192,63516,1,8,0:0:0:0:
256,192,63584,1,8,0:0:0:0:
256,192,63652,1,0,0:0:0:0:
256,192,63720,1,8,0:0:0:0:
256,192,63788,1,0,0:0:0:0:
256,192,63857,1,0,0:0:0:0:
256,192,63925,1,8,0:0:0:0:
256,192,63993,1,8,0:0:0:0:
256,192,64061,1,0,0:0:0:0:
256,192,64129,1,0,0:0:0:0:
256,192,64198,1,8,0:0:0:0:
256,192,64266,1,0,0:0:0:0:
256,192,64334,1,8,0:0:0:0:
256,192,64402,1,8,0:0:0:0:
256,192,64470,1,0,0:0:0:0:
256,192,64538,1,8,0:0:0:0:
256,192,64607,1,0,0:0:0:0:
256,192,64675,1,0,0:0:0:0:
256,192,64743,1,8,0:0:0:0:
256,192,64811,1,8,0:0:0:0:
256,192,64879,1,0,0:0:0:0:
256,192,64948,1,0,0:0:0:0:
256,192,65016,1,8,0:0:0:0:
256,192,65084,1,0,0:0:0:0:
256,192,65152,1,8,0:0:0:0:
256,192,65288,1,8,0:0:0:0:
256,192,65334,1,8,0:0:0:0:
256,192,65379,1,8,0:0:0:0:
256,192,65425,1,0,0:0:0:0:
256,192,65561,1,0,0:0:0:0:
256,192,65698,1,8,0:0:0:0:
256,192,65766,1,8,0:0:0:0:
256,192,65834,1,0,0:0:0:0:
256,192,65902,1,8,0:0:0:0:
256,192,65970,1,0,0:0:0:0:
256,192,66038,1,0,0:0:0:0:
256,192,66107,1,8,0:0:0:0:
256,192,66175,1,8,0:0:0:0:
256,192,66243,1,0,0:0:0:0:
256,192,66288,1,8,0:0:0:0:
256,192,66334,1,8,0:0:0:0:
256,192,66379,1,0,0:0:0:0:
256,192,66448,1,0,0:0:0:0:
256,192,66516,1,8,0:0:0:0:
256,192,66561,1,8,0:0:0:0:
256,192,66607,1,8,0:0:0:0:
256,192,66652,1,0,0:0:0:0:
256,192,66720,1,8,0:0:0:0:
256,192,66788,1,0,0:0:0:0:
256,192,66857,1,0,0:0:0:0:
256,192,66925,1,8,0:0:0:0:
256,192,66993,1,8,0:0:0:0:
256,192,67061,1,0,0:0:0:0:
256,192,67129,1,8,0:0:0:0:
256,192,67198,1,0,0:0:0:0:
256,192,67266,1,0,0:0:0:0:
256,192,67334,1,8,0:0:0:0:
256,192,67470,1,0,0:0:0:0:
256,192,67607,1,8,0:0:0:0:
256,192,67652,1,8,0:0:0:0:
256,192,67698,1,8,0:0:0:0:
256,192,67743,1,0,0:0:0:0:
256,192,67811,1,0,0:0:0:0:
256,192,67879,1,8,0:0:0:0:
256,192,67925,1,8,0:0:0:0:
256,192,67970,1,8,0:0:0:0:
256,192,68016,1,0,0:0:0:0:
256,192,68084,1,8,0:0:0:0:
256,192,68152,1,0,0:0:0:0:
256,192,68198,1,0,0:0:0:0:
256,192,68243,1,0,0:0:0:0:
256,192,68288,1,8,0:0:0:0:
256,192,68357,1,8,0:0:0:0:
256,192,68425,1,0,0:0:0:0:
256,192,68470,1,0,0:0:0:0:
256,192,68516,1,8,0:0:0:0:
256,192,68561,1,0,0:0:0:0:
256,192,68629,1,0,0:0:0:0:
256,192,68698,1,8,0:0:0:0:
256,192,68743,1,8,0:0:0:0:
256,192,68788,1,0,0:0:0:0:
256,192,68834,1,8,0:0:0:0:
256,192,68902,1,8,0:0:0:0:
256,192,68970,1,0,0:0:0:0:
256,192,70061,1,0,0:0:0:0:
256,192,72243,1,4,0:0:0:0:
256,192,72788,1,0,0:0:0:0:
256,192,73333,1,8,0:0:0:0:
256,192,73879,1,8,0:0:0:0:
256,192,74424,1,0,0:0:0:0:
256,192,74970,1,8,0:0:0:0:
256,192,75243,1,8,0:0:0:0:
256,192,75333,1,8,0:0:0:0:
256,192,75424,1,8,0:0:0:0:
256,192,75515,1,0,0:0:0:0:
256,192,76061,1,8,0:0:0:0:
256,192,76606,1,0,0:0:0:0:
256,192,77152,1,8,0:0:0:0:
256,192,77424,1,8,0:0:0:0:
256,192,77515,1,8,0:0:0:0:
256,192,77606,1,8,0:0:0:0:
256,192,77697,1,0,0:0:0:0:
256,192,77970,1,0,0:0:0:0:
256,192,78243,1,8,0:0:0:0:
256,192,78515,1,8,0:0:0:0:
256,192,78788,1,0,0:0:0:0:
256,192,79061,1,0,0:0:0:0:
256,192,79333,1,8,0:0:0:0:
256,192,79424,1,8,0:0:0:0:
256,192,79515,1,8,0:0:0:0:
256,192,79606,1,8,0:0:0:0:
256,192,79879,1,0,0:0:0:0:
256,192,80743,1,0,0:0:0:0:
256,192,80902,1,0,0:0:0:0:
256,192,80970,1,0,0:0:0:0:
256,192,81515,1,0,0:0:0:0:
256,192,82061,1,8,0:0:0:0:
256,192,82606,1,8,0:0:0:0:
256,192,83152,1,0,0:0:0:0:
256,192,83697,1,8,0:0:0:0:
256,192,83970,1,8,0:0:0:0:
256,192,84061,1,8,0:0:0:0:
256,192,84152,1,8,0:0:0:0:
256,192,84243,1,0,0:0:0:0:
256,192,84788,1,8,0:0:0:0:
256,192,85333,1,0,0:0:0:0:
256,192,85879,1,0,0:0:0:0:
256,192,86152,1,8,0:0:0:0:
256,192,86243,1,8,0:0:0:0:
256,192,86333,1,8,0:0:0:0:
256,192,86424,1,0,0:0:0:0:
256,192,86697,1,8,0:0:0:0:
256,192,86970,1,0,0:0:0:0:
256,192,87515,1,0,0:0:0:0:
256,192,88606,12,8,89561,0:0:0:0:
256,192,89697,5,8,0:0:0:0:
256,192,89765,1,8,0:0:0:0:
256,192,89833,1,8,0:0:0:0:
256,192,89902,1,8,0:0:0:0:
256,192,89970,1,8,0:0:0:0:
256,192,90038,1,8,0:0:0:0:
256,192,90106,1,8,0:0:0:0:
256,192,90174,1,8,0:0:0:0:
256,192,90243,1,0,0:0:0:0:
256,192,90311,1,0,0:0:0:0:
256,192,90379,1,0,0:0:0:0:
256,192,90447,1,0,0:0:0:0:
256,192,90515,1,8,0:0:0:0:
256,192,90583,1,8,0:0:0:0:
256,192,90652,1,0,0:0:0:0:
256,192,90720,1,0,0:0:0:0:
256,192,90788,1,8,0:0:0:0:
256,192,90856,1,8,0:0:0:0:
256,192,90924,1,8,0:0:0:0:
256,192,90993,1,8,0:0:0:0:
256,192,91061,1,0,0:0:0:0:
256,192,91129,1,0,0:0:0:0:
256,192,91197,1,8,0:0:0:0:
256,192,91265,1,8,0:0:0:0:
256,192,91333,1,0,0:0:0:0:
256,192,91470,1,0,0:0:0:0:
256,192,91606,1,0,0:0:0:0:
256,192,91743,1,0,0:0:0:0:
256,192,91811,1,0,0:0:0:0:
256,192,91879,1,8,0:0:0:0:
256,192,91947,1,8,0:0:0:0:
256,192,92015,1,0,0:0:0:0:
256,192,92083,1,0,0:0:0:0:
256,192,92152,1,8,0:0:0:0:
256,192,92220,1,8,0:0:0:0:
256,192,92288,1,0,0:0:0:0:
256,192,92356,1,0,0:0:0:0:
256,192,92424,1,8,0:0:0:0:
256,192,92493,1,8,0:0:0:0:
256,192,92561,1,8,0:0:0:0:
256,192,92629,1,8,0:0:0:0:
256,192,92697,1,0,0:0:0:0:
256,192,92765,1,0,0:0:0:0:
256,192,92833,1,0,0:0:0:0:
256,192,92902,1,0,0:0:0:0:
256,192,92970,1,8,0:0:0:0:
256,192,93038,1,8,0:0:0:0:
256,192,93106,1,8,0:0:0:0:
256,192,93174,1,8,0:0:0:0:
256,192,93243,1,0,0:0:0:0:
256,192,93311,1,0,0:0:0:0:
256,192,93379,1,8,0:0:0:0:
256,192,93447,1,8,0:0:0:0:
256,192,93515,1,0,0:0:0:0:
256,192,93652,1,0,0:0:0:0:
256,192,93788,1,0,0:0:0:0:
256,192,94061,1,8,0:0:0:0:
256,192,94129,1,8,0:0:0:0:
256,192,94197,1,8,0:0:0:0:
256,192,94265,1,8,0:0:0:0:
256,192,94333,1,8,0:0:0:0:
256,192,94402,1,8,0:0:0:0:
256,192,94470,1,8,0:0:0:0:
256,192,94538,1,8,0:0:0:0:
256,192,94606,1,0,0:0:0:0:
256,192,94674,1,0,0:0:0:0:
256,192,94743,1,0,0:0:0:0:
256,192,94811,1,0,0:0:0:0:
256,192,94879,1,8,0:0:0:0:
256,192,94947,1,8,0:0:0:0:
256,192,95015,1,0,0:0:0:0:
256,192,95083,1,0,0:0:0:0:
256,192,95152,1,8,0:0:0:0:
256,192,95220,1,8,0:0:0:0:
256,192,95288,1,8,0:0:0:0:
256,192,95356,1,8,0:0:0:0:
256,192,95424,1,0,0:0:0:0:
256,192,95493,1,0,0:0:0:0:
256,192,95561,1,0,0:0:0:0:
256,192,95629,1,0,0:0:0:0:
256,192,95697,1,8,0:0:0:0:
256,192,95970,1,0,0:0:0:0:
256,192,96106,1,0,0:0:0:0:
256,192,96174,1,0,0:0:0:0:
256,192,96243,1,8,0:0:0:0:
256,192,96311,1,8,0:0:0:0:
256,192,96379,1,0,0:0:0:0:
256,192,96447,1,0,0:0:0:0:
256,192,96515,1,0,0:0:0:0:
256,192,96583,1,0,0:0:0:0:
256,192,96652,1,8,0:0:0:0:
256,192,96720,1,8,0:0:0:0:
256,192,96788,1,0,0:0:0:0:
256,192,96856,1,0,0:0:0:0:
256,192,96924,1,0,0:0:0:0:
256,192,96993,1,0,0:0:0:0:
256,192,97061,1,8,0:0:0:0:
256,192,97129,1,8,0:0:0:0:
256,192,97197,1,0,0:0:0:0:
256,192,97265,1,0,0:0:0:0:
256,192,97333,1,8,0:0:0:0:
256,192,97606,1,8,0:0:0:0:
256,192,97674,1,8,0:0:0:0:
256,192,97743,1,8,0:0:0:0:
256,192,97811,1,8,0:0:0:0:
256,192,97879,1,0,0:0:0:0:
256,192,98015,1,0,0:0:0:0:
256,192,98152,1,8,0:0:0:0:
256,192,98424,1,8,0:0:0:0:
256,192,98493,1,8,0:0:0:0:
256,192,98561,1,8,0:0:0:0:
256,192,98629,1,8,0:0:0:0:
256,192,98697,1,8,0:0:0:0:
256,192,98765,1,8,0:0:0:0:
256,192,98833,1,8,0:0:0:0:
256,192,98902,1,8,0:0:0:0:
256,192,98970,1,0,0:0:0:0:
256,192,99038,1,0,0:0:0:0:
256,192,99106,1,0,0:0:0:0:
256,192,99174,1,0,0:0:0:0:
256,192,99243,1,8,0:0:0:0:
256,192,99311,1,8,0:0:0:0:
256,192,99379,1,0,0:0:0:0:
256,192,99447,1,0,0:0:0:0:
256,192,99515,1,8,0:0:0:0:
256,192,99583,1,8,0:0:0:0:
256,192,99652,1,8,0:0:0:0:
256,192,99720,1,8,0:0:0:0:
256,192,99788,1,0,0:0:0:0:
256,192,99856,1,0,0:0:0:0:
256,192,99924,1,8,0:0:0:0:
256,192,99993,1,8,0:0:0:0:
256,192,100061,1,0,0:0:0:0:
256,192,100197,1,0,0:0:0:0:
256,192,100333,1,0,0:0:0:0:
256,192,100470,1,0,0:0:0:0:
256,192,100538,1,0,0:0:0:0:
256,192,100606,1,8,0:0:0:0:
256,192,100674,1,8,0:0:0:0:
256,192,100743,1,0,0:0:0:0:
256,192,100811,1,0,0:0:0:0:
256,192,100879,1,8,0:0:0:0:
256,192,100947,1,8,0:0:0:0:
256,192,101015,1,0,0:0:0:0:
256,192,101083,1,0,0:0:0:0:
256,192,101152,1,8,0:0:0:0:
256,192,101220,1,8,0:0:0:0:
256,192,101288,1,8,0:0:0:0:
256,192,101356,1,8,0:0:0:0:
256,192,101424,1,0,0:0:0:0:
256,192,101493,1,0,0:0:0:0:
256,192,101561,1,0,0:0:0:0:
256,192,101629,1,0,0:0:0:0:
256,192,101697,1,8,0:0:0:0:
256,192,101765,1,8,0:0:0:0:
256,192,101833,1,8,0:0:0:0:
256,192,101902,1,8,0:0:0:0:
256,192,101970,1,0,0:0:0:0:
256,192,102038,1,0,0:0:0:0:
256,192,102106,1,8,0:0:0:0:
256,192,102174,1,8,0:0:0:0:
256,192,102243,1,0,0:0:0:0:
256,192,102515,1,8,0:0:0:0:
256,192,102561,1,8,0:0:0:0:
256,192,102606,1,8,0:0:0:0:
256,192,102652,1,0,0:0:0:0:
256,192,102720,1,0,0:0:0:0:
256,192,102788,1,8,0:0:0:0:
256,192,102856,1,8,0:0:0:0:
256,192,102924,1,8,0:0:0:0:
256,192,102993,1,8,0:0:0:0:
256,192,103061,1,8,0:0:0:0:
256,192,103129,1,8,0:0:0:0:
256,192,103197,1,8,0:0:0:0:
256,192,103265,1,8,0:0:0:0:
256,192,103333,1,0,0:0:0:0:
256,192,103402,1,0,0:0:0:0:
256,192,103470,1,0,0:0:0:0:
256,192,103538,1,0,0:0:0:0:
256,192,103606,1,8,0:0:0:0:
256,192,103674,1,8,0:0:0:0:
256,192,103743,1,0,0:0:0:0:
256,192,103811,1,0,0:0:0:0:
256,192,103879,1,8,0:0:0:0:
256,192,103947,1,8,0:0:0:0:
256,192,104015,1,8,0:0:0:0:
256,192,104083,1,8,0:0:0:0:
256,192,104152,1,0,0:0:0:0:
256,192,104220,1,0,0:0:0:0:
256,192,104288,1,0,0:0:0:0:
256,192,104356,1,0,0:0:0:0:
256,192,104424,1,8,0:0:0:0:
256,192,104697,1,0,0:0:0:0:
256,192,104833,1,0,0:0:0:0:
256,192,104879,1,0,0:0:0:0:
256,192,104924,1,0,0:0:0:0:
256,192,104970,1,8,0:0:0:0:
256,192,105038,1,8,0:0:0:0:
256,192,105106,1,0,0:0:0:0:
256,192,105174,1,0,0:0:0:0:
256,192,105243,1,0,0:0:0:0:
256,192,105311,1,0,0:0:0:0:
256,192,105379,1,8,0:0:0:0:
256,192,105447,1,8,0:0:0:0:
256,192,105515,1,0,0:0:0:0:
256,192,105583,1,0,0:0:0:0:
256,192,105652,1,0,0:0:0:0:
256,192,105720,1,0,0:0:0:0:
256,192,105788,1,8,0:0:0:0:
256,192,105856,1,8,0:0:0:0:
256,192,105924,1,0,0:0:0:0:
256,192,105993,1,0,0:0:0:0:
256,192,106061,1,8,0:0:0:0:
256,192,106106,1,8,0:0:0:0:
256,192,106152,1,8,0:0:0:0:
256,192,106197,1,0,0:0:0:0:
256,192,106265,1,0,0:0:0:0:
256,192,106333,1,8,0:0:0:0:
256,192,106379,1,8,0:0:0:0:
256,192,106424,1,8,0:0:0:0:
256,192,106470,1,0,0:0:0:0:
256,192,106538,1,0,0:0:0:0:
256,192,106606,1,8,0:0:0:0:
256,192,106652,1,8,0:0:0:0:
256,192,106697,1,0,0:0:0:0:
256,192,106743,1,8,0:0:0:0:
256,192,106788,1,0,0:0:0:0:
256,192,106833,1,0,0:0:0:0:
256,192,106879,1,8,0:0:0:0:
256,192,106947,1,8,0:0:0:0:
256,192,107015,1,0,0:0:0:0:
256,192,107083,1,0,0:0:0:0:
256,192,107152,1,8,0:0:0:0:
256,192,107424,1,0,0:0:0:0:
256,192,107493,1,0,0:0:0:0:
256,192,107561,1,8,0:0:0:0:
256,192,107833,1,0,0:0:0:0:
256,192,107879,1,0,0:0:0:0:
256,192,107924,1,0,0:0:0:0:
256,192,107970,1,8,0:0:0:0:
256,192,108243,1,4,0:0:0:0:
256,192,108788,12,0,109061,0:0:0:0:
256,192,109333,5,8,0:0:0:0:
256,192,109378,1,0,0:0:0:0:
256,192,109423,1,0,0:0:0:0:
256,192,109469,1,0,0:0:0:0:
256,192,109537,1,8,0:0:0:0:
256,192,109583,1,0,0:0:0:0:
256,192,109628,1,0,0:0:0:0:
256,192,109673,1,0,0:0:0:0:
256,192,109742,1,8,0:0:0:0:
256,192,109787,1,0,0:0:0:0:
256,192,109833,1,0,0:0:0:0:
256,192,109878,1,0,0:0:0:0:
256,192,109946,1,0,0:0:0:0:
256,192,110014,1,8,0:0:0:0:
256,192,110060,1,0,0:0:0:0:
256,192,110105,1,0,0:0:0:0:
256,192,110151,1,0,0:0:0:0:
256,192,110219,1,0,0:0:0:0:
256,192,110287,1,8,0:0:0:0:
256,192,110333,1,0,0:0:0:0:
256,192,110378,1,0,0:0:0:0:
256,192,110423,1,8,0:0:0:0:
256,192,110469,1,0,0:0:0:0:
256,192,110514,1,0,0:0:0:0:
256,192,110560,1,0,0:0:0:0:
256,192,110628,1,8,0:0:0:0:
256,192,110673,1,0,0:0:0:0:
256,192,110719,1,0,0:0:0:0:
256,192,110764,1,0,0:0:0:0:
256,192,110833,1,8,0:0:0:0:
256,192,110901,1,0,0:0:0:0:
256,192,110969,1,8,0:0:0:0:
256,192,111014,1,0,0:0:0:0:
256,192,111060,1,0,0:0:0:0:
256,192,111105,1,8,0:0:0:0:
256,192,111151,1,0,0:0:0:0:
256,192,111196,1,0,0:0:0:0:
256,192,111242,1,8,0:0:0:0:
256,192,111310,1,8,0:0:0:0:
256,192,111378,1,0,0:0:0:0:
256,192,111446,1,0,0:0:0:0:
256,192,111514,1,8,0:0:0:0:
256,192,111560,1,0,0:0:0:0:
256,192,111605,1,0,0:0:0:0:
256,192,111651,1,0,0:0:0:0:
256,192,111719,1,8,0:0:0:0:
256,192,111764,1,0,0:0:0:0:
256,192,111810,1,0,0:0:0:0:
256,192,111855,1,0,0:0:0:0:
256,192,111923,1,8,0:0:0:0:
256,192,111969,1,0,0:0:0:0:
256,192,112014,1,0,0:0:0:0:
256,192,112060,1,0,0:0:0:0:
256,192,112128,1,0,0:0:0:0:
256,192,112196,1,8,0:0:0:0:
256,192,112242,1,0,0:0:0:0:
256,192,112287,1,0,0:0:0:0:
256,192,112333,1,0,0:0:0:0:
256,192,112401,1,0,0:0:0:0:
256,192,112469,1,8,0:0:0:0:
256,192,112514,1,0,0:0:0:0:
256,192,112560,1,0,0:0:0:0:
256,192,112605,1,8,0:0:0:0:
256,192,112651,1,0,0:0:0:0:
256,192,112696,1,0,0:0:0:0:
256,192,112742,1,0,0:0:0:0:
256,192,112810,1,0,0:0:0:0:
256,192,112878,1,8,0:0:0:0:
256,192,112923,1,8,0:0:0:0:
256,192,112969,1,0,0:0:0:0:
256,192,113014,1,0,0:0:0:0:
256,192,113083,1,0,0:0:0:0:
256,192,113151,1,8,0:0:0:0:
256,192,113196,1,0,0:0:0:0:
256,192,113242,1,0,0:0:0:0:
256,192,113287,1,8,0:0:0:0:
256,192,113355,1,0,0:0:0:0:
256,192,113423,1,8,0:0:0:0:
256,192,113469,1,0,0:0:0:0:
256,192,113514,1,0,0:0:0:0:
256,192,113560,1,8,0:0:0:0:
256,192,113628,1,0,0:0:0:0:
256,192,113696,1,8,0:0:0:0:
256,192,113742,1,0,0:0:0:0:
256,192,113787,1,0,0:0:0:0:
256,192,113833,1,0,0:0:0:0:
256,192,113901,1,8,0:0:0:0:
256,192,113946,1,0,0:0:0:0:
256,192,113992,1,0,0:0:0:0:
256,192,114037,1,0,0:0:0:0:
256,192,114105,1,8,0:0:0:0:
256,192,114151,1,0,0:0:0:0:
256,192,114196,1,0,0:0:0:0:
256,192,114242,1,0,0:0:0:0:
256,192,114310,1,0,0:0:0:0:
256,192,114378,1,8,0:0:0:0:
256,192,114423,1,0,0:0:0:0:
256,192,114469,1,0,0:0:0:0:
256,192,114514,1,0,0:0:0:0:
256,192,114583,1,0,0:0:0:0:
256,192,114651,1,8,0:0:0:0:
256,192,114696,1,0,0:0:0:0:
256,192,114742,1,0,0:0:0:0:
256,192,114787,1,8,0:0:0:0:
256,192,114833,1,0,0:0:0:0:
256,192,114878,1,0,0:0:0:0:
256,192,114923,1,0,0:0:0:0:
256,192,114992,1,8,0:0:0:0:
256,192,115037,1,0,0:0:0:0:
256,192,115083,1,0,0:0:0:0:
256,192,115128,1,0,0:0:0:0:
256,192,115196,1,8,0:0:0:0:
256,192,115264,1,0,0:0:0:0:
256,192,115333,1,8,0:0:0:0:
256,192,115378,1,0,0:0:0:0:
256,192,115423,1,0,0:0:0:0:
256,192,115469,1,8,0:0:0:0:
256,192,115514,1,0,0:0:0:0:
256,192,115560,1,0,0:0:0:0:
256,192,115605,1,8,0:0:0:0:
256,192,115673,1,8,0:0:0:0:
256,192,115742,1,0,0:0:0:0:
256,192,115810,1,0,0:0:0:0:
256,192,115878,1,8,0:0:0:0:
256,192,115923,1,0,0:0:0:0:
256,192,115969,1,0,0:0:0:0:
256,192,116014,1,0,0:0:0:0:
256,192,116083,1,8,0:0:0:0:
256,192,116128,1,0,0:0:0:0:
256,192,116173,1,0,0:0:0:0:
256,192,116219,1,0,0:0:0:0:
256,192,116287,1,8,0:0:0:0:
256,192,116333,1,0,0:0:0:0:
256,192,116378,1,0,0:0:0:0:
256,192,116423,1,0,0:0:0:0:
256,192,116492,1,0,0:0:0:0:
256,192,116560,1,8,0:0:0:0:
256,192,116605,1,0,0:0:0:0:
256,192,116651,1,0,0:0:0:0:
256,192,116696,1,0,0:0:0:0:
256,192,116764,1,0,0:0:0:0:
256,192,116833,1,8,0:0:0:0:
256,192,116878,1,0,0:0:0:0:
256,192,116923,1,0,0:0:0:0:
256,192,116969,1,8,0:0:0:0:
256,192,117514,1,8,0:0:0:0:
256,192,117583,1,8,0:0:0:0:
256,192,117651,1,8,0:0:0:0:
256,192,117719,1,8,0:0:0:0:
256,192,117787,1,0,0:0:0:0:
256,192,117923,1,8,0:0:0:0:
256,192,118060,1,8,0:0:0:0:
256,192,118105,1,8,0:0:0:0:
256,192,118151,1,8,0:0:0:0:
256,192,118196,1,0,0:0:0:0:
256,192,118264,1,8,0:0:0:0:
256,192,118310,1,8,0:0:0:0:
256,192,118355,1,8,0:0:0:0:
256,192,118401,1,0,0:0:0:0:
256,192,118469,1,8,0:0:0:0:
256,192,118514,1,8,0:0:0:0:
256,192,118560,1,8,0:0:0:0:
256,192,118605,1,0,0:0:0:0:
256,192,118673,1,0,0:0:0:0:
256,192,118742,1,8,0:0:0:0:
256,192,118787,1,8,0:0:0:0:
256,192,118833,1,8,0:0:0:0:
256,192,118878,1,0,0:0:0:0:
256,192,118946,1,0,0:0:0:0:
256,192,119014,1,8,0:0:0:0:
256,192,119060,1,8,0:0:0:0:
256,192,119105,1,0,0:0:0:0:
256,192,119151,1,8,0:0:0:0:
256,192,119196,1,8,0:0:0:0:
256,192,119242,1,8,0:0:0:0:
256,192,119287,1,0,0:0:0:0:
256,192,119355,1,8,0:0:0:0:
256,192,119401,1,8,0:0:0:0:
256,192,119446,1,8,0:0:0:0:
256,192,119492,1,0,0:0:0:0:
256,192,119560,1,8,0:0:0:0:
256,192,119628,1,0,0:0:0:0:
256,192,119696,1,8,0:0:0:0:
256,192,119742,1,8,0:0:0:0:
256,192,119787,1,0,0:0:0:0:
256,192,119833,1,8,0:0:0:0:
256,192,119878,1,8,0:0:0:0:
256,192,119923,1,0,0:0:0:0:
256,192,119969,1,8,0:0:0:0:
256,192,120037,1,8,0:0:0:0:
256,192,120105,1,0,0:0:0:0:
256,192,120173,1,0,0:0:0:0:
256,192,120242,1,8,0:0:0:0:
256,192,120287,1,8,0:0:0:0:
256,192,120333,1,8,0:0:0:0:
256,192,120378,1,0,0:0:0:0:
256,192,120446,1,8,0:0:0:0:
256,192,120492,1,8,0:0:0:0:
256,192,120537,1,8,0:0:0:0:
256,192,120583,1,0,0:0:0:0:
256,192,120651,1,8,0:0:0:0:
256,192,120696,1,8,0:0:0:0:
256,192,120742,1,8,0:0:0:0:
256,192,120787,1,0,0:0:0:0:
256,192,120855,1,0,0:0:0:0:
256,192,120923,1,8,0:0:0:0:
256,192,120969,1,8,0:0:0:0:
256,192,121014,1,8,0:0:0:0:
256,192,121060,1,0,0:0:0:0:
256,192,121128,1,0,0:0:0:0:
256,192,121196,1,8,0:0:0:0:
256,192,121242,1,8,0:0:0:0:
256,192,121287,1,0,0:0:0:0:
256,192,121333,1,8,0:0:0:0:
256,192,121378,1,8,0:0:0:0:
256,192,121423,1,0,0:0:0:0:
256,192,121469,1,0,0:0:0:0:
256,192,121537,1,0,0:0:0:0:
256,192,121605,1,8,0:0:0:0:
256,192,121651,1,8,0:0:0:0:
256,192,121696,1,8,0:0:0:0:
256,192,121742,1,0,0:0:0:0:
256,192,121810,1,0,0:0:0:0:
256,192,121878,1,8,0:0:0:0:
256,192,121923,1,8,0:0:0:0:
256,192,121969,1,0,0:0:0:0:
256,192,122014,1,8,0:0:0:0:
256,192,122083,1,0,0:0:0:0:
256,192,122151,1,8,0:0:0:0:
256,192,122196,1,8,0:0:0:0:
256,192,122242,1,0,0:0:0:0:
256,192,122287,1,8,0:0:0:0:
256,192,122355,1,0,0:0:0:0:
256,192,122423,1,8,0:0:0:0:
256,192,122469,1,8,0:0:0:0:
256,192,122514,1,8,0:0:0:0:
256,192,122560,1,0,0:0:0:0:
256,192,122628,1,8,0:0:0:0:
256,192,122673,1,8,0:0:0:0:
256,192,122719,1,8,0:0:0:0:
256,192,122764,1,0,0:0:0:0:
256,192,122833,1,8,0:0:0:0:
256,192,122878,1,8,0:0:0:0:
256,192,122923,1,8,0:0:0:0:
256,192,122969,1,0,0:0:0:0:
256,192,123037,1,0,0:0:0:0:
256,192,123105,1,8,0:0:0:0:
256,192,123151,1,8,0:0:0:0:
256,192,123196,1,8,0:0:0:0:
256,192,123242,1,0,0:0:0:0:
256,192,123310,1,0,0:0:0:0:
256,192,123378,1,8,0:0:0:0:
256,192,123423,1,8,0:0:0:0:
256,192,123469,1,0,0:0:0:0:
256,192,123514,1,8,0:0:0:0:
256,192,123560,1,8,0:0:0:0:
256,192,123605,1,8,0:0:0:0:
256,192,123651,1,0,0:0:0:0:
256,192,123719,1,8,0:0:0:0:
256,192,123764,1,8,0:0:0:0:
256,192,123810,1,8,0:0:0:0:
256,192,123855,1,0,0:0:0:0:
256,192,123923,1,8,0:0:0:0:
256,192,123992,1,0,0:0:0:0:
256,192,124060,1,8,0:0:0:0:
256,192,124105,1,8,0:0:0:0:
256,192,124151,1,0,0:0:0:0:
256,192,124196,1,8,0:0:0:0:
256,192,124242,1,8,0:0:0:0:
256,192,124287,1,0,0:0:0:0:
256,192,124333,1,8,0:0:0:0:
256,192,124401,1,8,0:0:0:0:
256,192,124469,1,0,0:0:0:0:
256,192,124537,1,0,0:0:0:0:
256,192,124605,1,8,0:0:0:0:
256,192,124651,1,8,0:0:0:0:
256,192,124696,1,8,0:0:0:0:
256,192,124742,1,0,0:0:0:0:
256,192,124810,1,8,0:0:0:0:
256,192,124855,1,8,0:0:0:0:
256,192,124901,1,8,0:0:0:0:
256,192,124946,1,0,0:0:0:0:
256,192,125014,1,8,0:0:0:0:
256,192,125060,1,8,0:0:0:0:
256,192,125105,1,8,0:0:0:0:
256,192,125151,1,0,0:0:0:0:
256,192,125219,1,0,0:0:0:0:
256,192,125287,1,8,0:0:0:0:
256,192,125333,1,8,0:0:0:0:
256,192,125378,1,8,0:0:0:0:
256,192,125423,1,0,0:0:0:0:
256,192,125492,1,0,0:0:0:0:
256,192,125560,1,8,0:0:0:0:
256,192,125605,1,8,0:0:0:0:
256,192,125651,1,0,0:0:0:0:
256,192,125696,1,8,0:0:0:0:
256,192,125742,1,8,0:0:0:0:
256,192,125787,1,0,0:0:0:0:
256,192,125833,1,8,0:0:0:0:
256,192,125901,1,0,0:0:0:0:
256,192,125969,1,8,0:0:0:0:
256,192,126014,1,8,0:0:0:0:
256,192,126060,1,0,0:0:0:0:
256,192,126105,1,8,0:0:0:0:
256,192,126173,1,0,0:0:0:0:
256,192,126242,1,8,0:0:0:0:
256,192,126287,1,8,0:0:0:0:
256,192,126333,1,8,0:0:0:0:
256,192,126378,1,8,0:0:0:0:
256,192,126446,1,0,0:0:0:0:
256,192,126514,1,8,0:0:0:0:
256,192,126560,1,8,0:0:0:0:
256,192,126605,1,8,0:0:0:0:
256,192,126651,1,8,0:0:0:0:
256,192,126719,1,0,0:0:0:0:
256,192,126787,1,12,0:0:0:0:
256,192,126855,12,0,127878,0:0:0:0:
