osu file format v14

[General]
AudioFilename: audio.mp3
AudioLeadIn: 0
PreviewTime: 52607
Countdown: 1
SampleSet: Normal
StackLeniency: 0.7
Mode: 1
LetterboxInBreaks: 0
WidescreenStoryboard: 1

[Editor]
Bookmarks: 35087
DistanceSpacing: 1.5
BeatDivisor: 2
GridSize: 32
TimelineZoom: 1.600001

[Metadata]
Title:Terminal Missa
TitleUnicode:Terminal Missa
Artist:Laur
ArtistUnicode:Laur
Creator:Konpaku Sariel
Version:Kantan
Source:
Tags:1000 OVER!! Psycho Filth Records extratone Speedcore Electronic Instrumental PFEX016
BeatmapID:2216606
BeatmapSetID:1057894

[Difficulty]
HPDrainRate:8
CircleSize:5
OverallDifficulty:3
ApproachRate:5
SliderMultiplier:1.4
SliderTickRate:1

[Events]
//Background and Video events
0,0,"image!.jpg",0,0
//Break Periods
//Storyboard Layer 0 (Background)
//Storyboard Layer 1 (Fail)
//Storyboard Layer 2 (Pass)
//Storyboard Layer 3 (Foreground)
//Storyboard Layer 4 (Overlay)
//Storyboard Sound Samples

[TimingPoints]
17698,272.727272727273,4,1,0,100,1,0
17698,-125,4,1,0,100,0,0
19811,-125,4,2,0,30,0,0
21175,-125,4,1,0,100,0,0
23902,-125,4,2,0,30,0,0
25538,-125,4,1,0,100,0,0
28538,-125,4,2,0,30,0,0
30720,-125,4,1,0,10,0,0
31266,-125,4,1,0,50,0,0
31811,-125,4,1,0,70,0,0
32357,-125,4,1,0,90,0,0
32902,-125,4,1,0,100,0,0
33004,-125,4,2,0,5,0,0
35084,-125,4,1,0,100,0,0
35152,-125,4,1,0,100,0,1
42788,-125,4,1,0,100,0,0
43879,-125,4,1,0,100,0,1
51493,-125,4,2,0,5,0,1
52538,-125,4,1,0,100,0,1
52607,-125,4,1,0,100,0,0
69993,-125,4,1,0,50,0,0
71970,-125,4,1,0,100,0,0
72243,272.727272727273,4,1,0,100,1,0
72243,-125,4,1,0,100,0,0
72720,-125,4,2,0,50,0,0
80697,-125,4,2,0,70,0,0
89629,-125,4,1,0,100,0,0
89697,-125,4,1,0,100,0,1
108243,-125,4,1,0,100,0,0
109264,-125,4,1,0,100,0,0
109333,272.727272727273,4,1,0,100,1,1
109333,-125,4,1,0,100,0,1
116969,-125,4,1,0,100,0,0
118060,-125,4,1,0,100,0,1
127878,-125,4,1,0,100,0,0

[HitObjects]
256,192,17698,5,4,0:0:0:0:
256,192,19879,12,0,20970,0:0:0:0:
256,192,21243,5,4,0:0:0:0:
256,192,21516,1,4,0:0:0:0:
256,192,21788,1,4,0:0:0:0:
256,192,22061,1,4,0:0:0:0:
256,192,23970,12,0,24788,0:0:0:0:
256,192,25607,5,4,0:0:0:0:
256,192,25879,1,4,0:0:0:0:
256,192,26152,1,4,0:0:0:0:
256,192,26425,1,4,0:0:0:0:
256,192,28607,12,0,30243,0:0:0:0:
256,192,30788,5,0,0:0:0:0:
256,192,31334,1,0,0:0:0:0:
256,192,31879,1,8,0:0:0:0:
256,192,32425,1,8,0:0:0:0:
256,192,32698,1,8,0:0:0:0:
256,192,32970,1,4,0:0:0:0:
256,192,33243,12,0,34879,0:0:0:0:
256,192,35152,5,0,0:0:0:0:
256,192,35698,1,8,0:0:0:0:
256,192,35970,1,8,0:0:0:0:
256,192,36243,1,8,0:0:0:0:
256,192,36788,1,0,0:0:0:0:
256,192,37061,1,0,0:0:0:0:
256,192,37334,1,0,0:0:0:0:
256,192,37879,1,8,0:0:0:0:
256,192,38152,1,8,0:0:0:0:
256,192,38425,1,8,0:0:0:0:
256,192,39516,1,0,0:0:0:0:
256,192,40061,1,8,0:0:0:0:
256,192,40334,1,8,0:0:0:0:
256,192,40607,1,8,0:0:0:0:
256,192,40879,1,8,0:0:0:0:
256,192,41152,1,0,0:0:0:0:
256,192,41698,1,0,0:0:0:0:
256,192,42243,1,8,0:0:0:0:
256,192,42788,1,0,0:0:0:0:
256,192,43879,1,0,0:0:0:0:
256,192,44425,1,8,0:0:0:0:
256,192,44698,1,8,0:0:0:0:
256,192,44970,1,8,0:0:0:0:
256,192,45516,1,0,0:0:0:0:
256,192,45788,1,0,0:0:0:0:
256,192,46061,1,0,0:0:0:0:
256,192,46607,1,8,0:0:0:0:
256,192,46879,1,8,0:0:0:0:
256,192,47152,1,8,0:0:0:0:
256,192,48243,1,0,0:0:0:0:
256,192,48788,1,8,0:0:0:0:
256,192,49061,1,8,0:0:0:0:
256,192,49334,1,8,0:0:0:0:
256,192,49607,1,8,0:0:0:0:
256,192,49879,1,0,0:0:0:0:
256,192,50425,1,0,0:0:0:0:
256,192,50970,1,8,0:0:0:0:
256,192,51243,1,8,0:0:0:0:
256,192,51516,12,0,52334,0:0:0:0:
256,192,52607,5,0,0:0:0:0:
256,192,53152,1,0,0:0:0:0:
256,192,53425,1,8,0:0:0:0:
256,192,53698,1,0,0:0:0:0:
256,192,54243,1,0,0:0:0:0:
256,192,54788,1,8,0:0:0:0:
256,192,55334,1,8,0:0:0:0:
256,192,55607,1,0,0:0:0:0:
256,192,55879,1,8,0:0:0:0:
256,192,56970,1,0,0:0:0:0:
256,192,57516,1,0,0:0:0:0:
256,192,57788,1,8,0:0:0:0:
256,192,58061,1,0,0:0:0:0:
256,192,58607,1,0,0:0:0:0:
256,192,59152,1,8,0:0:0:0:
256,192,59698,1,8,0:0:0:0:
256,192,59970,1,0,0:0:0:0:
256,192,60243,1,8,0:0:0:0:
256,192,61334,1,12,0:0:0:0:
256,192,61607,1,0,0:0:0:0:
256,192,61879,1,0,0:0:0:0:
256,192,62152,1,0,0:0:0:0:
256,192,62425,1,8,0:0:0:0:
256,192,62970,1,0,0:0:0:0:
256,192,63516,1,12,0:0:0:0:
256,192,63788,1,8,0:0:0:0:
256,192,64061,1,0,0:0:0:0:
256,192,64334,1,8,0:0:0:0:
256,192,64607,1,0,0:0:0:0:
256,192,65698,1,12,0:0:0:0:
256,192,65970,1,0,0:0:0:0:
256,192,66243,1,8,0:0:0:0:
256,192,66516,1,8,0:0:0:0:
256,192,66788,1,0,0:0:0:0:
256,192,67334,1,0,0:0:0:0:
256,192,67879,1,12,0:0:0:0:
256,192,68152,1,8,0:0:0:0:
256,192,68425,1,8,0:0:0:0:
256,192,68698,1,8,0:0:0:0:
256,192,68970,1,4,0:0:0:0:
256,192,70061,1,0,0:0:0:0:
256,192,72243,1,4,0:0:0:0:
256,192,73333,1,8,0:0:0:0:
256,192,74424,1,0,0:0:0:0:
256,192,74970,1,8,0:0:0:0:
256,192,75243,1,8,0:0:0:0:
256,192,75515,1,0,0:0:0:0:
256,192,76606,1,0,0:0:0:0:
256,192,77152,1,8,0:0:0:0:
256,192,77697,1,0,0:0:0:0:
256,192,78243,1,8,0:0:0:0:
256,192,78788,1,0,0:0:0:0:
256,192,79061,1,0,0:0:0:0:
256,192,79333,1,0,0:0:0:0:
256,192,79879,1,0,0:0:0:0:
256,192,80970,1,0,0:0:0:0:
256,192,82061,1,8,0:0:0:0:
256,192,83152,1,0,0:0:0:0:
256,192,83697,1,8,0:0:0:0:
256,192,83970,1,8,0:0:0:0:
256,192,84243,1,0,0:0:0:0:
256,192,85333,1,0,0:0:0:0:
256,192,85879,1,0,0:0:0:0:
256,192,86424,1,8,0:0:0:0:
256,192,86970,1,8,0:0:0:0:
256,192,87515,1,0,0:0:0:0:
256,192,88606,12,8,89424,0:0:0:0:
256,192,89697,5,8,0:0:0:0:
256,192,90243,1,0,0:0:0:0:
256,192,90515,1,8,0:0:0:0:
256,192,90788,1,0,0:0:0:0:
256,192,91333,1,0,0:0:0:0:
256,192,91879,1,8,0:0:0:0:
256,192,92152,1,0,0:0:0:0:
256,192,92424,1,8,0:0:0:0:
256,192,92697,1,8,0:0:0:0:
256,192,92970,1,0,0:0:0:0:
256,192,94061,1,8,0:0:0:0:
256,192,94606,1,0,0:0:0:0:
256,192,94879,1,0,0:0:0:0:
256,192,95152,1,8,0:0:0:0:
256,192,95424,1,8,0:0:0:0:
256,192,95697,1,0,0:0:0:0:
256,192,96243,1,8,0:0:0:0:
256,192,96652,1,0,0:0:0:0:
256,192,97061,1,0,0:0:0:0:
256,192,97333,1,8,0:0:0:0:
256,192,98424,1,8,0:0:0:0:
256,192,98970,1,0,0:0:0:0:
256,192,99243,1,8,0:0:0:0:
256,192,99515,1,0,0:0:0:0:
256,192,100061,1,0,0:0:0:0:
256,192,100606,1,8,0:0:0:0:
256,192,100879,1,0,0:0:0:0:
256,192,101152,1,8,0:0:0:0:
256,192,101424,1,8,0:0:0:0:
256,192,101697,1,0,0:0:0:0:
256,192,102788,1,8,0:0:0:0:
256,192,103333,1,0,0:0:0:0:
256,192,103606,1,0,0:0:0:0:
256,192,103879,1,8,0:0:0:0:
256,192,104152,1,8,0:0:0:0:
256,192,104424,1,0,0:0:0:0:
256,192,104970,1,8,0:0:0:0:
256,192,106061,1,8,0:0:0:0:
256,192,106606,1,0,0:0:0:0:
256,192,106879,1,0,0:0:0:0:
256,192,107152,1,12,0:0:0:0:
256,192,107561,1,12,0:0:0:0:
256,192,107970,1,12,0:0:0:0:
256,192,108243,1,4,0:0:0:0:
256,192,109333,5,0,0:0:0:0:
256,192,109878,1,0,0:0:0:0:
256,192,110423,1,0,0:0:0:0:
256,192,110696,1,0,0:0:0:0:
256,192,110969,1,8,0:0:0:0:
256,192,111242,1,8,0:0:0:0:
256,192,111514,1,0,0:0:0:0:
256,192,112060,1,0,0:0:0:0:
256,192,112605,1,0,0:0:0:0:
256,192,113696,1,0,0:0:0:0:
256,192,114242,1,0,0:0:0:0:
256,192,114787,1,0,0:0:0:0:
256,192,115060,1,0,0:0:0:0:
256,192,115333,1,8,0:0:0:0:
256,192,115605,1,8,0:0:0:0:
256,192,115878,1,0,0:0:0:0:
256,192,116423,1,0,0:0:0:0:
256,192,116969,1,12,0:0:0:0:
256,192,118060,1,8,0:0:0:0:
256,192,118605,1,8,0:0:0:0:
256,192,119151,1,0,0:0:0:0:
256,192,119423,1,0,0:0:0:0:
256,192,119696,1,8,0:0:0:0:
256,192,119969,1,8,0:0:0:0:
256,192,120242,1,8,0:0:0:0:
256,192,120787,1,8,0:0:0:0:
256,192,121333,1,0,0:0:0:0:
256,192,122423,1,8,0:0:0:0:
256,192,122969,1,8,0:0:0:0:
256,192,123514,1,0,0:0:0:0:
256,192,123787,1,0,0:0:0:0:
256,192,124060,1,8,0:0:0:0:
256,192,124333,1,8,0:0:0:0:
256,192,124605,1,8,0:0:0:0:
256,192,125151,1,8,0:0:0:0:
256,192,125696,1,8,0:0:0:0:
256,192,125969,1,8,0:0:0:0:
256,192,126242,1,0,0:0:0:0:
256,192,126514,1,0,0:0:0:0:
256,192,126787,1,12,0:0:0:0:
256,192,127060,12,0,127878,0:0:0:0:
