osu file format v14

[General]
AudioFilename: music.ogg
AudioLeadIn: 0
PreviewTime: 65021
Countdown: 0
SampleSet: Normal
StackLeniency: 0.7
Mode: 3
LetterboxInBreaks: 0
SpecialStyle: 0
WidescreenStoryboard: 1

[Editor]
DistanceSpacing: 0.8
BeatDivisor: 16
GridSize: 32
TimelineZoom: 2.400006

[Metadata]
Title:Symphony Op.1 -CHAOS-
TitleUnicode:Symphony Op.1 -CHAOS-
Artist:Laur
ArtistUnicode:Laur
Creator:Tidek
Version:nsv
Source:
Tags:HARDCORE TANO*C electronic instrumental techno j-core jcore osu!mania 4k world cup 2022 grand finals 4kmwc gf sv
BeatmapID:3793381
BeatmapSetID:1846644

[Difficulty]
HPDrainRate:7
CircleSize:4
OverallDifficulty:7
ApproachRate:5
SliderMultiplier:1.4
SliderTickRate:1

[Events]
//Background and Video events
0,0,"bg.png",0,0
//Break Periods
2,152554,156826
//Storyboard Layer 0 (Background)
//Storyboard Layer 1 (Fail)
//Storyboard Layer 2 (Pass)
//Storyboard Layer 3 (Foreground)
//Storyboard Layer 4 (Overlay)
//Storyboard Sound Samples

[TimingPoints]
11,400,4,1,0,5,1,0
11,-100,4,1,0,5,0,0
39211,400,4,1,0,5,1,0
39211,-100,4,1,0,5,0,0
44811,387.096774,4,1,0,5,1,0
44811,-103.333333,4,1,0,5,0,0
47908,375,4,1,0,5,1,0
47908,-106.666667,4,1,0,5,0,0
49408,375,4,1,0,5,1,0
49408,-106.666667,4,1,0,5,0,0
49783,375,4,1,0,5,1,0
49783,-106.666667,4,1,0,5,0,0
50908,375,4,1,0,5,1,0
50908,-106.666667,4,1,0,5,0,0
51283,375,4,2,0,5,1,0
51283,-106.666667,4,2,0,5,0,0
51470,375,4,2,0,5,1,0
51470,-106.666667,4,2,0,5,0,0
51658,375,4,1,0,5,1,0
51658,-106.666667,4,1,0,5,0,0
55408,363.636364,4,1,0,5,1,0
55408,-110,4,1,0,5,0,0
56135,352.941176,4,1,0,5,1,0
56135,-113.333333,4,1,0,5,0,0
56841,342.857143,4,1,0,5,1,0
56841,-116.666667,4,1,0,5,0,0
57527,333.333333,4,1,0,5,1,0
57527,-120,4,1,0,5,0,0
58193,324.324324,4,1,0,5,1,0
58193,-123.333333,4,1,0,5,0,0
58842,315.789474,4,1,0,5,1,0
58842,-126.666667,4,1,0,5,0,0
59474,309.278351,4,1,0,5,1,0
59474,-129.333333,4,1,0,5,0,0
60092,304.568528,4,1,0,5,1,0
60092,-131.333333,4,1,0,5,0,0
60701,300,4,2,0,5,1,0
60701,-133.333333,4,2,0,5,0,0
61001,300,4,2,0,5,1,0
61001,-133.333333,4,2,0,5,0,0
61301,300,4,2,0,5,1,0
61301,-133.333333,4,2,0,5,0,0
61601,300,4,2,0,5,1,0
61601,-133.333333,4,2,0,5,0,0
61901,300,4,2,0,5,1,0
61901,-133.333333,4,2,0,5,0,0
62201,300,4,2,0,5,1,0
62201,-133.333333,4,2,0,5,0,0
62501,300,4,1,0,5,1,0
62501,-133.333333,4,1,0,5,0,0
63101,240,4,2,0,5,1,0
63101,-166.666667,4,2,0,5,0,0
63341,240,4,2,0,5,1,0
63341,-166.666667,4,2,0,5,0,0
63583,240,4,2,0,5,1,0
63583,-166.666667,4,2,0,5,0,0
63823,240,4,2,0,5,1,0
63823,-166.666667,4,2,0,5,0,0
64063,240,4,2,0,5,1,0
64063,-166.666667,4,2,0,5,0,0
64303,240,4,2,0,5,1,0
64303,-166.666667,4,2,0,5,0,0
64543,240,4,2,0,5,1,0
64543,-166.666667,4,2,0,5,0,0
65021,240,4,2,0,5,1,0
65021,-166.666667,4,2,0,5,0,0
65261,240,4,2,0,5,1,0
65261,-166.666667,4,2,0,5,0,0
65501,240,4,2,0,5,1,0
65501,-166.666667,4,2,0,5,0,0
65741,240,4,2,0,5,1,0
65741,-166.666667,4,2,0,5,0,0
65981,240,4,2,0,5,1,0
65981,-166.666667,4,2,0,5,0,0
66221,240,4,2,0,5,1,0
66221,-166.666667,4,2,0,5,0,0
66461,240,4,2,0,5,1,0
66461,-166.666667,4,2,0,5,0,0
66701,240,4,2,0,5,1,0
66701,-166.666667,4,2,0,5,0,0
66941,240,4,2,0,5,1,0
66941,-166.666667,4,2,0,5,0,0
67181,240,4,2,0,5,1,0
67181,-166.666667,4,2,0,5,0,0
67421,240,4,2,0,5,1,0
67421,-166.666667,4,2,0,5,0,0
67661,240,4,2,0,5,1,0
67661,-166.666667,4,2,0,5,0,0
69341,240,4,2,0,5,1,0
69341,-166.666667,4,2,0,5,0,0
69581,240,4,2,0,5,1,0
69581,-166.666667,4,2,0,5,0,0
69821,240,4,2,0,5,1,0
69821,-166.666667,4,2,0,5,0,0
70061,240,4,2,0,5,1,0
70061,-166.666667,4,2,0,5,0,0
70301,240,4,2,0,5,1,0
70301,-166.666667,4,2,0,5,0,0
70541,240,4,2,0,5,1,0
70541,-166.666667,4,2,0,5,0,0
71261,240,4,2,0,5,1,0
71261,-166.666667,4,2,0,5,0,0
71501,240,4,2,0,5,1,0
71501,-166.666667,4,2,0,5,0,0
72701,240,4,2,0,5,1,0
72701,-166.666667,4,2,0,5,0,0
72941,240,4,2,0,5,1,0
72941,-166.666667,4,2,0,5,0,0
73181,240,4,2,0,5,1,0
73181,-166.666667,4,2,0,5,0,0
73421,240,4,2,0,5,1,0
73421,-166.666667,4,2,0,5,0,0
73661,240,4,2,0,5,1,0
73661,-166.666667,4,2,0,5,0,0
73901,240,4,2,0,5,1,0
73901,-166.666667,4,2,0,5,0,0
74141,240,4,2,0,5,1,0
74141,-166.666667,4,2,0,5,0,0
74621,240,4,2,0,5,1,0
74621,-166.666667,4,2,0,5,0,0
74861,240,4,2,0,5,1,0
74861,-166.666667,4,2,0,5,0,0
75101,240,4,2,0,5,1,0
75101,-166.666667,4,2,0,5,0,0
75341,240,4,2,0,5,1,0
75341,-166.666667,4,2,0,5,0,0
76541,240,4,2,0,5,1,0
76541,-166.666667,4,2,0,5,0,0
76781,240,4,2,0,5,1,0
76781,-166.666667,4,2,0,5,0,0
77021,240,4,2,0,5,1,0
77021,-166.666667,4,2,0,5,0,0
77261,240,4,2,0,5,1,0
77261,-166.666667,4,2,0,5,0,0
79901,240,4,2,0,5,1,0
79901,-166.666667,4,2,0,5,0,0
80381,240,4,2,0,5,1,0
80381,-166.666667,4,2,0,5,0,0
80861,240,4,2,0,5,1,0
80861,-166.666667,4,2,0,5,0,0
81101,240,4,2,0,5,1,0
81101,-166.666667,4,2,0,5,0,0
81341,240,4,2,0,5,1,0
81341,-166.666667,4,2,0,5,0,0
81581,240,4,2,0,5,1,0
81581,-166.666667,4,2,0,5,0,0
81821,240,4,2,0,5,1,0
81821,-166.666667,4,2,0,5,0,0
82061,240,4,2,0,5,1,0
82061,-166.666667,4,2,0,5,0,0
82301,240,4,2,0,5,1,0
82301,-166.666667,4,2,0,5,0,0
82541,240,4,2,0,5,1,0
82541,-166.666667,4,2,0,5,0,0
84701,240,4,2,0,5,1,0
84701,-166.666667,4,2,0,5,0,0
84941,240,4,2,0,5,1,0
84941,-166.666667,4,2,0,5,0,0
85181,240,4,2,0,5,1,0
85181,-166.666667,4,2,0,5,0,0
85421,240,4,2,0,5,1,0
85421,-166.666667,4,2,0,5,0,0
85661,240,4,2,0,5,1,0
85661,-166.666667,4,2,0,5,0,0
85901,240,4,2,0,5,1,0
85901,-166.666667,4,2,0,5,0,0
86141,240,4,2,0,5,1,0
86141,-166.666667,4,2,0,5,0,0
86381,240,4,2,0,5,1,0
86381,-166.666667,4,2,0,5,0,0
87821,240,4,2,0,5,1,0
87821,-166.666667,4,2,0,5,0,0
88061,240,4,2,0,5,1,0
88061,-166.666667,4,2,0,5,0,0
88541,240,4,2,0,5,1,0
88541,-166.666667,4,2,0,5,0,0
88781,240,4,2,0,5,1,0
88781,-166.666667,4,2,0,5,0,0
89021,240,4,2,0,5,1,0
89021,-166.666667,4,2,0,5,0,0
89261,240,4,2,0,5,1,0
89261,-166.666667,4,2,0,5,0,0
89501,240,4,2,0,5,1,0
89501,-166.666667,4,2,0,5,0,0
89741,240,4,2,0,5,1,0
89741,-166.666667,4,2,0,5,0,0
90221,240,4,2,0,5,1,0
90221,-166.666667,4,2,0,5,0,0
90461,240,4,2,0,5,1,0
90461,-166.666667,4,2,0,5,0,0
90701,240,4,2,0,5,1,0
90701,-166.666667,4,2,0,5,0,0
91901,240,4,2,0,5,1,0
91901,-166.666667,4,2,0,5,0,0
92141,240,4,2,0,5,1,0
92141,-166.666667,4,2,0,5,0,0
92381,240,4,2,0,5,1,0
92381,-166.666667,4,2,0,5,0,0
92621,240,4,2,0,5,1,0
92621,-166.666667,4,2,0,5,0,0
92861,240,4,2,0,5,1,0
92861,-166.666667,4,2,0,5,0,0
95741,240,4,1,0,5,1,0
95741,-166.666667,4,1,0,5,0,0
95746,400,4,1,0,5,1,0
95746,-100,4,1,0,5,0,0
97341,400,4,1,0,5,1,0
97341,-100,4,1,0,5,0,0
132541,400,4,1,0,5,1,0
132541,-100,4,1,0,5,0,0
132891,400,4,1,0,5,1,0
132891,-100,4,1,0,5,0,0
133741,400,4,1,0,5,1,0
133741,-100,4,1,0,5,0,0
134141,400,4,1,0,5,1,0
134141,-100,4,1,0,5,0,0
134541,400,4,1,0,5,1,0
134541,-100,4,1,0,5,0,0
135741,400,4,1,0,5,1,0
135741,-100,4,1,0,5,0,0
136141,400,4,1,0,5,1,0
136141,-100,4,1,0,5,0,0
143741,434.782609,4,1,0,5,1,0
143741,-92,4,1,0,5,0,0
145480,454.545455,4,1,0,5,1,0
145480,-88,4,1,0,5,0,0
146389,476.190476,4,1,0,5,1,0
146389,-84,4,1,0,5,0,0
146866,495.867769,4,1,0,5,1,0
146866,-80.666667,4,1,0,5,0,0
147362,521.73913,4,1,0,5,1,0
147362,-76.666667,4,1,0,5,0,0
147883,545.454545,4,1,0,5,1,0
147883,-73.333333,4,1,0,5,0,0
148429,571.428571,4,1,0,5,1,0
148429,-70,4,1,0,5,0,0
149000,600,4,1,0,5,1,0
149000,-66.666667,4,1,0,5,0,0
149600,631.578947,4,1,0,5,1,0
149600,-63.333333,4,1,0,5,0,0
150232,666.666667,4,1,0,5,1,0
150232,-60,4,1,0,5,0,0
150898,705.882353,4,1,0,5,1,0
150898,-56.666667,4,1,0,5,0,0
151604,750,4,1,0,5,1,0
151604,-53.333333,4,1,0,5,0,0
152354,218.181818181818,4,1,0,5,1,0
152354,-183.333333,4,1,0,5,0,0
157153,218.181818,4,1,0,5,1,0
157153,-183.333333,4,1,0,5,0,0
158026,269.058295964126,4,1,0,5,1,0
158026,-148.666667,4,1,0,5,0,0
158429,264.31718061674,4,1,0,5,1,0
158429,-151.333333,4,1,0,5,0,0
158827,240,4,1,0,5,1,0
158827,-166.666667,4,1,0,5,0,0
167630,240,4,1,0,5,1,0
167630,-166.666667,4,1,0,5,0,0
172243,240,4,1,0,5,1,0
172243,-166.666667,4,1,0,5,0,0
172723,240,4,1,0,5,1,0
172723,-166.666667,4,1,0,5,0,0
173203,120,4,2,0,5,1,0
173203,-333.333333,4,2,0,5,0,0
173443,120,4,1,0,5,1,0
173443,-333.333333,4,1,0,5,0,0
173563,120,4,1,0,5,1,0
173563,-333.333333,4,1,0,5,0,0
173683,120,4,1,0,5,1,0
173683,-333.333333,4,1,0,5,0,0
173803,120,4,1,0,5,1,0
173803,-333.333333,4,1,0,5,0,0
173927,120,4,1,0,5,1,0
173927,-333.333333,4,1,0,5,0,0
174043,120,4,1,0,5,1,0
174043,-333.333333,4,1,0,5,0,0
174103,120,4,1,0,5,1,0
174103,-333.333333,4,1,0,5,0,0
174163,120,4,1,0,5,1,0
174163,-333.333333,4,1,0,5,0,0
174283,120,4,1,0,5,1,0
174283,-333.333333,4,1,0,5,0,0
174403,120,4,1,0,5,1,0
174403,-333.333333,4,1,0,5,0,0
174523,120,4,1,0,5,1,0
174523,-333.333333,4,1,0,5,0,0
174643,120,4,1,0,5,1,0
174643,-333.333333,4,1,0,5,0,0
174883,120,4,1,0,5,1,0
174883,-333.333333,4,1,0,5,0,0
175003,120,4,1,0,5,1,0
175003,-333.333333,4,1,0,5,0,0
175123,120,4,1,0,5,1,0
175123,-333.333333,4,1,0,5,0,0
175363,120,4,1,0,5,1,0
175363,-333.333333,4,1,0,5,0,0
175483,120,4,1,0,5,1,0
175483,-333.333333,4,1,0,5,0,0
175603,120,4,1,0,5,1,0
175603,-333.333333,4,1,0,5,0,0
175727,120,4,1,0,5,1,0
175727,-333.333333,4,1,0,5,0,0
175843,120,4,1,0,5,1,0
175843,-333.333333,4,1,0,5,0,0
175903,120,4,1,0,5,1,0
175903,-333.333333,4,1,0,5,0,0
175963,120,4,1,0,5,1,0
175963,-333.333333,4,1,0,5,0,0
176083,120,4,2,0,5,1,0
176083,-333.333333,4,2,0,5,0,0
176323,120,4,1,0,5,1,0
176323,-333.333333,4,1,0,5,0,0
177043,120,4,2,0,5,1,0
177043,-333.333333,4,2,0,5,0,0
177283,120,4,1,0,5,1,0
177283,-333.333333,4,1,0,5,0,0
177403,120,4,1,0,5,1,0
177403,-333.333333,4,1,0,5,0,0
177523,120,4,1,0,5,1,0
177523,-333.333333,4,1,0,5,0,0
177643,120,4,1,0,5,1,0
177643,-333.333333,4,1,0,5,0,0
177763,120,4,1,0,5,1,0
177763,-333.333333,4,1,0,5,0,0
177883,120,4,1,0,5,1,0
177883,-333.333333,4,1,0,5,0,0
178003,120,4,2,0,5,1,0
178003,-333.333333,4,2,0,5,0,0
178243,120,4,1,0,5,1,0
178243,-333.333333,4,1,0,5,0,0
178963,120,4,2,0,5,1,0
178963,-333.333333,4,2,0,5,0,0
179203,120,4,1,0,5,1,0
179203,-333.333333,4,1,0,5,0,0
179923,120,4,2,0,5,1,0
179923,-333.333333,4,2,0,5,0,0
180403,120,4,1,0,5,1,0
180403,-333.333333,4,1,0,5,0,0
180883,120,4,2,0,5,1,0
180883,-333.333333,4,2,0,5,0,0
181123,120,4,1,0,5,1,0
181123,-333.333333,4,1,0,5,0,0
181243,120,4,1,0,5,1,0
181243,-333.333333,4,1,0,5,0,0
181363,120,4,1,0,5,1,0
181363,-333.333333,4,1,0,5,0,0
181483,120,4,1,0,5,1,0
181483,-333.333333,4,1,0,5,0,0
181603,120,4,1,0,5,1,0
181603,-333.333333,4,1,0,5,0,0
181723,120,4,1,0,5,1,0
181723,-333.333333,4,1,0,5,0,0
181843,120,4,1,0,5,1,0
181843,-333.333333,4,1,0,5,0,0
181963,120,4,1,0,5,1,0
181963,-333.333333,4,1,0,5,0,0
182083,120,4,1,0,5,1,0
182083,-333.333333,4,1,0,5,0,0
182203,120,4,1,0,5,1,0
182203,-333.333333,4,1,0,5,0,0
182323,120,4,1,0,5,1,0
182323,-333.333333,4,1,0,5,0,0
182443,120,4,1,0,5,1,0
182443,-333.333333,4,1,0,5,0,0
182563,120,4,2,0,5,1,0
182563,-333.333333,4,2,0,5,0,0
182803,120,4,2,0,5,1,0
182803,-333.333333,4,2,0,5,0,0
183283,120,4,1,0,5,1,0
183283,-333.333333,4,1,0,5,0,0
183343,120,4,1,0,5,1,0
183343,-333.333333,4,1,0,5,0,0
183403,120,4,1,0,5,1,0
183403,-333.333333,4,1,0,5,0,0
183463,120,4,1,0,5,1,0
183463,-333.333333,4,1,0,5,0,0
183523,120,4,1,0,5,1,0
183523,-333.333333,4,1,0,5,0,0
183583,120,4,1,0,5,1,0
183583,-333.333333,4,1,0,5,0,0
183643,120,4,1,0,5,1,0
183643,-333.333333,4,1,0,5,0,0
183703,120,4,1,0,5,1,0
183703,-333.333333,4,1,0,5,0,0
183763,120,4,1,0,5,1,0
183763,-333.333333,4,1,0,5,0,0
183823,120,4,2,0,5,1,0
183823,-333.333333,4,2,0,5,0,0
184003,120,4,1,0,5,1,0
184003,-333.333333,4,1,0,5,0,0
184063,120,4,2,0,5,1,0
184063,-333.333333,4,2,0,5,0,0
184243,120,4,1,0,5,1,0
184243,-333.333333,4,1,0,5,0,0
184483,120,4,2,0,5,1,0
184483,-333.333333,4,2,0,5,0,0
184723,120,4,1,0,5,1,0
184723,-333.333333,4,1,0,5,0,0
184843,120,4,1,0,5,1,0
184843,-333.333333,4,1,0,5,0,0
184963,120,4,1,0,5,1,0
184963,-333.333333,4,1,0,5,0,0
185083,120,4,1,0,5,1,0
185083,-333.333333,4,1,0,5,0,0
185203,120,4,1,0,5,1,0
185203,-333.333333,4,1,0,5,0,0
185323,120,4,1,0,5,1,0
185323,-333.333333,4,1,0,5,0,0
185443,120,4,1,0,5,1,0
185443,-333.333333,4,1,0,5,0,0
185563,120,4,1,0,5,1,0
185563,-333.333333,4,1,0,5,0,0
185623,120,4,1,0,5,1,0
185623,-333.333333,4,1,0,5,0,0
185683,120,4,1,0,5,1,0
185683,-333.333333,4,1,0,5,0,0
185743,120,4,1,0,5,1,0
185743,-333.333333,4,1,0,5,0,0
185803,120,4,1,0,5,1,0
185803,-333.333333,4,1,0,5,0,0
185923,120,4,1,0,5,1,0
185923,-333.333333,4,1,0,5,0,0
185983,120,4,1,0,5,1,0
185983,-333.333333,4,1,0,5,0,0
186043,120,4,1,0,5,1,0
186043,-333.333333,4,1,0,5,0,0
186163,120,4,1,0,5,1,0
186163,-333.333333,4,1,0,5,0,0
188083,120,4,1,0,5,1,0
188083,-333.333333,4,1,0,5,0,0
188563,120,4,2,0,5,1,0
188563,-333.333333,4,2,0,5,0,0
188803,120,4,1,0,5,1,0
188803,-333.333333,4,1,0,5,0,0
194323,120,4,1,0,5,1,0
194323,-333.333333,4,1,0,5,0,0
198163,240,4,1,0,5,1,0
198163,-166.666667,4,1,0,5,0,0
199123,240,4,1,0,5,1,0
199123,-166.666667,4,1,0,5,0,0
199603,240,4,1,0,5,1,0
199603,-166.666667,4,1,0,5,0,0
200078,120,4,1,0,5,1,0
200078,-333.333333,4,1,0,5,0,0
205358,120,4,1,0,5,1,0
205358,-333.333333,4,1,0,5,0,0
205836,400,4,1,0,5,1,0
205836,-100,4,1,0,5,0,0
206854,240,4,2,0,5,1,0
206854,-166.666667,4,2,0,5,0,0
206914,240,4,2,0,5,1,0
206914,-166.666667,4,2,0,5,0,0
206973,240,4,2,0,5,1,0
206973,-166.666667,4,2,0,5,0,0
207033,240,4,2,0,5,1,0
207033,-166.666667,4,2,0,5,0,0
207093,240,4,2,0,5,1,0
207093,-166.666667,4,2,0,5,0,0
207153,240,4,2,0,5,1,0
207153,-166.666667,4,2,0,5,0,0
207213,240,4,2,0,5,1,0
207213,-166.666667,4,2,0,5,0,0
207273,240,4,2,0,5,1,0
207273,-166.666667,4,2,0,5,0,0
207333,240,4,2,0,5,1,0
207333,-166.666667,4,2,0,5,0,0
207393,240,4,2,0,5,1,0
207393,-166.666667,4,2,0,5,0,0
207452,240,4,2,0,5,1,0
207452,-166.666667,4,2,0,5,0,0
207512,240,4,2,0,5,1,0
207512,-166.666667,4,2,0,5,0,0
207572,240,4,2,0,5,1,0
207572,-166.666667,4,2,0,5,0,0
207632,240,4,2,0,5,1,0
207632,-166.666667,4,2,0,5,0,0
207692,240,4,2,0,5,1,0
207692,-166.666667,4,2,0,5,0,0
207782,240,4,2,0,5,1,0
207782,-166.666667,4,2,0,5,0,0
207962,240,4,2,0,5,1,0
207962,-166.666667,4,2,0,5,0,0
208232,240,4,2,0,5,1,0
208232,-166.666667,4,2,0,5,0,0
208681,240,4,2,0,5,1,0
208681,-166.666667,4,2,0,5,0,0
209191,240,4,1,0,5,1,0
209191,-166.666667,4,1,0,5,0,0

[HitObjects]
448,192,1611,5,0,0:0:0:0:
64,192,1611,128,0,2411:0:0:0:0:
192,192,1611,1,0,0:0:0:0:
320,192,2411,1,0,0:0:0:0:
192,192,3011,1,0,0:0:0:0:
448,192,3011,1,0,0:0:0:0:
64,192,3411,1,0,0:0:0:0:
448,192,3411,1,0,0:0:0:0:
448,192,3611,1,0,0:0:0:0:
64,192,3611,1,0,0:0:0:0:
320,192,4011,1,0,0:0:0:0:
64,192,4811,1,0,0:0:0:0:
192,192,4811,1,0,0:0:0:0:
320,192,5611,1,0,0:0:0:0:
192,192,6211,1,0,0:0:0:0:
448,192,6211,1,0,0:0:0:0:
64,192,6611,1,0,0:0:0:0:
448,192,6611,1,0,0:0:0:0:
448,192,6811,1,0,0:0:0:0:
64,192,6811,1,0,0:0:0:0:
192,192,7211,1,0,0:0:0:0:
320,192,7611,1,0,0:0:0:0:
448,192,7611,1,0,0:0:0:0:
64,192,7811,1,0,0:0:0:0:
192,192,8011,1,0,0:0:0:0:
320,192,8011,1,0,0:0:0:0:
448,192,8411,1,0,0:0:0:0:
64,192,8811,1,0,0:0:0:0:
320,192,8811,1,0,0:0:0:0:
192,192,9211,1,0,0:0:0:0:
320,192,9411,128,0,9811:0:0:0:0:
448,192,9411,1,0,0:0:0:0:
64,192,9811,1,0,0:0:0:0:
448,192,9811,1,0,0:0:0:0:
448,192,10011,1,0,0:0:0:0:
64,192,10011,1,0,0:0:0:0:
192,192,10211,128,0,10411:0:0:0:0:
64,192,10411,1,0,0:0:0:0:
320,192,10411,1,0,0:0:0:0:
448,192,10611,1,0,0:0:0:0:
320,192,10811,1,0,0:0:0:0:
192,192,11011,1,0,0:0:0:0:
320,192,11211,1,0,0:0:0:0:
64,192,11211,128,0,12811:0:0:0:0:
448,192,11611,1,0,0:0:0:0:
192,192,12011,1,0,0:0:0:0:
320,192,12011,1,0,0:0:0:0:
448,192,12211,1,0,0:0:0:0:
192,192,12611,1,0,0:0:0:0:
320,192,12611,1,0,0:0:0:0:
320,192,12811,1,0,0:0:0:0:
448,192,12811,1,0,0:0:0:0:
192,192,12877,1,0,0:0:0:0:
64,192,12944,1,0,0:0:0:0:
192,192,13011,1,0,0:0:0:0:
320,192,13077,1,0,0:0:0:0:
448,192,13144,1,0,0:0:0:0:
192,192,13211,1,0,0:0:0:0:
64,192,13211,1,0,0:0:0:0:
320,192,13311,1,0,0:0:0:0:
448,192,13311,1,0,0:0:0:0:
64,192,13411,1,0,0:0:0:0:
192,192,13411,1,0,0:0:0:0:
64,192,13611,1,0,0:0:0:0:
192,192,13611,1,0,0:0:0:0:
448,192,13711,1,0,0:0:0:0:
320,192,13761,1,0,0:0:0:0:
192,192,13811,1,0,0:0:0:0:
64,192,13861,1,0,0:0:0:0:
448,192,13911,1,0,0:0:0:0:
320,192,13911,1,0,0:0:0:0:
192,192,14011,1,0,0:0:0:0:
320,192,14111,1,0,0:0:0:0:
64,192,14211,1,0,0:0:0:0:
320,192,14411,128,0,15211:0:0:0:0:
448,192,14411,128,0,15211:0:0:0:0:
192,192,14411,1,0,0:0:0:0:
64,192,14811,1,0,0:0:0:0:
64,192,15211,1,0,0:0:0:0:
192,192,15211,1,0,0:0:0:0:
320,192,15611,128,0,16411:0:0:0:0:
448,192,15611,128,0,16411:0:0:0:0:
64,192,16011,1,0,0:0:0:0:
64,192,16411,128,0,16811:0:0:0:0:
192,192,16411,128,0,16811:0:0:0:0:
320,192,16811,1,0,0:0:0:0:
448,192,16811,1,0,0:0:0:0:
64,192,17011,128,0,17211:0:0:0:0:
192,192,17011,128,0,17211:0:0:0:0:
320,192,17211,128,0,17611:0:0:0:0:
448,192,17211,128,0,17611:0:0:0:0:
192,192,17611,128,0,18411:0:0:0:0:
64,192,17611,128,0,18411:0:0:0:0:
448,192,18011,1,0,0:0:0:0:
320,192,18411,1,0,0:0:0:0:
448,192,18411,1,0,0:0:0:0:
192,192,18811,128,0,19611:0:0:0:0:
64,192,18811,128,0,19611:0:0:0:0:
448,192,19211,1,0,0:0:0:0:
320,192,19611,128,0,20011:0:0:0:0:
448,192,19611,128,0,20011:0:0:0:0:
64,192,20011,1,0,0:0:0:0:
192,192,20011,1,0,0:0:0:0:
320,192,20211,128,0,20411:0:0:0:0:
448,192,20211,128,0,20411:0:0:0:0:
192,192,20411,128,0,20811:0:0:0:0:
64,192,20411,128,0,20811:0:0:0:0:
320,192,20811,1,0,0:0:0:0:
448,192,20811,1,0,0:0:0:0:
64,192,21011,1,0,0:0:0:0:
192,192,21077,1,0,0:0:0:0:
320,192,21144,1,0,0:0:0:0:
448,192,21211,1,0,0:0:0:0:
320,192,21277,1,0,0:0:0:0:
192,192,21344,1,0,0:0:0:0:
64,192,21411,1,0,0:0:0:0:
448,192,21477,1,0,0:0:0:0:
320,192,21544,1,0,0:0:0:0:
192,192,21611,1,0,0:0:0:0:
64,192,21611,1,0,0:0:0:0:
320,192,22011,1,0,0:0:0:0:
448,192,22011,1,0,0:0:0:0:
192,192,22011,128,0,22811:0:0:0:0:
64,192,22011,128,0,22811:0:0:0:0:
320,192,22411,1,0,0:0:0:0:
320,192,22811,128,0,23211:0:0:0:0:
448,192,22811,128,0,23211:0:0:0:0:
64,192,23211,1,0,0:0:0:0:
192,192,23211,1,0,0:0:0:0:
320,192,23411,128,0,23611:0:0:0:0:
448,192,23411,128,0,23611:0:0:0:0:
64,192,23611,128,0,24011:0:0:0:0:
192,192,23611,128,0,24011:0:0:0:0:
320,192,24011,128,0,24811:0:0:0:0:
448,192,24011,128,0,24811:0:0:0:0:
64,192,24411,1,0,0:0:0:0:
64,192,24811,1,0,0:0:0:0:
192,192,24811,1,0,0:0:0:0:
448,192,25211,128,0,26011:0:0:0:0:
320,192,25211,128,0,26011:0:0:0:0:
192,192,25611,1,0,0:0:0:0:
192,192,26011,128,0,26411:0:0:0:0:
64,192,26011,128,0,26411:0:0:0:0:
320,192,26411,1,0,0:0:0:0:
448,192,26411,1,0,0:0:0:0:
64,192,26611,1,0,0:0:0:0:
192,192,26661,1,0,0:0:0:0:
448,192,26711,1,0,0:0:0:0:
320,192,26761,1,0,0:0:0:0:
192,192,26811,1,0,0:0:0:0:
64,192,26811,1,0,0:0:0:0:
448,192,26911,1,0,0:0:0:0:
64,192,27011,1,0,0:0:0:0:
320,192,27011,1,0,0:0:0:0:
192,192,27111,1,0,0:0:0:0:
448,192,27211,1,0,0:0:0:0:
64,192,27211,1,0,0:0:0:0:
320,192,27211,1,0,0:0:0:0:
192,192,27411,1,0,0:0:0:0:
320,192,27611,1,0,0:0:0:0:
448,192,27611,1,0,0:0:0:0:
64,192,27811,1,0,0:0:0:0:
192,192,27911,1,0,0:0:0:0:
320,192,28011,1,0,0:0:0:0:
448,192,28011,1,0,0:0:0:0:
192,192,28211,1,0,0:0:0:0:
320,192,28411,1,0,0:0:0:0:
448,192,28411,1,0,0:0:0:0:
64,192,28511,1,0,0:0:0:0:
64,192,28711,1,0,0:0:0:0:
320,192,28811,1,0,0:0:0:0:
448,192,28811,1,0,0:0:0:0:
192,192,29011,1,0,0:0:0:0:
320,192,29211,1,0,0:0:0:0:
448,192,29211,1,0,0:0:0:0:
64,192,29411,1,0,0:0:0:0:
192,192,29511,1,0,0:0:0:0:
320,192,29611,1,0,0:0:0:0:
448,192,29611,1,0,0:0:0:0:
192,192,29811,1,0,0:0:0:0:
320,192,30011,1,0,0:0:0:0:
448,192,30011,1,0,0:0:0:0:
192,192,30111,1,0,0:0:0:0:
64,192,30211,1,0,0:0:0:0:
192,192,30311,1,0,0:0:0:0:
320,192,30411,1,0,0:0:0:0:
448,192,30411,1,0,0:0:0:0:
448,192,30611,1,0,0:0:0:0:
64,192,30811,1,0,0:0:0:0:
192,192,30811,1,0,0:0:0:0:
64,192,31011,1,0,0:0:0:0:
320,192,31111,1,0,0:0:0:0:
64,192,31211,1,0,0:0:0:0:
192,192,31211,1,0,0:0:0:0:
320,192,31411,1,0,0:0:0:0:
64,192,31611,1,0,0:0:0:0:
192,192,31611,1,0,0:0:0:0:
448,192,31711,1,0,0:0:0:0:
448,192,31911,1,0,0:0:0:0:
192,192,32011,1,0,0:0:0:0:
64,192,32011,1,0,0:0:0:0:
320,192,32211,1,0,0:0:0:0:
64,192,32411,1,0,0:0:0:0:
192,192,32411,1,0,0:0:0:0:
448,192,32511,1,0,0:0:0:0:
320,192,32611,1,0,0:0:0:0:
448,192,32711,1,0,0:0:0:0:
64,192,32811,1,0,0:0:0:0:
192,192,32811,1,0,0:0:0:0:
320,192,33211,1,0,0:0:0:0:
320,192,33411,1,0,0:0:0:0:
192,192,33611,1,0,0:0:0:0:
448,192,33611,1,0,0:0:0:0:
64,192,33611,1,0,0:0:0:0:
320,192,33711,1,0,0:0:0:0:
192,192,33811,1,0,0:0:0:0:
64,192,33911,1,0,0:0:0:0:
320,192,34011,1,0,0:0:0:0:
448,192,34011,1,0,0:0:0:0:
192,192,34111,1,0,0:0:0:0:
320,192,34211,1,0,0:0:0:0:
448,192,34311,1,0,0:0:0:0:
192,192,34411,1,0,0:0:0:0:
64,192,34411,1,0,0:0:0:0:
320,192,34511,1,0,0:0:0:0:
192,192,34611,1,0,0:0:0:0:
64,192,34711,1,0,0:0:0:0:
320,192,34811,1,0,0:0:0:0:
448,192,34811,1,0,0:0:0:0:
192,192,34911,1,0,0:0:0:0:
320,192,35011,1,0,0:0:0:0:
448,192,35111,1,0,0:0:0:0:
64,192,35211,1,0,0:0:0:0:
192,192,35211,1,0,0:0:0:0:
320,192,35311,1,0,0:0:0:0:
64,192,35411,1,0,0:0:0:0:
448,192,35411,1,0,0:0:0:0:
192,192,35511,1,0,0:0:0:0:
320,192,35611,1,0,0:0:0:0:
448,192,35611,1,0,0:0:0:0:
64,192,35711,1,0,0:0:0:0:
192,192,35811,1,0,0:0:0:0:
448,192,35811,1,0,0:0:0:0:
320,192,35911,1,0,0:0:0:0:
64,192,36011,1,0,0:0:0:0:
192,192,36011,1,0,0:0:0:0:
448,192,36111,1,0,0:0:0:0:
192,192,36211,1,0,0:0:0:0:
320,192,36211,1,0,0:0:0:0:
64,192,36311,1,0,0:0:0:0:
448,192,36411,1,0,0:0:0:0:
320,192,36411,1,0,0:0:0:0:
192,192,36511,1,0,0:0:0:0:
64,192,36611,1,0,0:0:0:0:
448,192,36611,1,0,0:0:0:0:
320,192,36711,1,0,0:0:0:0:
64,192,36811,1,0,0:0:0:0:
192,192,36811,1,0,0:0:0:0:
320,192,36911,1,0,0:0:0:0:
448,192,36911,1,0,0:0:0:0:
64,192,37011,1,0,0:0:0:0:
192,192,37011,1,0,0:0:0:0:
448,192,37111,1,0,0:0:0:0:
64,192,37211,1,0,0:0:0:0:
320,192,37211,1,0,0:0:0:0:
192,192,37311,1,0,0:0:0:0:
448,192,37311,1,0,0:0:0:0:
64,192,37411,1,0,0:0:0:0:
320,192,37411,1,0,0:0:0:0:
192,192,37511,1,0,0:0:0:0:
320,192,37611,1,0,0:0:0:0:
448,192,37611,1,0,0:0:0:0:
64,192,37711,1,0,0:0:0:0:
192,192,37711,1,0,0:0:0:0:
320,192,37811,1,0,0:0:0:0:
448,192,37811,1,0,0:0:0:0:
64,192,37911,1,0,0:0:0:0:
192,192,37911,1,0,0:0:0:0:
320,192,38011,1,0,0:0:0:0:
448,192,38011,1,0,0:0:0:0:
64,192,38111,1,0,0:0:0:0:
192,192,38111,1,0,0:0:0:0:
320,192,38211,1,0,0:0:0:0:
448,192,38211,1,0,0:0:0:0:
192,192,38311,1,0,0:0:0:0:
320,192,38411,1,0,0:0:0:0:
448,192,38411,1,0,0:0:0:0:
64,192,38411,1,0,0:0:0:0:
448,192,39211,1,0,0:0:0:0:
320,192,39277,1,0,0:0:0:0:
64,192,39344,1,0,0:0:0:0:
448,192,39411,1,0,0:0:0:0:
192,192,39477,1,0,0:0:0:0:
64,192,39544,1,0,0:0:0:0:
320,192,39611,1,0,0:0:0:0:
448,192,39611,1,0,0:0:0:0:
192,192,39711,1,0,0:0:0:0:
448,192,40011,1,0,0:0:0:0:
320,192,40011,1,0,0:0:0:0:
192,192,40068,1,0,0:0:0:0:
64,192,40125,1,0,0:0:0:0:
448,192,40182,1,0,0:0:0:0:
320,192,40239,1,0,0:0:0:0:
64,192,40296,1,0,0:0:0:0:
192,192,40353,1,0,0:0:0:0:
320,192,40411,128,0,40811:0:0:0:0:
64,192,40811,128,0,43211:0:0:0:0:
448,192,40811,128,0,43211:0:0:0:0:
192,192,40811,1,0,0:0:0:0:
320,192,43211,1,0,0:0:0:0:
192,192,43277,1,0,0:0:0:0:
448,192,43344,1,0,0:0:0:0:
192,192,43411,1,0,0:0:0:0:
320,192,43477,1,0,0:0:0:0:
64,192,43544,1,0,0:0:0:0:
320,192,43611,1,0,0:0:0:0:
192,192,43677,1,0,0:0:0:0:
448,192,43744,1,0,0:0:0:0:
192,192,43811,1,0,0:0:0:0:
320,192,43877,1,0,0:0:0:0:
64,192,43944,1,0,0:0:0:0:
320,192,44011,1,0,0:0:0:0:
192,192,44077,1,0,0:0:0:0:
448,192,44144,1,0,0:0:0:0:
192,192,44211,1,0,0:0:0:0:
320,192,44277,1,0,0:0:0:0:
64,192,44344,1,0,0:0:0:0:
448,192,44411,1,0,0:0:0:0:
320,192,44477,1,0,0:0:0:0:
192,192,44544,1,0,0:0:0:0:
64,192,44611,1,0,0:0:0:0:
192,192,44677,1,0,0:0:0:0:
320,192,44744,1,0,0:0:0:0:
64,192,44811,1,0,0:0:0:0:
448,192,44811,1,0,0:0:0:0:
192,192,44907,1,0,0:0:0:0:
320,192,45004,1,0,0:0:0:0:
192,192,45101,1,0,0:0:0:0:
64,192,45198,1,0,0:0:0:0:
448,192,45198,1,0,0:0:0:0:
320,192,45294,1,0,0:0:0:0:
192,192,45391,1,0,0:0:0:0:
320,192,45488,1,0,0:0:0:0:
448,192,45585,1,0,0:0:0:0:
64,192,45585,1,0,0:0:0:0:
192,192,45681,1,0,0:0:0:0:
320,192,45778,1,0,0:0:0:0:
192,192,45875,1,0,0:0:0:0:
64,192,45972,1,0,0:0:0:0:
448,192,45972,1,0,0:0:0:0:
320,192,46069,1,0,0:0:0:0:
192,192,46165,1,0,0:0:0:0:
320,192,46262,1,0,0:0:0:0:
448,192,46359,1,0,0:0:0:0:
192,192,46456,1,0,0:0:0:0:
320,192,46552,1,0,0:0:0:0:
192,192,46649,1,0,0:0:0:0:
64,192,46746,1,0,0:0:0:0:
320,192,46843,1,0,0:0:0:0:
192,192,46940,1,0,0:0:0:0:
320,192,47036,1,0,0:0:0:0:
448,192,47133,1,0,0:0:0:0:
64,192,47133,1,0,0:0:0:0:
192,192,47230,1,0,0:0:0:0:
448,192,47327,1,0,0:0:0:0:
192,192,47423,1,0,0:0:0:0:
320,192,47520,1,0,0:0:0:0:
64,192,47617,1,0,0:0:0:0:
320,192,47714,1,0,0:0:0:0:
64,192,47810,1,0,0:0:0:0:
192,192,47907,1,0,0:0:0:0:
320,192,47908,128,0,48283:0:0:0:0:
448,192,47908,128,0,48283:0:0:0:0:
64,192,48283,1,0,0:0:0:0:
192,192,48329,1,0,0:0:0:0:
448,192,48376,1,0,0:0:0:0:
320,192,48423,1,0,0:0:0:0:
64,192,48470,1,0,0:0:0:0:
192,192,48517,1,0,0:0:0:0:
448,192,48564,1,0,0:0:0:0:
320,192,48611,1,0,0:0:0:0:
64,192,48658,1,0,0:0:0:0:
192,192,48658,1,0,0:0:0:0:
448,192,48751,1,0,0:0:0:0:
320,192,48751,1,0,0:0:0:0:
64,192,48845,1,0,0:0:0:0:
192,192,48845,1,0,0:0:0:0:
320,192,48939,1,0,0:0:0:0:
448,192,48939,1,0,0:0:0:0:
64,192,49033,1,0,0:0:0:0:
192,192,49033,1,0,0:0:0:0:
64,192,49408,1,0,0:0:0:0:
192,192,49408,1,0,0:0:0:0:
320,192,49408,1,0,0:0:0:0:
448,192,49408,1,0,0:0:0:0:
64,192,49783,1,0,0:0:0:0:
320,192,49783,1,0,0:0:0:0:
448,192,49783,1,0,0:0:0:0:
192,192,49876,1,0,0:0:0:0:
320,192,49970,1,0,0:0:0:0:
64,192,50158,1,0,0:0:0:0:
192,192,50158,1,0,0:0:0:0:
448,192,50158,1,0,0:0:0:0:
320,192,50345,1,0,0:0:0:0:
64,192,50533,1,0,0:0:0:0:
192,192,50533,1,0,0:0:0:0:
448,192,50533,1,0,0:0:0:0:
192,192,50908,1,0,0:0:0:0:
320,192,50908,1,0,0:0:0:0:
448,192,50908,1,0,0:0:0:0:
64,192,51283,1,0,0:0:0:0:
320,192,51283,1,0,0:0:0:0:
192,192,51283,1,0,0:0:0:0:
64,192,51470,1,0,0:0:0:0:
448,192,51470,1,0,0:0:0:0:
192,192,51470,1,0,0:0:0:0:
64,192,51658,1,0,0:0:0:0:
448,192,51658,1,0,0:0:0:0:
320,192,51658,1,0,0:0:0:0:
64,192,52408,1,0,0:0:0:0:
192,192,52408,1,0,0:0:0:0:
320,192,52501,1,0,0:0:0:0:
448,192,52501,1,0,0:0:0:0:
64,192,52595,1,0,0:0:0:0:
192,192,52595,1,0,0:0:0:0:
320,192,52689,1,0,0:0:0:0:
448,192,52689,1,0,0:0:0:0:
64,192,52783,1,0,0:0:0:0:
192,192,52783,1,0,0:0:0:0:
320,192,52876,1,0,0:0:0:0:
448,192,52876,1,0,0:0:0:0:
64,192,52970,1,0,0:0:0:0:
192,192,52970,1,0,0:0:0:0:
320,192,53064,1,0,0:0:0:0:
448,192,53064,1,0,0:0:0:0:
64,192,53158,1,0,0:0:0:0:
192,192,53204,1,0,0:0:0:0:
320,192,53251,1,0,0:0:0:0:
448,192,53298,1,0,0:0:0:0:
64,192,53345,1,0,0:0:0:0:
192,192,53392,1,0,0:0:0:0:
320,192,53439,1,0,0:0:0:0:
448,192,53486,1,0,0:0:0:0:
64,192,53533,1,0,0:0:0:0:
320,192,53579,1,0,0:0:0:0:
192,192,53626,1,0,0:0:0:0:
448,192,53673,1,0,0:0:0:0:
64,192,53720,1,0,0:0:0:0:
320,192,53767,1,0,0:0:0:0:
192,192,53814,1,0,0:0:0:0:
448,192,53861,1,0,0:0:0:0:
64,192,53908,1,0,0:0:0:0:
64,192,54095,1,0,0:0:0:0:
64,192,54283,1,0,0:0:0:0:
64,192,54470,1,0,0:0:0:0:
64,192,54658,1,0,0:0:0:0:
64,192,54845,1,0,0:0:0:0:
448,192,54939,1,0,0:0:0:0:
192,192,55033,1,0,0:0:0:0:
320,192,55095,1,0,0:0:0:0:
64,192,55158,1,0,0:0:0:0:
192,192,55220,1,0,0:0:0:0:
320,192,55283,1,0,0:0:0:0:
448,192,55345,1,0,0:0:0:0:
64,192,55408,1,0,0:0:0:0:
192,192,55408,1,0,0:0:0:0:
64,192,55589,1,0,0:0:0:0:
192,192,55771,1,0,0:0:0:0:
320,192,55771,1,0,0:0:0:0:
192,192,55953,1,0,0:0:0:0:
320,192,56135,1,0,0:0:0:0:
448,192,56135,1,0,0:0:0:0:
320,192,56311,1,0,0:0:0:0:
64,192,56487,1,0,0:0:0:0:
448,192,56487,1,0,0:0:0:0:
448,192,56664,1,0,0:0:0:0:
64,192,56840,1,0,0:0:0:0:
320,192,56840,1,0,0:0:0:0:
64,192,57012,1,0,0:0:0:0:
192,192,57183,1,0,0:0:0:0:
320,192,57183,1,0,0:0:0:0:
320,192,57355,1,0,0:0:0:0:
192,192,57526,1,0,0:0:0:0:
448,192,57526,1,0,0:0:0:0:
192,192,57693,1,0,0:0:0:0:
64,192,57860,1,0,0:0:0:0:
448,192,57860,1,0,0:0:0:0:
448,192,58026,1,0,0:0:0:0:
64,192,58193,1,0,0:0:0:0:
192,192,58193,1,0,0:0:0:0:
320,192,58274,1,0,0:0:0:0:
448,192,58355,1,0,0:0:0:0:
192,192,58436,1,0,0:0:0:0:
64,192,58517,1,0,0:0:0:0:
320,192,58517,1,0,0:0:0:0:
448,192,58598,1,0,0:0:0:0:
192,192,58679,1,0,0:0:0:0:
320,192,58760,1,0,0:0:0:0:
448,192,58841,1,0,0:0:0:0:
64,192,58842,1,0,0:0:0:0:
192,192,58894,1,0,0:0:0:0:
320,192,58947,1,0,0:0:0:0:
448,192,58999,1,0,0:0:0:0:
64,192,59052,1,0,0:0:0:0:
320,192,59105,1,0,0:0:0:0:
448,192,59157,1,0,0:0:0:0:
192,192,59157,1,0,0:0:0:0:
64,192,59210,1,0,0:0:0:0:
320,192,59263,1,0,0:0:0:0:
192,192,59315,1,0,0:0:0:0:
448,192,59368,1,0,0:0:0:0:
320,192,59420,1,0,0:0:0:0:
64,192,59474,1,0,0:0:0:0:
192,192,59474,1,0,0:0:0:0:
448,192,60396,1,0,0:0:0:0:
64,192,60396,1,0,0:0:0:0:
192,192,60498,1,0,0:0:0:0:
64,192,60498,1,0,0:0:0:0:
448,192,60599,1,0,0:0:0:0:
320,192,60599,1,0,0:0:0:0:
64,192,60701,1,0,0:0:0:0:
192,192,60701,1,0,0:0:0:0:
448,192,60701,1,0,0:0:0:0:
64,192,61001,1,0,0:0:0:0:
192,192,61001,1,0,0:0:0:0:
448,192,61001,1,0,0:0:0:0:
64,192,61301,1,0,0:0:0:0:
192,192,61301,1,0,0:0:0:0:
64,192,61601,1,0,0:0:0:0:
192,192,61601,1,0,0:0:0:0:
64,192,61901,1,0,0:0:0:0:
64,192,62201,1,0,0:0:0:0:
64,192,62501,1,0,0:0:0:0:
448,192,62501,1,0,0:0:0:0:
192,192,62576,1,0,0:0:0:0:
320,192,62651,1,0,0:0:0:0:
448,192,62801,1,0,0:0:0:0:
64,192,62801,1,0,0:0:0:0:
320,192,62876,1,0,0:0:0:0:
192,192,62951,1,0,0:0:0:0:
320,192,63026,1,0,0:0:0:0:
64,192,63101,1,0,0:0:0:0:
192,192,63101,1,0,0:0:0:0:
448,192,63101,1,0,0:0:0:0:
192,192,63341,1,0,0:0:0:0:
192,192,63583,1,0,0:0:0:0:
192,192,63823,1,0,0:0:0:0:
192,192,64063,1,0,0:0:0:0:
192,192,64303,1,0,0:0:0:0:
320,192,64543,128,0,65021:0:0:0:0:
64,192,65021,1,0,0:0:0:0:
192,192,65021,1,0,0:0:0:0:
448,192,65021,1,0,0:0:0:0:
448,192,65261,1,0,0:0:0:0:
64,192,65261,1,0,0:0:0:0:
192,192,65261,1,0,0:0:0:0:
64,192,65501,1,0,0:0:0:0:
448,192,65501,1,0,0:0:0:0:
192,192,65501,1,0,0:0:0:0:
64,192,65741,1,0,0:0:0:0:
192,192,65741,1,0,0:0:0:0:
448,192,65741,1,0,0:0:0:0:
192,192,65981,1,0,0:0:0:0:
64,192,65981,1,0,0:0:0:0:
448,192,65981,1,0,0:0:0:0:
64,192,66221,1,0,0:0:0:0:
192,192,66221,1,0,0:0:0:0:
448,192,66221,1,0,0:0:0:0:
64,192,66461,1,0,0:0:0:0:
192,192,66461,1,0,0:0:0:0:
448,192,66461,1,0,0:0:0:0:
192,192,66701,1,0,0:0:0:0:
64,192,66701,1,0,0:0:0:0:
448,192,66701,1,0,0:0:0:0:
320,192,66761,1,0,0:0:0:0:
192,192,66821,1,0,0:0:0:0:
448,192,66941,1,0,0:0:0:0:
64,192,66941,1,0,0:0:0:0:
320,192,66941,1,0,0:0:0:0:
320,192,67181,1,0,0:0:0:0:
64,192,67181,1,0,0:0:0:0:
448,192,67181,1,0,0:0:0:0:
448,192,67421,1,0,0:0:0:0:
64,192,67421,1,0,0:0:0:0:
320,192,67421,1,0,0:0:0:0:
448,192,67661,1,0,0:0:0:0:
320,192,67661,1,0,0:0:0:0:
64,192,67661,1,0,0:0:0:0:
64,192,67781,1,0,0:0:0:0:
320,192,67781,1,0,0:0:0:0:
448,192,67781,1,0,0:0:0:0:
64,192,67901,1,0,0:0:0:0:
448,192,67901,1,0,0:0:0:0:
192,192,67901,1,0,0:0:0:0:
320,192,68141,1,0,0:0:0:0:
192,192,68141,1,0,0:0:0:0:
64,192,68381,1,0,0:0:0:0:
448,192,68381,1,0,0:0:0:0:
64,192,68621,1,0,0:0:0:0:
192,192,68621,1,0,0:0:0:0:
320,192,68681,1,0,0:0:0:0:
448,192,68681,1,0,0:0:0:0:
192,192,68741,1,0,0:0:0:0:
64,192,68741,1,0,0:0:0:0:
320,192,68801,1,0,0:0:0:0:
448,192,68861,128,0,69341:0:0:0:0:
192,192,68861,1,0,0:0:0:0:
64,192,68861,128,0,69101:0:0:0:0:
64,192,69341,1,0,0:0:0:0:
192,192,69341,1,0,0:0:0:0:
320,192,69341,1,0,0:0:0:0:
192,192,69581,1,0,0:0:0:0:
320,192,69581,1,0,0:0:0:0:
64,192,69581,1,0,0:0:0:0:
192,192,69821,1,0,0:0:0:0:
64,192,69821,1,0,0:0:0:0:
320,192,69821,1,0,0:0:0:0:
320,192,70061,1,0,0:0:0:0:
192,192,70061,1,0,0:0:0:0:
64,192,70061,1,0,0:0:0:0:
192,192,70301,1,0,0:0:0:0:
64,192,70301,1,0,0:0:0:0:
320,192,70301,1,0,0:0:0:0:
192,192,70541,1,0,0:0:0:0:
320,192,70541,1,0,0:0:0:0:
64,192,70541,1,0,0:0:0:0:
64,192,70661,1,0,0:0:0:0:
320,192,70661,1,0,0:0:0:0:
192,192,70661,1,0,0:0:0:0:
192,192,70781,128,0,71021:0:0:0:0:
320,192,70781,128,0,71021:0:0:0:0:
448,192,70781,128,0,71261:0:0:0:0:
64,192,71261,1,0,0:0:0:0:
192,192,71261,1,0,0:0:0:0:
320,192,71261,1,0,0:0:0:0:
320,192,71501,1,0,0:0:0:0:
192,192,71501,1,0,0:0:0:0:
64,192,71501,1,0,0:0:0:0:
64,192,71621,1,0,0:0:0:0:
192,192,71621,1,0,0:0:0:0:
320,192,71621,1,0,0:0:0:0:
64,192,71741,1,0,0:0:0:0:
448,192,71741,128,0,72221:0:0:0:0:
192,192,71741,128,0,71981:0:0:0:0:
320,192,71741,128,0,71981:0:0:0:0:
64,192,72221,1,0,0:0:0:0:
192,192,72341,1,0,0:0:0:0:
448,192,72461,1,0,0:0:0:0:
320,192,72581,1,0,0:0:0:0:
64,192,72701,1,0,0:0:0:0:
192,192,72701,1,0,0:0:0:0:
448,192,72821,128,0,72941:0:0:0:0:
64,192,72941,1,0,0:0:0:0:
192,192,72941,1,0,0:0:0:0:
448,192,73061,128,0,73181:0:0:0:0:
64,192,73181,1,0,0:0:0:0:
192,192,73181,1,0,0:0:0:0:
448,192,73301,128,0,73421:0:0:0:0:
64,192,73421,1,0,0:0:0:0:
192,192,73421,1,0,0:0:0:0:
448,192,73541,128,0,73661:0:0:0:0:
64,192,73661,1,0,0:0:0:0:
192,192,73661,1,0,0:0:0:0:
448,192,73781,128,0,73901:0:0:0:0:
64,192,73901,1,0,0:0:0:0:
192,192,73901,1,0,0:0:0:0:
448,192,74021,1,0,0:0:0:0:
64,192,74141,1,0,0:0:0:0:
192,192,74141,1,0,0:0:0:0:
448,192,74261,1,0,0:0:0:0:
320,192,74321,1,0,0:0:0:0:
192,192,74381,1,0,0:0:0:0:
64,192,74381,1,0,0:0:0:0:
448,192,74621,1,0,0:0:0:0:
320,192,74621,1,0,0:0:0:0:
64,192,74741,128,0,74861:0:0:0:0:
448,192,74861,1,0,0:0:0:0:
320,192,74861,1,0,0:0:0:0:
64,192,74981,128,0,75101:0:0:0:0:
448,192,75101,1,0,0:0:0:0:
320,192,75101,1,0,0:0:0:0:
64,192,75221,1,0,0:0:0:0:
320,192,75341,1,0,0:0:0:0:
448,192,75341,1,0,0:0:0:0:
192,192,75401,1,0,0:0:0:0:
64,192,75401,1,0,0:0:0:0:
320,192,75461,1,0,0:0:0:0:
448,192,75461,1,0,0:0:0:0:
192,192,75521,1,0,0:0:0:0:
448,192,75581,1,0,0:0:0:0:
64,192,75581,1,0,0:0:0:0:
320,192,75581,1,0,0:0:0:0:
192,192,75821,1,0,0:0:0:0:
320,192,75881,1,0,0:0:0:0:
64,192,75941,1,0,0:0:0:0:
192,192,75971,1,0,0:0:0:0:
320,192,76001,1,0,0:0:0:0:
448,192,76031,1,0,0:0:0:0:
64,192,76061,128,0,76541:0:0:0:0:
192,192,76061,128,0,76301:0:0:0:0:
448,192,76541,1,0,0:0:0:0:
320,192,76541,1,0,0:0:0:0:
192,192,76541,1,0,0:0:0:0:
448,192,76781,1,0,0:0:0:0:
320,192,76781,1,0,0:0:0:0:
192,192,76781,1,0,0:0:0:0:
320,192,77021,1,0,0:0:0:0:
192,192,77021,1,0,0:0:0:0:
448,192,77021,1,0,0:0:0:0:
192,192,77261,1,0,0:0:0:0:
448,192,77261,1,0,0:0:0:0:
320,192,77261,1,0,0:0:0:0:
320,192,77381,1,0,0:0:0:0:
448,192,77381,1,0,0:0:0:0:
192,192,77381,1,0,0:0:0:0:
64,192,77501,1,0,0:0:0:0:
192,192,77501,1,0,0:0:0:0:
320,192,77501,1,0,0:0:0:0:
192,192,77741,1,0,0:0:0:0:
64,192,77741,1,0,0:0:0:0:
448,192,77741,1,0,0:0:0:0:
192,192,77861,1,0,0:0:0:0:
320,192,77861,1,0,0:0:0:0:
448,192,77981,1,0,0:0:0:0:
64,192,77981,1,0,0:0:0:0:
320,192,78041,1,0,0:0:0:0:
192,192,78101,1,0,0:0:0:0:
64,192,78161,1,0,0:0:0:0:
320,192,78221,1,0,0:0:0:0:
448,192,78221,1,0,0:0:0:0:
192,192,78281,1,0,0:0:0:0:
320,192,78341,1,0,0:0:0:0:
448,192,78401,1,0,0:0:0:0:
64,192,78461,128,0,78941:0:0:0:0:
192,192,78461,1,0,0:0:0:0:
448,192,78581,1,0,0:0:0:0:
320,192,78701,1,0,0:0:0:0:
192,192,78701,1,0,0:0:0:0:
448,192,78821,1,0,0:0:0:0:
320,192,78821,1,0,0:0:0:0:
192,192,78941,128,0,79181:0:0:0:0:
320,192,79061,1,0,0:0:0:0:
448,192,79061,1,0,0:0:0:0:
448,192,79181,1,0,0:0:0:0:
64,192,79181,128,0,79421:0:0:0:0:
192,192,79421,1,0,0:0:0:0:
448,192,79421,128,0,79901:0:0:0:0:
320,192,79541,1,0,0:0:0:0:
64,192,79661,1,0,0:0:0:0:
192,192,79661,1,0,0:0:0:0:
192,192,79781,1,0,0:0:0:0:
320,192,79901,128,0,80381:0:0:0:0:
64,192,79901,1,0,0:0:0:0:
448,192,80381,1,0,0:0:0:0:
192,192,80381,1,0,0:0:0:0:
64,192,80381,1,0,0:0:0:0:
64,192,80861,1,0,0:0:0:0:
320,192,80861,1,0,0:0:0:0:
448,192,80861,1,0,0:0:0:0:
64,192,81101,1,0,0:0:0:0:
320,192,81101,1,0,0:0:0:0:
448,192,81101,1,0,0:0:0:0:
448,192,81341,1,0,0:0:0:0:
320,192,81341,1,0,0:0:0:0:
64,192,81341,1,0,0:0:0:0:
64,192,81581,1,0,0:0:0:0:
320,192,81581,1,0,0:0:0:0:
448,192,81581,1,0,0:0:0:0:
64,192,81821,1,0,0:0:0:0:
320,192,81821,1,0,0:0:0:0:
448,192,81821,1,0,0:0:0:0:
448,192,82061,1,0,0:0:0:0:
64,192,82061,1,0,0:0:0:0:
320,192,82061,1,0,0:0:0:0:
64,192,82181,1,0,0:0:0:0:
320,192,82181,1,0,0:0:0:0:
448,192,82181,1,0,0:0:0:0:
64,192,82301,1,0,0:0:0:0:
192,192,82301,1,0,0:0:0:0:
448,192,82301,1,0,0:0:0:0:
64,192,82541,1,0,0:0:0:0:
192,192,82541,1,0,0:0:0:0:
448,192,82541,1,0,0:0:0:0:
64,192,82781,1,0,0:0:0:0:
192,192,82781,1,0,0:0:0:0:
448,192,82781,1,0,0:0:0:0:
320,192,82901,1,0,0:0:0:0:
448,192,82901,1,0,0:0:0:0:
192,192,82961,1,0,0:0:0:0:
64,192,82961,1,0,0:0:0:0:
320,192,83021,1,0,0:0:0:0:
448,192,83021,1,0,0:0:0:0:
64,192,83141,1,0,0:0:0:0:
192,192,83141,1,0,0:0:0:0:
320,192,83261,1,0,0:0:0:0:
192,192,83261,1,0,0:0:0:0:
448,192,83381,1,0,0:0:0:0:
320,192,83381,1,0,0:0:0:0:
192,192,83501,1,0,0:0:0:0:
64,192,83501,1,0,0:0:0:0:
448,192,83561,1,0,0:0:0:0:
320,192,83561,1,0,0:0:0:0:
64,192,83621,1,0,0:0:0:0:
192,192,83621,1,0,0:0:0:0:
320,192,83741,1,0,0:0:0:0:
192,192,83801,1,0,0:0:0:0:
448,192,83861,1,0,0:0:0:0:
320,192,83891,1,0,0:0:0:0:
192,192,83921,1,0,0:0:0:0:
64,192,83951,1,0,0:0:0:0:
448,192,83981,128,0,84221:0:0:0:0:
320,192,83981,128,0,84101:0:0:0:0:
192,192,84101,128,0,84221:0:0:0:0:
320,192,84221,1,0,0:0:0:0:
64,192,84221,1,0,0:0:0:0:
64,192,84461,1,0,0:0:0:0:
192,192,84521,1,0,0:0:0:0:
320,192,84581,1,0,0:0:0:0:
448,192,84641,1,0,0:0:0:0:
64,192,84701,1,0,0:0:0:0:
192,192,84701,1,0,0:0:0:0:
64,192,84941,1,0,0:0:0:0:
192,192,84941,1,0,0:0:0:0:
64,192,85181,1,0,0:0:0:0:
192,192,85181,1,0,0:0:0:0:
64,192,85421,1,0,0:0:0:0:
192,192,85421,1,0,0:0:0:0:
192,192,85661,1,0,0:0:0:0:
64,192,85661,1,0,0:0:0:0:
192,192,85901,1,0,0:0:0:0:
64,192,85901,1,0,0:0:0:0:
320,192,85961,1,0,0:0:0:0:
192,192,86021,1,0,0:0:0:0:
320,192,86081,1,0,0:0:0:0:
448,192,86141,1,0,0:0:0:0:
64,192,86141,1,0,0:0:0:0:
192,192,86381,1,0,0:0:0:0:
320,192,86381,1,0,0:0:0:0:
320,192,86501,1,0,0:0:0:0:
192,192,86501,1,0,0:0:0:0:
64,192,86621,1,0,0:0:0:0:
448,192,86621,1,0,0:0:0:0:
64,192,86861,1,0,0:0:0:0:
192,192,86921,1,0,0:0:0:0:
448,192,86981,1,0,0:0:0:0:
320,192,87011,1,0,0:0:0:0:
192,192,87041,1,0,0:0:0:0:
64,192,87071,1,0,0:0:0:0:
320,192,87101,1,0,0:0:0:0:
448,192,87101,1,0,0:0:0:0:
320,192,87821,128,0,88061:0:0:0:0:
64,192,88061,1,0,0:0:0:0:
192,192,88061,1,0,0:0:0:0:
448,192,88061,1,0,0:0:0:0:
320,192,88541,1,0,0:0:0:0:
192,192,88541,1,0,0:0:0:0:
448,192,88541,1,0,0:0:0:0:
192,192,88781,1,0,0:0:0:0:
320,192,88781,1,0,0:0:0:0:
448,192,88781,1,0,0:0:0:0:
192,192,89021,1,0,0:0:0:0:
320,192,89021,1,0,0:0:0:0:
448,192,89021,1,0,0:0:0:0:
192,192,89261,1,0,0:0:0:0:
320,192,89261,1,0,0:0:0:0:
448,192,89261,1,0,0:0:0:0:
448,192,89501,1,0,0:0:0:0:
320,192,89501,1,0,0:0:0:0:
192,192,89501,1,0,0:0:0:0:
448,192,89741,1,0,0:0:0:0:
320,192,89741,1,0,0:0:0:0:
448,192,89861,1,0,0:0:0:0:
320,192,89861,1,0,0:0:0:0:
192,192,89981,1,0,0:0:0:0:
64,192,89981,1,0,0:0:0:0:
448,192,90041,1,0,0:0:0:0:
320,192,90041,1,0,0:0:0:0:
64,192,90101,1,0,0:0:0:0:
192,192,90101,1,0,0:0:0:0:
320,192,90161,1,0,0:0:0:0:
448,192,90221,1,0,0:0:0:0:
64,192,90221,1,0,0:0:0:0:
192,192,90221,1,0,0:0:0:0:
448,192,90461,1,0,0:0:0:0:
64,192,90461,1,0,0:0:0:0:
192,192,90461,1,0,0:0:0:0:
192,192,90701,1,0,0:0:0:0:
64,192,90701,1,0,0:0:0:0:
64,192,90821,1,0,0:0:0:0:
192,192,90821,1,0,0:0:0:0:
320,192,90941,128,0,91421:0:0:0:0:
448,192,90941,128,0,91421:0:0:0:0:
64,192,91421,1,0,0:0:0:0:
192,192,91451,1,0,0:0:0:0:
448,192,91481,1,0,0:0:0:0:
64,192,91541,1,0,0:0:0:0:
320,192,91661,1,0,0:0:0:0:
192,192,91781,1,0,0:0:0:0:
64,192,91901,1,0,0:0:0:0:
320,192,91901,1,0,0:0:0:0:
448,192,91901,1,0,0:0:0:0:
192,192,92021,128,0,92141:0:0:0:0:
64,192,92141,1,0,0:0:0:0:
320,192,92141,1,0,0:0:0:0:
448,192,92141,1,0,0:0:0:0:
192,192,92261,128,0,92381:0:0:0:0:
64,192,92381,1,0,0:0:0:0:
320,192,92381,1,0,0:0:0:0:
448,192,92381,1,0,0:0:0:0:
192,192,92501,128,0,92621:0:0:0:0:
64,192,92621,1,0,0:0:0:0:
320,192,92621,1,0,0:0:0:0:
448,192,92621,1,0,0:0:0:0:
192,192,92741,128,0,92861:0:0:0:0:
64,192,92861,1,0,0:0:0:0:
320,192,92861,1,0,0:0:0:0:
448,192,92861,1,0,0:0:0:0:
192,192,93221,1,0,0:0:0:0:
320,192,93221,1,0,0:0:0:0:
192,192,93461,1,0,0:0:0:0:
320,192,93461,1,0,0:0:0:0:
192,192,93701,1,0,0:0:0:0:
320,192,93701,1,0,0:0:0:0:
64,192,93821,128,0,95681:0:0:0:0:
448,192,93821,128,0,95681:0:0:0:0:
320,192,93821,128,0,95681:0:0:0:0:
192,192,93821,128,0,95681:0:0:0:0:
64,192,95741,1,0,0:0:0:0:
192,192,95741,1,0,0:0:0:0:
320,192,95741,1,0,0:0:0:0:
448,192,95741,1,0,0:0:0:0:
64,192,97541,1,0,0:0:0:0:
64,192,97741,1,0,0:0:0:0:
192,192,98141,1,0,0:0:0:0:
448,192,98941,1,0,0:0:0:0:
192,192,99741,1,0,0:0:0:0:
64,192,100341,1,0,0:0:0:0:
448,192,100741,1,0,0:0:0:0:
448,192,100941,1,0,0:0:0:0:
320,192,101341,1,0,0:0:0:0:
192,192,101741,1,0,0:0:0:0:
64,192,101741,1,0,0:0:0:0:
448,192,101941,1,0,0:0:0:0:
320,192,102141,1,0,0:0:0:0:
192,192,102141,1,0,0:0:0:0:
64,192,102541,1,0,0:0:0:0:
448,192,102941,1,0,0:0:0:0:
192,192,102941,1,0,0:0:0:0:
320,192,103341,1,0,0:0:0:0:
192,192,103541,128,0,103941:0:0:0:0:
64,192,103541,1,0,0:0:0:0:
448,192,103941,1,0,0:0:0:0:
64,192,103941,1,0,0:0:0:0:
64,192,104141,1,0,0:0:0:0:
448,192,104141,1,0,0:0:0:0:
320,192,104341,128,0,104541:0:0:0:0:
448,192,104541,1,0,0:0:0:0:
192,192,104541,1,0,0:0:0:0:
64,192,104741,1,0,0:0:0:0:
192,192,104941,1,0,0:0:0:0:
320,192,105141,1,0,0:0:0:0:
192,192,105341,1,0,0:0:0:0:
448,192,105341,128,0,106941:0:0:0:0:
64,192,105741,1,0,0:0:0:0:
320,192,106141,1,0,0:0:0:0:
192,192,106141,1,0,0:0:0:0:
64,192,106341,1,0,0:0:0:0:
320,192,106741,1,0,0:0:0:0:
192,192,106741,1,0,0:0:0:0:
64,192,106941,1,0,0:0:0:0:
192,192,106941,1,0,0:0:0:0:
448,192,107041,1,0,0:0:0:0:
320,192,107091,1,0,0:0:0:0:
64,192,107141,1,0,0:0:0:0:
192,192,107191,1,0,0:0:0:0:
448,192,107241,1,0,0:0:0:0:
320,192,107241,1,0,0:0:0:0:
192,192,107341,1,0,0:0:0:0:
64,192,107341,1,0,0:0:0:0:
448,192,107474,1,0,0:0:0:0:
320,192,107541,1,0,0:0:0:0:
192,192,107607,1,0,0:0:0:0:
64,192,107674,1,0,0:0:0:0:
448,192,107741,1,0,0:0:0:0:
192,192,107841,1,0,0:0:0:0:
64,192,107941,1,0,0:0:0:0:
448,192,108041,1,0,0:0:0:0:
320,192,108041,1,0,0:0:0:0:
192,192,108141,1,0,0:0:0:0:
448,192,108241,1,0,0:0:0:0:
64,192,108341,1,0,0:0:0:0:
192,192,108541,1,0,0:0:0:0:
64,192,108541,128,0,109341:0:0:0:0:
448,192,108541,128,0,109341:0:0:0:0:
320,192,108941,1,0,0:0:0:0:
192,192,109341,1,0,0:0:0:0:
320,192,109341,1,0,0:0:0:0:
64,192,109741,128,0,110541:0:0:0:0:
448,192,109741,128,0,110541:0:0:0:0:
192,192,110141,1,0,0:0:0:0:
192,192,110541,128,0,110941:0:0:0:0:
320,192,110541,128,0,110941:0:0:0:0:
64,192,110941,1,0,0:0:0:0:
448,192,110941,1,0,0:0:0:0:
192,192,111141,128,0,111341:0:0:0:0:
320,192,111141,128,0,111341:0:0:0:0:
64,192,111341,128,0,111741:0:0:0:0:
448,192,111341,128,0,111741:0:0:0:0:
192,192,111741,128,0,112541:0:0:0:0:
320,192,111741,128,0,112541:0:0:0:0:
448,192,112141,1,0,0:0:0:0:
64,192,112541,1,0,0:0:0:0:
448,192,112541,1,0,0:0:0:0:
192,192,112941,128,0,113741:0:0:0:0:
320,192,112941,128,0,113741:0:0:0:0:
64,192,113341,1,0,0:0:0:0:
64,192,113741,128,0,114141:0:0:0:0:
448,192,113741,128,0,114141:0:0:0:0:
192,192,114141,1,0,0:0:0:0:
320,192,114141,1,0,0:0:0:0:
64,192,114341,128,0,114541:0:0:0:0:
448,192,114341,128,0,114541:0:0:0:0:
192,192,114541,128,0,114941:0:0:0:0:
320,192,114541,128,0,114941:0:0:0:0:
64,192,114941,1,0,0:0:0:0:
448,192,114941,1,0,0:0:0:0:
192,192,115741,1,0,0:0:0:0:
320,192,115741,1,0,0:0:0:0:
192,192,116141,1,0,0:0:0:0:
320,192,116141,1,0,0:0:0:0:
64,192,116141,128,0,116941:0:0:0:0:
448,192,116141,128,0,116941:0:0:0:0:
320,192,116541,1,0,0:0:0:0:
192,192,116941,128,0,117341:0:0:0:0:
320,192,116941,128,0,117341:0:0:0:0:
64,192,117341,1,0,0:0:0:0:
448,192,117341,1,0,0:0:0:0:
192,192,117541,128,0,117741:0:0:0:0:
320,192,117541,128,0,117741:0:0:0:0:
64,192,117741,128,0,118141:0:0:0:0:
448,192,117741,128,0,118141:0:0:0:0:
192,192,118141,128,0,118941:0:0:0:0:
320,192,118141,128,0,118941:0:0:0:0:
64,192,118541,1,0,0:0:0:0:
64,192,118941,1,0,0:0:0:0:
448,192,118941,1,0,0:0:0:0:
192,192,119341,128,0,120141:0:0:0:0:
320,192,119341,128,0,120141:0:0:0:0:
448,192,119741,1,0,0:0:0:0:
64,192,120141,128,0,120541:0:0:0:0:
448,192,120141,128,0,120541:0:0:0:0:
192,192,120541,1,0,0:0:0:0:
320,192,120541,1,0,0:0:0:0:
64,192,120741,1,0,0:0:0:0:
448,192,120791,1,0,0:0:0:0:
192,192,120841,1,0,0:0:0:0:
320,192,120891,1,0,0:0:0:0:
64,192,120941,1,0,0:0:0:0:
448,192,120941,1,0,0:0:0:0:
192,192,121041,1,0,0:0:0:0:
320,192,121141,1,0,0:0:0:0:
64,192,121141,1,0,0:0:0:0:
448,192,121241,1,0,0:0:0:0:
320,192,121341,1,0,0:0:0:0:
64,192,121341,1,0,0:0:0:0:
192,192,121341,1,0,0:0:0:0:
448,192,121541,1,0,0:0:0:0:
192,192,121741,1,0,0:0:0:0:
320,192,121741,1,0,0:0:0:0:
64,192,121941,1,0,0:0:0:0:
448,192,122041,1,0,0:0:0:0:
192,192,122141,1,0,0:0:0:0:
320,192,122141,1,0,0:0:0:0:
448,192,122341,1,0,0:0:0:0:
192,192,122541,1,0,0:0:0:0:
320,192,122541,1,0,0:0:0:0:
64,192,122641,1,0,0:0:0:0:
64,192,122841,1,0,0:0:0:0:
192,192,122941,1,0,0:0:0:0:
320,192,122941,1,0,0:0:0:0:
448,192,123141,1,0,0:0:0:0:
192,192,123341,1,0,0:0:0:0:
320,192,123341,1,0,0:0:0:0:
64,192,123541,1,0,0:0:0:0:
448,192,123641,1,0,0:0:0:0:
192,192,123741,1,0,0:0:0:0:
320,192,123741,1,0,0:0:0:0:
448,192,123941,1,0,0:0:0:0:
192,192,124141,1,0,0:0:0:0:
320,192,124141,1,0,0:0:0:0:
448,192,124241,1,0,0:0:0:0:
64,192,124341,1,0,0:0:0:0:
448,192,124441,1,0,0:0:0:0:
192,192,124541,1,0,0:0:0:0:
320,192,124541,1,0,0:0:0:0:
192,192,124741,1,0,0:0:0:0:
448,192,124941,1,0,0:0:0:0:
64,192,124941,1,0,0:0:0:0:
64,192,125141,1,0,0:0:0:0:
320,192,125241,1,0,0:0:0:0:
448,192,125341,1,0,0:0:0:0:
64,192,125341,1,0,0:0:0:0:
320,192,125541,1,0,0:0:0:0:
448,192,125741,1,0,0:0:0:0:
64,192,125741,1,0,0:0:0:0:
192,192,125841,1,0,0:0:0:0:
192,192,126041,1,0,0:0:0:0:
64,192,126141,1,0,0:0:0:0:
448,192,126141,1,0,0:0:0:0:
320,192,126341,1,0,0:0:0:0:
448,192,126541,1,0,0:0:0:0:
64,192,126541,1,0,0:0:0:0:
192,192,126641,1,0,0:0:0:0:
320,192,126741,1,0,0:0:0:0:
192,192,126841,1,0,0:0:0:0:
448,192,126941,1,0,0:0:0:0:
64,192,126941,1,0,0:0:0:0:
320,192,127341,1,0,0:0:0:0:
320,192,127541,1,0,0:0:0:0:
64,192,127741,1,0,0:0:0:0:
448,192,127741,1,0,0:0:0:0:
192,192,127741,1,0,0:0:0:0:
320,192,127841,1,0,0:0:0:0:
448,192,127941,1,0,0:0:0:0:
64,192,128041,1,0,0:0:0:0:
192,192,128141,1,0,0:0:0:0:
320,192,128141,1,0,0:0:0:0:
448,192,128241,1,0,0:0:0:0:
320,192,128341,1,0,0:0:0:0:
192,192,128441,1,0,0:0:0:0:
64,192,128541,1,0,0:0:0:0:
448,192,128541,1,0,0:0:0:0:
320,192,128641,1,0,0:0:0:0:
448,192,128741,1,0,0:0:0:0:
64,192,128841,1,0,0:0:0:0:
192,192,128941,1,0,0:0:0:0:
320,192,128941,1,0,0:0:0:0:
448,192,129041,1,0,0:0:0:0:
320,192,129141,1,0,0:0:0:0:
192,192,129241,1,0,0:0:0:0:
448,192,129341,1,0,0:0:0:0:
64,192,129341,1,0,0:0:0:0:
320,192,129441,1,0,0:0:0:0:
192,192,129541,1,0,0:0:0:0:
64,192,129541,1,0,0:0:0:0:
448,192,129641,1,0,0:0:0:0:
192,192,129741,1,0,0:0:0:0:
320,192,129741,1,0,0:0:0:0:
64,192,129841,1,0,0:0:0:0:
448,192,129941,1,0,0:0:0:0:
192,192,129941,1,0,0:0:0:0:
320,192,130041,1,0,0:0:0:0:
448,192,130141,1,0,0:0:0:0:
64,192,130141,1,0,0:0:0:0:
192,192,130241,1,0,0:0:0:0:
320,192,130341,1,0,0:0:0:0:
448,192,130341,1,0,0:0:0:0:
64,192,130441,1,0,0:0:0:0:
320,192,130541,1,0,0:0:0:0:
192,192,130541,1,0,0:0:0:0:
448,192,130641,1,0,0:0:0:0:
192,192,130741,1,0,0:0:0:0:
64,192,130741,1,0,0:0:0:0:
320,192,130841,1,0,0:0:0:0:
448,192,130941,1,0,0:0:0:0:
64,192,130941,1,0,0:0:0:0:
192,192,131041,1,0,0:0:0:0:
320,192,131041,1,0,0:0:0:0:
448,192,131141,1,0,0:0:0:0:
64,192,131141,1,0,0:0:0:0:
192,192,131241,1,0,0:0:0:0:
320,192,131341,1,0,0:0:0:0:
448,192,131341,1,0,0:0:0:0:
64,192,131441,1,0,0:0:0:0:
192,192,131441,1,0,0:0:0:0:
320,192,131541,1,0,0:0:0:0:
448,192,131541,1,0,0:0:0:0:
192,192,131641,1,0,0:0:0:0:
448,192,131741,1,0,0:0:0:0:
64,192,131741,1,0,0:0:0:0:
192,192,131841,1,0,0:0:0:0:
320,192,131841,1,0,0:0:0:0:
448,192,131941,1,0,0:0:0:0:
64,192,131941,1,0,0:0:0:0:
192,192,132041,1,0,0:0:0:0:
320,192,132041,1,0,0:0:0:0:
448,192,132141,1,0,0:0:0:0:
64,192,132141,1,0,0:0:0:0:
192,192,132241,1,0,0:0:0:0:
320,192,132241,1,0,0:0:0:0:
448,192,132341,1,0,0:0:0:0:
64,192,132341,1,0,0:0:0:0:
320,192,132441,1,0,0:0:0:0:
64,192,132541,1,0,0:0:0:0:
448,192,132541,1,0,0:0:0:0:
192,192,132541,1,0,0:0:0:0:
448,192,132891,1,0,0:0:0:0:
320,192,133241,1,0,0:0:0:0:
192,192,133441,1,0,0:0:0:0:
192,192,133741,1,0,0:0:0:0:
64,192,133741,1,0,0:0:0:0:
320,192,133807,1,0,0:0:0:0:
448,192,133874,1,0,0:0:0:0:
192,192,133941,1,0,0:0:0:0:
320,192,134007,1,0,0:0:0:0:
64,192,134074,1,0,0:0:0:0:
192,192,134141,1,0,0:0:0:0:
320,192,134141,1,0,0:0:0:0:
448,192,134141,1,0,0:0:0:0:
320,192,134541,1,0,0:0:0:0:
192,192,134641,1,0,0:0:0:0:
320,192,134741,1,0,0:0:0:0:
192,192,134941,1,0,0:0:0:0:
192,192,135141,128,0,135541:0:0:0:0:
64,192,135741,1,0,0:0:0:0:
192,192,135741,1,0,0:0:0:0:
320,192,135741,1,0,0:0:0:0:
448,192,135741,1,0,0:0:0:0:
448,192,136141,1,0,0:0:0:0:
64,192,136241,1,0,0:0:0:0:
448,192,136341,1,0,0:0:0:0:
64,192,136541,1,0,0:0:0:0:
64,192,136741,128,0,137141:0:0:0:0:
64,192,137341,1,0,0:0:0:0:
320,192,137341,1,0,0:0:0:0:
448,192,137341,1,0,0:0:0:0:
192,192,137341,1,0,0:0:0:0:
320,192,137541,1,0,0:0:0:0:
192,192,137641,1,0,0:0:0:0:
448,192,137741,1,0,0:0:0:0:
64,192,137841,1,0,0:0:0:0:
320,192,137941,1,0,0:0:0:0:
192,192,138041,1,0,0:0:0:0:
320,192,138141,1,0,0:0:0:0:
448,192,138141,1,0,0:0:0:0:
64,192,138207,1,0,0:0:0:0:
192,192,138274,1,0,0:0:0:0:
320,192,138341,1,0,0:0:0:0:
448,192,138407,1,0,0:0:0:0:
320,192,138474,1,0,0:0:0:0:
64,192,138541,1,0,0:0:0:0:
192,192,138541,1,0,0:0:0:0:
448,192,138607,1,0,0:0:0:0:
320,192,138674,1,0,0:0:0:0:
192,192,138741,1,0,0:0:0:0:
64,192,138807,1,0,0:0:0:0:
192,192,138874,1,0,0:0:0:0:
320,192,138941,1,0,0:0:0:0:
448,192,138941,1,0,0:0:0:0:
64,192,139141,1,0,0:0:0:0:
448,192,139141,1,0,0:0:0:0:
320,192,139241,1,0,0:0:0:0:
192,192,139241,1,0,0:0:0:0:
64,192,139341,1,0,0:0:0:0:
448,192,139341,1,0,0:0:0:0:
64,192,139541,1,0,0:0:0:0:
192,192,139541,1,0,0:0:0:0:
320,192,139541,1,0,0:0:0:0:
448,192,139741,1,0,0:0:0:0:
320,192,139741,1,0,0:0:0:0:
192,192,139741,1,0,0:0:0:0:
64,192,140141,1,0,0:0:0:0:
448,192,140141,1,0,0:0:0:0:
320,192,140207,1,0,0:0:0:0:
192,192,140274,1,0,0:0:0:0:
64,192,140341,1,0,0:0:0:0:
192,192,140407,1,0,0:0:0:0:
320,192,140474,1,0,0:0:0:0:
192,192,140541,1,0,0:0:0:0:
64,192,140541,1,0,0:0:0:0:
448,192,140541,1,0,0:0:0:0:
320,192,140741,1,0,0:0:0:0:
64,192,140841,1,0,0:0:0:0:
192,192,140941,1,0,0:0:0:0:
320,192,140941,1,0,0:0:0:0:
448,192,140941,128,0,141341:0:0:0:0:
320,192,141341,1,0,0:0:0:0:
192,192,141341,1,0,0:0:0:0:
64,192,141341,1,0,0:0:0:0:
448,192,141541,1,0,0:0:0:0:
192,192,141641,1,0,0:0:0:0:
64,192,141741,1,0,0:0:0:0:
320,192,141741,1,0,0:0:0:0:
448,192,141741,1,0,0:0:0:0:
64,192,141941,1,0,0:0:0:0:
192,192,141941,1,0,0:0:0:0:
320,192,142041,1,0,0:0:0:0:
64,192,142141,1,0,0:0:0:0:
192,192,142141,1,0,0:0:0:0:
448,192,142141,1,0,0:0:0:0:
64,192,142341,1,0,0:0:0:0:
320,192,142341,1,0,0:0:0:0:
448,192,142341,1,0,0:0:0:0:
192,192,142541,1,0,0:0:0:0:
64,192,142541,1,0,0:0:0:0:
64,192,142741,1,0,0:0:0:0:
320,192,142941,1,0,0:0:0:0:
192,192,143041,1,0,0:0:0:0:
320,192,143141,1,0,0:0:0:0:
192,192,143241,1,0,0:0:0:0:
320,192,143341,1,0,0:0:0:0:
448,192,143341,1,0,0:0:0:0:
64,192,143441,1,0,0:0:0:0:
192,192,143541,1,0,0:0:0:0:
320,192,143641,1,0,0:0:0:0:
192,192,143741,1,0,0:0:0:0:
448,192,143741,1,0,0:0:0:0:
64,192,143958,128,0,144175:0:0:0:0:
320,192,143958,128,0,144175:0:0:0:0:
192,192,144175,1,0,0:0:0:0:
448,192,144175,1,0,0:0:0:0:
64,192,144393,128,0,144610:0:0:0:0:
320,192,144393,128,0,144610:0:0:0:0:
192,192,144610,128,0,145262:0:0:0:0:
448,192,144610,128,0,145262:0:0:0:0:
64,192,145045,1,0,0:0:0:0:
320,192,145045,1,0,0:0:0:0:
192,192,145480,1,0,0:0:0:0:
448,192,145480,1,0,0:0:0:0:
64,192,145707,128,0,145934:0:0:0:0:
320,192,145707,128,0,145934:0:0:0:0:
192,192,145934,1,0,0:0:0:0:
448,192,145934,1,0,0:0:0:0:
64,192,146161,128,0,146389:0:0:0:0:
320,192,146161,128,0,146389:0:0:0:0:
192,192,146389,128,0,147113:0:0:0:0:
448,192,146389,128,0,147113:0:0:0:0:
64,192,146866,1,0,0:0:0:0:
320,192,146866,1,0,0:0:0:0:
64,192,147113,1,0,0:0:0:0:
320,192,147113,1,0,0:0:0:0:
192,192,147361,1,0,0:0:0:0:
448,192,147362,1,0,0:0:0:0:
64,192,147622,128,0,147883:0:0:0:0:
320,192,147622,128,0,147883:0:0:0:0:
192,192,147883,1,0,0:0:0:0:
448,192,147883,1,0,0:0:0:0:
64,192,148155,128,0,148428:0:0:0:0:
320,192,148155,128,0,148429:0:0:0:0:
448,192,148428,128,0,149300:0:0:0:0:
192,192,148428,128,0,149300:0:0:0:0:
64,192,149000,1,0,0:0:0:0:
320,192,149000,1,0,0:0:0:0:
192,192,149600,1,0,0:0:0:0:
448,192,149600,1,0,0:0:0:0:
64,192,149915,128,0,150231:0:0:0:0:
320,192,149915,128,0,150231:0:0:0:0:
192,192,150232,1,0,0:0:0:0:
448,192,150232,1,0,0:0:0:0:
64,192,150565,128,0,150898:0:0:0:0:
320,192,150565,128,0,150898:0:0:0:0:
192,192,150898,128,0,151979:0:0:0:0:
448,192,150898,128,0,151979:0:0:0:0:
64,192,151604,1,0,0:0:0:0:
320,192,151604,1,0,0:0:0:0:
320,192,151979,1,0,0:0:0:0:
64,192,151979,1,0,0:0:0:0:
64,192,152354,1,0,0:0:0:0:
192,192,152354,1,0,0:0:0:0:
320,192,152354,1,0,0:0:0:0:
448,192,152354,1,0,0:0:0:0:
320,192,158026,5,0,0:0:0:0:
192,192,158093,1,0,0:0:0:0:
320,192,158160,1,0,0:0:0:0:
192,192,158227,1,0,0:0:0:0:
448,192,158295,1,0,0:0:0:0:
64,192,158362,1,0,0:0:0:0:
320,192,158429,1,0,0:0:0:0:
192,192,158528,1,0,0:0:0:0:
64,192,158528,1,0,0:0:0:0:
448,192,158627,1,0,0:0:0:0:
64,192,158726,1,0,0:0:0:0:
192,192,158726,1,0,0:0:0:0:
320,192,158827,128,0,164509:0:0:0:0:
192,192,158827,128,0,164509:0:0:0:0:
64,192,158827,128,0,164509:0:0:0:0:
448,192,158827,128,0,164509:0:0:0:0:
64,192,167630,1,0,0:0:0:0:
192,192,167630,1,0,0:0:0:0:
320,192,167630,1,0,0:0:0:0:
448,192,167630,1,0,0:0:0:0:
320,192,172243,128,0,172723:0:0:0:0:
192,192,172723,1,0,0:0:0:0:
448,192,172783,1,0,0:0:0:0:
64,192,172843,1,0,0:0:0:0:
320,192,172903,1,0,0:0:0:0:
192,192,172963,1,0,0:0:0:0:
448,192,173023,1,0,0:0:0:0:
64,192,173083,1,0,0:0:0:0:
320,192,173143,1,0,0:0:0:0:
64,192,173203,1,0,0:0:0:0:
192,192,173203,1,0,0:0:0:0:
448,192,173203,1,0,0:0:0:0:
448,192,173443,1,0,0:0:0:0:
64,192,173443,1,0,0:0:0:0:
320,192,173443,1,0,0:0:0:0:
64,192,173563,1,0,0:0:0:0:
448,192,173563,1,0,0:0:0:0:
320,192,173563,1,0,0:0:0:0:
320,192,173683,1,0,0:0:0:0:
192,192,173683,1,0,0:0:0:0:
64,192,173683,1,0,0:0:0:0:
64,192,173803,1,0,0:0:0:0:
320,192,173803,1,0,0:0:0:0:
192,192,173803,1,0,0:0:0:0:
192,192,173927,1,0,0:0:0:0:
320,192,173927,1,0,0:0:0:0:
448,192,173927,1,0,0:0:0:0:
64,192,174043,1,0,0:0:0:0:
448,192,174043,1,0,0:0:0:0:
192,192,174103,1,0,0:0:0:0:
320,192,174103,1,0,0:0:0:0:
64,192,174163,1,0,0:0:0:0:
448,192,174163,1,0,0:0:0:0:
64,192,174283,1,0,0:0:0:0:
320,192,174283,1,0,0:0:0:0:
192,192,174283,1,0,0:0:0:0:
64,192,174403,1,0,0:0:0:0:
320,192,174403,1,0,0:0:0:0:
192,192,174403,1,0,0:0:0:0:
320,192,174523,1,0,0:0:0:0:
448,192,174523,1,0,0:0:0:0:
192,192,174523,1,0,0:0:0:0:
64,192,174643,1,0,0:0:0:0:
448,192,174643,1,0,0:0:0:0:
192,192,174703,1,0,0:0:0:0:
320,192,174763,1,0,0:0:0:0:
448,192,174823,1,0,0:0:0:0:
64,192,174883,1,0,0:0:0:0:
192,192,174883,1,0,0:0:0:0:
192,192,175003,1,0,0:0:0:0:
320,192,175003,1,0,0:0:0:0:
64,192,175123,1,0,0:0:0:0:
320,192,175123,1,0,0:0:0:0:
448,192,175123,1,0,0:0:0:0:
64,192,175363,1,0,0:0:0:0:
192,192,175363,1,0,0:0:0:0:
320,192,175363,1,0,0:0:0:0:
64,192,175483,1,0,0:0:0:0:
192,192,175483,1,0,0:0:0:0:
320,192,175483,1,0,0:0:0:0:
192,192,175603,1,0,0:0:0:0:
320,192,175603,1,0,0:0:0:0:
448,192,175603,1,0,0:0:0:0:
192,192,175727,1,0,0:0:0:0:
320,192,175727,1,0,0:0:0:0:
448,192,175727,1,0,0:0:0:0:
64,192,175843,1,0,0:0:0:0:
448,192,175843,1,0,0:0:0:0:
192,192,175903,1,0,0:0:0:0:
320,192,175903,1,0,0:0:0:0:
64,192,175963,1,0,0:0:0:0:
448,192,175963,1,0,0:0:0:0:
64,192,176083,1,0,0:0:0:0:
192,192,176083,1,0,0:0:0:0:
320,192,176083,1,0,0:0:0:0:
448,192,176323,128,0,176563:0:0:0:0:
192,192,176323,1,0,0:0:0:0:
64,192,176563,1,0,0:0:0:0:
192,192,176623,1,0,0:0:0:0:
448,192,176683,1,0,0:0:0:0:
320,192,176723,1,0,0:0:0:0:
192,192,176763,1,0,0:0:0:0:
64,192,176803,1,0,0:0:0:0:
320,192,176863,1,0,0:0:0:0:
192,192,176923,1,0,0:0:0:0:
320,192,176983,1,0,0:0:0:0:
448,192,177043,1,0,0:0:0:0:
64,192,177043,1,0,0:0:0:0:
64,192,177283,1,0,0:0:0:0:
192,192,177283,1,0,0:0:0:0:
448,192,177283,1,0,0:0:0:0:
64,192,177403,1,0,0:0:0:0:
192,192,177403,1,0,0:0:0:0:
448,192,177403,1,0,0:0:0:0:
448,192,177523,1,0,0:0:0:0:
320,192,177523,1,0,0:0:0:0:
64,192,177523,1,0,0:0:0:0:
64,192,177643,1,0,0:0:0:0:
320,192,177643,1,0,0:0:0:0:
448,192,177643,1,0,0:0:0:0:
192,192,177763,1,0,0:0:0:0:
64,192,177763,1,0,0:0:0:0:
320,192,177763,1,0,0:0:0:0:
192,192,177883,1,0,0:0:0:0:
64,192,177883,1,0,0:0:0:0:
320,192,177883,1,0,0:0:0:0:
192,192,178003,1,0,0:0:0:0:
320,192,178003,1,0,0:0:0:0:
448,192,178003,1,0,0:0:0:0:
64,192,178243,1,0,0:0:0:0:
192,192,178283,1,0,0:0:0:0:
320,192,178323,1,0,0:0:0:0:
448,192,178363,1,0,0:0:0:0:
64,192,178403,1,0,0:0:0:0:
192,192,178443,1,0,0:0:0:0:
448,192,178483,1,0,0:0:0:0:
320,192,178483,1,0,0:0:0:0:
192,192,178603,1,0,0:0:0:0:
320,192,178663,1,0,0:0:0:0:
64,192,178723,1,0,0:0:0:0:
448,192,178723,128,0,178843:0:0:0:0:
320,192,178843,128,0,178963:0:0:0:0:
64,192,178963,1,0,0:0:0:0:
192,192,178963,1,0,0:0:0:0:
448,192,178963,1,0,0:0:0:0:
320,192,179203,1,0,0:0:0:0:
192,192,179263,1,0,0:0:0:0:
320,192,179323,1,0,0:0:0:0:
192,192,179383,1,0,0:0:0:0:
448,192,179443,1,0,0:0:0:0:
320,192,179483,1,0,0:0:0:0:
192,192,179523,1,0,0:0:0:0:
64,192,179563,1,0,0:0:0:0:
448,192,179603,1,0,0:0:0:0:
320,192,179643,1,0,0:0:0:0:
64,192,179683,1,0,0:0:0:0:
192,192,179713,1,0,0:0:0:0:
320,192,179743,1,0,0:0:0:0:
448,192,179773,1,0,0:0:0:0:
64,192,179803,1,0,0:0:0:0:
192,192,179833,1,0,0:0:0:0:
320,192,179863,1,0,0:0:0:0:
448,192,179893,1,0,0:0:0:0:
64,192,179923,1,0,0:0:0:0:
192,192,179923,1,0,0:0:0:0:
64,192,180403,1,0,0:0:0:0:
192,192,180523,1,0,0:0:0:0:
320,192,180643,1,0,0:0:0:0:
448,192,180763,1,0,0:0:0:0:
448,192,180883,1,0,0:0:0:0:
320,192,180883,1,0,0:0:0:0:
192,192,180883,1,0,0:0:0:0:
64,192,180883,1,0,0:0:0:0:
320,192,181123,1,0,0:0:0:0:
192,192,181123,1,0,0:0:0:0:
64,192,181123,1,0,0:0:0:0:
64,192,181243,1,0,0:0:0:0:
320,192,181243,1,0,0:0:0:0:
192,192,181243,1,0,0:0:0:0:
448,192,181363,1,0,0:0:0:0:
320,192,181363,1,0,0:0:0:0:
192,192,181363,1,0,0:0:0:0:
448,192,181483,1,0,0:0:0:0:
320,192,181483,1,0,0:0:0:0:
192,192,181483,1,0,0:0:0:0:
192,192,181603,1,0,0:0:0:0:
64,192,181603,1,0,0:0:0:0:
320,192,181603,1,0,0:0:0:0:
64,192,181723,1,0,0:0:0:0:
320,192,181723,1,0,0:0:0:0:
192,192,181723,1,0,0:0:0:0:
448,192,181843,1,0,0:0:0:0:
320,192,181903,1,0,0:0:0:0:
192,192,181963,1,0,0:0:0:0:
64,192,181963,1,0,0:0:0:0:
64,192,182083,1,0,0:0:0:0:
192,192,182143,1,0,0:0:0:0:
320,192,182203,1,0,0:0:0:0:
448,192,182203,1,0,0:0:0:0:
64,192,182323,1,0,0:0:0:0:
192,192,182323,1,0,0:0:0:0:
320,192,182443,1,0,0:0:0:0:
192,192,182503,1,0,0:0:0:0:
448,192,182563,128,0,182803:0:0:0:0:
320,192,182563,1,0,0:0:0:0:
192,192,182803,128,0,183283:0:0:0:0:
64,192,182803,128,0,183283:0:0:0:0:
320,192,182803,1,0,0:0:0:0:
320,192,183283,1,0,0:0:0:0:
448,192,183283,1,0,0:0:0:0:
192,192,183343,1,0,0:0:0:0:
64,192,183343,1,0,0:0:0:0:
448,192,183403,1,0,0:0:0:0:
320,192,183403,1,0,0:0:0:0:
64,192,183463,1,0,0:0:0:0:
192,192,183463,1,0,0:0:0:0:
448,192,183523,1,0,0:0:0:0:
320,192,183523,1,0,0:0:0:0:
64,192,183583,1,0,0:0:0:0:
192,192,183583,1,0,0:0:0:0:
320,192,183643,1,0,0:0:0:0:
448,192,183643,1,0,0:0:0:0:
64,192,183703,1,0,0:0:0:0:
192,192,183703,1,0,0:0:0:0:
448,192,183763,1,0,0:0:0:0:
320,192,183793,1,0,0:0:0:0:
192,192,183823,1,0,0:0:0:0:
64,192,184003,1,0,0:0:0:0:
192,192,184033,1,0,0:0:0:0:
320,192,184063,1,0,0:0:0:0:
448,192,184243,128,0,184363:0:0:0:0:
320,192,184363,128,0,184483:0:0:0:0:
192,192,184483,128,0,184723:0:0:0:0:
64,192,184723,1,0,0:0:0:0:
320,192,184723,1,0,0:0:0:0:
448,192,184723,1,0,0:0:0:0:
192,192,184843,1,0,0:0:0:0:
64,192,184843,1,0,0:0:0:0:
448,192,184843,1,0,0:0:0:0:
64,192,184963,1,0,0:0:0:0:
192,192,184963,1,0,0:0:0:0:
320,192,184963,1,0,0:0:0:0:
192,192,185083,1,0,0:0:0:0:
320,192,185083,1,0,0:0:0:0:
448,192,185083,1,0,0:0:0:0:
320,192,185203,1,0,0:0:0:0:
448,192,185203,1,0,0:0:0:0:
64,192,185203,1,0,0:0:0:0:
192,192,185323,1,0,0:0:0:0:
64,192,185323,1,0,0:0:0:0:
448,192,185323,1,0,0:0:0:0:
64,192,185443,1,0,0:0:0:0:
320,192,185443,1,0,0:0:0:0:
192,192,185443,1,0,0:0:0:0:
320,192,185563,1,0,0:0:0:0:
448,192,185563,1,0,0:0:0:0:
192,192,185623,1,0,0:0:0:0:
64,192,185683,1,0,0:0:0:0:
320,192,185683,1,0,0:0:0:0:
192,192,185743,1,0,0:0:0:0:
320,192,185803,1,0,0:0:0:0:
448,192,185803,1,0,0:0:0:0:
64,192,185923,1,0,0:0:0:0:
192,192,185923,1,0,0:0:0:0:
320,192,185983,1,0,0:0:0:0:
448,192,186043,1,0,0:0:0:0:
192,192,186043,1,0,0:0:0:0:
64,192,186163,1,0,0:0:0:0:
448,192,186163,1,0,0:0:0:0:
320,192,186223,1,0,0:0:0:0:
192,192,186283,1,0,0:0:0:0:
320,192,186343,1,0,0:0:0:0:
64,192,186403,1,0,0:0:0:0:
192,192,186463,1,0,0:0:0:0:
320,192,186523,1,0,0:0:0:0:
192,192,186583,1,0,0:0:0:0:
64,192,186643,128,0,187123:0:0:0:0:
448,192,186643,1,0,0:0:0:0:
320,192,186763,1,0,0:0:0:0:
448,192,186883,1,0,0:0:0:0:
192,192,186883,1,0,0:0:0:0:
448,192,187003,1,0,0:0:0:0:
320,192,187003,1,0,0:0:0:0:
192,192,187123,128,0,187363:0:0:0:0:
320,192,187243,1,0,0:0:0:0:
448,192,187243,1,0,0:0:0:0:
448,192,187363,1,0,0:0:0:0:
64,192,187363,128,0,187603:0:0:0:0:
192,192,187603,1,0,0:0:0:0:
448,192,187603,128,0,188083:0:0:0:0:
320,192,187723,1,0,0:0:0:0:
64,192,187843,1,0,0:0:0:0:
192,192,187843,1,0,0:0:0:0:
192,192,187963,1,0,0:0:0:0:
320,192,188083,128,0,188563:0:0:0:0:
64,192,188083,1,0,0:0:0:0:
64,192,188563,1,0,0:0:0:0:
192,192,188563,1,0,0:0:0:0:
448,192,188563,1,0,0:0:0:0:
320,192,188803,128,0,188923:0:0:0:0:
192,192,188923,128,0,189043:0:0:0:0:
448,192,189043,1,0,0:0:0:0:
320,192,189083,1,0,0:0:0:0:
64,192,189123,1,0,0:0:0:0:
192,192,189163,1,0,0:0:0:0:
448,192,189203,1,0,0:0:0:0:
320,192,189243,1,0,0:0:0:0:
64,192,189283,1,0,0:0:0:0:
192,192,189323,1,0,0:0:0:0:
448,192,189363,1,0,0:0:0:0:
320,192,189403,1,0,0:0:0:0:
64,192,189443,1,0,0:0:0:0:
192,192,189483,1,0,0:0:0:0:
448,192,189523,1,0,0:0:0:0:
320,192,189563,1,0,0:0:0:0:
64,192,189603,1,0,0:0:0:0:
192,192,189643,1,0,0:0:0:0:
448,192,189683,1,0,0:0:0:0:
320,192,189723,1,0,0:0:0:0:
64,192,189763,1,0,0:0:0:0:
192,192,189803,1,0,0:0:0:0:
448,192,189843,128,0,191623:0:0:0:0:
320,192,189963,128,0,191503:0:0:0:0:
192,192,190083,128,0,191323:0:0:0:0:
64,192,190203,128,0,191143:0:0:0:0:
64,192,191263,128,0,193603:0:0:0:0:
192,192,191443,128,0,193363:0:0:0:0:
320,192,191623,128,0,193123:0:0:0:0:
448,192,191743,128,0,192883:0:0:0:0:
448,192,193603,1,0,0:0:0:0:
320,192,193663,1,0,0:0:0:0:
192,192,193723,1,0,0:0:0:0:
64,192,193783,1,0,0:0:0:0:
448,192,193843,1,0,0:0:0:0:
320,192,193903,1,0,0:0:0:0:
192,192,193963,1,0,0:0:0:0:
64,192,194023,1,0,0:0:0:0:
320,192,194083,1,0,0:0:0:0:
192,192,194143,1,0,0:0:0:0:
320,192,194203,1,0,0:0:0:0:
192,192,194263,1,0,0:0:0:0:
64,192,194323,1,0,0:0:0:0:
320,192,194323,1,0,0:0:0:0:
448,192,194323,1,0,0:0:0:0:
320,192,199123,128,0,199603:0:0:0:0:
64,192,199603,1,0,0:0:0:0:
448,192,199663,1,0,0:0:0:0:
192,192,199723,1,0,0:0:0:0:
320,192,199783,1,0,0:0:0:0:
64,192,199843,1,0,0:0:0:0:
448,192,199903,1,0,0:0:0:0:
192,192,199963,1,0,0:0:0:0:
320,192,200023,1,0,0:0:0:0:
64,192,200078,1,0,0:0:0:0:
192,192,200198,1,0,0:0:0:0:
320,192,200318,1,0,0:0:0:0:
448,192,200438,1,0,0:0:0:0:
64,192,200558,1,0,0:0:0:0:
192,192,200678,1,0,0:0:0:0:
320,192,200798,1,0,0:0:0:0:
448,192,200918,1,0,0:0:0:0:
64,192,201038,1,0,0:0:0:0:
192,192,201158,1,0,0:0:0:0:
320,192,201278,1,0,0:0:0:0:
448,192,201398,1,0,0:0:0:0:
64,192,201518,1,0,0:0:0:0:
192,192,201638,1,0,0:0:0:0:
320,192,201758,1,0,0:0:0:0:
448,192,201878,1,0,0:0:0:0:
64,192,201998,1,0,0:0:0:0:
192,192,202118,1,0,0:0:0:0:
320,192,202238,1,0,0:0:0:0:
448,192,202358,1,0,0:0:0:0:
64,192,202478,1,0,0:0:0:0:
192,192,202598,1,0,0:0:0:0:
320,192,202718,1,0,0:0:0:0:
448,192,202838,1,0,0:0:0:0:
64,192,202958,1,0,0:0:0:0:
192,192,203078,1,0,0:0:0:0:
320,192,203198,1,0,0:0:0:0:
448,192,203318,1,0,0:0:0:0:
64,192,203438,1,0,0:0:0:0:
192,192,203558,1,0,0:0:0:0:
320,192,203678,1,0,0:0:0:0:
448,192,203798,1,0,0:0:0:0:
64,192,203918,1,0,0:0:0:0:
192,192,204038,1,0,0:0:0:0:
320,192,204158,1,0,0:0:0:0:
448,192,204278,1,0,0:0:0:0:
64,192,204398,1,0,0:0:0:0:
192,192,204518,1,0,0:0:0:0:
320,192,204638,1,0,0:0:0:0:
448,192,204758,1,0,0:0:0:0:
64,192,204878,1,0,0:0:0:0:
192,192,204998,1,0,0:0:0:0:
320,192,205118,1,0,0:0:0:0:
448,192,205238,1,0,0:0:0:0:
64,192,205358,1,0,0:0:0:0:
192,192,205478,1,0,0:0:0:0:
320,192,205598,1,0,0:0:0:0:
448,192,205718,1,0,0:0:0:0:
64,192,205836,128,0,206854:0:0:0:0:
192,192,205836,1,0,0:0:0:0:
448,192,206854,1,0,0:0:0:0:
192,192,206914,1,0,0:0:0:0:
320,192,206973,1,0,0:0:0:0:
64,192,207033,1,0,0:0:0:0:
320,192,207093,1,0,0:0:0:0:
192,192,207153,1,0,0:0:0:0:
448,192,207213,1,0,0:0:0:0:
192,192,207273,1,0,0:0:0:0:
320,192,207333,1,0,0:0:0:0:
64,192,207393,1,0,0:0:0:0:
320,192,207452,1,0,0:0:0:0:
192,192,207512,1,0,0:0:0:0:
448,192,207572,1,0,0:0:0:0:
192,192,207632,1,0,0:0:0:0:
320,192,207692,1,0,0:0:0:0:
64,192,207782,1,0,0:0:0:0:
192,192,207962,1,0,0:0:0:0:
320,192,208232,1,0,0:0:0:0:
448,192,208681,1,0,0:0:0:0:
64,192,209191,5,0,0:0:0:0:
192,192,209191,1,0,0:0:0:0:
320,192,209191,1,0,0:0:0:0:
448,192,209191,1,0,0:0:0:0:
