osu file format v14

[General]
AudioFilename: audio.mp3
AudioLeadIn: 0
PreviewTime: 93440
Countdown: 0
SampleSet: Normal
StackLeniency: 0.7
Mode: 1
LetterboxInBreaks: 0
WidescreenStoryboard: 1

[Editor]
Bookmarks: 12689,22794,43003,48093,53106,63213,83424,93529,113739,133950
DistanceSpacing: 0.1
BeatDivisor: 8
GridSize: 32
TimelineZoom: 3

[Metadata]
Title:Sound Chimera
TitleUnicode:Sound Chimera
Artist:Laur
ArtistUnicode:Laur
Creator:komasy
Version:Oni
Source:WACCA
Tags:Short Version Ver Electronic Instrumental J-Core Hardcore Rhythm Video Game World Music Psytrance Frenchcore The Angel's Message TANO*C
BeatmapID:2302368
BeatmapSetID:1080215

[Difficulty]
HPDrainRate:5.5
CircleSize:7
OverallDifficulty:5.5
ApproachRate:10
SliderMultiplier:1.4
SliderTickRate:1

[Events]
//Background and Video events
0,0,"bg.jpg",0,100
//Break Periods
//Storyboard Layer 0 (Background)
//Storyboard Layer 1 (Fail)
//Storyboard Layer 2 (Pass)
//Storyboard Layer 3 (Foreground)
//Storyboard Layer 4 (Overlay)
//Storyboard Sound Samples

[TimingPoints]
46,315.789473684211,4,1,0,10,1,0
46,-111.111111111111,4,1,0,10,0,0
2493,-125,4,1,0,60,0,0
12598,-111.111111111111,4,1,0,70,0,0
22703,-100,4,1,0,80,0,0
22861,-125,4,1,0,60,0,0
35533,-123.687673781182,4,1,0,51,0,0
35691,-122.388984012327,4,1,0,52,0,0
35849,-121.104081691969,4,1,0,53,0,0
36006,-119.832522067159,4,1,0,54,0,0
36164,-118.574450525996,4,1,0,55,0,0
36322,-117.329578786812,4,1,0,56,0,0
36480,-116.097768252601,4,1,0,57,0,0
36638,-114.878751222023,4,1,0,58,0,0
36796,-113.672661383919,4,1,0,59,0,0
36875,-112.479233521511,4,1,0,60,0,0
37112,-111.298339651369,4,1,0,63,0,0
37270,-110.129732825268,4,1,0,66,0,0
37349,-108.973534687366,4,1,0,69,0,0
37428,-107.829383722723,4,1,0,72,0,0
37585,-106.697281673355,4,1,0,75,0,0
37743,-105.577110882361,4,1,0,78,0,0
37901,-104.468646347515,4,1,0,80,0,0
38217,-103.371780744318,4,1,0,80,0,0
38375,-102.286512705008,4,1,0,80,0,0
38533,-101.212628502083,4,1,0,80,0,0
38691,-100.150024737056,4,1,0,80,0,0
38849,-99.0985009369763,4,1,0,80,0,0
39006,-98.058058215108,4,1,0,80,0,0
39164,-97.0285962678921,4,1,0,85,0,0
39322,-96.009831406736,4,1,0,85,0,0
39401,-95.00185728631,4,1,0,85,0,0
39480,-94.0043994058922,4,1,0,85,0,0
39638,-93.0174584467759,4,1,0,85,0,0
39796,-92.0408587780287,4,1,0,85,0,0
39954,-91.0745153469666,4,1,0,85,0,0
40033,-90.1183434085641,4,1,0,85,0,0
40112,-89.1721789935314,4,1,0,85,0,0
40270,-88.2359429113449,4,1,0,85,0,0
40428,-87.3095560309076,4,1,0,90,0,0
40507,-86.3929392778587,4,1,0,90,0,0
40585,-85.4858674763888,4,1,0,90,0,0
40664,-84.5883423730075,4,1,0,90,0,0
40743,-83.7002893519003,4,1,0,90,0,0
40901,-82.8214964850557,4,1,0,90,0,0
41059,-81.9519646754251,4,1,0,90,0,0
41138,-81.0915572336102,4,1,0,90,0,0
41217,-80.2401426990698,4,1,0,90,0,0
41296,-79.3977206502356,4,1,0,90,0,0
41375,-78.5640996632743,4,1,0,90,0,0
41533,-77.7392795590006,4,1,0,90,0,0
41691,-76.9230769230769,4,1,0,90,0,0
41808,-90.9090909090909,4,1,0,80,0,0
42914,-100,4,1,0,60,0,0
51834,-100,4,1,0,60,0,0
52465,-109.89010989011,4,1,0,60,0,0
52676,-106.382978723404,4,1,0,60,0,0
52886,-103.092783505155,4,1,0,60,0,0
53097,-100,4,1,0,70,0,0
61900,-100,4,1,0,50,0,0
62256,-100,4,1,0,30,0,0
62572,-100,4,1,0,15,0,0
63124,-100,4,1,0,80,0,0
73229,-100,4,1,0,90,0,0
83493,-125,4,1,0,50,0,0
86060,-123.628343528551,4,1,0,51,0,0
86218,-122.271660730378,4,1,0,52,0,0
86376,-120.929951325695,4,1,0,53,0,0
86534,-119.602918311207,4,1,0,54,0,0
86692,-118.290419540631,4,1,0,55,0,0
86850,-116.992314774842,4,1,0,56,0,0
87008,-115.708465578467,4,1,0,57,0,0
87165,-114.438735223098,4,1,0,58,0,0
87323,-113.182988596814,4,1,0,59,0,0
87402,-111.940841504082,4,1,0,60,0,0
87639,-110.712545945707,4,1,0,63,0,0
87797,-109.497603097468,4,1,0,66,0,0
87876,-108.296016331039,4,1,0,69,0,0
87955,-107.107549904085,4,1,0,71,0,0
88113,-105.932203389831,4,1,0,74,0,0
88271,-104.769747525862,4,1,0,77,0,0
88429,-103.620070793232,4,1,0,80,0,0
88586,-102.482957084237,4,1,0,80,0,0
88744,-101.35840534848,4,1,0,80,0,0
89060,-100.246104185776,4,1,0,80,0,0
89218,-99.1460550280435,4,1,0,80,0,0
89376,-98.058058215108,4,1,0,80,0,0
89455,-96.9820166246573,4,1,0,80,0,0
89534,-95.9177409453653,4,1,0,80,0,0
89692,-94.8652297114105,4,1,0,85,0,0
89850,-93.8242090853735,4,1,0,85,0,0
90008,-92.7945926734957,4,1,0,85,0,0
90323,-91.7762934491917,4,1,0,85,0,0
90481,-90.7692237869828,4,1,0,85,0,0
90639,-89.7731343122794,4,1,0,85,0,0
90718,-88.7880256917031,4,1,0,85,0,0
90797,-87.813659414722,4,1,0,85,0,0
90955,-86.850036042765,4,1,0,90,0,0
91113,-85.8970009062134,4,1,0,90,0,0
91192,-84.9544049708521,4,1,0,90,0,0
91271,-84.0221045352611,4,1,0,90,0,0
91429,-83.1000990553181,4,1,0,90,0,0
91586,-82.1881780524689,4,1,0,90,0,0
91665,-81.2862739997724,4,1,0,90,0,0
91744,-80.3942534187656,4,1,0,90,0,0
91823,-79.5120504488058,4,1,0,90,0,0
91902,-78.6395360267374,4,1,0,90,0,0
92060,-77.7765852034713,4,1,0,90,0,0
92218,-76.9230769230769,4,1,0,90,0,0
92335,-90.9090909090909,4,1,0,80,0,0
93440,-100,4,1,0,90,0,0
93519,-100,4,1,0,90,0,1
97309,-100,4,1,0,90,0,0
97387,-95.2380952380952,4,1,0,80,0,0
97940,-97.5609756097561,4,1,0,80,0,0
98493,-100,4,1,0,90,0,0
98572,-100,4,1,0,90,0,1
102361,-100,4,1,0,90,0,0
103624,-90.9090909090909,4,1,0,90,0,1
107414,-90.9090909090909,4,1,0,90,0,0
107493,-50,4,1,0,70,0,0
108598,-90.9090909090909,4,1,0,90,0,0
108677,-90.9090909090909,4,1,0,90,0,1
112467,-90.9090909090909,4,1,0,90,0,0
113650,-100,4,1,0,80,0,0
123756,-100,4,1,0,90,0,0
133861,-125,4,1,0,70,0,0
133979,-50,4,1,0,20,0,0
134572,-50,4,1,0,15,0,0
135203,-76.9230769230769,4,1,0,10,0,0
135835,-111.111111111111,4,1,0,5,0,0
137729,-166.666666666667,4,1,0,5,0,0

[HitObjects]
160,288,2572,5,4,0:0:0:0:
352,96,2888,1,8,0:0:0:0:
160,96,3046,1,0,0:0:0:0:
352,96,3519,1,8,0:0:0:0:
160,96,3677,1,0,0:0:0:0:
352,96,4151,1,8,0:0:0:0:
160,96,4309,1,0,0:0:0:0:
160,96,4624,1,0,0:0:0:0:
352,96,4782,1,8,0:0:0:0:
160,96,5098,1,0,0:0:0:0:
352,96,5414,1,8,0:0:0:0:
160,96,5572,1,0,0:0:0:0:
352,96,6046,1,8,0:0:0:0:
160,96,6203,1,0,0:0:0:0:
160,96,6519,1,0,0:0:0:0:
352,96,6677,1,8,0:0:0:0:
160,96,6835,1,0,0:0:0:0:
160,96,7151,1,0,0:0:0:0:
352,96,7309,1,8,0:0:0:0:
160,96,7624,1,0,0:0:0:0:
352,96,7940,1,8,0:0:0:0:
160,96,8256,1,0,0:0:0:0:
352,96,8414,1,8,0:0:0:0:
160,96,8730,1,0,0:0:0:0:
352,96,9046,1,8,0:0:0:0:
160,96,9361,1,0,0:0:0:0:
160,96,9519,1,0,0:0:0:0:
352,96,9835,1,8,0:0:0:0:
160,96,10151,1,0,0:0:0:0:
352,96,10467,1,8,0:0:0:0:
160,96,10782,1,0,0:0:0:0:
352,96,10940,1,8,0:0:0:0:
160,96,11256,1,0,0:0:0:0:
160,96,11414,1,0,0:0:0:0:
352,96,11572,1,8,0:0:0:0:
160,96,11888,1,0,0:0:0:0:
160,96,12046,1,0,0:0:0:0:
352,96,12361,1,8,0:0:0:0:
160,288,12677,5,4,0:0:0:0:
352,96,12993,1,8,0:0:0:0:
160,96,13151,1,0,0:0:0:0:
160,96,13467,1,0,0:0:0:0:
352,96,13624,1,8,0:0:0:0:
160,96,13782,1,0,0:0:0:0:
160,96,14098,1,0,0:0:0:0:
352,96,14256,1,8,0:0:0:0:
160,96,14414,1,0,0:0:0:0:
160,96,14730,1,0,0:0:0:0:
352,96,14888,1,8,0:0:0:0:
352,96,15046,1,8,0:0:0:0:
160,96,15203,1,0,0:0:0:0:
352,96,15519,1,8,0:0:0:0:
160,96,15677,1,0,0:0:0:0:
160,96,15993,1,0,0:0:0:0:
352,96,16151,1,8,0:0:0:0:
160,96,16309,1,0,0:0:0:0:
160,96,16624,1,0,0:0:0:0:
352,96,16782,1,8,0:0:0:0:
160,96,16940,1,0,0:0:0:0:
160,96,17098,1,0,0:0:0:0:
352,96,17414,1,8,0:0:0:0:
160,96,17730,1,0,0:0:0:0:
352,96,18046,1,8,0:0:0:0:
160,96,18361,1,0,0:0:0:0:
352,96,18519,1,8,0:0:0:0:
160,96,18835,1,0,0:0:0:0:
352,96,19151,1,8,0:0:0:0:
160,96,19467,1,0,0:0:0:0:
160,96,19782,1,0,0:0:0:0:
352,96,19940,1,8,0:0:0:0:
352,96,20098,1,8,0:0:0:0:
160,96,20256,1,0,0:0:0:0:
352,96,20572,1,8,0:0:0:0:
352,96,20730,1,8,0:0:0:0:
160,96,20888,1,0,0:0:0:0:
352,96,21046,1,8,0:0:0:0:
160,96,21361,1,0,0:0:0:0:
160,96,21519,1,0,0:0:0:0:
352,96,21677,1,8,0:0:0:0:
160,96,21993,1,0,0:0:0:0:
352,96,22151,1,8,0:0:0:0:
352,96,22230,1,8,0:0:0:0:
160,96,22309,1,0,0:0:0:0:
352,96,22467,1,8,0:0:0:0:
160,288,22782,1,4,0:0:0:0:
352,96,26572,1,8,0:0:0:0:
352,96,26888,1,8,0:0:0:0:
352,96,27203,1,8,0:0:0:0:
352,96,27519,1,8,0:0:0:0:
160,288,27835,1,4,0:0:0:0:
352,96,31624,1,8,0:0:0:0:
352,96,31835,1,8,0:0:0:0:
352,96,31940,1,8,0:0:0:0:
352,96,32256,1,8,0:0:0:0:
352,96,32572,1,8,0:0:0:0:
160,288,32888,1,4,0:0:0:0:
160,96,35414,1,0,0:0:0:0:
160,96,35572,1,0,0:0:0:0:
160,96,35730,1,0,0:0:0:0:
160,96,35888,1,0,0:0:0:0:
160,96,36046,1,0,0:0:0:0:
160,96,36203,1,0,0:0:0:0:
160,96,36361,1,0,0:0:0:0:
160,96,36519,1,0,0:0:0:0:
352,96,36677,1,8,0:0:0:0:
160,96,36835,1,0,0:0:0:0:
352,96,36914,1,8,0:0:0:0:
352,96,37151,1,8,0:0:0:0:
160,96,37309,1,0,0:0:0:0:
352,96,37388,1,8,0:0:0:0:
350,97,37467,1,0,0:0:0:0:
352,96,37624,1,8,0:0:0:0:
352,96,37782,1,8,0:0:0:0:
160,288,37940,1,4,0:0:0:0:
352,96,38256,1,8,0:0:0:0:
352,96,38414,1,8,0:0:0:0:
160,96,38572,1,0,0:0:0:0:
352,96,38730,1,8,0:0:0:0:
160,96,38888,1,0,0:0:0:0:
160,96,39046,1,0,0:0:0:0:
352,96,39203,1,8,0:0:0:0:
160,96,39361,1,0,0:0:0:0:
160,96,39440,1,0,0:0:0:0:
352,96,39519,1,8,0:0:0:0:
160,96,39677,1,0,0:0:0:0:
352,96,39835,1,8,0:0:0:0:
160,96,39993,1,0,0:0:0:0:
160,96,40072,1,0,0:0:0:0:
352,96,40151,1,8,0:0:0:0:
160,96,40309,1,0,0:0:0:0:
352,96,40467,1,8,0:0:0:0:
160,96,40546,1,0,0:0:0:0:
160,96,40624,1,0,0:0:0:0:
160,96,40703,1,0,0:0:0:0:
352,96,40782,1,8,0:0:0:0:
160,96,40940,1,0,0:0:0:0:
352,96,41098,1,8,0:0:0:0:
352,96,41177,1,8,0:0:0:0:
160,96,41256,1,0,0:0:0:0:
160,96,41335,1,0,0:0:0:0:
352,96,41414,1,8,0:0:0:0:
352,96,41572,1,8,0:0:0:0:
160,96,41730,1,0,0:0:0:0:
352,288,42677,5,12,0:0:0:0:
160,288,42993,1,4,0:0:0:0:
160,96,43309,1,0,0:0:0:0:
352,96,43467,1,8,0:0:0:0:
160,96,43624,1,0,0:0:0:0:
160,96,43703,1,0,0:0:0:0:
160,96,43782,1,0,0:0:0:0:
352,96,43940,1,8,0:0:0:0:
352,96,44256,1,8,0:0:0:0:
160,96,44572,1,0,0:0:0:0:
352,96,44730,1,8,0:0:0:0:
352,96,44888,1,8,0:0:0:0:
160,96,44967,1,0,0:0:0:0:
160,96,45046,1,0,0:0:0:0:
352,96,45203,1,8,0:0:0:0:
352,96,45519,1,8,0:0:0:0:
160,96,45835,1,0,0:0:0:0:
352,96,45993,1,8,0:0:0:0:
160,96,46151,1,0,0:0:0:0:
160,96,46230,1,0,0:0:0:0:
160,96,46309,1,0,0:0:0:0:
352,96,46467,1,8,0:0:0:0:
352,96,46782,1,8,0:0:0:0:
160,96,47098,1,0,0:0:0:0:
352,96,47256,1,8,0:0:0:0:
352,96,47414,1,8,0:0:0:0:
352,96,47493,1,8,0:0:0:0:
160,96,47572,1,0,0:0:0:0:
352,96,47730,1,8,0:0:0:0:
352,96,47888,1,8,0:0:0:0:
160,96,48046,1,0,0:0:0:0:
160,96,48361,1,0,0:0:0:0:
352,96,48519,1,8,0:0:0:0:
160,96,48677,1,0,0:0:0:0:
160,96,48756,1,0,0:0:0:0:
160,96,48835,1,0,0:0:0:0:
352,96,48993,1,8,0:0:0:0:
352,96,49309,1,8,0:0:0:0:
160,96,49467,1,0,0:0:0:0:
160,96,49546,1,0,0:0:0:0:
160,96,49624,1,0,0:0:0:0:
352,96,49782,1,8,0:0:0:0:
160,96,49940,1,8,0:0:0:0:
160,96,50098,1,0,0:0:0:0:
352,96,50256,1,8,0:0:0:0:
352,96,50572,1,8,0:0:0:0:
160,96,50888,1,0,0:0:0:0:
352,96,51046,1,8,0:0:0:0:
160,96,51203,1,0,0:0:0:0:
160,96,51282,1,0,0:0:0:0:
160,96,51361,1,0,0:0:0:0:
352,96,51519,1,8,0:0:0:0:
160,96,51677,1,0,0:0:0:0:
352,96,51835,1,8,0:0:0:0:
352,96,52467,1,8,0:0:0:0:
352,96,52677,1,8,0:0:0:0:
352,96,52888,1,8,0:0:0:0:
160,288,53098,1,4,0:0:0:0:
160,96,53414,1,0,0:0:0:0:
352,96,53572,1,8,0:0:0:0:
160,96,53730,1,0,0:0:0:0:
160,96,53809,1,0,0:0:0:0:
160,96,53888,1,0,0:0:0:0:
352,96,54046,1,8,0:0:0:0:
160,96,54203,1,0,0:0:0:0:
352,96,54361,1,8,0:0:0:0:
160,96,54677,1,0,0:0:0:0:
352,96,54835,1,8,0:0:0:0:
352,96,54993,1,8,0:0:0:0:
160,96,55072,1,0,0:0:0:0:
160,96,55151,1,0,0:0:0:0:
352,96,55309,1,8,0:0:0:0:
352,96,55467,1,8,0:0:0:0:
160,96,55624,1,0,0:0:0:0:
160,96,55940,1,0,0:0:0:0:
352,96,56098,1,8,0:0:0:0:
160,96,56256,1,0,0:0:0:0:
160,96,56335,1,0,0:0:0:0:
160,96,56414,1,0,0:0:0:0:
352,96,56572,1,8,0:0:0:0:
160,96,56730,1,0,0:0:0:0:
160,96,56809,1,0,0:0:0:0:
352,96,56888,1,8,0:0:0:0:
160,96,57203,1,0,0:0:0:0:
352,96,57361,1,8,0:0:0:0:
352,96,57519,1,8,0:0:0:0:
352,96,57598,1,8,0:0:0:0:
160,96,57677,1,0,0:0:0:0:
352,96,57835,1,8,0:0:0:0:
160,96,58151,1,0,0:0:0:0:
160,96,58467,1,0,0:0:0:0:
352,96,58624,1,8,0:0:0:0:
160,96,58782,1,0,0:0:0:0:
160,96,58861,1,0,0:0:0:0:
160,96,58940,1,0,0:0:0:0:
352,96,59098,1,8,0:0:0:0:
160,96,59256,1,0,0:0:0:0:
352,96,59414,1,8,0:0:0:0:
160,96,59730,1,0,0:0:0:0:
352,96,59888,1,8,0:0:0:0:
352,96,60046,1,8,0:0:0:0:
160,96,60124,1,0,0:0:0:0:
160,96,60203,1,0,0:0:0:0:
352,96,60361,1,8,0:0:0:0:
352,96,60519,1,8,0:0:0:0:
160,96,60677,1,0,0:0:0:0:
160,96,60993,1,0,0:0:0:0:
352,96,61151,1,8,0:0:0:0:
160,96,61309,1,0,0:0:0:0:
160,96,61388,1,0,0:0:0:0:
352,96,61467,1,8,0:0:0:0:
352,96,61546,1,8,0:0:0:0:
160,96,61624,1,0,0:0:0:0:
352,96,61782,1,8,0:0:0:0:
256,192,61940,12,0,63046,0:0:0:0:
160,288,63203,5,4,0:0:0:0:
160,96,63519,1,0,0:0:0:0:
352,96,63677,1,8,0:0:0:0:
160,96,63835,1,0,0:0:0:0:
160,96,63914,1,8,0:0:0:0:
160,96,64072,1,8,0:0:0:0:
160,96,64151,1,0,0:0:0:0:
352,96,64309,1,8,0:0:0:0:
160,96,64467,1,0,0:0:0:0:
160,96,64782,1,0,0:0:0:0:
352,96,64940,1,8,0:0:0:0:
160,96,65098,1,0,0:0:0:0:
352,96,65256,1,8,0:0:0:0:
160,96,65335,1,0,0:0:0:0:
352,96,65414,1,8,0:0:0:0:
352,96,65572,1,8,0:0:0:0:
160,288,65730,1,4,0:0:0:0:
160,96,66046,1,0,0:0:0:0:
352,96,66203,1,8,0:0:0:0:
160,96,66361,1,0,0:0:0:0:
160,96,66440,1,0,0:0:0:0:
352,96,66519,1,8,0:0:0:0:
160,96,66677,1,0,0:0:0:0:
352,96,66835,1,8,0:0:0:0:
160,96,66993,1,0,0:0:0:0:
352,96,67230,1,8,0:0:0:0:
160,96,67309,1,0,0:0:0:0:
352,96,67467,1,8,0:0:0:0:
160,96,67624,1,0,0:0:0:0:
352,96,67703,1,8,0:0:0:0:
352,96,67940,1,8,0:0:0:0:
352,96,68098,1,8,0:0:0:0:
160,288,68256,1,4,0:0:0:0:
160,96,68572,1,0,0:0:0:0:
352,96,68651,1,8,0:0:0:0:
352,96,68809,1,8,0:0:0:0:
160,96,68888,1,0,0:0:0:0:
352,96,69046,1,8,0:0:0:0:
160,96,69203,1,0,0:0:0:0:
352,96,69361,1,8,0:0:0:0:
352,96,69440,1,8,0:0:0:0:
160,96,69519,1,0,0:0:0:0:
160,96,69835,1,0,0:0:0:0:
352,96,69914,1,8,0:0:0:0:
352,96,69993,1,8,0:0:0:0:
160,96,70151,1,0,0:0:0:0:
352,96,70230,1,8,0:0:0:0:
160,96,70467,1,0,0:0:0:0:
352,96,70624,1,8,0:0:0:0:
160,288,70782,1,4,0:0:0:0:
160,96,71098,1,0,0:0:0:0:
352,96,71256,1,8,0:0:0:0:
160,96,71414,1,0,0:0:0:0:
160,96,71493,1,0,0:0:0:0:
352,96,71572,1,8,0:0:0:0:
352,96,71730,1,8,0:0:0:0:
160,96,71888,1,0,0:0:0:0:
352,96,72046,1,8,0:0:0:0:
352,96,72203,1,8,0:0:0:0:
160,96,72361,1,0,0:0:0:0:
160,96,72440,1,0,0:0:0:0:
352,96,72677,1,8,0:0:0:0:
352,96,72835,1,8,0:0:0:0:
352,96,72993,1,8,0:0:0:0:
160,288,73309,1,4,0:0:0:0:
160,96,73624,1,0,0:0:0:0:
160,96,73703,1,0,0:0:0:0:
352,96,73782,1,8,0:0:0:0:
160,96,73940,1,0,0:0:0:0:
352,96,74098,1,8,0:0:0:0:
352,96,74256,1,8,0:0:0:0:
160,96,74572,1,0,0:0:0:0:
352,96,74730,1,8,0:0:0:0:
160,96,74888,1,0,0:0:0:0:
352,96,74967,1,8,0:0:0:0:
352,96,75124,1,8,0:0:0:0:
160,96,75203,1,0,0:0:0:0:
352,96,75361,1,8,0:0:0:0:
352,96,75519,1,8,0:0:0:0:
352,96,75598,1,8,0:0:0:0:
160,288,75835,1,4,0:0:0:0:
160,96,76072,1,0,0:0:0:0:
160,96,76151,1,0,0:0:0:0:
352,96,76309,1,8,0:0:0:0:
160,96,76467,1,0,0:0:0:0:
352,96,76624,1,8,0:0:0:0:
352,96,76782,1,8,0:0:0:0:
160,96,77098,1,0,0:0:0:0:
160,96,77177,1,0,0:0:0:0:
160,96,77335,1,0,0:0:0:0:
160,96,77414,1,0,0:0:0:0:
352,96,77572,1,8,0:0:0:0:
160,96,77730,1,0,0:0:0:0:
352,96,77809,1,8,0:0:0:0:
352,96,78046,1,8,0:0:0:0:
160,288,78361,1,4,0:0:0:0:
352,96,78598,1,8,0:0:0:0:
160,96,78677,1,0,0:0:0:0:
352,96,78835,1,8,0:0:0:0:
160,96,78993,1,0,0:0:0:0:
352,96,79151,1,8,0:0:0:0:
352,96,79230,1,8,0:0:0:0:
160,96,79309,1,0,0:0:0:0:
160,96,79624,1,0,0:0:0:0:
352,96,79782,1,8,0:0:0:0:
160,96,79940,1,0,0:0:0:0:
160,96,80019,1,0,0:0:0:0:
352,96,80098,1,8,0:0:0:0:
160,96,80256,1,0,0:0:0:0:
352,96,80335,1,8,0:0:0:0:
160,96,80572,1,0,0:0:0:0:
352,96,80730,1,8,0:0:0:0:
160,288,80888,1,4,0:0:0:0:
160,96,81203,1,0,0:0:0:0:
352,96,81361,1,8,0:0:0:0:
160,96,81519,1,0,0:0:0:0:
160,96,81598,1,0,0:0:0:0:
352,96,81677,1,8,0:0:0:0:
352,96,81835,1,8,0:0:0:0:
160,96,81993,1,0,0:0:0:0:
352,96,82151,1,8,0:0:0:0:
352,96,82309,1,8,0:0:0:0:
160,96,82467,5,0,0:0:0:0:
352,96,82546,1,8,0:0:0:0:
160,96,82624,1,0,0:0:0:0:
352,96,82782,1,8,0:0:0:0:
352,96,82940,1,8,0:0:0:0:
160,96,83098,1,0,0:0:0:0:
352,288,83414,5,12,0:0:0:0:
160,96,85940,5,0,0:0:0:0:
160,96,86098,1,0,0:0:0:0:
160,96,86256,1,0,0:0:0:0:
160,96,86414,1,0,0:0:0:0:
160,96,86572,1,0,0:0:0:0:
160,96,86730,1,0,0:0:0:0:
160,96,86888,1,0,0:0:0:0:
160,96,87046,1,0,0:0:0:0:
352,96,87203,1,8,0:0:0:0:
160,96,87361,1,0,0:0:0:0:
352,96,87440,1,8,0:0:0:0:
352,96,87677,1,8,0:0:0:0:
160,96,87835,1,0,0:0:0:0:
352,96,87914,1,8,0:0:0:0:
351,97,87993,1,0,0:0:0:0:
352,96,88151,1,8,0:0:0:0:
352,96,88309,1,8,0:0:0:0:
352,288,88467,1,12,0:0:0:0:
160,96,88624,1,0,0:0:0:0:
352,96,88782,1,8,0:0:0:0:
352,96,89098,1,8,0:0:0:0:
160,96,89256,1,0,0:0:0:0:
352,96,89414,1,8,0:0:0:0:
352,96,89493,1,8,0:0:0:0:
160,96,89572,1,0,0:0:0:0:
352,96,89730,1,8,0:0:0:0:
160,96,89888,1,0,0:0:0:0:
352,96,90046,1,8,0:0:0:0:
352,96,90361,1,8,0:0:0:0:
160,96,90519,1,0,0:0:0:0:
352,96,90677,1,8,0:0:0:0:
352,96,90756,1,8,0:0:0:0:
160,96,90835,1,0,0:0:0:0:
352,96,90993,1,8,0:0:0:0:
160,96,91151,1,0,0:0:0:0:
160,96,91230,1,0,0:0:0:0:
352,96,91309,1,8,0:0:0:0:
160,96,91467,1,0,0:0:0:0:
352,96,91624,1,8,0:0:0:0:
350,99,91703,1,0,0:0:0:0:
352,96,91782,1,8,0:0:0:0:
160,96,91861,1,0,0:0:0:0:
352,96,91940,1,8,0:0:0:0:
352,96,92098,1,8,0:0:0:0:
160,96,92256,1,0,0:0:0:0:
352,288,93203,1,12,0:0:0:0:
160,288,93519,5,4,0:0:0:0:
160,96,93835,1,0,0:0:0:0:
352,96,93993,1,8,0:0:0:0:
160,96,94151,1,0,0:0:0:0:
352,96,94230,1,8,0:0:0:0:
160,96,94467,1,0,0:0:0:0:
160,96,94546,1,0,0:0:0:0:
352,96,94624,1,8,0:0:0:0:
160,96,94782,1,0,0:0:0:0:
352,96,94940,1,8,0:0:0:0:
160,96,95098,1,0,0:0:0:0:
160,96,95414,1,0,0:0:0:0:
352,96,95493,1,8,0:0:0:0:
352,96,95572,1,8,0:0:0:0:
160,96,95730,1,0,0:0:0:0:
160,96,95888,1,0,0:0:0:0:
160,96,96046,1,0,0:0:0:0:
352,96,96124,1,8,0:0:0:0:
352,96,96203,1,8,0:0:0:0:
352,96,96282,1,8,0:0:0:0:
160,96,96361,1,0,0:0:0:0:
160,96,96677,1,0,0:0:0:0:
352,96,96835,1,8,0:0:0:0:
160,96,96993,1,0,0:0:0:0:
160,96,97151,1,0,0:0:0:0:
160,96,97230,1,0,0:0:0:0:
352,96,97309,1,8,0:0:0:0:
352,96,97888,1,8,0:0:0:0:
352,96,98177,1,8,0:0:0:0:
160,288,98572,5,4,0:0:0:0:
160,96,98888,1,0,0:0:0:0:
352,96,99046,1,8,0:0:0:0:
352,96,99124,1,8,0:0:0:0:
160,96,99203,1,0,0:0:0:0:
352,96,99361,1,8,0:0:0:0:
160,96,99519,1,0,0:0:0:0:
160,96,99598,1,0,0:0:0:0:
352,96,99677,1,8,0:0:0:0:
160,96,99835,1,0,0:0:0:0:
352,96,99993,1,8,0:0:0:0:
160,96,100151,1,0,0:0:0:0:
160,96,100309,1,0,0:0:0:0:
160,96,100388,1,0,0:0:0:0:
352,96,100467,1,8,0:0:0:0:
352,96,100546,1,8,0:0:0:0:
352,96,100624,1,8,0:0:0:0:
160,96,100782,1,0,0:0:0:0:
160,96,101098,1,0,0:0:0:0:
352,96,101335,1,8,0:0:0:0:
160,96,101414,1,0,0:0:0:0:
352,96,101572,1,8,0:0:0:0:
160,96,101730,1,0,0:0:0:0:
352,96,101888,1,8,0:0:0:0:
160,96,102046,1,0,0:0:0:0:
352,96,102124,1,8,0:0:0:0:
160,96,102203,1,0,0:0:0:0:
160,288,102361,1,4,0:0:0:0:
352,288,102677,1,12,0:0:0:0:
160,96,102993,1,0,0:0:0:0:
160,96,103098,1,0,0:0:0:0:
160,96,103203,1,0,0:0:0:0:
352,96,103309,1,8,0:0:0:0:
160,288,103624,5,4,0:0:0:0:
160,288,103782,1,4,0:0:0:0:
160,288,103940,1,4,0:0:0:0:
160,96,104256,1,0,0:0:0:0:
352,96,104414,1,8,0:0:0:0:
160,96,104572,1,0,0:0:0:0:
160,96,104651,1,0,0:0:0:0:
352,96,104730,1,8,0:0:0:0:
160,96,104888,1,0,0:0:0:0:
352,96,105046,1,8,0:0:0:0:
160,96,105203,1,0,0:0:0:0:
160,96,105361,1,0,0:0:0:0:
160,96,105440,1,0,0:0:0:0:
160,96,105519,1,0,0:0:0:0:
352,96,105677,1,8,0:0:0:0:
160,96,105835,1,0,0:0:0:0:
352,96,105993,1,8,0:0:0:0:
352,96,106072,1,8,0:0:0:0:
160,96,106151,1,0,0:0:0:0:
160,96,106467,1,0,0:0:0:0:
352,96,106624,1,8,0:0:0:0:
160,96,106782,1,0,0:0:0:0:
352,96,106940,1,8,0:0:0:0:
160,96,107098,1,0,0:0:0:0:
160,96,107177,1,0,0:0:0:0:
352,96,107256,1,8,0:0:0:0:
160,288,107414,1,4,0:0:0:0:
256,192,108046,12,0,108519,0:0:0:0:
160,288,108677,5,4,0:0:0:0:
160,288,108835,1,4,0:0:0:0:
160,288,108993,1,4,0:0:0:0:
160,96,109309,1,0,0:0:0:0:
352,96,109467,1,8,0:0:0:0:
160,96,109624,1,0,0:0:0:0:
160,96,109782,1,0,0:0:0:0:
160,96,109861,1,0,0:0:0:0:
160,96,109940,1,0,0:0:0:0:
352,96,110098,1,8,0:0:0:0:
352,96,110256,1,8,0:0:0:0:
352,96,110335,1,8,0:0:0:0:
160,96,110414,1,0,0:0:0:0:
352,96,110572,1,8,0:0:0:0:
160,96,110651,1,0,0:0:0:0:
160,96,110730,1,0,0:0:0:0:
160,96,110888,1,0,0:0:0:0:
352,96,111046,1,8,0:0:0:0:
352,96,111124,1,8,0:0:0:0:
160,96,111203,1,0,0:0:0:0:
352,96,111440,1,8,0:0:0:0:
160,96,111519,1,0,0:0:0:0:
352,96,111677,1,8,0:0:0:0:
160,96,111835,1,0,0:0:0:0:
160,96,111914,1,0,0:0:0:0:
352,96,111993,1,8,0:0:0:0:
160,96,112151,1,0,0:0:0:0:
160,96,112309,1,0,0:0:0:0:
160,96,112388,1,0,0:0:0:0:
160,96,112467,1,0,0:0:0:0:
352,96,112624,1,8,0:0:0:0:
352,96,112782,5,8,0:0:0:0:
352,96,112861,1,8,0:0:0:0:
352,96,113019,1,8,0:0:0:0:
352,96,113098,1,8,0:0:0:0:
160,288,113730,5,4,0:0:0:0:
160,288,114046,1,4,0:0:0:0:
160,288,114361,1,4,0:0:0:0:
160,288,114677,1,4,0:0:0:0:
352,96,114835,1,8,0:0:0:0:
160,288,114993,1,4,0:0:0:0:
160,288,115309,1,4,0:0:0:0:
160,96,115467,1,0,0:0:0:0:
160,288,115624,1,4,0:0:0:0:
352,288,115940,1,12,0:0:0:0:
352,96,116098,1,8,0:0:0:0:
160,288,116256,1,4,0:0:0:0:
160,288,116572,1,4,0:0:0:0:
160,288,116888,1,4,0:0:0:0:
160,288,117203,1,4,0:0:0:0:
352,96,117361,1,8,0:0:0:0:
160,288,117519,1,4,0:0:0:0:
160,288,117835,1,4,0:0:0:0:
160,288,117993,1,4,0:0:0:0:
160,288,118151,1,4,0:0:0:0:
160,96,118309,1,0,0:0:0:0:
352,96,118467,1,8,0:0:0:0:
160,288,118782,5,4,0:0:0:0:
160,288,119098,1,4,0:0:0:0:
160,288,119414,1,4,0:0:0:0:
160,288,119730,1,4,0:0:0:0:
352,96,119888,1,8,0:0:0:0:
160,288,120046,1,4,0:0:0:0:
160,288,120361,1,4,0:0:0:0:
160,96,120519,1,0,0:0:0:0:
160,288,120677,1,4,0:0:0:0:
352,288,120993,1,12,0:0:0:0:
352,96,121151,1,8,0:0:0:0:
160,288,121309,1,4,0:0:0:0:
160,288,121624,1,4,0:0:0:0:
160,288,121940,1,4,0:0:0:0:
160,288,122256,1,4,0:0:0:0:
160,96,122414,1,0,0:0:0:0:
160,288,122572,1,4,0:0:0:0:
160,288,123835,1,4,0:0:0:0:
160,96,124151,1,8,0:0:0:0:
160,96,124467,1,0,0:0:0:0:
160,96,124624,1,0,0:0:0:0:
352,96,124782,1,8,0:0:0:0:
160,96,125098,1,0,0:0:0:0:
160,96,125414,1,8,0:0:0:0:
352,96,125572,1,8,0:0:0:0:
160,96,125730,1,0,0:0:0:0:
160,96,125888,1,0,0:0:0:0:
352,288,126046,1,12,0:0:0:0:
160,96,126361,1,0,0:0:0:0:
160,96,126677,1,8,0:0:0:0:
160,96,126993,1,0,0:0:0:0:
160,96,127151,1,0,0:0:0:0:
352,96,127309,1,8,0:0:0:0:
160,96,127624,1,0,0:0:0:0:
160,96,127835,1,0,0:0:0:0:
352,96,127940,1,8,0:0:0:0:
160,96,128256,1,0,0:0:0:0:
160,96,128414,1,0,0:0:0:0:
352,96,128572,1,8,0:0:0:0:
352,96,128651,1,8,0:0:0:0:
160,96,128730,1,0,0:0:0:0:
160,96,128888,1,0,0:0:0:0:
160,96,129203,1,8,0:0:0:0:
160,96,129519,1,0,0:0:0:0:
160,96,129677,1,0,0:0:0:0:
352,96,129835,1,8,0:0:0:0:
160,96,130151,1,0,0:0:0:0:
160,96,130467,1,8,0:0:0:0:
352,96,130624,1,8,0:0:0:0:
160,96,130782,1,0,0:0:0:0:
160,96,130940,1,0,0:0:0:0:
352,288,131098,1,12,0:0:0:0:
160,96,131414,1,0,0:0:0:0:
160,96,131624,1,0,0:0:0:0:
352,96,131730,1,8,0:0:0:0:
160,96,132046,1,0,0:0:0:0:
160,96,132151,1,0,0:0:0:0:
352,96,132256,1,0,0:0:0:0:
352,96,132361,1,8,0:0:0:0:
352,96,132572,1,8,0:0:0:0:
160,96,132677,1,0,0:0:0:0:
352,288,133940,1,12,0:0:0:0:
256,192,134019,12,12,137730,0:0:0:0:
