osu file format v14

[General]
AudioFilename: audio.mp3
AudioLeadIn: 0
PreviewTime: 93440
Countdown: 0
SampleSet: Normal
StackLeniency: 0.7
Mode: 1
LetterboxInBreaks: 0
WidescreenStoryboard: 0

[Editor]
Bookmarks: 12689,22794,43003,48093,53106,63213,83424,93529,113739,133950
DistanceSpacing: 0.1
BeatDivisor: 2
GridSize: 32
TimelineZoom: 0.8000008

[Metadata]
Title:Sound Chimera
TitleUnicode:Sound Chimera
Artist:Laur
ArtistUnicode:Laur
Creator:komasy
Version:Kantan
Source:WACCA
Tags:Short Version Ver Electronic Instrumental J-Core Hardcore Rhythm Video Game World Music Psytrance Frenchcore The Angel's Message TANO*C
BeatmapID:2307826
BeatmapSetID:1080215

[Difficulty]
HPDrainRate:8
CircleSize:7
OverallDifficulty:3
ApproachRate:10
SliderMultiplier:1.4
SliderTickRate:1

[Events]
//Background and Video events
0,0,"bg.jpg",0,100
//Break Periods
//Storyboard Layer 0 (Background)
//Storyboard Layer 1 (Fail)
//Storyboard Layer 2 (Pass)
//Storyboard Layer 3 (Foreground)
//Storyboard Layer 4 (Overlay)
//Storyboard Sound Samples

[TimingPoints]
46,315.789473684211,4,1,0,10,1,0
2493,-100,4,1,0,60,0,0
12598,-100,4,1,0,70,0,0
22703,-100,4,1,0,80,0,0
22861,-100,4,1,0,60,0,0
35491,-100,4,1,0,51,0,0
35649,-100,4,1,0,52,0,0
35807,-100,4,1,0,53,0,0
35965,-100,4,1,0,54,0,0
36123,-100,4,1,0,55,0,0
36281,-100,4,1,0,56,0,0
36439,-100,4,1,0,57,0,0
36597,-100,4,1,0,58,0,0
36835,-100,4,1,0,60,0,0
37070,-100,4,1,0,64,0,0
37307,-100,4,1,0,68,0,0
37544,-100,4,1,0,72,0,0
37861,-100,4,1,0,80,0,0
39124,-100,4,1,0,85,0,0
40388,-100,4,1,0,90,0,0
42914,-100,4,1,0,60,0,0
53097,-100,4,1,0,70,0,0
61900,-100,4,1,0,50,0,0
62256,-100,4,1,0,30,0,0
62572,-100,4,1,0,15,0,0
63124,-100,4,1,0,80,0,0
73229,-100,4,1,0,90,0,0
83493,-100,4,1,0,50,0,0
86018,-100,4,1,0,51,0,0
86176,-100,4,1,0,52,0,0
86334,-100,4,1,0,53,0,0
86492,-100,4,1,0,54,0,0
86649,-100,4,1,0,55,0,0
86807,-100,4,1,0,56,0,0
86965,-100,4,1,0,57,0,0
87123,-100,4,1,0,58,0,0
87360,-100,4,1,0,60,0,0
87597,-100,4,1,0,64,0,0
87834,-100,4,1,0,68,0,0
88070,-100,4,1,0,72,0,0
88228,-100,4,1,0,75,0,0
88386,-100,4,1,0,80,0,0
89651,-100,4,1,0,85,0,0
90914,-100,4,1,0,90,0,0
92335,-100,4,1,0,80,0,0
93519,-100,4,1,0,90,0,1
97309,-100,4,1,0,90,0,0
97387,-100,4,1,0,80,0,0
98493,-100,4,1,0,90,0,0
98572,-100,4,1,0,90,0,1
102361,-100,4,1,0,90,0,0
103624,-100,4,1,0,90,0,1
107414,-100,4,1,0,90,0,0
107493,-100,4,1,0,70,0,0
108598,-100,4,1,0,90,0,0
108677,-100,4,1,0,90,0,1
112467,-100,4,1,0,90,0,0
113650,-100,4,1,0,80,0,0
123756,-100,4,1,0,90,0,0
133861,-100,4,1,0,70,0,0
133979,-100,4,1,0,20,0,0
134572,-111.111111111111,4,1,0,15,0,0
135203,-125,4,1,0,10,0,0
135835,-142.857142857143,4,1,0,5,0,0
137729,-166.666666666667,4,1,0,5,0,0

[HitObjects]
160,288,2572,5,4,0:0:0:0:
352,96,3519,1,8,0:0:0:0:
352,96,4151,1,8,0:0:0:0:
352,96,4782,1,8,0:0:0:0:
160,96,5098,1,0,0:0:0:0:
352,96,5414,1,8,0:0:0:0:
352,96,6046,1,8,0:0:0:0:
352,96,6677,1,8,0:0:0:0:
352,96,7309,1,8,0:0:0:0:
160,96,7624,1,0,0:0:0:0:
160,96,8730,1,0,0:0:0:0:
352,96,9046,1,8,0:0:0:0:
160,96,9361,1,0,0:0:0:0:
160,96,10151,1,0,0:0:0:0:
352,96,10467,1,8,0:0:0:0:
352,96,10940,1,8,0:0:0:0:
160,96,11256,1,0,0:0:0:0:
352,96,12361,1,8,0:0:0:0:
160,288,12677,5,4,0:0:0:0:
352,96,13624,1,8,0:0:0:0:
352,96,14256,1,8,0:0:0:0:
352,96,14888,1,8,0:0:0:0:
160,96,15203,1,0,0:0:0:0:
352,96,15519,1,8,0:0:0:0:
352,96,16151,1,8,0:0:0:0:
352,96,16782,1,8,0:0:0:0:
352,96,17414,1,8,0:0:0:0:
160,96,17730,1,0,0:0:0:0:
160,96,18835,1,0,0:0:0:0:
352,96,19151,1,8,0:0:0:0:
160,96,19467,1,0,0:0:0:0:
160,96,20256,1,0,0:0:0:0:
352,96,20572,1,8,0:0:0:0:
352,96,21046,1,8,0:0:0:0:
160,96,21361,1,0,0:0:0:0:
352,96,22467,1,8,0:0:0:0:
160,288,22782,1,4,0:0:0:0:
352,96,26572,1,8,0:0:0:0:
352,96,27203,1,8,0:0:0:0:
160,288,27835,1,4,0:0:0:0:
352,96,31624,1,8,0:0:0:0:
352,96,31940,1,8,0:0:0:0:
352,96,32256,1,8,0:0:0:0:
160,288,32888,1,4,0:0:0:0:
160,96,35414,1,0,0:0:0:0:
160,96,35730,1,0,0:0:0:0:
160,96,36046,1,0,0:0:0:0:
352,96,36677,1,8,0:0:0:0:
352,96,37624,1,8,0:0:0:0:
160,288,37940,1,4,0:0:0:0:
352,96,38572,1,8,0:0:0:0:
160,96,39203,1,0,0:0:0:0:
160,96,39519,1,0,0:0:0:0:
352,96,39835,1,8,0:0:0:0:
352,96,40151,1,8,0:0:0:0:
320,160,40467,2,0,L|224:160,8,70
352,288,42677,5,12,0:0:0:0:
160,288,42993,1,4,0:0:0:0:
352,96,43940,1,8,0:0:0:0:
352,96,44256,1,8,0:0:0:0:
160,96,44888,1,0,0:0:0:0:
160,96,45203,1,0,0:0:0:0:
352,96,45519,1,8,0:0:0:0:
352,96,46467,1,8,0:0:0:0:
352,96,46782,1,8,0:0:0:0:
352,96,47414,1,8,0:0:0:0:
352,96,47730,1,8,0:0:0:0:
160,96,48046,1,0,0:0:0:0:
352,96,48993,1,8,0:0:0:0:
352,96,49309,1,8,0:0:0:0:
160,96,49940,1,0,0:0:0:0:
160,96,50256,1,0,0:0:0:0:
352,96,50572,1,8,0:0:0:0:
160,96,51203,1,0,0:0:0:0:
352,96,51835,1,8,0:0:0:0:
160,288,53098,1,4,0:0:0:0:
352,96,54046,1,8,0:0:0:0:
352,96,54361,1,8,0:0:0:0:
160,96,54993,1,0,0:0:0:0:
352,96,55624,1,8,0:0:0:0:
352,96,55940,1,8,0:0:0:0:
352,96,56572,1,8,0:0:0:0:
160,96,56888,1,0,0:0:0:0:
352,96,57519,1,8,0:0:0:0:
160,96,58151,1,0,0:0:0:0:
352,96,59098,1,8,0:0:0:0:
352,96,59414,1,8,0:0:0:0:
160,96,60046,1,0,0:0:0:0:
352,96,60677,1,8,0:0:0:0:
352,96,60993,1,8,0:0:0:0:
352,96,61624,1,8,0:0:0:0:
256,192,61940,12,0,62888,0:0:0:0:
160,288,63203,5,4,0:0:0:0:
352,96,64151,1,8,0:0:0:0:
160,96,64467,1,0,0:0:0:0:
352,96,65098,1,8,0:0:0:0:
160,288,65730,1,4,0:0:0:0:
160,96,66046,1,0,0:0:0:0:
352,96,66361,1,8,0:0:0:0:
160,96,66993,1,0,0:0:0:0:
352,96,67624,1,8,0:0:0:0:
160,96,67940,1,0,0:0:0:0:
160,288,68256,1,4,0:0:0:0:
352,96,69203,1,8,0:0:0:0:
160,96,69519,1,0,0:0:0:0:
352,96,70151,1,8,0:0:0:0:
160,288,70782,1,4,0:0:0:0:
352,96,71098,1,8,0:0:0:0:
352,96,71414,1,8,0:0:0:0:
160,96,72046,1,0,0:0:0:0:
352,96,72677,1,8,0:0:0:0:
352,96,72993,1,8,0:0:0:0:
160,288,73309,1,4,0:0:0:0:
352,96,74256,1,8,0:0:0:0:
160,96,74572,1,0,0:0:0:0:
352,96,75203,1,8,0:0:0:0:
160,288,75835,1,4,0:0:0:0:
160,96,76151,1,0,0:0:0:0:
352,96,76467,1,8,0:0:0:0:
160,96,77098,1,0,0:0:0:0:
352,96,77730,1,8,0:0:0:0:
352,96,78046,1,8,0:0:0:0:
160,288,78361,1,4,0:0:0:0:
352,96,79309,1,8,0:0:0:0:
160,96,79624,1,0,0:0:0:0:
352,96,80256,1,8,0:0:0:0:
160,288,80888,1,4,0:0:0:0:
352,96,81203,1,8,0:0:0:0:
352,96,81519,1,8,0:0:0:0:
352,96,82151,1,8,0:0:0:0:
352,96,82467,5,8,0:0:0:0:
352,96,82782,1,8,0:0:0:0:
160,96,83098,1,0,0:0:0:0:
352,288,83414,5,12,0:0:0:0:
160,96,85940,5,0,0:0:0:0:
160,96,86256,1,0,0:0:0:0:
160,96,86572,1,0,0:0:0:0:
352,96,87203,1,8,0:0:0:0:
160,96,88151,1,0,0:0:0:0:
352,288,88467,1,12,0:0:0:0:
352,96,89098,1,8,0:0:0:0:
352,96,89730,1,8,0:0:0:0:
352,96,90361,1,8,0:0:0:0:
352,96,90993,1,8,0:0:0:0:
352,96,91309,1,8,0:0:0:0:
352,96,91624,1,8,0:0:0:0:
352,96,91940,1,8,0:0:0:0:
160,96,92256,1,0,0:0:0:0:
352,288,93203,1,12,0:0:0:0:
160,288,93519,5,4,0:0:0:0:
160,96,94151,1,0,0:0:0:0:
160,96,94467,1,0,0:0:0:0:
160,96,94782,1,0,0:0:0:0:
160,96,95414,1,0,0:0:0:0:
160,96,96046,1,0,0:0:0:0:
160,96,96361,1,0,0:0:0:0:
160,96,96677,1,0,0:0:0:0:
160,96,96993,1,0,0:0:0:0:
352,288,97309,1,12,0:0:0:0:
160,288,98572,5,4,0:0:0:0:
160,96,99203,1,0,0:0:0:0:
160,96,99519,1,0,0:0:0:0:
160,96,99835,1,0,0:0:0:0:
352,96,100467,1,8,0:0:0:0:
160,96,101098,1,0,0:0:0:0:
160,96,101414,1,0,0:0:0:0:
160,96,101730,1,0,0:0:0:0:
160,96,102046,1,0,0:0:0:0:
160,288,102361,1,4,0:0:0:0:
352,288,102677,1,12,0:0:0:0:
352,96,103309,1,8,0:0:0:0:
160,288,103624,5,4,0:0:0:0:
352,96,104572,1,8,0:0:0:0:
160,96,104888,1,0,0:0:0:0:
352,96,105203,1,8,0:0:0:0:
160,96,105519,1,0,0:0:0:0:
160,96,106151,1,0,0:0:0:0:
352,96,106467,1,8,0:0:0:0:
160,96,106782,1,0,0:0:0:0:
160,96,107098,1,0,0:0:0:0:
352,288,107414,1,12,0:0:0:0:
160,288,108677,5,4,0:0:0:0:
160,96,109309,1,0,0:0:0:0:
160,96,109624,1,8,0:0:0:0:
160,96,109940,1,0,0:0:0:0:
352,96,110256,1,8,0:0:0:0:
352,96,110572,1,8,0:0:0:0:
160,96,111203,1,0,0:0:0:0:
160,96,111519,1,0,0:0:0:0:
160,96,111835,1,8,0:0:0:0:
160,96,112151,1,8,0:0:0:0:
160,288,112467,1,4,0:0:0:0:
160,288,113730,5,4,0:0:0:0:
160,96,114677,1,0,0:0:0:0:
160,96,114993,1,0,0:0:0:0:
160,96,115624,1,0,0:0:0:0:
352,96,115940,1,8,0:0:0:0:
160,96,116256,1,0,0:0:0:0:
160,96,116888,1,0,0:0:0:0:
160,96,117519,1,0,0:0:0:0:
160,96,117835,1,0,0:0:0:0:
160,96,118151,1,0,0:0:0:0:
160,96,118782,5,0,0:0:0:0:
160,96,119730,1,0,0:0:0:0:
160,96,120046,1,0,0:0:0:0:
160,96,120677,1,0,0:0:0:0:
352,96,120993,1,8,0:0:0:0:
160,96,121309,1,0,0:0:0:0:
160,96,121940,1,0,0:0:0:0:
160,96,122256,1,0,0:0:0:0:
160,288,122572,1,4,0:0:0:0:
160,288,123835,1,4,0:0:0:0:
352,96,124782,1,8,0:0:0:0:
160,96,125098,1,0,0:0:0:0:
160,96,125730,1,0,0:0:0:0:
352,96,126046,1,8,0:0:0:0:
160,96,126361,1,0,0:0:0:0:
352,96,126993,1,8,0:0:0:0:
160,96,127624,1,0,0:0:0:0:
160,96,127940,1,0,0:0:0:0:
352,96,128256,1,8,0:0:0:0:
160,96,128888,1,0,0:0:0:0:
352,96,129835,1,8,0:0:0:0:
160,96,130151,1,0,0:0:0:0:
186,101,130782,1,0,0:0:0:0:
197,103,131098,1,8,0:0:0:0:
160,96,131730,1,0,0:0:0:0:
170,94,132046,1,8,0:0:0:0:
352,96,132361,1,8,0:0:0:0:
160,96,132677,1,0,0:0:0:0:
352,288,133940,1,12,0:0:0:0:
256,192,134256,12,12,137730,0:0:0:0:
