osu file format v14

[General]
AudioFilename: audio.mp3
AudioLeadIn: 0
PreviewTime: 93440
Countdown: 0
SampleSet: Normal
StackLeniency: 0.7
Mode: 1
LetterboxInBreaks: 0
WidescreenStoryboard: 0

[Editor]
Bookmarks: 12689,22794,43003,48093,53106,63213,83424,93529,113739,133950
DistanceSpacing: 0.1
BeatDivisor: 4
GridSize: 32
TimelineZoom: 3

[Metadata]
Title:Sound Chimera
TitleUnicode:Sound Chimera
Artist:Laur
ArtistUnicode:Laur
Creator:komasy
Version:Inner Oni
Source:WACCA
Tags:Short Version Ver Electronic Instrumental J-Core Hardcore Rhythm Video Game World Music Psytrance Frenchcore The Angel's Message TANO*C
BeatmapID:2259949
BeatmapSetID:1080215

[Difficulty]
HPDrainRate:6
CircleSize:7
OverallDifficulty:6
ApproachRate:10
SliderMultiplier:1.4
SliderTickRate:1

[Events]
//Background and Video events
0,0,"bg.jpg",0,100
//Break Periods
//Storyboard Layer 0 (Background)
//Storyboard Layer 1 (Fail)
//Storyboard Layer 2 (Pass)
//Storyboard Layer 3 (Foreground)
//Storyboard Layer 4 (Overlay)
//Storyboard Sound Samples

[TimingPoints]
46,315.789473684211,4,1,0,10,1,0
46,-114.285714285714,4,1,0,10,0,0
2493,-133.333333333333,4,1,0,60,0,0
12598,-114.285714285714,4,1,0,70,0,0
22703,-100,4,1,0,80,0,0
22861,-133.333333333333,4,1,0,60,0,0
35530,-130.592458807874,4,1,0,51,0,0
35688,-127.962164147305,4,1,0,52,0,0
35846,-125.435575034307,4,1,0,53,0,0
36004,-123.006828109028,4,1,0,54,0,0
36162,-120.670347916747,4,1,0,55,0,0
36320,-118.421114958482,4,1,0,56,0,0
36478,-116.254061626278,4,1,0,57,0,0
36636,-114.164895208043,4,1,0,58,0,0
36794,-112.149490785237,4,1,0,59,0,0
36874,-111.111111111111,4,1,0,60,0,0
36952,-110.204131112059,4,1,0,62,0,0
37109,-108.324992308926,4,1,0,64,0,0
37267,-106.508863135046,4,1,0,66,0,0
37346,-104.752626672114,4,1,0,68,0,0
37425,-103.053474447891,4,1,0,70,0,0
37583,-101.408462130531,4,1,0,72,0,0
37741,-99.815142356356,4,1,0,75,0,0
37899,-98.2711162517824,4,1,0,80,0,0
38057,-96.774224765879,4,1,0,80,0,0
38136,-95.3221603051834,4,1,0,80,0,0
38215,-93.9130271455605,4,1,0,80,0,0
38373,-92.544949081769,4,1,0,80,0,0
38530,-91.2162408692543,4,1,0,80,0,0
38688,-89.9250654429664,4,1,0,80,0,0
38767,-88.6699332670082,4,1,0,80,0,0
38846,-87.4493558917692,4,1,0,80,0,0
39004,-86.262000122492,4,1,0,80,0,0
39162,-85.1063829787234,4,1,0,85,0,0
39320,-83.9813191953582,4,1,0,85,0,0
39399,-82.8856815813925,4,1,0,85,0,0
39478,-81.8181966942176,4,1,0,85,0,0
39636,-80.7778584658831,4,1,0,85,0,0
39794,-79.7636443690058,4,1,0,90,0,0
39873,-78.774644647578,4,1,0,90,0,0
39952,-77.8098094826815,4,1,0,90,0,0
40030,-76.8683230252912,4,1,0,90,0,0
40109,-75.9493478609246,4,1,0,90,0,0
40267,-75.0521424759852,4,1,0,90,0,0
40425,-74.1758323270145,4,1,0,90,0,0
40504,-73.319749627719,4,1,0,90,0,0
40583,-72.4832020179323,4,1,0,90,0,0
40662,-71.6655797387073,4,1,0,90,0,0
40741,-70.8661473122951,4,1,0,90,0,0
40820,-70.0843535279062,4,1,0,90,0,0
40899,-69.3196209880403,4,1,0,90,0,0
40978,-68.5714442449015,4,1,0,90,0,0
41057,-67.8391993889045,4,1,0,90,0,0
41136,-67.1224279524639,4,1,0,90,0,0
41215,-66.4206445990717,4,1,0,90,0,0
41294,-65.7334272883121,4,1,0,90,0,0
41373,-65.0602425315721,4,1,0,90,0,0
41452,-64.4007063469472,4,1,0,90,0,0
41531,-63.7544078203707,4,1,0,90,0,0
41609,-63.1209922115008,4,1,0,90,0,0
41688,-62.5,4,1,0,90,0,0
41808,-80,4,1,0,80,0,0
42914,-100,4,1,0,60,0,0
51834,-100,4,1,0,60,0,0
52150,-103.225806451613,4,1,0,60,0,0
52256,-106.666666666667,4,1,0,60,0,0
52360,-110.344827586207,4,1,0,60,0,0
52465,-114.285714285714,4,1,0,60,0,0
52676,-110.344827586207,4,1,0,60,0,0
52886,-106.666666666667,4,1,0,60,0,0
52992,-103.225806451613,4,1,0,60,0,0
53097,-100,4,1,0,70,0,0
61900,-100,4,1,0,50,0,0
62256,-100,4,1,0,30,0,0
62572,-100,4,1,0,15,0,0
63124,-100,4,1,0,80,0,0
73229,-100,4,1,0,90,0,0
83493,-133.333333333333,4,1,0,50,0,0
86057,-130.733992929906,4,1,0,51,0,0
86215,-128.233898631103,4,1,0,52,0,0
86373,-125.827789570638,4,1,0,53,0,0
86531,-123.510311258335,4,1,0,54,0,0
86688,-121.276655092831,4,1,0,55,0,0
86846,-119.122212242428,4,1,0,56,0,0
87004,-117.043116343199,4,1,0,57,0,0
87162,-115.035350363167,4,1,0,58,0,0
87320,-113.095177508536,4,1,0,59,0,0
87399,-111.219488323622,4,1,0,60,0,0
87478,-109.405000902591,4,1,0,62,0,0
87636,-107.648767906027,4,1,0,64,0,0
87794,-105.947916004492,4,1,0,66,0,0
87873,-104.300083857267,4,1,0,68,0,0
87952,-102.702724908697,4,1,0,70,0,0
88109,-101.153555142849,4,1,0,72,0,0
88267,-99.6503270025481,4,1,0,75,0,0
88346,-98.1912195447659,4,1,0,80,0,0
88425,-96.774224765879,4,1,0,80,0,0
88583,-95.3974544143264,4,1,0,80,0,0
88741,-94.0593966277825,4,1,0,80,0,0
88820,-92.7583552088454,4,1,0,80,0,0
88899,-91.4928150692326,4,1,0,80,0,0
89057,-90.261261220603,4,1,0,80,0,0
89215,-89.0625013916016,4,1,0,80,0,0
89373,-87.8951656779926,4,1,0,80,0,0
89452,-86.7579591751747,4,1,0,80,0,0
89531,-85.6498770067766,4,1,0,80,0,0
89688,-84.5697429756372,4,1,0,85,0,0
89846,-83.5165128849276,4,1,0,85,0,0
89925,-82.4891258709821,4,1,0,85,0,0
90004,-81.4867751038345,4,1,0,85,0,0
90083,-80.508491633155,4,1,0,85,0,0
90162,-79.5533556400943,4,1,0,85,0,0
90320,-78.6206788109409,4,1,0,85,0,0
90478,-77.7096178085577,4,1,0,90,0,0
90557,-76.8194297847366,4,1,0,90,0,0
90636,-75.9493478609246,4,1,0,90,0,0
90715,-75.0988112609165,4,1,0,90,0,0
90794,-74.2671135566446,4,1,0,90,0,0
90952,-73.453581743553,4,1,0,90,0,0
91031,-72.6577326718573,4,1,0,90,0,0
91109,-71.8789443570716,4,1,0,90,0,0
91188,-71.1166740153896,4,1,0,90,0,0
91267,-70.370352126205,4,1,0,90,0,0
91346,-69.6395803518888,4,1,0,90,0,0
91425,-68.9238302075228,4,1,0,90,0,0
91504,-68.2226432317339,4,1,0,90,0,0
91583,-67.53553382112,4,1,0,90,0,0
91662,-66.8621716565905,4,1,0,90,0,0
91741,-66.2021044324957,4,1,0,90,0,0
91820,-65.554899278175,4,1,0,90,0,0
91899,-64.9202681726438,4,1,0,90,0,0
91978,-64.2978068661056,4,1,0,90,0,0
92057,-63.6871686277007,4,1,0,90,0,0
92136,-63.0879799733516,4,1,0,90,0,0
92215,-62.5,4,1,0,90,0,0
92335,-83.3333333333333,4,1,0,80,0,0
93440,-100,4,1,0,90,0,0
93519,-100,4,1,0,90,0,1
97072,-95.2380952380952,4,1,0,90,0,1
97150,-90.9090909090909,4,1,0,90,0,1
97229,-86.9565217391304,4,1,0,90,0,1
97309,-83.3333333333333,4,1,0,90,0,0
97387,-90.9090909090909,4,1,0,80,0,0
97940,-95.2380952380952,4,1,0,80,0,0
98493,-95.2380952380952,4,1,0,90,0,0
98572,-100,4,1,0,90,0,1
102124,-95.2380952380952,4,1,0,90,0,1
102203,-90.9090909090909,4,1,0,90,0,1
102361,-83.3333333333333,4,1,0,90,0,0
103624,-86.9565217391304,4,1,0,90,0,1
107414,-86.9565217391304,4,1,0,90,0,0
107493,-40,4,1,0,70,0,0
108598,-86.9565217391304,4,1,0,90,0,0
108677,-86.9565217391304,4,1,0,90,0,1
112467,-86.9565217391304,4,1,0,90,0,0
113650,-100,4,1,0,80,0,0
123756,-100,4,1,0,90,0,0
133861,-133.333333333333,4,1,0,70,0,0
133979,-50,4,1,0,20,0,0
134572,-50,4,1,0,15,0,0
135203,-76.9230769230769,4,1,0,10,0,0
135835,-111.111111111111,4,1,0,5,0,0
137729,-166.666666666667,4,1,0,5,0,0

[HitObjects]
160,288,2572,5,4,0:0:0:0:
352,96,2888,1,8,0:0:0:0:
160,96,3046,1,0,0:0:0:0:
352,96,3519,1,8,0:0:0:0:
160,96,3677,1,0,0:0:0:0:
352,96,4151,1,8,0:0:0:0:
160,96,4309,1,0,0:0:0:0:
160,96,4624,1,0,0:0:0:0:
352,96,4782,1,8,0:0:0:0:
160,96,5098,1,0,0:0:0:0:
352,96,5414,1,8,0:0:0:0:
160,96,5572,1,0,0:0:0:0:
352,96,6046,1,8,0:0:0:0:
160,96,6203,1,0,0:0:0:0:
160,96,6519,1,0,0:0:0:0:
352,96,6677,1,8,0:0:0:0:
160,96,6835,1,0,0:0:0:0:
160,96,7151,1,0,0:0:0:0:
352,96,7309,1,8,0:0:0:0:
160,96,7624,1,0,0:0:0:0:
352,96,7940,1,8,0:0:0:0:
352,96,8098,1,8,0:0:0:0:
160,96,8256,1,0,0:0:0:0:
352,96,8414,1,8,0:0:0:0:
160,96,8730,1,0,0:0:0:0:
352,96,9046,1,8,0:0:0:0:
160,96,9361,1,0,0:0:0:0:
160,96,9519,1,0,0:0:0:0:
352,96,9835,1,8,0:0:0:0:
160,96,10151,1,0,0:0:0:0:
352,96,10467,1,8,0:0:0:0:
352,96,10624,1,8,0:0:0:0:
160,96,10782,1,0,0:0:0:0:
352,96,10940,1,8,0:0:0:0:
160,96,11256,1,0,0:0:0:0:
160,96,11414,1,0,0:0:0:0:
352,96,11572,1,8,0:0:0:0:
160,96,11888,1,0,0:0:0:0:
160,96,12046,1,0,0:0:0:0:
352,96,12361,1,8,0:0:0:0:
160,288,12677,5,4,0:0:0:0:
352,96,12993,1,8,0:0:0:0:
160,96,13151,1,0,0:0:0:0:
160,96,13467,1,0,0:0:0:0:
352,96,13624,1,8,0:0:0:0:
160,96,13782,1,0,0:0:0:0:
160,96,14098,1,0,0:0:0:0:
352,96,14256,1,8,0:0:0:0:
160,96,14414,1,0,0:0:0:0:
160,96,14730,1,0,0:0:0:0:
352,96,14888,1,8,0:0:0:0:
352,96,15046,1,8,0:0:0:0:
160,96,15203,1,0,0:0:0:0:
352,96,15519,1,8,0:0:0:0:
160,96,15677,1,0,0:0:0:0:
160,96,15993,1,0,0:0:0:0:
352,96,16151,1,8,0:0:0:0:
160,96,16309,1,0,0:0:0:0:
160,96,16388,1,0,0:0:0:0:
160,96,16467,1,0,0:0:0:0:
160,96,16624,1,0,0:0:0:0:
352,96,16782,1,8,0:0:0:0:
160,96,16940,1,0,0:0:0:0:
160,96,17256,1,0,0:0:0:0:
352,96,17414,1,8,0:0:0:0:
160,96,17730,1,0,0:0:0:0:
352,96,18046,1,8,0:0:0:0:
352,96,18203,1,8,0:0:0:0:
160,96,18361,1,0,0:0:0:0:
352,96,18519,1,8,0:0:0:0:
160,96,18835,1,0,0:0:0:0:
352,96,19151,1,8,0:0:0:0:
160,96,19467,1,0,0:0:0:0:
352,96,19624,1,8,0:0:0:0:
160,96,19782,1,0,0:0:0:0:
160,96,19861,1,0,0:0:0:0:
352,96,19940,1,8,0:0:0:0:
352,96,20098,1,8,0:0:0:0:
160,96,20256,1,0,0:0:0:0:
352,96,20572,1,8,0:0:0:0:
352,96,20730,1,8,0:0:0:0:
160,96,20888,1,0,0:0:0:0:
352,96,21046,1,8,0:0:0:0:
160,96,21361,1,0,0:0:0:0:
160,96,21519,1,0,0:0:0:0:
352,96,21677,1,8,0:0:0:0:
160,96,21993,1,0,0:0:0:0:
352,96,22151,1,8,0:0:0:0:
352,96,22230,1,8,0:0:0:0:
160,96,22309,1,0,0:0:0:0:
160,96,22388,1,0,0:0:0:0:
352,96,22467,1,8,0:0:0:0:
160,288,22782,1,4,0:0:0:0:
352,96,26572,1,8,0:0:0:0:
352,96,26888,1,8,0:0:0:0:
352,96,27203,1,8,0:0:0:0:
352,96,27519,1,8,0:0:0:0:
160,288,27835,1,4,0:0:0:0:
352,96,31624,1,8,0:0:0:0:
352,96,31835,1,8,0:0:0:0:
352,96,31940,1,8,0:0:0:0:
352,96,32256,1,8,0:0:0:0:
352,96,32572,1,8,0:0:0:0:
160,288,32888,1,4,0:0:0:0:
160,96,35414,1,0,0:0:0:0:
160,96,35572,1,0,0:0:0:0:
160,96,35730,1,0,0:0:0:0:
160,96,35888,1,0,0:0:0:0:
160,96,36046,1,0,0:0:0:0:
160,96,36203,1,0,0:0:0:0:
160,96,36361,1,0,0:0:0:0:
160,96,36519,1,0,0:0:0:0:
352,96,36677,1,8,0:0:0:0:
160,96,36835,1,0,0:0:0:0:
352,96,36914,1,8,0:0:0:0:
160,96,36993,1,0,0:0:0:0:
352,96,37151,1,8,0:0:0:0:
160,96,37309,1,0,0:0:0:0:
352,96,37388,1,8,0:0:0:0:
160,96,37467,1,0,0:0:0:0:
352,96,37624,1,8,0:0:0:0:
352,96,37782,1,8,0:0:0:0:
160,288,37940,1,4,0:0:0:0:
160,96,38098,1,0,0:0:0:0:
160,96,38177,1,0,0:0:0:0:
352,96,38256,1,8,0:0:0:0:
352,96,38414,1,8,0:0:0:0:
160,96,38572,1,0,0:0:0:0:
352,96,38730,1,8,0:0:0:0:
352,96,38809,1,8,0:0:0:0:
160,96,38888,1,0,0:0:0:0:
160,96,39046,1,0,0:0:0:0:
352,96,39203,1,8,0:0:0:0:
160,96,39361,1,0,0:0:0:0:
160,96,39440,1,0,0:0:0:0:
352,96,39519,1,8,0:0:0:0:
160,96,39677,1,0,0:0:0:0:
352,96,39835,1,8,0:0:0:0:
352,96,39914,1,8,0:0:0:0:
160,96,39993,1,0,0:0:0:0:
160,96,40072,1,0,0:0:0:0:
352,96,40151,1,8,0:0:0:0:
160,96,40309,1,0,0:0:0:0:
352,96,40467,1,8,0:0:0:0:
352,96,40546,1,8,0:0:0:0:
160,96,40624,1,0,0:0:0:0:
352,96,40703,1,8,0:0:0:0:
160,96,40782,1,0,0:0:0:0:
160,96,40861,1,0,0:0:0:0:
352,96,40940,1,8,0:0:0:0:
160,96,41019,1,0,0:0:0:0:
352,96,41098,1,8,0:0:0:0:
352,96,41177,1,8,0:0:0:0:
160,96,41256,1,0,0:0:0:0:
160,96,41335,1,0,0:0:0:0:
352,96,41414,1,8,0:0:0:0:
352,96,41493,1,8,0:0:0:0:
352,96,41572,1,8,0:0:0:0:
352,96,41651,1,8,0:0:0:0:
160,96,41730,1,0,0:0:0:0:
352,288,42677,1,12,0:0:0:0:
160,288,42993,1,4,0:0:0:0:
160,96,43309,1,0,0:0:0:0:
352,96,43467,1,8,0:0:0:0:
160,96,43624,1,0,0:0:0:0:
160,96,43703,1,0,0:0:0:0:
160,96,43782,1,0,0:0:0:0:
352,96,43940,1,8,0:0:0:0:
160,96,44098,1,0,0:0:0:0:
160,96,44177,1,0,0:0:0:0:
352,96,44256,1,8,0:0:0:0:
160,96,44493,1,0,0:0:0:0:
160,96,44572,1,0,0:0:0:0:
352,96,44730,1,8,0:0:0:0:
352,96,44888,1,8,0:0:0:0:
160,96,44967,1,0,0:0:0:0:
160,96,45046,1,0,0:0:0:0:
352,96,45203,1,8,0:0:0:0:
160,96,45361,1,0,0:0:0:0:
160,96,45440,1,0,0:0:0:0:
352,96,45519,1,8,0:0:0:0:
160,96,45835,1,0,0:0:0:0:
352,96,45993,1,8,0:0:0:0:
160,96,46151,1,0,0:0:0:0:
160,96,46230,1,0,0:0:0:0:
160,96,46309,1,0,0:0:0:0:
352,96,46467,1,8,0:0:0:0:
352,96,46546,1,8,0:0:0:0:
160,96,46624,1,0,0:0:0:0:
352,96,46782,1,8,0:0:0:0:
160,96,47019,1,0,0:0:0:0:
160,96,47098,1,0,0:0:0:0:
352,96,47256,1,8,0:0:0:0:
352,96,47414,1,8,0:0:0:0:
352,96,47493,1,8,0:0:0:0:
160,96,47572,1,0,0:0:0:0:
352,96,47730,1,8,0:0:0:0:
352,96,47809,1,8,0:0:0:0:
352,96,47888,1,8,0:0:0:0:
352,96,47967,1,8,0:0:0:0:
160,96,48046,1,0,0:0:0:0:
160,96,48361,1,0,0:0:0:0:
352,96,48519,1,8,0:0:0:0:
160,96,48677,1,0,0:0:0:0:
160,96,48756,1,0,0:0:0:0:
160,96,48835,1,0,0:0:0:0:
352,96,48993,1,8,0:0:0:0:
160,96,49151,1,0,0:0:0:0:
160,96,49230,1,0,0:0:0:0:
352,96,49309,1,8,0:0:0:0:
160,96,49467,1,0,0:0:0:0:
160,96,49546,1,0,0:0:0:0:
160,96,49624,1,0,0:0:0:0:
352,96,49782,1,8,0:0:0:0:
352,96,49940,1,8,0:0:0:0:
160,96,50019,1,0,0:0:0:0:
160,96,50098,1,0,0:0:0:0:
352,96,50256,1,8,0:0:0:0:
160,96,50414,1,0,0:0:0:0:
160,96,50493,1,0,0:0:0:0:
352,96,50572,1,8,0:0:0:0:
160,96,50809,1,0,0:0:0:0:
160,96,50888,1,0,0:0:0:0:
352,96,51046,1,8,0:0:0:0:
160,96,51203,1,0,0:0:0:0:
160,96,51282,1,0,0:0:0:0:
160,96,51361,1,0,0:0:0:0:
352,96,51519,1,8,0:0:0:0:
352,96,51598,1,8,0:0:0:0:
160,96,51677,1,0,0:0:0:0:
160,96,51756,1,0,0:0:0:0:
352,96,51835,1,8,0:0:0:0:
352,96,52151,1,8,0:0:0:0:
160,96,52256,1,0,0:0:0:0:
160,96,52361,1,0,0:0:0:0:
352,96,52467,1,8,0:0:0:0:
352,96,52677,1,8,0:0:0:0:
352,96,52888,1,8,0:0:0:0:
352,96,52993,1,8,0:0:0:0:
160,288,53098,1,4,0:0:0:0:
160,96,53335,1,0,0:0:0:0:
160,96,53414,1,0,0:0:0:0:
352,96,53572,1,8,0:0:0:0:
160,96,53730,1,0,0:0:0:0:
160,96,53809,1,0,0:0:0:0:
160,96,53888,1,0,0:0:0:0:
352,96,54046,1,8,0:0:0:0:
160,96,54203,1,0,0:0:0:0:
352,96,54361,1,8,0:0:0:0:
160,96,54440,1,0,0:0:0:0:
160,96,54519,1,0,0:0:0:0:
160,96,54677,1,0,0:0:0:0:
352,96,54835,1,8,0:0:0:0:
160,96,54914,1,0,0:0:0:0:
352,96,54993,1,8,0:0:0:0:
160,96,55072,1,0,0:0:0:0:
160,96,55151,1,0,0:0:0:0:
352,96,55309,1,8,0:0:0:0:
352,96,55467,1,8,0:0:0:0:
352,96,55546,1,8,0:0:0:0:
160,96,55624,1,0,0:0:0:0:
160,96,55861,1,0,0:0:0:0:
160,96,55940,1,0,0:0:0:0:
352,96,56098,1,8,0:0:0:0:
160,96,56256,1,0,0:0:0:0:
160,96,56335,1,0,0:0:0:0:
160,96,56414,1,0,0:0:0:0:
352,96,56572,1,8,0:0:0:0:
160,96,56730,1,0,0:0:0:0:
160,96,56809,1,0,0:0:0:0:
352,96,56888,1,8,0:0:0:0:
160,96,56967,1,0,0:0:0:0:
160,96,57046,1,0,0:0:0:0:
160,96,57203,1,0,0:0:0:0:
352,96,57361,1,8,0:0:0:0:
160,96,57440,1,0,0:0:0:0:
352,96,57519,1,8,0:0:0:0:
160,96,57598,1,0,0:0:0:0:
160,96,57677,1,0,0:0:0:0:
352,96,57835,1,8,0:0:0:0:
352,96,57993,1,8,0:0:0:0:
352,96,58072,1,8,0:0:0:0:
160,96,58151,1,0,0:0:0:0:
160,96,58388,1,0,0:0:0:0:
160,96,58467,1,0,0:0:0:0:
352,96,58624,1,8,0:0:0:0:
160,96,58782,1,0,0:0:0:0:
160,96,58861,1,0,0:0:0:0:
160,96,58940,1,0,0:0:0:0:
352,96,59098,1,8,0:0:0:0:
160,96,59256,1,0,0:0:0:0:
352,96,59414,1,8,0:0:0:0:
160,96,59493,1,0,0:0:0:0:
160,96,59572,1,0,0:0:0:0:
160,96,59730,1,0,0:0:0:0:
352,96,59888,1,8,0:0:0:0:
160,96,59967,1,0,0:0:0:0:
352,96,60046,1,8,0:0:0:0:
160,96,60124,1,0,0:0:0:0:
160,96,60203,1,0,0:0:0:0:
352,96,60361,1,8,0:0:0:0:
352,96,60519,1,8,0:0:0:0:
352,96,60598,1,8,0:0:0:0:
160,96,60677,1,0,0:0:0:0:
160,96,60835,1,0,0:0:0:0:
160,96,60914,1,0,0:0:0:0:
160,96,60993,1,0,0:0:0:0:
352,96,61151,1,8,0:0:0:0:
160,96,61309,1,0,0:0:0:0:
160,96,61388,1,0,0:0:0:0:
352,96,61467,1,8,0:0:0:0:
352,96,61546,1,8,0:0:0:0:
160,96,61624,1,0,0:0:0:0:
352,96,61703,1,8,0:0:0:0:
352,96,61782,1,8,0:0:0:0:
352,96,61861,1,8,0:0:0:0:
256,192,61940,12,0,63046,0:0:0:0:
160,288,63203,5,4,0:0:0:0:
160,96,63519,1,0,0:0:0:0:
352,96,63677,1,8,0:0:0:0:
160,96,63835,1,0,0:0:0:0:
352,96,63914,1,8,0:0:0:0:
352,96,64072,1,8,0:0:0:0:
160,96,64151,1,0,0:0:0:0:
352,96,64309,1,8,0:0:0:0:
160,96,64388,1,0,0:0:0:0:
160,96,64467,1,0,0:0:0:0:
352,96,64703,1,8,0:0:0:0:
160,96,64782,1,0,0:0:0:0:
160,96,64861,1,0,0:0:0:0:
352,96,64940,1,8,0:0:0:0:
160,96,65098,1,0,0:0:0:0:
352,96,65256,1,8,0:0:0:0:
160,96,65335,1,0,0:0:0:0:
352,96,65414,1,8,0:0:0:0:
160,96,65572,1,0,0:0:0:0:
352,96,65651,1,8,0:0:0:0:
160,96,65730,1,0,0:0:0:0:
160,96,66046,1,0,0:0:0:0:
352,96,66203,1,8,0:0:0:0:
160,96,66361,1,0,0:0:0:0:
160,96,66440,1,0,0:0:0:0:
352,96,66519,1,8,0:0:0:0:
160,96,66677,1,0,0:0:0:0:
352,96,66835,1,8,0:0:0:0:
352,96,66914,1,8,0:0:0:0:
160,96,66993,1,0,0:0:0:0:
352,96,67072,1,8,0:0:0:0:
352,96,67230,1,8,0:0:0:0:
160,96,67309,1,0,0:0:0:0:
352,96,67467,1,8,0:0:0:0:
160,96,67624,1,0,0:0:0:0:
352,96,67703,1,8,0:0:0:0:
160,96,67861,1,8,0:0:0:0:
352,96,67940,1,0,0:0:0:0:
352,96,68098,1,8,0:0:0:0:
352,96,68177,1,8,0:0:0:0:
160,96,68256,1,0,0:0:0:0:
352,96,68414,1,8,0:0:0:0:
160,96,68572,1,0,0:0:0:0:
352,96,68651,1,8,0:0:0:0:
352,96,68809,1,8,0:0:0:0:
160,96,68888,1,0,0:0:0:0:
160,96,68967,1,0,0:0:0:0:
352,96,69046,1,8,0:0:0:0:
160,96,69203,1,0,0:0:0:0:
352,96,69361,1,8,0:0:0:0:
352,96,69440,1,8,0:0:0:0:
160,96,69519,1,0,0:0:0:0:
352,96,69677,1,8,0:0:0:0:
160,96,69835,1,0,0:0:0:0:
352,96,69914,1,8,0:0:0:0:
352,96,70072,1,8,0:0:0:0:
160,96,70151,1,0,0:0:0:0:
352,96,70230,1,8,0:0:0:0:
352,96,70388,1,8,0:0:0:0:
160,96,70467,1,0,0:0:0:0:
352,96,70624,1,8,0:0:0:0:
352,96,70703,1,8,0:0:0:0:
160,96,70782,1,0,0:0:0:0:
352,96,70940,1,8,0:0:0:0:
160,96,71019,1,0,0:0:0:0:
352,96,71098,1,8,0:0:0:0:
160,96,71256,1,0,0:0:0:0:
352,96,71335,1,8,0:0:0:0:
160,96,71414,1,0,0:0:0:0:
160,96,71493,1,0,0:0:0:0:
352,96,71572,1,8,0:0:0:0:
160,96,71730,1,0,0:0:0:0:
352,96,71888,1,8,0:0:0:0:
352,96,71967,1,8,0:0:0:0:
160,96,72046,1,0,0:0:0:0:
352,96,72203,1,8,0:0:0:0:
160,96,72361,1,0,0:0:0:0:
160,96,72440,1,0,0:0:0:0:
160,96,72598,1,0,0:0:0:0:
352,96,72677,1,8,0:0:0:0:
352,96,72835,1,8,0:0:0:0:
352,96,72993,1,8,0:0:0:0:
160,288,73309,1,4,0:0:0:0:
160,96,73624,1,0,0:0:0:0:
160,96,73703,1,0,0:0:0:0:
352,96,73782,1,8,0:0:0:0:
160,96,73940,1,0,0:0:0:0:
352,96,74098,1,8,0:0:0:0:
160,96,74177,1,0,0:0:0:0:
352,96,74256,1,8,0:0:0:0:
352,96,74414,1,8,0:0:0:0:
352,96,74493,1,8,0:0:0:0:
160,96,74572,1,0,0:0:0:0:
352,96,74730,1,8,0:0:0:0:
160,96,74888,1,0,0:0:0:0:
352,96,74967,1,8,0:0:0:0:
352,96,75124,1,8,0:0:0:0:
160,96,75203,1,0,0:0:0:0:
352,96,75361,1,8,0:0:0:0:
352,96,75440,1,8,0:0:0:0:
160,96,75519,1,0,0:0:0:0:
352,96,75598,1,8,0:0:0:0:
352,96,75756,1,8,0:0:0:0:
160,96,75835,1,0,0:0:0:0:
352,96,76072,1,8,0:0:0:0:
160,96,76151,1,0,0:0:0:0:
160,96,76230,1,0,0:0:0:0:
352,96,76309,1,8,0:0:0:0:
160,96,76467,1,0,0:0:0:0:
352,96,76624,1,8,0:0:0:0:
160,96,76703,1,0,0:0:0:0:
352,96,76782,1,8,0:0:0:0:
352,96,76940,1,8,0:0:0:0:
352,96,77019,1,8,0:0:0:0:
160,96,77098,1,0,0:0:0:0:
160,96,77177,1,0,0:0:0:0:
352,96,77335,1,8,0:0:0:0:
160,96,77414,1,0,0:0:0:0:
352,96,77572,1,8,0:0:0:0:
160,96,77730,1,0,0:0:0:0:
352,96,77809,1,8,0:0:0:0:
352,96,77967,1,8,0:0:0:0:
160,96,78046,1,0,0:0:0:0:
352,96,78203,1,8,0:0:0:0:
352,96,78282,1,8,0:0:0:0:
160,96,78361,1,0,0:0:0:0:
352,96,78440,1,8,0:0:0:0:
352,96,78598,1,8,0:0:0:0:
160,96,78677,1,0,0:0:0:0:
160,96,78756,1,0,0:0:0:0:
352,96,78835,1,8,0:0:0:0:
160,96,78993,1,0,0:0:0:0:
352,96,79151,1,8,0:0:0:0:
352,96,79230,1,8,0:0:0:0:
160,96,79309,1,0,0:0:0:0:
352,96,79467,1,8,0:0:0:0:
160,96,79624,1,0,0:0:0:0:
160,96,79703,1,0,0:0:0:0:
352,96,79782,1,8,0:0:0:0:
160,96,79940,1,0,0:0:0:0:
352,96,80019,1,8,0:0:0:0:
352,96,80098,1,8,0:0:0:0:
352,96,80177,1,8,0:0:0:0:
160,96,80256,1,0,0:0:0:0:
352,96,80335,1,8,0:0:0:0:
352,96,80493,1,8,0:0:0:0:
160,96,80572,1,0,0:0:0:0:
352,96,80730,1,8,0:0:0:0:
352,96,80809,1,8,0:0:0:0:
160,96,80888,1,0,0:0:0:0:
352,96,81046,1,8,0:0:0:0:
160,96,81124,1,0,0:0:0:0:
352,96,81203,1,8,0:0:0:0:
160,96,81361,1,0,0:0:0:0:
352,96,81440,1,8,0:0:0:0:
160,96,81519,1,0,0:0:0:0:
160,96,81598,1,0,0:0:0:0:
352,96,81677,1,8,0:0:0:0:
160,96,81835,1,0,0:0:0:0:
352,96,81993,1,8,0:0:0:0:
352,96,82072,1,8,0:0:0:0:
160,96,82151,1,0,0:0:0:0:
352,96,82309,1,8,0:0:0:0:
160,96,82467,5,0,0:0:0:0:
352,96,82546,1,8,0:0:0:0:
160,96,82624,1,0,0:0:0:0:
352,96,82703,1,8,0:0:0:0:
160,96,82782,1,0,0:0:0:0:
352,96,82940,1,8,0:0:0:0:
160,96,83098,1,0,0:0:0:0:
352,288,83414,5,12,0:0:0:0:
160,96,85940,5,0,0:0:0:0:
160,96,86098,1,0,0:0:0:0:
160,96,86256,1,0,0:0:0:0:
160,96,86414,1,0,0:0:0:0:
160,96,86572,1,0,0:0:0:0:
160,96,86730,1,0,0:0:0:0:
160,96,86888,1,0,0:0:0:0:
160,96,87046,1,0,0:0:0:0:
352,96,87203,1,8,0:0:0:0:
160,96,87361,1,0,0:0:0:0:
352,96,87440,1,8,0:0:0:0:
160,96,87519,1,0,0:0:0:0:
352,96,87677,1,8,0:0:0:0:
160,96,87835,1,0,0:0:0:0:
352,96,87914,1,8,0:0:0:0:
160,96,87993,1,0,0:0:0:0:
352,96,88151,1,8,0:0:0:0:
160,96,88309,1,0,0:0:0:0:
352,96,88467,1,12,0:0:0:0:
160,96,88624,1,0,0:0:0:0:
352,96,88782,1,8,0:0:0:0:
160,96,88861,1,0,0:0:0:0:
160,96,88940,1,0,0:0:0:0:
352,96,89098,1,8,0:0:0:0:
160,96,89256,1,0,0:0:0:0:
352,96,89414,1,8,0:0:0:0:
352,96,89493,1,8,0:0:0:0:
160,96,89572,1,0,0:0:0:0:
352,96,89730,1,8,0:0:0:0:
160,96,89888,1,0,0:0:0:0:
160,96,89967,1,0,0:0:0:0:
352,96,90046,1,8,0:0:0:0:
160,96,90124,1,0,0:0:0:0:
160,96,90203,1,0,0:0:0:0:
352,96,90361,1,8,0:0:0:0:
160,96,90519,1,0,0:0:0:0:
160,96,90598,1,0,0:0:0:0:
352,96,90677,1,8,0:0:0:0:
352,96,90756,1,8,0:0:0:0:
160,96,90835,1,0,0:0:0:0:
352,96,90993,1,8,0:0:0:0:
160,96,91072,1,0,0:0:0:0:
160,96,91151,1,0,0:0:0:0:
160,96,91230,1,0,0:0:0:0:
352,96,91309,1,8,0:0:0:0:
352,96,91388,1,8,0:0:0:0:
160,96,91467,1,0,0:0:0:0:
160,96,91546,1,0,0:0:0:0:
352,96,91624,1,8,0:0:0:0:
160,96,91703,1,0,0:0:0:0:
352,96,91782,1,8,0:0:0:0:
160,96,91861,1,0,0:0:0:0:
352,96,91940,1,8,0:0:0:0:
352,96,92019,1,8,0:0:0:0:
160,96,92098,1,0,0:0:0:0:
352,96,92177,1,8,0:0:0:0:
160,96,92256,1,0,0:0:0:0:
352,288,93203,1,12,0:0:0:0:
160,288,93519,5,4,0:0:0:0:
352,96,93756,1,8,0:0:0:0:
160,96,93835,1,0,0:0:0:0:
352,96,93993,1,8,0:0:0:0:
160,96,94151,1,0,0:0:0:0:
352,96,94230,1,8,0:0:0:0:
352,96,94388,1,8,0:0:0:0:
160,96,94467,1,0,0:0:0:0:
160,96,94546,1,0,0:0:0:0:
352,96,94624,1,8,0:0:0:0:
160,96,94782,1,0,0:0:0:0:
352,96,94940,1,8,0:0:0:0:
352,96,95019,1,8,0:0:0:0:
160,96,95098,1,0,0:0:0:0:
352,96,95256,1,8,0:0:0:0:
160,96,95414,1,0,0:0:0:0:
352,96,95493,1,8,0:0:0:0:
352,96,95572,1,8,0:0:0:0:
352,96,95651,1,8,0:0:0:0:
160,96,95730,1,0,0:0:0:0:
160,96,95888,1,0,0:0:0:0:
352,96,95967,1,8,0:0:0:0:
160,96,96046,1,0,0:0:0:0:
352,96,96124,1,8,0:0:0:0:
352,96,96203,1,8,0:0:0:0:
160,96,96361,1,0,0:0:0:0:
352,96,96519,1,8,0:0:0:0:
352,96,96598,1,8,0:0:0:0:
160,96,96677,1,0,0:0:0:0:
352,96,96835,1,8,0:0:0:0:
160,96,96993,1,0,0:0:0:0:
352,96,97072,1,8,0:0:0:0:
160,96,97151,1,0,0:0:0:0:
160,96,97230,1,0,0:0:0:0:
352,288,97309,1,12,0:0:0:0:
350,258,97888,1,8,0:0:0:0:
349,244,98177,1,8,0:0:0:0:
160,288,98572,5,4,0:0:0:0:
352,96,98730,1,8,0:0:0:0:
160,96,98888,1,0,0:0:0:0:
352,96,98967,1,8,0:0:0:0:
352,96,99124,1,8,0:0:0:0:
160,96,99203,1,0,0:0:0:0:
352,96,99361,1,8,0:0:0:0:
160,96,99519,1,0,0:0:0:0:
160,96,99598,1,0,0:0:0:0:
352,96,99677,1,8,0:0:0:0:
352,96,99756,1,8,0:0:0:0:
160,96,99835,1,0,0:0:0:0:
352,96,99993,1,8,0:0:0:0:
160,96,100151,1,0,0:0:0:0:
352,96,100230,1,8,0:0:0:0:
160,96,100309,1,0,0:0:0:0:
160,96,100388,1,0,0:0:0:0:
352,96,100467,1,8,0:0:0:0:
160,96,100519,1,0,0:0:0:0:
160,96,100572,1,0,0:0:0:0:
352,96,100624,1,8,0:0:0:0:
352,96,100703,1,8,0:0:0:0:
160,96,100782,1,0,0:0:0:0:
352,96,100940,1,8,0:0:0:0:
352,96,101019,1,8,0:0:0:0:
160,96,101098,1,0,0:0:0:0:
352,96,101177,1,8,0:0:0:0:
352,96,101256,1,8,0:0:0:0:
160,96,101414,1,0,0:0:0:0:
352,96,101572,1,8,0:0:0:0:
352,96,101651,1,8,0:0:0:0:
160,96,101730,1,0,0:0:0:0:
352,96,101888,1,8,0:0:0:0:
160,96,102046,1,0,0:0:0:0:
352,96,102124,1,8,0:0:0:0:
160,96,102203,1,0,0:0:0:0:
160,288,102361,1,4,0:0:0:0:
160,96,102572,1,0,0:0:0:0:
352,96,102677,1,12,0:0:0:0:
352,96,102888,1,8,0:0:0:0:
160,96,102993,1,0,0:0:0:0:
160,96,103098,1,0,0:0:0:0:
160,96,103203,1,0,0:0:0:0:
352,96,103309,1,8,0:0:0:0:
160,288,103624,5,4,0:0:0:0:
160,288,103782,1,4,0:0:0:0:
160,288,103940,1,4,0:0:0:0:
352,96,104177,1,8,0:0:0:0:
160,96,104256,1,0,0:0:0:0:
352,96,104414,1,8,0:0:0:0:
160,96,104572,1,0,0:0:0:0:
160,96,104651,1,0,0:0:0:0:
352,96,104730,1,8,0:0:0:0:
160,96,104888,1,0,0:0:0:0:
352,96,105046,1,8,0:0:0:0:
352,96,105124,1,8,0:0:0:0:
160,96,105203,1,0,0:0:0:0:
160,96,105361,1,0,0:0:0:0:
160,96,105440,1,0,0:0:0:0:
160,96,105519,1,0,0:0:0:0:
352,96,105677,1,8,0:0:0:0:
160,96,105835,1,0,0:0:0:0:
352,96,105914,1,8,0:0:0:0:
160,96,105993,1,0,0:0:0:0:
160,96,106072,1,0,0:0:0:0:
160,96,106151,1,0,0:0:0:0:
352,96,106230,1,8,0:0:0:0:
352,96,106388,1,8,0:0:0:0:
160,96,106467,1,0,0:0:0:0:
160,96,106546,1,0,0:0:0:0:
352,96,106624,1,8,0:0:0:0:
160,96,106782,1,0,0:0:0:0:
352,96,106940,1,8,0:0:0:0:
352,96,107019,1,8,0:0:0:0:
160,96,107098,1,0,0:0:0:0:
160,96,107177,1,0,0:0:0:0:
352,96,107256,1,8,0:0:0:0:
160,288,107414,1,4,0:0:0:0:
256,192,108046,12,0,108519,0:0:0:0:
160,288,108677,5,4,0:0:0:0:
160,288,108835,1,4,0:0:0:0:
160,288,108993,1,4,0:0:0:0:
352,96,109230,1,8,0:0:0:0:
160,96,109309,1,0,0:0:0:0:
352,96,109467,1,8,0:0:0:0:
160,96,109624,1,0,0:0:0:0:
352,96,109703,1,8,0:0:0:0:
160,96,109782,1,0,0:0:0:0:
160,96,109861,1,0,0:0:0:0:
160,96,109940,1,0,0:0:0:0:
352,96,110098,1,8,0:0:0:0:
160,96,110256,1,0,0:0:0:0:
352,96,110335,1,8,0:0:0:0:
160,96,110414,1,0,0:0:0:0:
352,96,110572,1,8,0:0:0:0:
352,96,110651,1,8,0:0:0:0:
160,96,110730,1,0,0:0:0:0:
352,96,110782,1,8,0:0:0:0:
352,96,110835,1,8,0:0:0:0:
160,96,110888,1,0,0:0:0:0:
160,96,110967,1,0,0:0:0:0:
352,96,111046,1,8,0:0:0:0:
352,96,111124,1,8,0:0:0:0:
160,96,111203,1,0,0:0:0:0:
352,96,111282,1,8,0:0:0:0:
352,96,111440,1,8,0:0:0:0:
160,96,111519,1,0,0:0:0:0:
352,96,111677,1,8,0:0:0:0:
352,96,111756,1,8,0:0:0:0:
160,96,111835,1,0,0:0:0:0:
352,96,111993,1,8,0:0:0:0:
160,96,112151,1,0,0:0:0:0:
352,96,112230,1,8,0:0:0:0:
160,96,112309,1,0,0:0:0:0:
160,96,112388,1,0,0:0:0:0:
160,96,112467,1,0,0:0:0:0:
352,96,112624,1,8,0:0:0:0:
352,96,112782,5,8,0:0:0:0:
352,96,112861,1,8,0:0:0:0:
352,96,113019,1,8,0:0:0:0:
352,96,113098,1,8,0:0:0:0:
160,288,113730,5,4,0:0:0:0:
160,288,114046,1,4,0:0:0:0:
160,288,114361,1,4,0:0:0:0:
160,288,114677,1,4,0:0:0:0:
352,96,114835,1,8,0:0:0:0:
160,288,114993,1,4,0:0:0:0:
160,288,115309,1,4,0:0:0:0:
160,96,115467,1,0,0:0:0:0:
160,288,115624,1,4,0:0:0:0:
352,288,115940,1,12,0:0:0:0:
352,96,116098,1,8,0:0:0:0:
160,288,116256,1,4,0:0:0:0:
160,288,116572,1,4,0:0:0:0:
160,288,116888,1,4,0:0:0:0:
160,288,117203,1,4,0:0:0:0:
352,96,117361,1,8,0:0:0:0:
160,288,117519,1,4,0:0:0:0:
160,288,117835,1,4,0:0:0:0:
160,288,117993,1,4,0:0:0:0:
160,288,118151,1,4,0:0:0:0:
160,96,118309,1,0,0:0:0:0:
352,96,118467,1,8,0:0:0:0:
160,288,118782,5,4,0:0:0:0:
160,288,119098,1,4,0:0:0:0:
160,288,119414,1,4,0:0:0:0:
160,288,119730,1,4,0:0:0:0:
352,96,119888,1,8,0:0:0:0:
160,288,120046,1,4,0:0:0:0:
160,288,120361,1,4,0:0:0:0:
160,96,120519,1,0,0:0:0:0:
160,288,120677,1,4,0:0:0:0:
352,288,120993,1,12,0:0:0:0:
352,96,121151,1,8,0:0:0:0:
160,288,121309,1,4,0:0:0:0:
160,288,121624,1,4,0:0:0:0:
160,288,121940,1,4,0:0:0:0:
160,288,122256,1,4,0:0:0:0:
160,96,122414,1,0,0:0:0:0:
160,288,122572,1,4,0:0:0:0:
160,288,123835,1,4,0:0:0:0:
160,96,124151,1,8,0:0:0:0:
160,96,124467,1,0,0:0:0:0:
160,96,124624,1,0,0:0:0:0:
352,96,124782,1,8,0:0:0:0:
352,96,124940,1,8,0:0:0:0:
160,96,125098,1,0,0:0:0:0:
160,96,125335,1,0,0:0:0:0:
352,96,125414,1,8,0:0:0:0:
352,96,125572,1,8,0:0:0:0:
160,96,125730,1,0,0:0:0:0:
160,96,125888,1,0,0:0:0:0:
352,288,126046,1,12,0:0:0:0:
160,96,126361,1,0,0:0:0:0:
160,96,126677,1,8,0:0:0:0:
160,96,126993,1,0,0:0:0:0:
160,96,127151,1,0,0:0:0:0:
352,96,127309,1,8,0:0:0:0:
352,96,127467,1,8,0:0:0:0:
160,96,127624,1,0,0:0:0:0:
160,96,127835,1,0,0:0:0:0:
352,96,127940,1,8,0:0:0:0:
352,96,128151,1,8,0:0:0:0:
160,96,128256,1,0,0:0:0:0:
160,96,128414,1,0,0:0:0:0:
352,96,128572,1,8,0:0:0:0:
352,96,128651,1,8,0:0:0:0:
160,96,128730,1,0,0:0:0:0:
160,96,128888,1,0,0:0:0:0:
160,96,129203,1,8,0:0:0:0:
160,96,129519,1,0,0:0:0:0:
160,96,129677,1,0,0:0:0:0:
352,96,129835,1,8,0:0:0:0:
352,96,129993,1,8,0:0:0:0:
160,96,130151,1,0,0:0:0:0:
160,96,130388,1,0,0:0:0:0:
352,96,130467,1,8,0:0:0:0:
352,96,130624,1,8,0:0:0:0:
160,96,130782,1,0,0:0:0:0:
160,96,130940,1,0,0:0:0:0:
352,288,131098,1,12,0:0:0:0:
160,96,131414,1,0,0:0:0:0:
160,96,131624,1,0,0:0:0:0:
352,96,131730,1,8,0:0:0:0:
352,96,131940,1,8,0:0:0:0:
160,96,132046,1,0,0:0:0:0:
352,96,132151,1,0,0:0:0:0:
352,96,132256,1,0,0:0:0:0:
160,96,132361,1,8,0:0:0:0:
352,96,132572,1,8,0:0:0:0:
160,96,132677,1,0,0:0:0:0:
352,288,133940,1,12,0:0:0:0:
256,192,134019,12,12,137730,0:0:0:0:
