osu file format v14

[General]
AudioFilename: audio.MP3
AudioLeadIn: 0
PreviewTime: 83174
Countdown: 0
SampleSet: Normal
StackLeniency: 0.7
Mode: 3
LetterboxInBreaks: 0
SpecialStyle: 0
WidescreenStoryboard: 1

[Editor]
DistanceSpacing: 0.8
BeatDivisor: 12
GridSize: 32
TimelineZoom: 2.799999

[Metadata]
Title:Sound Chimera
TitleUnicode:Sound Chimera
Artist:Laur
ArtistUnicode:Laur
Creator:Toaph Daddy
Version:Polymerization
Source:
Tags:guilhermeziat electronic instrumental tano*c video game the angel's message trance psytrance psychedelic hardcore frenchcore wacca maimai でらっくす Splash PLUS Deluxe CHUNITHM CRYSTAL PLUS オンゲキ R.E.D. Ongeki
BeatmapID:2917733
BeatmapSetID:1415755

[Difficulty]
HPDrainRate:8
CircleSize:4
OverallDifficulty:8
ApproachRate:5
SliderMultiplier:1.4
SliderTickRate:1

[Events]
//Background and Video events
0,0,"sc bg.jpg",0,0
//Break Periods
//Storyboard Layer 0 (Background)
//Storyboard Layer 1 (Fail)
//Storyboard Layer 2 (Pass)
//Storyboard Layer 3 (Foreground)
//Storyboard Layer 4 (Overlay)
//Storyboard Sound Samples

[TimingPoints]
2548,315.789473684211,4,1,1,60,1,0
133916,-100,4,1,1,100,0,1
154126,434.782608695652,4,1,1,60,1,0
154126,-72.992700729927,4,1,1,60,0,0
228691,-72.992700729927,4,1,1,80,0,0
229345,413.793103448276,4,1,1,80,1,0
229345,-76.3358778625954,4,1,1,80,0,0
230586,400,4,1,1,80,1,0
230586,-78.7401574803149,4,1,1,80,0,0
232186,375,4,1,1,80,1,0
232186,-84.0336134453781,4,1,1,80,0,0
233677,352.941176470588,4,1,1,80,1,0
233677,-89.2857142857143,4,1,1,80,0,0
235088,342.857142857143,4,1,1,80,1,0
235088,-91.743119266055,4,1,1,80,0,0
236459,324.324324324324,4,1,1,80,1,0
236459,-97.0873786407767,4,1,1,80,0,0
239019,315.789473684211,4,1,1,60,1,0
239019,-100,4,1,1,60,0,0
259229,-100,4,1,1,100,0,1
279440,-100,4,1,1,60,0,0

[HitObjects]
64,192,2548,5,0,0:0:0:0:
320,192,2548,1,0,0:0:0:0:
192,192,2705,1,0,0:0:0:0:
448,192,2863,1,0,0:0:0:0:
320,192,2863,1,0,0:0:0:0:
320,192,3021,1,0,0:0:0:0:
64,192,3021,1,0,0:0:0:0:
192,192,3179,1,0,0:0:0:0:
192,192,3337,1,0,0:0:0:0:
448,192,3495,1,0,0:0:0:0:
320,192,3495,1,0,0:0:0:0:
320,192,3653,1,0,0:0:0:0:
64,192,3653,1,0,0:0:0:0:
192,192,3811,1,0,0:0:0:0:
192,192,3969,1,0,0:0:0:0:
448,192,4126,1,0,0:0:0:0:
320,192,4126,1,0,0:0:0:0:
320,192,4284,1,0,0:0:0:0:
64,192,4284,1,0,0:0:0:0:
192,192,4442,1,0,0:0:0:0:
192,192,4600,1,0,0:0:0:0:
448,192,4758,1,0,0:0:0:0:
320,192,4758,1,0,0:0:0:0:
192,192,4916,1,0,0:0:0:0:
320,192,5074,1,0,0:0:0:0:
64,192,5074,1,0,0:0:0:0:
192,192,5232,1,0,0:0:0:0:
448,192,5390,1,0,0:0:0:0:
320,192,5390,1,0,0:0:0:0:
320,192,5548,1,0,0:0:0:0:
64,192,5548,1,0,0:0:0:0:
192,192,5705,1,0,0:0:0:0:
192,192,5863,1,0,0:0:0:0:
448,192,6021,1,0,0:0:0:0:
320,192,6021,1,0,0:0:0:0:
320,192,6179,1,0,0:0:0:0:
64,192,6179,1,0,0:0:0:0:
192,192,6337,1,0,0:0:0:0:
192,192,6495,1,0,0:0:0:0:
448,192,6653,1,0,0:0:0:0:
320,192,6653,1,0,0:0:0:0:
320,192,6811,1,0,0:0:0:0:
64,192,6811,1,0,0:0:0:0:
192,192,6969,1,0,0:0:0:0:
192,192,7126,1,0,0:0:0:0:
448,192,7284,1,0,0:0:0:0:
320,192,7284,1,0,0:0:0:0:
192,192,7442,1,0,0:0:0:0:
320,192,7600,1,0,0:0:0:0:
64,192,7600,128,0,7916:0:0:0:0:
192,192,7758,1,0,0:0:0:0:
448,192,7916,128,0,8074:0:0:0:0:
320,192,7916,1,0,0:0:0:0:
64,192,8074,1,0,0:0:0:0:
192,192,8126,128,0,8548:0:0:0:0:
320,192,8232,1,0,0:0:0:0:
64,192,8232,1,0,0:0:0:0:
448,192,8390,1,0,0:0:0:0:
320,192,8390,1,0,0:0:0:0:
64,192,8548,128,0,8626:0:0:0:0:
320,192,8705,1,0,0:0:0:0:
64,192,8705,1,0,0:0:0:0:
192,192,8863,128,0,9100:0:0:0:0:
448,192,9021,1,0,0:0:0:0:
320,192,9021,1,0,0:0:0:0:
64,192,9100,1,0,0:0:0:0:
448,192,9179,1,0,0:0:0:0:
320,192,9337,1,0,0:0:0:0:
64,192,9337,1,0,0:0:0:0:
192,192,9495,1,0,0:0:0:0:
192,192,9653,1,0,0:0:0:0:
448,192,9811,128,0,9969:0:0:0:0:
320,192,9811,1,0,0:0:0:0:
192,192,9969,1,0,0:0:0:0:
320,192,10126,128,0,10205:0:0:0:0:
64,192,10126,128,0,10284:0:0:0:0:
192,192,10284,1,0,0:0:0:0:
448,192,10442,128,0,10521:0:0:0:0:
320,192,10442,1,0,0:0:0:0:
192,192,10600,1,0,0:0:0:0:
448,192,10705,1,0,0:0:0:0:
320,192,10758,128,0,10837:0:0:0:0:
64,192,10758,1,0,0:0:0:0:
448,192,10916,1,0,0:0:0:0:
320,192,10916,1,0,0:0:0:0:
64,192,10969,128,0,11021:0:0:0:0:
192,192,11074,1,0,0:0:0:0:
448,192,11126,128,0,11232:0:0:0:0:
320,192,11232,1,0,0:0:0:0:
64,192,11232,1,0,0:0:0:0:
192,192,11390,128,0,12258:0:0:0:0:
320,192,11548,1,0,0:0:0:0:
64,192,11705,1,0,0:0:0:0:
448,192,11758,1,0,0:0:0:0:
320,192,11811,1,0,0:0:0:0:
64,192,11863,128,0,12495:0:0:0:0:
448,192,12021,1,0,0:0:0:0:
448,192,12179,1,0,0:0:0:0:
192,192,12337,1,0,0:0:0:0:
320,192,12337,1,0,0:0:0:0:
448,192,12495,1,0,0:0:0:0:
320,192,12653,128,0,12969:0:0:0:0:
192,192,12653,1,0,0:0:0:0:
64,192,12653,1,0,0:0:0:0:
448,192,12811,1,0,0:0:0:0:
448,192,12969,1,0,0:0:0:0:
192,192,12969,1,0,0:0:0:0:
64,192,13126,128,0,14942:0:0:0:0:
192,192,13126,1,0,0:0:0:0:
448,192,13284,1,0,0:0:0:0:
192,192,13442,1,0,0:0:0:0:
448,192,13600,1,0,0:0:0:0:
320,192,13600,1,0,0:0:0:0:
448,192,13758,1,0,0:0:0:0:
192,192,13758,1,0,0:0:0:0:
192,192,13916,1,0,0:0:0:0:
320,192,14074,1,0,0:0:0:0:
448,192,14232,1,0,0:0:0:0:
320,192,14232,1,0,0:0:0:0:
448,192,14390,1,0,0:0:0:0:
192,192,14390,1,0,0:0:0:0:
192,192,14548,1,0,0:0:0:0:
320,192,14705,1,0,0:0:0:0:
448,192,14863,1,0,0:0:0:0:
320,192,14863,1,0,0:0:0:0:
64,192,15021,128,0,15100:0:0:0:0:
320,192,15179,1,0,0:0:0:0:
64,192,15179,128,0,15337:0:0:0:0:
192,192,15337,1,0,0:0:0:0:
448,192,15495,128,0,15548:0:0:0:0:
64,192,15495,1,0,0:0:0:0:
320,192,15548,128,0,15626:0:0:0:0:
192,192,15626,128,0,15705:0:0:0:0:
448,192,15653,1,0,0:0:0:0:
320,192,15705,128,0,15890:0:0:0:0:
192,192,15811,1,0,0:0:0:0:
64,192,15969,128,0,16758:0:0:0:0:
448,192,16126,1,0,0:0:0:0:
320,192,16126,1,0,0:0:0:0:
448,192,16284,1,0,0:0:0:0:
192,192,16284,1,0,0:0:0:0:
192,192,16442,128,0,16679:0:0:0:0:
448,192,16600,1,0,0:0:0:0:
320,192,16679,128,0,16758:0:0:0:0:
448,192,16758,128,0,17705:0:0:0:0:
192,192,16758,1,0,0:0:0:0:
320,192,16916,1,0,0:0:0:0:
64,192,16916,1,0,0:0:0:0:
320,192,17074,1,0,0:0:0:0:
192,192,17232,1,0,0:0:0:0:
192,192,17390,1,0,0:0:0:0:
64,192,17390,1,0,0:0:0:0:
320,192,17548,1,0,0:0:0:0:
320,192,17705,128,0,18021:0:0:0:0:
64,192,17705,1,0,0:0:0:0:
192,192,17863,1,0,0:0:0:0:
192,192,18021,128,0,19995:0:0:0:0:
64,192,18021,128,0,18258:0:0:0:0:
448,192,18179,1,0,0:0:0:0:
320,192,18258,128,0,18495:0:0:0:0:
64,192,18337,1,0,0:0:0:0:
448,192,18495,1,0,0:0:0:0:
64,192,18495,128,0,18653:0:0:0:0:
320,192,18653,128,0,18732:0:0:0:0:
64,192,18732,128,0,18811:0:0:0:0:
320,192,18811,128,0,19048:0:0:0:0:
64,192,18969,1,0,0:0:0:0:
448,192,19048,128,0,20153:0:0:0:0:
320,192,19126,1,0,0:0:0:0:
64,192,19126,1,0,0:0:0:0:
320,192,19284,1,0,0:0:0:0:
64,192,19442,1,0,0:0:0:0:
320,192,19600,1,0,0:0:0:0:
320,192,19758,1,0,0:0:0:0:
320,192,19916,1,0,0:0:0:0:
64,192,19916,1,0,0:0:0:0:
192,192,20074,128,0,20153:0:0:0:0:
448,192,20232,128,0,20390:0:0:0:0:
320,192,20232,128,0,20390:0:0:0:0:
64,192,20390,1,0,0:0:0:0:
192,192,20548,128,0,20626:0:0:0:0:
64,192,20548,1,0,0:0:0:0:
320,192,20626,128,0,20705:0:0:0:0:
192,192,20705,128,0,20784:0:0:0:0:
320,192,20784,128,0,21021:0:0:0:0:
448,192,20863,128,0,22126:0:0:0:0:
192,192,21021,1,0,0:0:0:0:
64,192,21021,128,0,21811:0:0:0:0:
320,192,21179,1,0,0:0:0:0:
192,192,21337,1,0,0:0:0:0:
192,192,21495,1,0,0:0:0:0:
320,192,21574,1,0,0:0:0:0:
192,192,21653,1,0,0:0:0:0:
320,192,21732,1,0,0:0:0:0:
192,192,21811,1,0,0:0:0:0:
320,192,21863,1,0,0:0:0:0:
64,192,21916,1,0,0:0:0:0:
192,192,21969,1,0,0:0:0:0:
320,192,22021,1,0,0:0:0:0:
64,192,22074,1,0,0:0:0:0:
192,192,22126,1,0,0:0:0:0:
320,192,22172,1,0,0:0:0:0:
448,192,22217,1,0,0:0:0:0:
64,192,22262,1,0,0:0:0:0:
192,192,22307,1,0,0:0:0:0:
320,192,22352,1,0,0:0:0:0:
448,192,22397,1,0,0:0:0:0:
192,192,22442,1,0,0:0:0:0:
64,192,22482,1,0,0:0:0:0:
448,192,22521,1,0,0:0:0:0:
320,192,22561,1,0,0:0:0:0:
192,192,22600,1,0,0:0:0:0:
64,192,22640,1,0,0:0:0:0:
448,192,22679,1,0,0:0:0:0:
320,192,22719,1,0,0:0:0:0:
192,192,22758,128,0,25126:0:0:0:0:
64,192,22758,128,0,24653:0:0:0:0:
448,192,23074,1,0,0:0:0:0:
320,192,23390,1,0,0:0:0:0:
448,192,23705,1,0,0:0:0:0:
320,192,24021,1,0,0:0:0:0:
448,192,24337,1,0,0:0:0:0:
320,192,24653,128,0,25126:0:0:0:0:
64,192,24969,1,0,0:0:0:0:
448,192,25284,128,0,27179:0:0:0:0:
320,192,25284,128,0,27179:0:0:0:0:
64,192,25600,1,0,0:0:0:0:
192,192,25916,1,0,0:0:0:0:
64,192,26232,1,0,0:0:0:0:
192,192,26548,1,0,0:0:0:0:
64,192,26863,1,0,0:0:0:0:
192,192,27179,128,0,27337:0:0:0:0:
64,192,27337,128,0,27653:0:0:0:0:
320,192,27495,1,0,0:0:0:0:
448,192,27811,128,0,30337:0:0:0:0:
64,192,27811,128,0,27969:0:0:0:0:
192,192,27969,128,0,30337:0:0:0:0:
320,192,28126,1,0,0:0:0:0:
64,192,28442,1,0,0:0:0:0:
320,192,28758,1,0,0:0:0:0:
64,192,29074,1,0,0:0:0:0:
320,192,29390,1,0,0:0:0:0:
64,192,29705,1,0,0:0:0:0:
320,192,30021,1,0,0:0:0:0:
320,192,30337,128,0,30495:0:0:0:0:
192,192,30416,128,0,30495:0:0:0:0:
64,192,30653,128,0,30890:0:0:0:0:
448,192,30811,128,0,30890:0:0:0:0:
192,192,30969,128,0,31205:0:0:0:0:
448,192,31008,128,0,31205:0:0:0:0:
64,192,31284,128,0,31521:0:0:0:0:
320,192,31324,128,0,31521:0:0:0:0:
448,192,31600,1,0,0:0:0:0:
192,192,31640,128,0,31758:0:0:0:0:
320,192,31758,128,0,31916:0:0:0:0:
448,192,31916,128,0,31995:0:0:0:0:
192,192,31955,128,0,31995:0:0:0:0:
64,192,32074,128,0,32153:0:0:0:0:
320,192,32113,128,0,32153:0:0:0:0:
192,192,32232,128,0,32284:0:0:0:0:
320,192,32337,128,0,32390:0:0:0:0:
320,192,32442,128,0,32495:0:0:0:0:
448,192,32548,128,0,32863:0:0:0:0:
64,192,32548,128,0,32863:0:0:0:0:
320,192,32863,1,0,0:0:0:0:
192,192,32863,1,0,0:0:0:0:
320,192,33041,1,0,0:0:0:0:
192,192,33224,1,0,0:0:0:0:
192,192,33390,1,0,0:0:0:0:
64,192,33495,128,0,33811:0:0:0:0:
320,192,33534,1,0,0:0:0:0:
192,192,33600,1,0,0:0:0:0:
320,192,33811,1,0,0:0:0:0:
192,192,33811,128,0,34126:0:0:0:0:
320,192,34166,1,0,0:0:0:0:
448,192,34337,1,0,0:0:0:0:
192,192,34390,1,0,0:0:0:0:
320,192,34442,1,0,0:0:0:0:
64,192,34442,1,0,0:0:0:0:
448,192,34705,1,0,0:0:0:0:
64,192,34758,128,0,35074:0:0:0:0:
320,192,34798,1,0,0:0:0:0:
192,192,34863,1,0,0:0:0:0:
320,192,35074,128,0,35390:0:0:0:0:
192,192,35100,1,0,0:0:0:0:
448,192,35133,1,0,0:0:0:0:
64,192,35205,1,0,0:0:0:0:
448,192,35390,1,0,0:0:0:0:
64,192,35390,1,0,0:0:0:0:
448,192,35600,1,0,0:0:0:0:
64,192,35600,1,0,0:0:0:0:
192,192,35758,1,0,0:0:0:0:
448,192,35903,1,0,0:0:0:0:
320,192,36021,128,0,36337:0:0:0:0:
64,192,36061,1,0,0:0:0:0:
192,192,36126,1,0,0:0:0:0:
448,192,36337,128,0,36653:0:0:0:0:
64,192,36337,1,0,0:0:0:0:
320,192,36521,1,0,0:0:0:0:
192,192,36705,1,0,0:0:0:0:
64,192,36850,1,0,0:0:0:0:
448,192,36969,1,0,0:0:0:0:
64,192,36969,1,0,0:0:0:0:
192,192,37126,1,0,0:0:0:0:
320,192,37284,128,0,37600:0:0:0:0:
64,192,37324,1,0,0:0:0:0:
192,192,37390,1,0,0:0:0:0:
448,192,37600,128,0,37916:0:0:0:0:
64,192,37626,1,0,0:0:0:0:
192,192,37679,1,0,0:0:0:0:
320,192,37732,1,0,0:0:0:0:
320,192,37916,1,0,0:0:0:0:
192,192,37916,1,0,0:0:0:0:
192,192,38153,1,0,0:0:0:0:
320,192,38271,1,0,0:0:0:0:
192,192,38442,1,0,0:0:0:0:
64,192,38548,128,0,38863:0:0:0:0:
448,192,38587,1,0,0:0:0:0:
320,192,38653,1,0,0:0:0:0:
320,192,38863,1,0,0:0:0:0:
192,192,38863,128,0,39179:0:0:0:0:
320,192,39021,1,0,0:0:0:0:
448,192,39179,1,0,0:0:0:0:
320,192,39495,1,0,0:0:0:0:
192,192,39495,1,0,0:0:0:0:
192,192,39653,1,0,0:0:0:0:
64,192,39811,128,0,40126:0:0:0:0:
320,192,39850,1,0,0:0:0:0:
192,192,39916,1,0,0:0:0:0:
448,192,39969,1,0,0:0:0:0:
320,192,40126,128,0,40442:0:0:0:0:
192,192,40153,1,0,0:0:0:0:
448,192,40205,1,0,0:0:0:0:
64,192,40258,1,0,0:0:0:0:
448,192,40442,1,0,0:0:0:0:
64,192,40442,1,0,0:0:0:0:
448,192,40653,1,0,0:0:0:0:
64,192,40653,1,0,0:0:0:0:
192,192,40811,1,0,0:0:0:0:
448,192,40955,1,0,0:0:0:0:
320,192,41074,128,0,41390:0:0:0:0:
64,192,41113,1,0,0:0:0:0:
192,192,41179,1,0,0:0:0:0:
448,192,41390,128,0,41548:0:0:0:0:
64,192,41390,1,0,0:0:0:0:
192,192,41442,1,0,0:0:0:0:
448,192,41705,1,0,0:0:0:0:
64,192,41705,128,0,42890:0:0:0:0:
192,192,41916,1,0,0:0:0:0:
320,192,42021,1,0,0:0:0:0:
192,192,42061,1,0,0:0:0:0:
448,192,42179,1,0,0:0:0:0:
320,192,42179,1,0,0:0:0:0:
192,192,42337,1,0,0:0:0:0:
448,192,42495,1,0,0:0:0:0:
320,192,42653,128,0,42969:0:0:0:0:
192,192,42692,1,0,0:0:0:0:
448,192,42758,1,0,0:0:0:0:
448,192,42969,1,0,0:0:0:0:
192,192,42969,128,0,43284:0:0:0:0:
64,192,42969,1,0,0:0:0:0:
320,192,43284,128,0,43442:0:0:0:0:
448,192,43442,128,0,43600:0:0:0:0:
192,192,43600,128,0,44153:0:0:0:0:
192,192,44232,128,0,44508:0:0:0:0:
320,192,44508,128,0,44705:0:0:0:0:
448,192,44705,128,0,44824:0:0:0:0:
192,192,44824,128,0,45495:0:0:0:0:
64,192,45495,128,0,45732:0:0:0:0:
64,192,45811,128,0,45969:0:0:0:0:
64,192,46126,128,0,46205:0:0:0:0:
192,192,46205,128,0,47548:0:0:0:0:
320,192,46758,128,0,46916:0:0:0:0:
448,192,47074,128,0,47232:0:0:0:0:
64,192,47390,128,0,47548:0:0:0:0:
320,192,47705,128,0,47863:0:0:0:0:
448,192,48021,1,0,0:0:0:0:
192,192,48021,128,0,48337:0:0:0:0:
64,192,48021,1,0,0:0:0:0:
320,192,48337,128,0,48495:0:0:0:0:
448,192,48495,128,0,48653:0:0:0:0:
192,192,48653,128,0,49205:0:0:0:0:
192,192,49284,128,0,49561:0:0:0:0:
320,192,49561,128,0,49758:0:0:0:0:
448,192,49758,128,0,49876:0:0:0:0:
192,192,49876,128,0,50548:0:0:0:0:
64,192,50548,128,0,50784:0:0:0:0:
64,192,50863,128,0,51021:0:0:0:0:
64,192,51179,128,0,51258:0:0:0:0:
192,192,51258,128,0,52798:0:0:0:0:
448,192,51811,128,0,51969:0:0:0:0:
64,192,52021,128,0,52126:0:0:0:0:
320,192,52166,128,0,52245:0:0:0:0:
448,192,52245,128,0,52363:0:0:0:0:
320,192,52363,128,0,52482:0:0:0:0:
64,192,52482,128,0,52640:0:0:0:0:
320,192,52798,128,0,52955:0:0:0:0:
448,192,53074,1,0,0:0:0:0:
192,192,53074,128,0,53390:0:0:0:0:
64,192,53074,1,0,0:0:0:0:
320,192,53390,128,0,53548:0:0:0:0:
448,192,53548,128,0,53705:0:0:0:0:
192,192,53705,128,0,54258:0:0:0:0:
192,192,54337,128,0,54613:0:0:0:0:
320,192,54613,128,0,54811:0:0:0:0:
448,192,54811,128,0,54929:0:0:0:0:
192,192,54929,128,0,55521:0:0:0:0:
320,192,55284,1,0,0:0:0:0:
448,192,55442,1,0,0:0:0:0:
320,192,55600,1,0,0:0:0:0:
64,192,55600,128,0,55837:0:0:0:0:
192,192,55758,1,0,0:0:0:0:
320,192,55916,1,0,0:0:0:0:
64,192,55916,128,0,56074:0:0:0:0:
192,192,56074,1,0,0:0:0:0:
448,192,56232,1,0,0:0:0:0:
64,192,56232,128,0,56311:0:0:0:0:
192,192,56311,128,0,57653:0:0:0:0:
320,192,56390,1,0,0:0:0:0:
448,192,56548,1,0,0:0:0:0:
448,192,56705,1,0,0:0:0:0:
320,192,56863,1,0,0:0:0:0:
64,192,56863,1,0,0:0:0:0:
64,192,57021,1,0,0:0:0:0:
320,192,57100,1,0,0:0:0:0:
448,192,57179,1,0,0:0:0:0:
448,192,57337,1,0,0:0:0:0:
320,192,57337,1,0,0:0:0:0:
64,192,57495,1,0,0:0:0:0:
320,192,57574,1,0,0:0:0:0:
64,192,57653,1,0,0:0:0:0:
448,192,57811,1,0,0:0:0:0:
320,192,57811,1,0,0:0:0:0:
448,192,57969,1,0,0:0:0:0:
320,192,57969,1,0,0:0:0:0:
448,192,58126,1,0,0:0:0:0:
192,192,58126,1,0,0:0:0:0:
64,192,58126,1,0,0:0:0:0:
192,192,58284,1,0,0:0:0:0:
320,192,58442,1,0,0:0:0:0:
64,192,58442,1,0,0:0:0:0:
448,192,58600,1,0,0:0:0:0:
320,192,58600,1,0,0:0:0:0:
448,192,58758,1,0,0:0:0:0:
64,192,58758,1,0,0:0:0:0:
64,192,58916,1,0,0:0:0:0:
320,192,59074,1,0,0:0:0:0:
320,192,59232,1,0,0:0:0:0:
192,192,59390,1,0,0:0:0:0:
64,192,59390,1,0,0:0:0:0:
64,192,59548,1,0,0:0:0:0:
320,192,59705,1,0,0:0:0:0:
192,192,59705,1,0,0:0:0:0:
448,192,59863,1,0,0:0:0:0:
192,192,59863,1,0,0:0:0:0:
448,192,60021,1,0,0:0:0:0:
64,192,60021,1,0,0:0:0:0:
320,192,60179,1,0,0:0:0:0:
64,192,60179,1,0,0:0:0:0:
192,192,60337,1,0,0:0:0:0:
64,192,60337,1,0,0:0:0:0:
192,192,60495,1,0,0:0:0:0:
448,192,60653,1,0,0:0:0:0:
320,192,60653,1,0,0:0:0:0:
64,192,60732,1,0,0:0:0:0:
448,192,60811,1,0,0:0:0:0:
192,192,60811,1,0,0:0:0:0:
320,192,60890,1,0,0:0:0:0:
192,192,60969,1,0,0:0:0:0:
64,192,60969,1,0,0:0:0:0:
448,192,61048,1,0,0:0:0:0:
320,192,61126,1,0,0:0:0:0:
64,192,61126,1,0,0:0:0:0:
192,192,61205,1,0,0:0:0:0:
448,192,61284,1,0,0:0:0:0:
320,192,61284,1,0,0:0:0:0:
64,192,61363,1,0,0:0:0:0:
448,192,61442,1,0,0:0:0:0:
192,192,61442,1,0,0:0:0:0:
320,192,61521,1,0,0:0:0:0:
192,192,61600,1,0,0:0:0:0:
64,192,61600,1,0,0:0:0:0:
448,192,61679,1,0,0:0:0:0:
320,192,61758,128,0,61837:0:0:0:0:
64,192,61758,128,0,61837:0:0:0:0:
192,192,61837,1,0,0:0:0:0:
448,192,61916,128,0,61995:0:0:0:0:
320,192,61916,128,0,61995:0:0:0:0:
64,192,61916,128,0,61995:0:0:0:0:
448,192,62074,128,0,62153:0:0:0:0:
320,192,62074,128,0,62153:0:0:0:0:
64,192,62074,128,0,62153:0:0:0:0:
320,192,62232,128,0,62311:0:0:0:0:
192,192,62232,128,0,62311:0:0:0:0:
64,192,62232,128,0,62311:0:0:0:0:
320,192,62390,128,0,62469:0:0:0:0:
192,192,62390,128,0,62469:0:0:0:0:
64,192,62390,128,0,62469:0:0:0:0:
448,192,62548,128,0,62626:0:0:0:0:
320,192,62548,128,0,62626:0:0:0:0:
192,192,62548,128,0,62626:0:0:0:0:
448,192,62705,128,0,62784:0:0:0:0:
320,192,62705,128,0,62784:0:0:0:0:
192,192,62705,128,0,62784:0:0:0:0:
448,192,62863,128,0,63021:0:0:0:0:
192,192,62863,128,0,63021:0:0:0:0:
64,192,62863,128,0,63021:0:0:0:0:
320,192,63179,5,0,0:0:0:0:
448,192,63179,128,0,63416:0:0:0:0:
64,192,63179,128,0,63416:0:0:0:0:
192,192,63258,1,0,0:0:0:0:
320,192,63337,1,0,0:0:0:0:
192,192,63416,1,0,0:0:0:0:
448,192,63495,1,0,0:0:0:0:
320,192,63495,1,0,0:0:0:0:
192,192,63574,1,0,0:0:0:0:
448,192,63653,1,0,0:0:0:0:
64,192,63653,1,0,0:0:0:0:
320,192,63732,1,0,0:0:0:0:
192,192,63811,1,0,0:0:0:0:
320,192,63890,1,0,0:0:0:0:
192,192,63969,1,0,0:0:0:0:
64,192,63969,1,0,0:0:0:0:
320,192,64048,1,0,0:0:0:0:
64,192,64126,1,0,0:0:0:0:
448,192,64126,1,0,0:0:0:0:
192,192,64205,1,0,0:0:0:0:
320,192,64284,1,0,0:0:0:0:
64,192,64363,1,0,0:0:0:0:
320,192,64442,1,0,0:0:0:0:
192,192,64442,1,0,0:0:0:0:
448,192,64442,1,0,0:0:0:0:
64,192,64521,1,0,0:0:0:0:
448,192,64600,1,0,0:0:0:0:
64,192,64679,1,0,0:0:0:0:
448,192,64758,1,0,0:0:0:0:
64,192,64837,1,0,0:0:0:0:
320,192,64916,1,0,0:0:0:0:
192,192,64916,1,0,0:0:0:0:
448,192,64995,1,0,0:0:0:0:
64,192,65074,1,0,0:0:0:0:
192,192,65074,1,0,0:0:0:0:
448,192,65153,1,0,0:0:0:0:
192,192,65232,1,0,0:0:0:0:
320,192,65232,1,0,0:0:0:0:
64,192,65311,1,0,0:0:0:0:
448,192,65390,1,0,0:0:0:0:
320,192,65390,1,0,0:0:0:0:
64,192,65469,1,0,0:0:0:0:
448,192,65548,1,0,0:0:0:0:
320,192,65600,1,0,0:0:0:0:
192,192,65653,1,0,0:0:0:0:
448,192,65705,1,0,0:0:0:0:
64,192,65705,1,0,0:0:0:0:
320,192,65758,1,0,0:0:0:0:
192,192,65811,1,0,0:0:0:0:
448,192,65863,1,0,0:0:0:0:
64,192,65916,1,0,0:0:0:0:
192,192,65969,1,0,0:0:0:0:
448,192,66021,1,0,0:0:0:0:
320,192,66021,1,0,0:0:0:0:
64,192,66074,1,0,0:0:0:0:
192,192,66126,1,0,0:0:0:0:
64,192,66179,1,0,0:0:0:0:
448,192,66179,1,0,0:0:0:0:
320,192,66232,1,0,0:0:0:0:
192,192,66284,1,0,0:0:0:0:
64,192,66337,1,0,0:0:0:0:
448,192,66390,1,0,0:0:0:0:
192,192,66442,1,0,0:0:0:0:
64,192,66495,1,0,0:0:0:0:
448,192,66548,1,0,0:0:0:0:
320,192,66600,1,0,0:0:0:0:
448,192,66653,1,0,0:0:0:0:
64,192,66653,1,0,0:0:0:0:
192,192,66705,1,0,0:0:0:0:
320,192,66758,1,0,0:0:0:0:
64,192,66811,1,0,0:0:0:0:
448,192,66863,1,0,0:0:0:0:
192,192,66916,1,0,0:0:0:0:
64,192,66969,1,0,0:0:0:0:
320,192,66969,1,0,0:0:0:0:
448,192,67021,1,0,0:0:0:0:
192,192,67074,1,0,0:0:0:0:
320,192,67126,1,0,0:0:0:0:
64,192,67179,1,0,0:0:0:0:
192,192,67232,1,0,0:0:0:0:
320,192,67284,1,0,0:0:0:0:
448,192,67337,1,0,0:0:0:0:
64,192,67390,1,0,0:0:0:0:
192,192,67442,1,0,0:0:0:0:
448,192,67495,1,0,0:0:0:0:
320,192,67548,1,0,0:0:0:0:
64,192,67600,1,0,0:0:0:0:
192,192,67600,1,0,0:0:0:0:
448,192,67653,1,0,0:0:0:0:
320,192,67705,1,0,0:0:0:0:
448,192,67758,1,0,0:0:0:0:
64,192,67811,1,0,0:0:0:0:
192,192,67863,1,0,0:0:0:0:
448,192,67916,1,0,0:0:0:0:
320,192,67916,1,0,0:0:0:0:
64,192,67969,1,0,0:0:0:0:
192,192,68021,1,0,0:0:0:0:
64,192,68074,1,0,0:0:0:0:
448,192,68126,1,0,0:0:0:0:
320,192,68179,1,0,0:0:0:0:
192,192,68232,1,0,0:0:0:0:
64,192,68232,1,0,0:0:0:0:
320,192,68311,1,0,0:0:0:0:
192,192,68390,1,0,0:0:0:0:
320,192,68469,1,0,0:0:0:0:
64,192,68548,1,0,0:0:0:0:
192,192,68548,1,0,0:0:0:0:
320,192,68626,1,0,0:0:0:0:
448,192,68705,1,0,0:0:0:0:
64,192,68705,1,0,0:0:0:0:
192,192,68784,1,0,0:0:0:0:
320,192,68863,1,0,0:0:0:0:
192,192,68942,1,0,0:0:0:0:
320,192,69021,1,0,0:0:0:0:
192,192,69100,1,0,0:0:0:0:
448,192,69179,1,0,0:0:0:0:
64,192,69179,1,0,0:0:0:0:
320,192,69258,1,0,0:0:0:0:
192,192,69337,1,0,0:0:0:0:
448,192,69416,1,0,0:0:0:0:
320,192,69495,1,0,0:0:0:0:
64,192,69495,1,0,0:0:0:0:
192,192,69495,1,0,0:0:0:0:
448,192,69574,1,0,0:0:0:0:
64,192,69653,1,0,0:0:0:0:
448,192,69732,1,0,0:0:0:0:
64,192,69811,1,0,0:0:0:0:
448,192,69890,1,0,0:0:0:0:
192,192,69969,1,0,0:0:0:0:
64,192,69969,1,0,0:0:0:0:
448,192,70048,1,0,0:0:0:0:
192,192,70126,1,0,0:0:0:0:
320,192,70126,1,0,0:0:0:0:
64,192,70205,1,0,0:0:0:0:
448,192,70284,1,0,0:0:0:0:
320,192,70284,1,0,0:0:0:0:
64,192,70363,1,0,0:0:0:0:
320,192,70442,1,0,0:0:0:0:
192,192,70442,1,0,0:0:0:0:
448,192,70521,1,0,0:0:0:0:
64,192,70600,1,0,0:0:0:0:
192,192,70600,1,0,0:0:0:0:
320,192,70679,1,0,0:0:0:0:
448,192,70758,1,0,0:0:0:0:
64,192,70758,1,0,0:0:0:0:
192,192,70758,1,0,0:0:0:0:
320,192,70837,1,0,0:0:0:0:
192,192,70916,1,0,0:0:0:0:
320,192,70995,1,0,0:0:0:0:
192,192,71074,1,0,0:0:0:0:
320,192,71153,1,0,0:0:0:0:
192,192,71232,1,0,0:0:0:0:
64,192,71232,1,0,0:0:0:0:
448,192,71311,1,0,0:0:0:0:
64,192,71390,1,0,0:0:0:0:
320,192,71469,1,0,0:0:0:0:
64,192,71548,1,0,0:0:0:0:
192,192,71548,1,0,0:0:0:0:
320,192,71626,1,0,0:0:0:0:
64,192,71705,1,0,0:0:0:0:
448,192,71705,1,0,0:0:0:0:
192,192,71784,1,0,0:0:0:0:
320,192,71863,1,0,0:0:0:0:
192,192,71942,1,0,0:0:0:0:
64,192,72021,1,0,0:0:0:0:
320,192,72021,1,0,0:0:0:0:
448,192,72021,1,0,0:0:0:0:
64,192,72232,1,0,0:0:0:0:
448,192,72337,1,0,0:0:0:0:
320,192,72337,1,0,0:0:0:0:
448,192,72442,1,0,0:0:0:0:
320,192,72442,1,0,0:0:0:0:
192,192,72548,1,0,0:0:0:0:
64,192,72548,1,0,0:0:0:0:
320,192,72653,1,0,0:0:0:0:
448,192,72653,1,0,0:0:0:0:
320,192,72863,1,0,0:0:0:0:
192,192,72863,1,0,0:0:0:0:
320,192,73074,1,0,0:0:0:0:
192,192,73074,1,0,0:0:0:0:
64,192,73179,1,0,0:0:0:0:
320,192,73179,1,0,0:0:0:0:
192,192,73284,1,0,0:0:0:0:
448,192,73284,1,0,0:0:0:0:
64,192,73284,1,0,0:0:0:0:
320,192,73337,1,0,0:0:0:0:
192,192,73390,1,0,0:0:0:0:
448,192,73442,1,0,0:0:0:0:
64,192,73495,1,0,0:0:0:0:
192,192,73548,1,0,0:0:0:0:
448,192,73600,1,0,0:0:0:0:
320,192,73600,1,0,0:0:0:0:
64,192,73653,1,0,0:0:0:0:
192,192,73705,1,0,0:0:0:0:
448,192,73758,1,0,0:0:0:0:
64,192,73758,1,0,0:0:0:0:
320,192,73811,1,0,0:0:0:0:
192,192,73863,1,0,0:0:0:0:
64,192,73916,1,0,0:0:0:0:
320,192,73969,1,0,0:0:0:0:
448,192,74021,1,0,0:0:0:0:
64,192,74074,1,0,0:0:0:0:
192,192,74126,1,0,0:0:0:0:
320,192,74179,1,0,0:0:0:0:
448,192,74232,1,0,0:0:0:0:
64,192,74232,1,0,0:0:0:0:
192,192,74284,1,0,0:0:0:0:
320,192,74337,1,0,0:0:0:0:
448,192,74390,1,0,0:0:0:0:
64,192,74442,1,0,0:0:0:0:
192,192,74495,1,0,0:0:0:0:
448,192,74548,1,0,0:0:0:0:
320,192,74548,1,0,0:0:0:0:
192,192,74626,1,0,0:0:0:0:
64,192,74674,1,0,0:0:0:0:
320,192,74705,1,0,0:0:0:0:
192,192,74784,1,0,0:0:0:0:
448,192,74800,1,0,0:0:0:0:
320,192,74863,1,0,0:0:0:0:
64,192,74923,1,0,0:0:0:0:
192,192,74942,1,0,0:0:0:0:
448,192,75021,1,0,0:0:0:0:
320,192,75021,1,0,0:0:0:0:
192,192,75100,1,0,0:0:0:0:
448,192,75179,1,0,0:0:0:0:
64,192,75179,1,0,0:0:0:0:
320,192,75258,1,0,0:0:0:0:
64,192,75337,1,0,0:0:0:0:
192,192,75337,1,0,0:0:0:0:
320,192,75416,1,0,0:0:0:0:
64,192,75495,1,0,0:0:0:0:
448,192,75495,1,0,0:0:0:0:
192,192,75574,1,0,0:0:0:0:
448,192,75653,1,0,0:0:0:0:
320,192,75653,1,0,0:0:0:0:
64,192,75732,1,0,0:0:0:0:
320,192,75811,1,0,0:0:0:0:
192,192,75811,1,0,0:0:0:0:
448,192,75811,1,0,0:0:0:0:
64,192,75890,1,0,0:0:0:0:
448,192,75969,1,0,0:0:0:0:
64,192,76048,1,0,0:0:0:0:
448,192,76126,1,0,0:0:0:0:
320,192,76126,1,0,0:0:0:0:
64,192,76205,1,0,0:0:0:0:
192,192,76284,1,0,0:0:0:0:
320,192,76284,1,0,0:0:0:0:
448,192,76363,1,0,0:0:0:0:
64,192,76442,1,0,0:0:0:0:
448,192,76521,1,0,0:0:0:0:
64,192,76600,1,0,0:0:0:0:
192,192,76600,1,0,0:0:0:0:
448,192,76679,1,0,0:0:0:0:
192,192,76758,1,0,0:0:0:0:
320,192,76758,1,0,0:0:0:0:
64,192,76837,1,0,0:0:0:0:
320,192,76916,1,0,0:0:0:0:
192,192,76995,1,0,0:0:0:0:
64,192,77074,1,0,0:0:0:0:
448,192,77074,1,0,0:0:0:0:
320,192,77153,1,0,0:0:0:0:
192,192,77232,1,0,0:0:0:0:
320,192,77311,1,0,0:0:0:0:
192,192,77390,1,0,0:0:0:0:
320,192,77469,1,0,0:0:0:0:
64,192,77548,1,0,0:0:0:0:
192,192,77548,1,0,0:0:0:0:
320,192,77626,1,0,0:0:0:0:
64,192,77705,1,0,0:0:0:0:
448,192,77705,1,0,0:0:0:0:
320,192,77784,1,0,0:0:0:0:
192,192,77863,1,0,0:0:0:0:
64,192,77863,1,0,0:0:0:0:
448,192,77942,1,0,0:0:0:0:
320,192,78021,1,0,0:0:0:0:
64,192,78021,1,0,0:0:0:0:
448,192,78100,1,0,0:0:0:0:
192,192,78179,1,0,0:0:0:0:
320,192,78179,1,0,0:0:0:0:
64,192,78258,1,0,0:0:0:0:
192,192,78337,1,0,0:0:0:0:
320,192,78337,1,0,0:0:0:0:
448,192,78337,1,0,0:0:0:0:
64,192,78416,1,0,0:0:0:0:
320,192,78495,1,0,0:0:0:0:
448,192,78495,1,0,0:0:0:0:
64,192,78574,1,0,0:0:0:0:
448,192,78653,1,0,0:0:0:0:
64,192,78732,1,0,0:0:0:0:
320,192,78811,1,0,0:0:0:0:
192,192,78811,1,0,0:0:0:0:
448,192,78890,1,0,0:0:0:0:
64,192,78969,1,0,0:0:0:0:
448,192,79048,1,0,0:0:0:0:
192,192,79126,1,0,0:0:0:0:
64,192,79126,1,0,0:0:0:0:
448,192,79205,1,0,0:0:0:0:
192,192,79284,1,0,0:0:0:0:
320,192,79284,1,0,0:0:0:0:
64,192,79363,1,0,0:0:0:0:
448,192,79442,1,0,0:0:0:0:
320,192,79521,1,0,0:0:0:0:
64,192,79600,1,0,0:0:0:0:
448,192,79600,1,0,0:0:0:0:
192,192,79600,1,0,0:0:0:0:
320,192,79679,1,0,0:0:0:0:
192,192,79758,1,0,0:0:0:0:
320,192,79837,1,0,0:0:0:0:
192,192,79916,1,0,0:0:0:0:
320,192,79995,1,0,0:0:0:0:
64,192,80074,1,0,0:0:0:0:
192,192,80074,1,0,0:0:0:0:
320,192,80153,1,0,0:0:0:0:
64,192,80232,1,0,0:0:0:0:
448,192,80232,1,0,0:0:0:0:
192,192,80311,1,0,0:0:0:0:
448,192,80390,1,0,0:0:0:0:
320,192,80390,1,0,0:0:0:0:
192,192,80469,1,0,0:0:0:0:
448,192,80548,1,0,0:0:0:0:
64,192,80548,1,0,0:0:0:0:
320,192,80626,1,0,0:0:0:0:
64,192,80705,1,0,0:0:0:0:
192,192,80705,1,0,0:0:0:0:
320,192,80784,1,0,0:0:0:0:
64,192,80863,128,0,80990:0:0:0:0:
192,192,80863,1,0,0:0:0:0:
448,192,80863,1,0,0:0:0:0:
320,192,80942,1,0,0:0:0:0:
192,192,80990,128,0,81116:0:0:0:0:
320,192,81116,128,0,81179:0:0:0:0:
192,192,81179,1,0,0:0:0:0:
448,192,81219,128,0,81298:0:0:0:0:
320,192,81258,1,0,0:0:0:0:
448,192,81337,1,0,0:0:0:0:
64,192,81337,128,0,81416:0:0:0:0:
192,192,81416,128,0,81495:0:0:0:0:
64,192,81495,1,0,0:0:0:0:
320,192,81495,128,0,81574:0:0:0:0:
448,192,81574,128,0,81653:0:0:0:0:
64,192,81653,128,0,81732:0:0:0:0:
192,192,81732,128,0,81811:0:0:0:0:
64,192,81811,1,0,0:0:0:0:
320,192,81811,128,0,81890:0:0:0:0:
448,192,81890,128,0,81969:0:0:0:0:
64,192,81951,128,0,82021:0:0:0:0:
192,192,82021,128,0,82092:0:0:0:0:
320,192,82091,128,0,82162:0:0:0:0:
448,192,82126,128,0,82205:0:0:0:0:
192,192,82166,1,0,0:0:0:0:
64,192,82205,5,0,0:0:0:0:
320,192,82245,1,0,0:0:0:0:
448,192,82284,128,0,82363:0:0:0:0:
192,192,82324,1,0,0:0:0:0:
320,192,82363,1,0,0:0:0:0:
64,192,82403,128,0,83311:0:0:0:0:
192,192,82482,128,0,83311:0:0:0:0:
320,192,82561,128,0,83311:0:0:0:0:
448,192,82640,128,0,83311:0:0:0:0:
448,192,83390,128,0,83626:0:0:0:0:
320,192,83390,128,0,83469:0:0:0:0:
64,192,83390,128,0,83548:0:0:0:0:
192,192,83469,128,0,83784:0:0:0:0:
320,192,83548,128,0,83626:0:0:0:0:
64,192,83626,128,0,83705:0:0:0:0:
320,192,83705,128,0,83863:0:0:0:0:
448,192,83705,1,0,0:0:0:0:
64,192,83784,128,0,83942:0:0:0:0:
448,192,83863,128,0,83942:0:0:0:0:
192,192,83863,128,0,83942:0:0:0:0:
320,192,83942,128,0,84021:0:0:0:0:
192,192,84021,128,0,84100:0:0:0:0:
64,192,84021,128,0,84179:0:0:0:0:
448,192,84100,128,0,84179:0:0:0:0:
320,192,84100,1,0,0:0:0:0:
192,192,84179,128,0,84258:0:0:0:0:
320,192,84258,128,0,84337:0:0:0:0:
64,192,84258,128,0,84574:0:0:0:0:
448,192,84337,128,0,84416:0:0:0:0:
192,192,84337,1,0,0:0:0:0:
320,192,84416,1,0,0:0:0:0:
448,192,84495,128,0,84574:0:0:0:0:
320,192,84574,128,0,84653:0:0:0:0:
64,192,84653,1,0,0:0:0:0:
192,192,84653,128,0,84811:0:0:0:0:
320,192,84732,1,0,0:0:0:0:
64,192,84811,1,0,0:0:0:0:
192,192,84890,128,0,84969:0:0:0:0:
320,192,84969,128,0,85048:0:0:0:0:
448,192,84969,1,0,0:0:0:0:
64,192,85048,128,0,85126:0:0:0:0:
320,192,85126,1,0,0:0:0:0:
448,192,85126,128,0,85284:0:0:0:0:
192,192,85205,1,0,0:0:0:0:
320,192,85284,1,0,0:0:0:0:
64,192,85284,128,0,85442:0:0:0:0:
192,192,85363,1,0,0:0:0:0:
448,192,85442,128,0,85521:0:0:0:0:
192,192,85521,128,0,85600:0:0:0:0:
64,192,85600,1,0,0:0:0:0:
320,192,85600,128,0,85758:0:0:0:0:
448,192,85679,1,0,0:0:0:0:
192,192,85758,128,0,85837:0:0:0:0:
64,192,85837,128,0,85916:0:0:0:0:
448,192,85916,128,0,86048:0:0:0:0:
320,192,85916,128,0,85995:0:0:0:0:
192,192,85969,128,0,86048:0:0:0:0:
64,192,86021,128,0,86100:0:0:0:0:
320,192,86074,128,0,86153:0:0:0:0:
448,192,86126,128,0,86205:0:0:0:0:
64,192,86179,1,0,0:0:0:0:
320,192,86232,1,0,0:0:0:0:
192,192,86232,128,0,86390:0:0:0:0:
64,192,86311,1,0,0:0:0:0:
320,192,86390,128,0,86548:0:0:0:0:
64,192,86469,1,0,0:0:0:0:
448,192,86548,1,0,0:0:0:0:
192,192,86548,128,0,86626:0:0:0:0:
320,192,86600,128,0,86679:0:0:0:0:
64,192,86653,128,0,86732:0:0:0:0:
192,192,86705,128,0,86863:0:0:0:0:
320,192,86784,1,0,0:0:0:0:
64,192,86863,128,0,87021:0:0:0:0:
448,192,86863,128,0,86942:0:0:0:0:
192,192,86942,1,0,0:0:0:0:
448,192,87021,128,0,87100:0:0:0:0:
320,192,87100,128,0,87179:0:0:0:0:
192,192,87179,1,0,0:0:0:0:
64,192,87179,128,0,87337:0:0:0:0:
448,192,87258,128,0,87337:0:0:0:0:
320,192,87258,128,0,87337:0:0:0:0:
192,192,87337,1,0,0:0:0:0:
64,192,87416,128,0,87495:0:0:0:0:
448,192,87416,128,0,87574:0:0:0:0:
192,192,87495,128,0,87574:0:0:0:0:
320,192,87574,1,0,0:0:0:0:
192,192,87653,128,0,87732:0:0:0:0:
448,192,87653,128,0,87811:0:0:0:0:
320,192,87732,1,0,0:0:0:0:
64,192,87811,128,0,87890:0:0:0:0:
448,192,87890,128,0,88048:0:0:0:0:
192,192,87890,128,0,87969:0:0:0:0:
320,192,87969,1,0,0:0:0:0:
64,192,88048,128,0,88126:0:0:0:0:
448,192,88126,128,0,88284:0:0:0:0:
192,192,88126,128,0,88205:0:0:0:0:
320,192,88205,1,0,0:0:0:0:
64,192,88284,128,0,88363:0:0:0:0:
448,192,88363,128,0,88442:0:0:0:0:
64,192,88442,128,0,88600:0:0:0:0:
320,192,88442,1,0,0:0:0:0:
192,192,88442,128,0,88600:0:0:0:0:
448,192,88521,1,0,0:0:0:0:
320,192,88600,128,0,88679:0:0:0:0:
64,192,88679,128,0,88758:0:0:0:0:
192,192,88758,128,0,88837:0:0:0:0:
448,192,88758,1,0,0:0:0:0:
320,192,88837,128,0,88995:0:0:0:0:
64,192,88916,1,0,0:0:0:0:
448,192,88995,128,0,89153:0:0:0:0:
64,192,89074,1,0,0:0:0:0:
192,192,89074,1,0,0:0:0:0:
320,192,89153,128,0,89232:0:0:0:0:
192,192,89232,128,0,89390:0:0:0:0:
448,192,89311,1,0,0:0:0:0:
64,192,89390,128,0,89548:0:0:0:0:
320,192,89390,1,0,0:0:0:0:
192,192,89469,1,0,0:0:0:0:
320,192,89548,128,0,89626:0:0:0:0:
448,192,89626,128,0,89705:0:0:0:0:
192,192,89705,1,0,0:0:0:0:
64,192,89705,128,0,89942:0:0:0:0:
320,192,89784,1,0,0:0:0:0:
448,192,89863,1,0,0:0:0:0:
192,192,89942,128,0,90021:0:0:0:0:
64,192,90021,128,0,90100:0:0:0:0:
320,192,90021,1,0,0:0:0:0:
448,192,90100,128,0,90179:0:0:0:0:
192,192,90179,128,0,90258:0:0:0:0:
64,192,90258,128,0,90337:0:0:0:0:
192,192,90337,128,0,90416:0:0:0:0:
320,192,90337,1,0,0:0:0:0:
448,192,90416,128,0,90574:0:0:0:0:
320,192,90495,1,0,0:0:0:0:
64,192,90574,128,0,90653:0:0:0:0:
320,192,90653,128,0,90811:0:0:0:0:
192,192,90653,1,0,0:0:0:0:
448,192,90732,1,0,0:0:0:0:
64,192,90811,128,0,90890:0:0:0:0:
448,192,90890,128,0,90969:0:0:0:0:
192,192,90969,128,0,91048:0:0:0:0:
64,192,90969,128,0,91126:0:0:0:0:
320,192,90969,1,0,0:0:0:0:
448,192,91048,1,0,0:0:0:0:
320,192,91126,128,0,91205:0:0:0:0:
64,192,91205,128,0,91284:0:0:0:0:
448,192,91284,128,0,91442:0:0:0:0:
192,192,91284,128,0,91363:0:0:0:0:
64,192,91363,1,0,0:0:0:0:
320,192,91442,128,0,91521:0:0:0:0:
192,192,91521,128,0,91600:0:0:0:0:
448,192,91600,1,0,0:0:0:0:
64,192,91600,128,0,91679:0:0:0:0:
192,192,91653,128,0,91732:0:0:0:0:
320,192,91705,128,0,91784:0:0:0:0:
448,192,91758,128,0,91916:0:0:0:0:
192,192,91837,1,0,0:0:0:0:
64,192,91916,128,0,91995:0:0:0:0:
320,192,91916,1,0,0:0:0:0:
192,192,91995,1,0,0:0:0:0:
448,192,92074,128,0,92153:0:0:0:0:
64,192,92153,1,0,0:0:0:0:
320,192,92232,128,0,92311:0:0:0:0:
192,192,92232,128,0,92390:0:0:0:0:
64,192,92311,1,0,0:0:0:0:
448,192,92390,128,0,92548:0:0:0:0:
320,192,92390,128,0,92469:0:0:0:0:
320,192,92548,128,0,92626:0:0:0:0:
64,192,92548,1,0,0:0:0:0:
192,192,92626,128,0,92705:0:0:0:0:
448,192,92705,1,0,0:0:0:0:
320,192,92784,128,0,92863:0:0:0:0:
192,192,92863,1,0,0:0:0:0:
64,192,92863,128,0,93021:0:0:0:0:
320,192,92942,1,0,0:0:0:0:
192,192,93021,1,0,0:0:0:0:
448,192,93021,128,0,93179:0:0:0:0:
320,192,93100,1,0,0:0:0:0:
64,192,93179,128,0,93495:0:0:0:0:
448,192,93495,128,0,93732:0:0:0:0:
320,192,93495,128,0,93574:0:0:0:0:
192,192,93495,128,0,93653:0:0:0:0:
64,192,93574,128,0,93732:0:0:0:0:
320,192,93653,128,0,93811:0:0:0:0:
192,192,93732,128,0,93969:0:0:0:0:
448,192,93811,128,0,94048:0:0:0:0:
64,192,93811,1,0,0:0:0:0:
320,192,93890,128,0,94048:0:0:0:0:
64,192,93969,128,0,94048:0:0:0:0:
192,192,94048,128,0,94126:0:0:0:0:
320,192,94126,128,0,94284:0:0:0:0:
448,192,94126,128,0,94363:0:0:0:0:
192,192,94205,128,0,94284:0:0:0:0:
64,192,94284,128,0,94363:0:0:0:0:
320,192,94363,128,0,94442:0:0:0:0:
192,192,94442,128,0,94521:0:0:0:0:
448,192,94442,128,0,94600:0:0:0:0:
320,192,94521,1,0,0:0:0:0:
192,192,94600,128,0,94679:0:0:0:0:
448,192,94679,128,0,94758:0:0:0:0:
64,192,94758,128,0,94916:0:0:0:0:
192,192,94758,1,0,0:0:0:0:
320,192,94837,1,0,0:0:0:0:
192,192,94916,128,0,94995:0:0:0:0:
448,192,94995,128,0,95074:0:0:0:0:
64,192,95074,128,0,95153:0:0:0:0:
192,192,95074,1,0,0:0:0:0:
320,192,95153,1,0,0:0:0:0:
448,192,95153,128,0,95311:0:0:0:0:
192,192,95232,1,0,0:0:0:0:
64,192,95311,128,0,95390:0:0:0:0:
320,192,95390,1,0,0:0:0:0:
448,192,95390,128,0,95548:0:0:0:0:
192,192,95469,1,0,0:0:0:0:
64,192,95548,128,0,95626:0:0:0:0:
320,192,95626,128,0,95705:0:0:0:0:
448,192,95705,1,0,0:0:0:0:
192,192,95705,128,0,95784:0:0:0:0:
320,192,95784,1,0,0:0:0:0:
64,192,95784,128,0,95942:0:0:0:0:
192,192,95863,1,0,0:0:0:0:
448,192,95942,128,0,96021:0:0:0:0:
192,192,96021,128,0,96179:0:0:0:0:
64,192,96021,128,0,96179:0:0:0:0:
320,192,96021,1,0,0:0:0:0:
448,192,96100,1,0,0:0:0:0:
320,192,96179,128,0,96258:0:0:0:0:
192,192,96258,128,0,96337:0:0:0:0:
64,192,96337,128,0,96416:0:0:0:0:
448,192,96337,1,0,0:0:0:0:
192,192,96416,128,0,96495:0:0:0:0:
320,192,96495,1,0,0:0:0:0:
448,192,96495,128,0,96653:0:0:0:0:
192,192,96574,1,0,0:0:0:0:
320,192,96653,1,0,0:0:0:0:
64,192,96653,128,0,96811:0:0:0:0:
448,192,96732,1,0,0:0:0:0:
192,192,96811,128,0,96890:0:0:0:0:
448,192,96890,128,0,96969:0:0:0:0:
64,192,96969,1,0,0:0:0:0:
320,192,96969,128,0,97126:0:0:0:0:
448,192,97048,1,0,0:0:0:0:
192,192,97126,128,0,97205:0:0:0:0:
320,192,97205,128,0,97284:0:0:0:0:
64,192,97284,1,0,0:0:0:0:
192,192,97284,128,0,97442:0:0:0:0:
448,192,97363,128,0,97442:0:0:0:0:
320,192,97363,128,0,97442:0:0:0:0:
64,192,97442,1,0,0:0:0:0:
320,192,97521,128,0,97600:0:0:0:0:
64,192,97600,1,0,0:0:0:0:
192,192,97600,128,0,97758:0:0:0:0:
320,192,97679,1,0,0:0:0:0:
64,192,97758,128,0,97837:0:0:0:0:
448,192,97758,128,0,97916:0:0:0:0:
320,192,97837,1,0,0:0:0:0:
192,192,97916,128,0,97995:0:0:0:0:
64,192,97995,128,0,98074:0:0:0:0:
448,192,97995,128,0,98153:0:0:0:0:
320,192,98074,1,0,0:0:0:0:
192,192,98153,128,0,98232:0:0:0:0:
448,192,98232,128,0,98469:0:0:0:0:
320,192,98232,128,0,98390:0:0:0:0:
64,192,98311,1,0,0:0:0:0:
192,192,98390,1,0,0:0:0:0:
320,192,98469,128,0,98548:0:0:0:0:
64,192,98548,128,0,98626:0:0:0:0:
192,192,98548,1,0,0:0:0:0:
448,192,98548,1,0,0:0:0:0:
320,192,98626,128,0,98705:0:0:0:0:
192,192,98705,1,0,0:0:0:0:
448,192,98784,1,0,0:0:0:0:
320,192,98784,128,0,98942:0:0:0:0:
64,192,98863,1,0,0:0:0:0:
192,192,98863,1,0,0:0:0:0:
448,192,98942,128,0,99021:0:0:0:0:
64,192,99021,128,0,99100:0:0:0:0:
448,192,99100,1,0,0:0:0:0:
320,192,99179,128,0,99258:0:0:0:0:
192,192,99179,128,0,99337:0:0:0:0:
64,192,99258,1,0,0:0:0:0:
320,192,99337,128,0,99416:0:0:0:0:
192,192,99416,128,0,99495:0:0:0:0:
448,192,99495,128,0,99653:0:0:0:0:
64,192,99495,128,0,99574:0:0:0:0:
320,192,99574,1,0,0:0:0:0:
64,192,99653,128,0,99732:0:0:0:0:
192,192,99732,128,0,99811:0:0:0:0:
448,192,99811,128,0,100126:0:0:0:0:
320,192,99811,128,0,99969:0:0:0:0:
64,192,99890,1,0,0:0:0:0:
192,192,99969,1,0,0:0:0:0:
320,192,100048,1,0,0:0:0:0:
192,192,100126,128,0,100205:0:0:0:0:
64,192,100126,1,0,0:0:0:0:
448,192,100205,128,0,100284:0:0:0:0:
320,192,100284,128,0,100363:0:0:0:0:
64,192,100363,128,0,100442:0:0:0:0:
320,192,100442,1,0,0:0:0:0:
192,192,100442,1,0,0:0:0:0:
64,192,100521,128,0,100679:0:0:0:0:
448,192,100521,128,0,100600:0:0:0:0:
192,192,100600,1,0,0:0:0:0:
448,192,100679,128,0,100758:0:0:0:0:
192,192,100758,1,0,0:0:0:0:
320,192,100758,128,0,100916:0:0:0:0:
64,192,100837,1,0,0:0:0:0:
192,192,100916,128,0,100995:0:0:0:0:
448,192,100995,128,0,101074:0:0:0:0:
320,192,101074,128,0,101153:0:0:0:0:
64,192,101074,128,0,101232:0:0:0:0:
192,192,101074,1,0,0:0:0:0:
448,192,101153,1,0,0:0:0:0:
192,192,101232,128,0,101311:0:0:0:0:
320,192,101311,128,0,101390:0:0:0:0:
192,192,101390,128,0,101469:0:0:0:0:
448,192,101390,128,0,101548:0:0:0:0:
64,192,101469,1,0,0:0:0:0:
320,192,101548,128,0,101626:0:0:0:0:
192,192,101626,128,0,101705:0:0:0:0:
64,192,101705,1,0,0:0:0:0:
448,192,101705,128,0,101784:0:0:0:0:
320,192,101758,128,0,101837:0:0:0:0:
192,192,101811,128,0,101890:0:0:0:0:
448,192,101863,128,0,102021:0:0:0:0:
320,192,101942,1,0,0:0:0:0:
192,192,102021,128,0,102100:0:0:0:0:
64,192,102021,128,0,102179:0:0:0:0:
448,192,102100,1,0,0:0:0:0:
192,192,102179,128,0,102258:0:0:0:0:
320,192,102258,1,0,0:0:0:0:
448,192,102337,128,0,102416:0:0:0:0:
64,192,102337,128,0,102495:0:0:0:0:
320,192,102416,5,0,0:0:0:0:
448,192,102495,128,0,102653:0:0:0:0:
192,192,102495,128,0,102574:0:0:0:0:
64,192,102574,1,0,0:0:0:0:
320,192,102653,128,0,102732:0:0:0:0:
192,192,102653,128,0,102811:0:0:0:0:
64,192,102732,128,0,102811:0:0:0:0:
448,192,102811,1,0,0:0:0:0:
320,192,102811,1,0,0:0:0:0:
192,192,102890,128,0,102969:0:0:0:0:
448,192,102969,128,0,103048:0:0:0:0:
320,192,102969,128,0,103126:0:0:0:0:
448,192,103126,128,0,103205:0:0:0:0:
192,192,103126,128,0,103284:0:0:0:0:
64,192,103284,128,0,103600:0:0:0:0:
448,192,103284,128,0,103442:0:0:0:0:
320,192,103600,1,0,0:0:0:0:
192,192,103600,128,0,103916:0:0:0:0:
448,192,103600,1,0,0:0:0:0:
320,192,103916,128,0,104232:0:0:0:0:
192,192,104232,128,0,106126:0:0:0:0:
320,192,105811,1,0,0:0:0:0:
64,192,105969,1,0,0:0:0:0:
448,192,106126,1,0,0:0:0:0:
192,192,106284,1,0,0:0:0:0:
320,192,106442,1,0,0:0:0:0:
64,192,106600,1,0,0:0:0:0:
448,192,106758,1,0,0:0:0:0:
192,192,106916,1,0,0:0:0:0:
320,192,107074,1,0,0:0:0:0:
64,192,107232,1,0,0:0:0:0:
320,192,107390,1,0,0:0:0:0:
448,192,107390,1,0,0:0:0:0:
448,192,107548,1,0,0:0:0:0:
64,192,107548,1,0,0:0:0:0:
192,192,107626,1,0,0:0:0:0:
64,192,107705,1,0,0:0:0:0:
448,192,107705,1,0,0:0:0:0:
320,192,107784,1,0,0:0:0:0:
64,192,107863,1,0,0:0:0:0:
192,192,107863,1,0,0:0:0:0:
64,192,108021,1,0,0:0:0:0:
448,192,108021,1,0,0:0:0:0:
320,192,108100,1,0,0:0:0:0:
448,192,108179,1,0,0:0:0:0:
64,192,108179,1,0,0:0:0:0:
192,192,108258,1,0,0:0:0:0:
448,192,108337,1,0,0:0:0:0:
320,192,108337,1,0,0:0:0:0:
64,192,108495,1,0,0:0:0:0:
192,192,108495,1,0,0:0:0:0:
448,192,108653,1,0,0:0:0:0:
320,192,108653,1,0,0:0:0:0:
64,192,108811,5,0,0:0:0:0:
448,192,108811,1,0,0:0:0:0:
192,192,108969,1,0,0:0:0:0:
64,192,108969,1,0,0:0:0:0:
320,192,109126,1,0,0:0:0:0:
448,192,109126,1,0,0:0:0:0:
192,192,109284,1,0,0:0:0:0:
64,192,109284,1,0,0:0:0:0:
64,192,109442,1,0,0:0:0:0:
448,192,109442,1,0,0:0:0:0:
448,192,109600,1,0,0:0:0:0:
320,192,109600,1,0,0:0:0:0:
64,192,109758,1,0,0:0:0:0:
192,192,109758,1,0,0:0:0:0:
448,192,109916,5,0,0:0:0:0:
320,192,109916,1,0,0:0:0:0:
448,192,110074,1,0,0:0:0:0:
64,192,110074,1,0,0:0:0:0:
192,192,110232,1,0,0:0:0:0:
64,192,110232,1,0,0:0:0:0:
320,192,110390,1,0,0:0:0:0:
448,192,110390,1,0,0:0:0:0:
64,192,110548,1,0,0:0:0:0:
192,192,110548,1,0,0:0:0:0:
448,192,110705,1,0,0:0:0:0:
64,192,110705,1,0,0:0:0:0:
448,192,110863,1,0,0:0:0:0:
320,192,110863,1,0,0:0:0:0:
192,192,111021,1,0,0:0:0:0:
64,192,111021,1,0,0:0:0:0:
320,192,111179,1,0,0:0:0:0:
448,192,111179,1,0,0:0:0:0:
192,192,111258,1,0,0:0:0:0:
320,192,111337,1,0,0:0:0:0:
64,192,111337,1,0,0:0:0:0:
192,192,111416,1,0,0:0:0:0:
448,192,111495,1,0,0:0:0:0:
320,192,111495,1,0,0:0:0:0:
192,192,111574,1,0,0:0:0:0:
320,192,111653,1,0,0:0:0:0:
64,192,111653,1,0,0:0:0:0:
192,192,111732,1,0,0:0:0:0:
448,192,111811,1,0,0:0:0:0:
320,192,111811,1,0,0:0:0:0:
64,192,111890,1,0,0:0:0:0:
192,192,111890,1,0,0:0:0:0:
448,192,111969,1,0,0:0:0:0:
320,192,111969,1,0,0:0:0:0:
64,192,112048,1,0,0:0:0:0:
192,192,112048,1,0,0:0:0:0:
448,192,112126,1,0,0:0:0:0:
320,192,112126,1,0,0:0:0:0:
192,192,112205,1,0,0:0:0:0:
448,192,112284,1,0,0:0:0:0:
64,192,112284,1,0,0:0:0:0:
192,192,112363,1,0,0:0:0:0:
448,192,112442,128,0,112521:0:0:0:0:
320,192,112442,128,0,112521:0:0:0:0:
64,192,112442,128,0,112521:0:0:0:0:
448,192,112600,128,0,112679:0:0:0:0:
320,192,112600,128,0,112679:0:0:0:0:
64,192,112600,128,0,112679:0:0:0:0:
320,192,112758,128,0,112837:0:0:0:0:
192,192,112758,128,0,112837:0:0:0:0:
64,192,112758,128,0,112837:0:0:0:0:
320,192,112916,128,0,112995:0:0:0:0:
192,192,112916,128,0,112995:0:0:0:0:
64,192,112916,128,0,112995:0:0:0:0:
448,192,113074,128,0,113153:0:0:0:0:
320,192,113074,128,0,113153:0:0:0:0:
192,192,113074,128,0,113153:0:0:0:0:
448,192,113232,128,0,113311:0:0:0:0:
320,192,113232,128,0,113311:0:0:0:0:
192,192,113232,128,0,113311:0:0:0:0:
448,192,113390,128,0,113548:0:0:0:0:
192,192,113390,128,0,113548:0:0:0:0:
64,192,113390,128,0,113548:0:0:0:0:
192,192,113705,128,0,113942:0:0:0:0:
448,192,113705,1,0,0:0:0:0:
64,192,113705,128,0,113784:0:0:0:0:
320,192,113705,128,0,113863:0:0:0:0:
64,192,113863,128,0,114021:0:0:0:0:
448,192,114021,128,0,114100:0:0:0:0:
192,192,114021,128,0,114179:0:0:0:0:
320,192,114021,128,0,114258:0:0:0:0:
448,192,114179,128,0,114337:0:0:0:0:
320,192,114337,128,0,114495:0:0:0:0:
64,192,114337,128,0,114416:0:0:0:0:
192,192,114337,128,0,114574:0:0:0:0:
64,192,114495,128,0,114653:0:0:0:0:
192,192,114653,128,0,114890:0:0:0:0:
320,192,114653,128,0,114732:0:0:0:0:
448,192,114653,128,0,114732:0:0:0:0:
448,192,114811,128,0,114969:0:0:0:0:
320,192,114811,128,0,114890:0:0:0:0:
320,192,114969,128,0,115126:0:0:0:0:
192,192,114969,128,0,115205:0:0:0:0:
64,192,114969,128,0,115048:0:0:0:0:
64,192,115126,128,0,115284:0:0:0:0:
448,192,115284,128,0,115600:0:0:0:0:
320,192,115284,128,0,115442:0:0:0:0:
192,192,115495,128,0,115600:0:0:0:0:
64,192,115600,128,0,115837:0:0:0:0:
320,192,115600,128,0,115758:0:0:0:0:
192,192,115916,128,0,115995:0:0:0:0:
320,192,115916,128,0,116074:0:0:0:0:
64,192,115916,128,0,115995:0:0:0:0:
448,192,115916,128,0,116126:0:0:0:0:
320,192,116126,128,0,116232:0:0:0:0:
448,192,116232,128,0,116390:0:0:0:0:
192,192,116232,128,0,116311:0:0:0:0:
64,192,116232,128,0,116469:0:0:0:0:
192,192,116390,128,0,116548:0:0:0:0:
320,192,116548,128,0,116626:0:0:0:0:
448,192,116548,128,0,116784:0:0:0:0:
64,192,116548,128,0,116705:0:0:0:0:
320,192,116705,128,0,116863:0:0:0:0:
448,192,116863,128,0,117021:0:0:0:0:
192,192,116863,128,0,116942:0:0:0:0:
64,192,116863,128,0,117100:0:0:0:0:
192,192,117021,128,0,117179:0:0:0:0:
320,192,117179,128,0,117258:0:0:0:0:
448,192,117179,128,0,117258:0:0:0:0:
64,192,117179,128,0,117416:0:0:0:0:
320,192,117337,128,0,117495:0:0:0:0:
448,192,117337,128,0,117416:0:0:0:0:
448,192,117495,128,0,117653:0:0:0:0:
64,192,117495,128,0,117732:0:0:0:0:
192,192,117495,128,0,117574:0:0:0:0:
192,192,117653,128,0,117811:0:0:0:0:
64,192,117811,128,0,118048:0:0:0:0:
320,192,117811,128,0,117969:0:0:0:0:
448,192,117969,1,0,0:0:0:0:
192,192,117969,128,0,118126:0:0:0:0:
448,192,118126,1,0,0:0:0:0:
320,192,118126,128,0,118284:0:0:0:0:
192,192,118284,128,0,118442:0:0:0:0:
64,192,118442,1,0,0:0:0:0:
448,192,118442,1,0,0:0:0:0:
320,192,118600,1,0,0:0:0:0:
192,192,118679,1,0,0:0:0:0:
448,192,118758,128,0,118837:0:0:0:0:
320,192,118758,128,0,118995:0:0:0:0:
64,192,118758,128,0,118916:0:0:0:0:
448,192,118916,128,0,119074:0:0:0:0:
320,192,119074,128,0,119232:0:0:0:0:
64,192,119074,128,0,119311:0:0:0:0:
192,192,119074,128,0,119153:0:0:0:0:
192,192,119232,128,0,119390:0:0:0:0:
448,192,119390,128,0,119469:0:0:0:0:
64,192,119390,128,0,119548:0:0:0:0:
320,192,119390,128,0,119626:0:0:0:0:
448,192,119548,128,0,119705:0:0:0:0:
64,192,119705,128,0,119784:0:0:0:0:
320,192,119705,128,0,119942:0:0:0:0:
192,192,119705,128,0,119784:0:0:0:0:
192,192,119863,128,0,120021:0:0:0:0:
64,192,119863,128,0,119942:0:0:0:0:
64,192,120021,128,0,120179:0:0:0:0:
320,192,120021,128,0,120258:0:0:0:0:
448,192,120021,128,0,120100:0:0:0:0:
448,192,120179,128,0,120337:0:0:0:0:
64,192,120337,128,0,120653:0:0:0:0:
192,192,120337,128,0,120495:0:0:0:0:
320,192,120548,128,0,120653:0:0:0:0:
448,192,120653,128,0,120890:0:0:0:0:
192,192,120653,128,0,120811:0:0:0:0:
64,192,120969,128,0,121179:0:0:0:0:
448,192,120969,128,0,121179:0:0:0:0:
192,192,120969,128,0,121048:0:0:0:0:
320,192,120969,128,0,121048:0:0:0:0:
320,192,121179,128,0,121284:0:0:0:0:
448,192,121284,128,0,121442:0:0:0:0:
64,192,121284,128,0,121363:0:0:0:0:
192,192,121284,128,0,121521:0:0:0:0:
64,192,121442,128,0,121600:0:0:0:0:
192,192,121600,128,0,121758:0:0:0:0:
448,192,121600,128,0,121837:0:0:0:0:
320,192,121600,128,0,121679:0:0:0:0:
320,192,121758,128,0,121916:0:0:0:0:
64,192,121916,128,0,121995:0:0:0:0:
448,192,121916,128,0,122074:0:0:0:0:
192,192,121916,128,0,122153:0:0:0:0:
64,192,122074,128,0,122232:0:0:0:0:
192,192,122232,128,0,122311:0:0:0:0:
320,192,122232,128,0,122311:0:0:0:0:
448,192,122232,128,0,122469:0:0:0:0:
192,192,122390,128,0,122469:0:0:0:0:
64,192,122390,128,0,122548:0:0:0:0:
320,192,122390,128,0,122469:0:0:0:0:
192,192,122548,128,0,122705:0:0:0:0:
320,192,122548,1,0,0:0:0:0:
448,192,122758,128,0,122863:0:0:0:0:
64,192,122758,1,0,0:0:0:0:
320,192,122863,128,0,123074:0:0:0:0:
192,192,122863,1,0,0:0:0:0:
448,192,123074,1,0,0:0:0:0:
192,192,123074,128,0,123179:0:0:0:0:
320,192,123179,128,0,123390:0:0:0:0:
64,192,123179,1,0,0:0:0:0:
64,192,123390,128,0,123495:0:0:0:0:
192,192,123390,1,0,0:0:0:0:
448,192,123495,128,0,123705:0:0:0:0:
320,192,123600,1,0,0:0:0:0:
192,192,123705,128,0,123811:0:0:0:0:
448,192,123811,128,0,124048:0:0:0:0:
320,192,123811,128,0,123890:0:0:0:0:
64,192,123811,128,0,123969:0:0:0:0:
320,192,123969,128,0,124048:0:0:0:0:
448,192,124126,128,0,124284:0:0:0:0:
320,192,124126,1,0,0:0:0:0:
64,192,124126,128,0,124363:0:0:0:0:
192,192,124126,128,0,124205:0:0:0:0:
192,192,124284,128,0,124442:0:0:0:0:
448,192,124442,1,0,0:0:0:0:
320,192,124442,128,0,124600:0:0:0:0:
64,192,124442,128,0,124679:0:0:0:0:
192,192,124600,128,0,124679:0:0:0:0:
64,192,124758,1,0,0:0:0:0:
192,192,124758,1,0,0:0:0:0:
448,192,124758,128,0,124995:0:0:0:0:
320,192,124758,128,0,124916:0:0:0:0:
192,192,124916,128,0,125074:0:0:0:0:
448,192,125074,128,0,125311:0:0:0:0:
320,192,125074,128,0,125153:0:0:0:0:
64,192,125074,128,0,125232:0:0:0:0:
320,192,125232,128,0,125311:0:0:0:0:
64,192,125390,1,0,0:0:0:0:
320,192,125390,1,0,0:0:0:0:
192,192,125390,128,0,125548:0:0:0:0:
448,192,125390,128,0,125626:0:0:0:0:
320,192,125548,128,0,125705:0:0:0:0:
64,192,125705,1,0,0:0:0:0:
448,192,125705,1,0,0:0:0:0:
192,192,125705,128,0,125863:0:0:0:0:
448,192,125863,1,0,0:0:0:0:
64,192,125863,1,0,0:0:0:0:
320,192,125863,128,0,125942:0:0:0:0:
320,192,126021,1,0,0:0:0:0:
448,192,126021,1,0,0:0:0:0:
64,192,126021,128,0,126258:0:0:0:0:
192,192,126021,128,0,126258:0:0:0:0:
448,192,126179,128,0,126337:0:0:0:0:
320,192,126337,128,0,126495:0:0:0:0:
192,192,126337,128,0,126574:0:0:0:0:
64,192,126337,128,0,126416:0:0:0:0:
64,192,126495,128,0,126574:0:0:0:0:
448,192,126653,128,0,126732:0:0:0:0:
64,192,126653,1,0,0:0:0:0:
192,192,126653,128,0,126811:0:0:0:0:
320,192,126653,128,0,126890:0:0:0:0:
448,192,126811,128,0,126969:0:0:0:0:
320,192,126969,128,0,127205:0:0:0:0:
192,192,126969,128,0,127126:0:0:0:0:
64,192,127126,128,0,127284:0:0:0:0:
192,192,127284,128,0,127521:0:0:0:0:
320,192,127284,1,0,0:0:0:0:
448,192,127284,128,0,127521:0:0:0:0:
320,192,127442,128,0,127600:0:0:0:0:
448,192,127600,128,0,127811:0:0:0:0:
192,192,127600,128,0,127811:0:0:0:0:
64,192,127811,128,0,127916:0:0:0:0:
192,192,127916,128,0,128126:0:0:0:0:
320,192,127916,1,0,0:0:0:0:
448,192,127916,128,0,128126:0:0:0:0:
320,192,128126,128,0,128232:0:0:0:0:
448,192,128232,1,0,0:0:0:0:
192,192,128232,128,0,128390:0:0:0:0:
64,192,128390,128,0,128548:0:0:0:0:
192,192,128548,1,0,0:0:0:0:
448,192,128548,1,0,0:0:0:0:
320,192,128626,1,0,0:0:0:0:
64,192,128705,1,0,0:0:0:0:
64,192,128863,128,0,129100:0:0:0:0:
192,192,128863,128,0,128942:0:0:0:0:
448,192,128863,128,0,129021:0:0:0:0:
192,192,129021,128,0,129100:0:0:0:0:
64,192,129179,128,0,129337:0:0:0:0:
192,192,129179,1,0,0:0:0:0:
448,192,129179,128,0,129416:0:0:0:0:
320,192,129179,128,0,129258:0:0:0:0:
320,192,129337,128,0,129495:0:0:0:0:
64,192,129495,1,0,0:0:0:0:
192,192,129495,128,0,129653:0:0:0:0:
448,192,129495,128,0,129732:0:0:0:0:
320,192,129653,128,0,129732:0:0:0:0:
448,192,129811,1,0,0:0:0:0:
320,192,129811,1,0,0:0:0:0:
64,192,129811,128,0,130048:0:0:0:0:
192,192,129811,128,0,129969:0:0:0:0:
320,192,129969,128,0,130126:0:0:0:0:
64,192,130126,128,0,130363:0:0:0:0:
192,192,130126,128,0,130205:0:0:0:0:
448,192,130126,128,0,130284:0:0:0:0:
192,192,130284,128,0,130363:0:0:0:0:
448,192,130442,1,0,0:0:0:0:
192,192,130442,1,0,0:0:0:0:
320,192,130442,128,0,130600:0:0:0:0:
64,192,130442,128,0,130679:0:0:0:0:
192,192,130600,128,0,130758:0:0:0:0:
448,192,130758,128,0,130837:0:0:0:0:
64,192,130758,1,0,0:0:0:0:
320,192,130758,128,0,130916:0:0:0:0:
64,192,130916,128,0,130995:0:0:0:0:
448,192,130916,1,0,0:0:0:0:
192,192,130916,128,0,130995:0:0:0:0:
192,192,131074,1,0,0:0:0:0:
64,192,131074,128,0,131311:0:0:0:0:
448,192,131074,128,0,131311:0:0:0:0:
320,192,131232,128,0,131390:0:0:0:0:
448,192,131390,128,0,131469:0:0:0:0:
192,192,131390,128,0,131626:0:0:0:0:
64,192,131390,128,0,131626:0:0:0:0:
320,192,131600,128,0,131837:0:0:0:0:
448,192,131705,128,0,131916:0:0:0:0:
64,192,131705,128,0,131837:0:0:0:0:
192,192,131705,128,0,131916:0:0:0:0:
64,192,131916,128,0,132258:0:0:0:0:
448,192,132021,128,0,132258:0:0:0:0:
192,192,132021,128,0,132179:0:0:0:0:
320,192,132021,128,0,132179:0:0:0:0:
192,192,132258,128,0,132548:0:0:0:0:
320,192,132337,128,0,132469:0:0:0:0:
64,192,132337,128,0,132548:0:0:0:0:
448,192,132337,128,0,132548:0:0:0:0:
320,192,132548,1,0,0:0:0:0:
448,192,132653,128,0,132890:0:0:0:0:
64,192,132653,128,0,132732:0:0:0:0:
192,192,132653,1,0,0:0:0:0:
320,192,132705,128,0,132784:0:0:0:0:
192,192,132758,128,0,132837:0:0:0:0:
64,192,132811,128,0,133126:0:0:0:0:
320,192,132863,128,0,132969:0:0:0:0:
192,192,132916,128,0,133048:0:0:0:0:
448,192,132969,128,0,133048:0:0:0:0:
320,192,133048,128,0,133126:0:0:0:0:
192,192,133126,128,0,133205:0:0:0:0:
64,192,133205,128,0,133284:0:0:0:0:
64,192,133916,5,0,0:0:0:0:
448,192,133916,1,0,0:0:0:0:
320,192,133916,1,0,0:0:0:0:
192,192,133969,1,0,0:0:0:0:
448,192,134021,1,0,0:0:0:0:
64,192,134074,1,0,0:0:0:0:
320,192,134126,1,0,0:0:0:0:
192,192,134179,1,0,0:0:0:0:
448,192,134232,1,0,0:0:0:0:
64,192,134232,1,0,0:0:0:0:
320,192,134295,1,0,0:0:0:0:
192,192,134358,1,0,0:0:0:0:
448,192,134421,1,0,0:0:0:0:
320,192,134484,1,0,0:0:0:0:
192,192,134548,1,0,0:0:0:0:
64,192,134548,1,0,0:0:0:0:
448,192,134600,1,0,0:0:0:0:
192,192,134653,1,0,0:0:0:0:
64,192,134705,1,0,0:0:0:0:
320,192,134784,1,0,0:0:0:0:
448,192,134863,1,0,0:0:0:0:
64,192,134863,1,0,0:0:0:0:
448,192,134942,1,0,0:0:0:0:
320,192,135021,1,0,0:0:0:0:
64,192,135061,1,0,0:0:0:0:
192,192,135100,1,0,0:0:0:0:
448,192,135179,1,0,0:0:0:0:
320,192,135179,1,0,0:0:0:0:
64,192,135337,1,0,0:0:0:0:
192,192,135363,1,0,0:0:0:0:
320,192,135390,1,0,0:0:0:0:
448,192,135495,1,0,0:0:0:0:
64,192,135495,1,0,0:0:0:0:
320,192,135548,1,0,0:0:0:0:
192,192,135600,1,0,0:0:0:0:
448,192,135653,1,0,0:0:0:0:
192,192,135811,1,0,0:0:0:0:
64,192,135811,1,0,0:0:0:0:
448,192,135863,1,0,0:0:0:0:
320,192,135916,1,0,0:0:0:0:
64,192,135969,1,0,0:0:0:0:
448,192,136021,1,0,0:0:0:0:
192,192,136074,1,0,0:0:0:0:
448,192,136126,1,0,0:0:0:0:
64,192,136126,1,0,0:0:0:0:
320,192,136179,1,0,0:0:0:0:
64,192,136232,1,0,0:0:0:0:
320,192,136284,1,0,0:0:0:0:
192,192,136284,1,0,0:0:0:0:
448,192,136442,1,0,0:0:0:0:
320,192,136442,1,0,0:0:0:0:
192,192,136495,1,0,0:0:0:0:
448,192,136548,1,0,0:0:0:0:
64,192,136600,1,0,0:0:0:0:
320,192,136653,1,0,0:0:0:0:
192,192,136705,1,0,0:0:0:0:
448,192,136758,1,0,0:0:0:0:
64,192,136758,1,0,0:0:0:0:
320,192,136821,1,0,0:0:0:0:
192,192,136884,1,0,0:0:0:0:
448,192,136948,1,0,0:0:0:0:
320,192,137011,1,0,0:0:0:0:
192,192,137074,1,0,0:0:0:0:
64,192,137074,1,0,0:0:0:0:
448,192,137113,1,0,0:0:0:0:
320,192,137153,1,0,0:0:0:0:
192,192,137232,1,0,0:0:0:0:
64,192,137271,1,0,0:0:0:0:
320,192,137311,1,0,0:0:0:0:
448,192,137390,1,0,0:0:0:0:
64,192,137390,1,0,0:0:0:0:
448,192,137469,1,0,0:0:0:0:
192,192,137548,1,0,0:0:0:0:
64,192,137548,1,0,0:0:0:0:
320,192,137587,1,0,0:0:0:0:
192,192,137626,1,0,0:0:0:0:
448,192,137705,1,0,0:0:0:0:
64,192,137705,1,0,0:0:0:0:
320,192,137784,1,0,0:0:0:0:
192,192,137863,1,0,0:0:0:0:
192,192,137942,1,0,0:0:0:0:
448,192,138021,1,0,0:0:0:0:
64,192,138021,1,0,0:0:0:0:
320,192,138074,1,0,0:0:0:0:
192,192,138126,1,0,0:0:0:0:
320,192,138179,1,0,0:0:0:0:
64,192,138179,1,0,0:0:0:0:
448,192,138337,1,0,0:0:0:0:
192,192,138337,1,0,0:0:0:0:
320,192,138390,1,0,0:0:0:0:
192,192,138442,1,0,0:0:0:0:
448,192,138495,1,0,0:0:0:0:
64,192,138495,1,0,0:0:0:0:
320,192,138574,1,0,0:0:0:0:
192,192,138574,1,0,0:0:0:0:
448,192,138653,1,0,0:0:0:0:
64,192,138653,1,0,0:0:0:0:
192,192,138692,1,0,0:0:0:0:
320,192,138732,1,0,0:0:0:0:
448,192,138771,1,0,0:0:0:0:
192,192,138811,1,0,0:0:0:0:
64,192,138811,1,0,0:0:0:0:
448,192,138890,1,0,0:0:0:0:
320,192,138890,1,0,0:0:0:0:
192,192,138969,1,0,0:0:0:0:
64,192,138969,1,0,0:0:0:0:
320,192,139021,1,0,0:0:0:0:
64,192,139074,1,0,0:0:0:0:
448,192,139126,1,0,0:0:0:0:
192,192,139179,1,0,0:0:0:0:
320,192,139232,1,0,0:0:0:0:
448,192,139284,1,0,0:0:0:0:
64,192,139284,1,0,0:0:0:0:
192,192,139348,1,0,0:0:0:0:
320,192,139411,1,0,0:0:0:0:
64,192,139474,1,0,0:0:0:0:
192,192,139537,1,0,0:0:0:0:
448,192,139600,1,0,0:0:0:0:
320,192,139600,1,0,0:0:0:0:
64,192,139653,1,0,0:0:0:0:
320,192,139705,1,0,0:0:0:0:
448,192,139758,1,0,0:0:0:0:
192,192,139837,1,0,0:0:0:0:
448,192,139916,1,0,0:0:0:0:
64,192,139916,1,0,0:0:0:0:
64,192,139995,1,0,0:0:0:0:
320,192,140074,1,0,0:0:0:0:
192,192,140113,1,0,0:0:0:0:
448,192,140153,1,0,0:0:0:0:
192,192,140232,1,0,0:0:0:0:
64,192,140232,1,0,0:0:0:0:
448,192,140390,1,0,0:0:0:0:
320,192,140416,1,0,0:0:0:0:
192,192,140442,1,0,0:0:0:0:
448,192,140548,1,0,0:0:0:0:
64,192,140548,1,0,0:0:0:0:
192,192,140600,1,0,0:0:0:0:
320,192,140653,1,0,0:0:0:0:
192,192,140705,1,0,0:0:0:0:
64,192,140705,1,0,0:0:0:0:
448,192,140784,1,0,0:0:0:0:
320,192,140784,1,0,0:0:0:0:
192,192,140863,1,0,0:0:0:0:
64,192,140863,1,0,0:0:0:0:
320,192,140916,1,0,0:0:0:0:
448,192,141021,1,0,0:0:0:0:
64,192,141021,1,0,0:0:0:0:
320,192,141061,1,0,0:0:0:0:
192,192,141100,1,0,0:0:0:0:
64,192,141140,1,0,0:0:0:0:
448,192,141179,1,0,0:0:0:0:
320,192,141232,1,0,0:0:0:0:
192,192,141284,1,0,0:0:0:0:
448,192,141337,1,0,0:0:0:0:
320,192,141416,1,0,0:0:0:0:
448,192,141495,1,0,0:0:0:0:
64,192,141495,1,0,0:0:0:0:
192,192,141548,1,0,0:0:0:0:
320,192,141600,1,0,0:0:0:0:
448,192,141653,1,0,0:0:0:0:
64,192,141705,1,0,0:0:0:0:
192,192,141758,1,0,0:0:0:0:
448,192,141811,1,0,0:0:0:0:
320,192,141811,1,0,0:0:0:0:
64,192,141863,1,0,0:0:0:0:
448,192,141916,1,0,0:0:0:0:
192,192,141969,1,0,0:0:0:0:
320,192,142021,1,0,0:0:0:0:
448,192,142126,1,0,0:0:0:0:
64,192,142126,1,0,0:0:0:0:
320,192,142166,1,0,0:0:0:0:
192,192,142205,1,0,0:0:0:0:
448,192,142284,1,0,0:0:0:0:
64,192,142324,1,0,0:0:0:0:
192,192,142363,1,0,0:0:0:0:
448,192,142442,1,0,0:0:0:0:
320,192,142442,1,0,0:0:0:0:
320,192,142521,1,0,0:0:0:0:
192,192,142600,1,0,0:0:0:0:
64,192,142600,1,0,0:0:0:0:
448,192,142640,1,0,0:0:0:0:
192,192,142679,1,0,0:0:0:0:
448,192,142758,1,0,0:0:0:0:
64,192,142758,1,0,0:0:0:0:
320,192,142916,1,0,0:0:0:0:
320,192,142995,1,0,0:0:0:0:
192,192,143074,1,0,0:0:0:0:
64,192,143074,1,0,0:0:0:0:
448,192,143126,1,0,0:0:0:0:
320,192,143179,1,0,0:0:0:0:
192,192,143232,1,0,0:0:0:0:
64,192,143232,1,0,0:0:0:0:
448,192,143311,1,0,0:0:0:0:
320,192,143311,1,0,0:0:0:0:
448,192,143390,1,0,0:0:0:0:
64,192,143390,1,0,0:0:0:0:
192,192,143469,1,0,0:0:0:0:
448,192,143548,1,0,0:0:0:0:
64,192,143548,1,0,0:0:0:0:
320,192,143626,1,0,0:0:0:0:
448,192,143705,1,0,0:0:0:0:
64,192,143705,1,0,0:0:0:0:
192,192,143745,1,0,0:0:0:0:
320,192,143784,1,0,0:0:0:0:
64,192,143837,1,0,0:0:0:0:
320,192,143890,1,0,0:0:0:0:
192,192,143942,1,0,0:0:0:0:
448,192,144021,1,0,0:0:0:0:
64,192,144021,1,0,0:0:0:0:
320,192,144074,1,0,0:0:0:0:
192,192,144126,1,0,0:0:0:0:
448,192,144179,1,0,0:0:0:0:
320,192,144179,1,0,0:0:0:0:
64,192,144232,1,0,0:0:0:0:
448,192,144284,1,0,0:0:0:0:
192,192,144337,1,0,0:0:0:0:
64,192,144337,1,0,0:0:0:0:
320,192,144390,1,0,0:0:0:0:
448,192,144442,1,0,0:0:0:0:
64,192,144495,1,0,0:0:0:0:
192,192,144574,1,0,0:0:0:0:
448,192,144653,1,0,0:0:0:0:
64,192,144653,1,0,0:0:0:0:
320,192,144705,1,0,0:0:0:0:
64,192,144758,1,0,0:0:0:0:
192,192,144811,1,0,0:0:0:0:
320,192,144890,1,0,0:0:0:0:
448,192,144969,1,0,0:0:0:0:
64,192,144969,1,0,0:0:0:0:
448,192,145048,1,0,0:0:0:0:
320,192,145126,1,0,0:0:0:0:
192,192,145153,1,0,0:0:0:0:
64,192,145179,1,0,0:0:0:0:
448,192,145284,1,0,0:0:0:0:
320,192,145284,1,0,0:0:0:0:
64,192,145442,1,0,0:0:0:0:
64,192,145521,1,0,0:0:0:0:
448,192,145600,1,0,0:0:0:0:
320,192,145600,1,0,0:0:0:0:
192,192,145653,1,0,0:0:0:0:
320,192,145705,1,0,0:0:0:0:
448,192,145758,1,0,0:0:0:0:
64,192,145758,1,0,0:0:0:0:
320,192,145837,1,0,0:0:0:0:
192,192,145837,1,0,0:0:0:0:
448,192,145916,1,0,0:0:0:0:
64,192,145916,1,0,0:0:0:0:
192,192,145969,1,0,0:0:0:0:
320,192,146021,1,0,0:0:0:0:
64,192,146074,1,0,0:0:0:0:
448,192,146126,1,0,0:0:0:0:
64,192,146179,1,0,0:0:0:0:
320,192,146232,1,0,0:0:0:0:
192,192,146232,1,0,0:0:0:0:
448,192,146284,1,0,0:0:0:0:
64,192,146337,1,0,0:0:0:0:
192,192,146390,1,0,0:0:0:0:
448,192,146469,1,0,0:0:0:0:
320,192,146469,1,0,0:0:0:0:
192,192,146548,1,0,0:0:0:0:
64,192,146548,1,0,0:0:0:0:
448,192,146600,1,0,0:0:0:0:
64,192,146653,1,0,0:0:0:0:
192,192,146705,1,0,0:0:0:0:
320,192,146758,1,0,0:0:0:0:
448,192,146811,1,0,0:0:0:0:
192,192,146863,1,0,0:0:0:0:
64,192,146863,1,0,0:0:0:0:
320,192,146916,1,0,0:0:0:0:
64,192,146969,1,0,0:0:0:0:
192,192,147021,1,0,0:0:0:0:
320,192,147074,1,0,0:0:0:0:
448,192,147179,1,0,0:0:0:0:
64,192,147179,1,0,0:0:0:0:
320,192,147219,1,0,0:0:0:0:
192,192,147258,1,0,0:0:0:0:
448,192,147337,1,0,0:0:0:0:
192,192,147376,1,0,0:0:0:0:
320,192,147416,1,0,0:0:0:0:
448,192,147495,1,0,0:0:0:0:
64,192,147495,1,0,0:0:0:0:
64,192,147574,1,0,0:0:0:0:
320,192,147653,1,0,0:0:0:0:
192,192,147653,1,0,0:0:0:0:
448,192,147692,1,0,0:0:0:0:
64,192,147732,1,0,0:0:0:0:
448,192,147811,1,0,0:0:0:0:
320,192,147811,1,0,0:0:0:0:
192,192,147969,1,0,0:0:0:0:
192,192,148048,1,0,0:0:0:0:
448,192,148126,1,0,0:0:0:0:
320,192,148126,1,0,0:0:0:0:
64,192,148179,1,0,0:0:0:0:
320,192,148232,1,0,0:0:0:0:
448,192,148284,1,0,0:0:0:0:
192,192,148284,1,0,0:0:0:0:
320,192,148442,1,0,0:0:0:0:
64,192,148442,1,0,0:0:0:0:
192,192,148495,1,0,0:0:0:0:
320,192,148548,1,0,0:0:0:0:
448,192,148600,1,0,0:0:0:0:
64,192,148600,1,0,0:0:0:0:
320,192,148679,1,0,0:0:0:0:
192,192,148679,1,0,0:0:0:0:
448,192,148758,1,0,0:0:0:0:
64,192,148758,1,0,0:0:0:0:
320,192,148798,1,0,0:0:0:0:
192,192,148837,1,0,0:0:0:0:
64,192,148876,1,0,0:0:0:0:
448,192,148916,1,0,0:0:0:0:
320,192,148916,1,0,0:0:0:0:
192,192,148995,1,0,0:0:0:0:
64,192,148995,1,0,0:0:0:0:
448,192,149074,1,0,0:0:0:0:
320,192,149074,1,0,0:0:0:0:
192,192,149126,1,0,0:0:0:0:
64,192,149179,1,0,0:0:0:0:
448,192,149232,1,0,0:0:0:0:
320,192,149232,1,0,0:0:0:0:
64,192,149284,1,0,0:0:0:0:
192,192,149337,1,0,0:0:0:0:
448,192,149390,1,0,0:0:0:0:
320,192,149390,1,0,0:0:0:0:
192,192,149442,1,0,0:0:0:0:
64,192,149495,1,0,0:0:0:0:
320,192,149548,1,0,0:0:0:0:
320,192,149626,1,0,0:0:0:0:
192,192,149705,1,0,0:0:0:0:
64,192,149705,1,0,0:0:0:0:
448,192,149758,1,0,0:0:0:0:
64,192,149811,1,0,0:0:0:0:
192,192,149863,1,0,0:0:0:0:
320,192,149942,1,0,0:0:0:0:
192,192,150021,1,0,0:0:0:0:
64,192,150021,1,0,0:0:0:0:
192,192,150100,1,0,0:0:0:0:
448,192,150179,1,0,0:0:0:0:
320,192,150179,1,0,0:0:0:0:
192,192,150258,1,0,0:0:0:0:
64,192,150258,1,0,0:0:0:0:
448,192,150337,1,0,0:0:0:0:
320,192,150337,1,0,0:0:0:0:
448,192,150495,1,0,0:0:0:0:
320,192,150521,1,0,0:0:0:0:
192,192,150548,1,0,0:0:0:0:
64,192,150653,1,0,0:0:0:0:
320,192,150653,1,0,0:0:0:0:
192,192,150732,1,0,0:0:0:0:
448,192,150732,1,0,0:0:0:0:
320,192,150811,1,0,0:0:0:0:
64,192,150890,1,0,0:0:0:0:
192,192,150969,1,0,0:0:0:0:
448,192,150969,1,0,0:0:0:0:
64,192,151048,1,0,0:0:0:0:
320,192,151048,1,0,0:0:0:0:
192,192,151126,1,0,0:0:0:0:
320,192,151166,1,0,0:0:0:0:
448,192,151205,1,0,0:0:0:0:
64,192,151245,1,0,0:0:0:0:
320,192,151284,1,0,0:0:0:0:
192,192,151284,1,0,0:0:0:0:
448,192,151337,1,0,0:0:0:0:
64,192,151390,1,0,0:0:0:0:
320,192,151442,1,0,0:0:0:0:
320,192,151521,1,0,0:0:0:0:
192,192,151600,1,0,0:0:0:0:
64,192,151600,1,0,0:0:0:0:
448,192,151653,1,0,0:0:0:0:
64,192,151705,1,0,0:0:0:0:
192,192,151758,1,0,0:0:0:0:
320,192,151811,1,0,0:0:0:0:
448,192,151863,1,0,0:0:0:0:
192,192,151916,1,0,0:0:0:0:
64,192,151916,1,0,0:0:0:0:
320,192,151969,1,0,0:0:0:0:
64,192,152021,1,0,0:0:0:0:
192,192,152074,1,0,0:0:0:0:
320,192,152126,1,0,0:0:0:0:
448,192,152232,1,0,0:0:0:0:
64,192,152232,1,0,0:0:0:0:
192,192,152271,1,0,0:0:0:0:
320,192,152311,1,0,0:0:0:0:
64,192,152390,1,0,0:0:0:0:
448,192,152429,1,0,0:0:0:0:
192,192,152469,1,0,0:0:0:0:
448,192,152548,1,0,0:0:0:0:
64,192,152548,1,0,0:0:0:0:
64,192,152626,1,0,0:0:0:0:
448,192,152705,1,0,0:0:0:0:
320,192,152705,1,0,0:0:0:0:
192,192,152784,1,0,0:0:0:0:
64,192,152784,1,0,0:0:0:0:
448,192,152863,1,0,0:0:0:0:
320,192,152863,1,0,0:0:0:0:
192,192,153021,1,0,0:0:0:0:
64,192,153021,1,0,0:0:0:0:
192,192,153100,1,0,0:0:0:0:
64,192,153100,1,0,0:0:0:0:
448,192,153179,1,0,0:0:0:0:
320,192,153179,1,0,0:0:0:0:
192,192,153232,1,0,0:0:0:0:
320,192,153284,1,0,0:0:0:0:
448,192,153337,1,0,0:0:0:0:
64,192,153337,1,0,0:0:0:0:
320,192,153416,1,0,0:0:0:0:
192,192,153416,1,0,0:0:0:0:
448,192,153495,1,0,0:0:0:0:
64,192,153495,1,0,0:0:0:0:
192,192,153574,1,0,0:0:0:0:
448,192,153653,1,0,0:0:0:0:
64,192,153653,1,0,0:0:0:0:
320,192,153732,1,0,0:0:0:0:
448,192,153811,1,0,0:0:0:0:
64,192,153811,1,0,0:0:0:0:
192,192,153850,1,0,0:0:0:0:
320,192,153890,1,0,0:0:0:0:
64,192,153929,1,0,0:0:0:0:
320,192,153986,1,0,0:0:0:0:
192,192,154036,1,0,0:0:0:0:
64,192,154087,1,0,0:0:0:0:
320,192,154126,1,0,0:0:0:0:
448,192,154126,1,0,0:0:0:0:
448,192,157604,1,0,0:0:0:0:
320,192,157604,1,0,0:0:0:0:
64,192,157604,1,0,0:0:0:0:
192,192,157821,1,0,0:0:0:0:
64,192,158039,1,0,0:0:0:0:
320,192,158147,1,0,0:0:0:0:
64,192,158365,1,0,0:0:0:0:
448,192,158473,1,0,0:0:0:0:
64,192,158691,1,0,0:0:0:0:
320,192,158799,1,0,0:0:0:0:
64,192,159017,1,0,0:0:0:0:
192,192,159126,1,0,0:0:0:0:
448,192,159343,1,0,0:0:0:0:
320,192,159560,1,0,0:0:0:0:
448,192,159778,1,0,0:0:0:0:
192,192,159886,1,0,0:0:0:0:
448,192,160104,1,0,0:0:0:0:
64,192,160212,1,0,0:0:0:0:
448,192,160430,1,0,0:0:0:0:
192,192,160539,1,0,0:0:0:0:
448,192,160756,1,0,0:0:0:0:
320,192,160865,1,0,0:0:0:0:
64,192,161082,1,0,0:0:0:0:
192,192,161299,1,0,0:0:0:0:
64,192,161517,1,0,0:0:0:0:
320,192,161626,1,0,0:0:0:0:
64,192,161843,1,0,0:0:0:0:
448,192,161952,128,0,162060:0:0:0:0:
64,192,162169,1,0,0:0:0:0:
320,192,162278,128,0,162386:0:0:0:0:
64,192,162495,1,0,0:0:0:0:
192,192,162604,128,0,162712:0:0:0:0:
448,192,162821,1,0,0:0:0:0:
320,192,163039,128,0,163147:0:0:0:0:
448,192,163256,1,0,0:0:0:0:
192,192,163365,128,0,163473:0:0:0:0:
448,192,163582,1,0,0:0:0:0:
64,192,163691,128,0,163799:0:0:0:0:
448,192,163908,1,0,0:0:0:0:
192,192,164017,128,0,164126:0:0:0:0:
448,192,164234,1,0,0:0:0:0:
320,192,164343,128,0,164452:0:0:0:0:
448,192,164560,1,0,0:0:0:0:
64,192,164560,128,0,164669:0:0:0:0:
192,192,164778,128,0,164886:0:0:0:0:
448,192,164995,1,0,0:0:0:0:
64,192,164995,128,0,165104:0:0:0:0:
320,192,165104,128,0,165212:0:0:0:0:
64,192,165321,1,0,0:0:0:0:
448,192,165430,128,0,165539:0:0:0:0:
64,192,165430,1,0,0:0:0:0:
320,192,165647,128,0,165756:0:0:0:0:
448,192,165865,128,0,165973:0:0:0:0:
64,192,165865,1,0,0:0:0:0:
192,192,165973,128,0,166082:0:0:0:0:
64,192,166082,1,0,0:0:0:0:
448,192,166191,128,0,166245:0:0:0:0:
448,192,166299,1,0,0:0:0:0:
64,192,166299,128,0,166408:0:0:0:0:
192,192,166517,128,0,166626:0:0:0:0:
448,192,166734,1,0,0:0:0:0:
64,192,166734,128,0,166952:0:0:0:0:
320,192,166843,128,0,166952:0:0:0:0:
64,192,167060,128,0,167115:0:0:0:0:
448,192,167169,128,0,167278:0:0:0:0:
64,192,167169,1,0,0:0:0:0:
320,192,167386,128,0,167495:0:0:0:0:
192,192,167495,1,0,0:0:0:0:
64,192,167495,1,0,0:0:0:0:
448,192,167604,128,0,167821:0:0:0:0:
320,192,167604,1,0,0:0:0:0:
192,192,167712,128,0,167821:0:0:0:0:
320,192,167821,1,0,0:0:0:0:
64,192,167821,1,0,0:0:0:0:
448,192,167930,128,0,168039:0:0:0:0:
320,192,168039,1,0,0:0:0:0:
64,192,168039,128,0,168256:0:0:0:0:
448,192,168147,1,0,0:0:0:0:
192,192,168147,128,0,168365:0:0:0:0:
448,192,168256,1,0,0:0:0:0:
320,192,168256,128,0,168365:0:0:0:0:
64,192,168365,1,0,0:0:0:0:
448,192,168473,128,0,168691:0:0:0:0:
192,192,168473,1,0,0:0:0:0:
320,192,168582,128,0,168799:0:0:0:0:
64,192,168582,1,0,0:0:0:0:
192,192,168691,128,0,168799:0:0:0:0:
64,192,168691,1,0,0:0:0:0:
448,192,168799,1,0,0:0:0:0:
64,192,168908,1,0,0:0:0:0:
448,192,168962,1,0,0:0:0:0:
192,192,169017,1,0,0:0:0:0:
448,192,169071,1,0,0:0:0:0:
320,192,169126,1,0,0:0:0:0:
448,192,169180,1,0,0:0:0:0:
64,192,169234,1,0,0:0:0:0:
192,192,169289,1,0,0:0:0:0:
448,192,169343,1,0,0:0:0:0:
64,192,169397,1,0,0:0:0:0:
320,192,169452,1,0,0:0:0:0:
64,192,169506,1,0,0:0:0:0:
192,192,169560,1,0,0:0:0:0:
64,192,169615,1,0,0:0:0:0:
448,192,169669,1,0,0:0:0:0:
320,192,169723,1,0,0:0:0:0:
192,192,169778,1,0,0:0:0:0:
64,192,169778,1,0,0:0:0:0:
192,192,170068,1,0,0:0:0:0:
64,192,170068,1,0,0:0:0:0:
448,192,170212,1,0,0:0:0:0:
192,192,170212,1,0,0:0:0:0:
64,192,170357,5,0,0:0:0:0:
192,192,170357,1,0,0:0:0:0:
448,192,170502,1,0,0:0:0:0:
192,192,170647,1,0,0:0:0:0:
64,192,170647,1,0,0:0:0:0:
192,192,170792,1,0,0:0:0:0:
64,192,170792,1,0,0:0:0:0:
192,192,170937,1,0,0:0:0:0:
64,192,170937,1,0,0:0:0:0:
448,192,171082,128,0,171299:0:0:0:0:
320,192,171082,128,0,171408:0:0:0:0:
64,192,171082,128,0,171191:0:0:0:0:
192,192,171517,5,0,0:0:0:0:
64,192,171517,1,0,0:0:0:0:
320,192,171517,1,0,0:0:0:0:
64,192,171626,1,0,0:0:0:0:
192,192,171734,1,0,0:0:0:0:
64,192,171843,1,0,0:0:0:0:
320,192,171843,1,0,0:0:0:0:
448,192,171952,1,0,0:0:0:0:
192,192,171952,1,0,0:0:0:0:
64,192,171952,1,0,0:0:0:0:
448,192,172060,1,0,0:0:0:0:
64,192,172169,1,0,0:0:0:0:
320,192,172169,1,0,0:0:0:0:
64,192,172278,1,0,0:0:0:0:
448,192,172278,1,0,0:0:0:0:
448,192,172386,1,0,0:0:0:0:
192,192,172386,1,0,0:0:0:0:
320,192,172386,1,0,0:0:0:0:
320,192,172495,1,0,0:0:0:0:
448,192,172604,1,0,0:0:0:0:
192,192,172712,1,0,0:0:0:0:
64,192,172712,1,0,0:0:0:0:
320,192,172821,1,0,0:0:0:0:
448,192,172821,1,0,0:0:0:0:
64,192,172821,1,0,0:0:0:0:
320,192,172930,1,0,0:0:0:0:
192,192,173039,1,0,0:0:0:0:
448,192,173256,1,0,0:0:0:0:
320,192,173256,1,0,0:0:0:0:
192,192,173256,1,0,0:0:0:0:
448,192,173365,1,0,0:0:0:0:
320,192,173473,1,0,0:0:0:0:
64,192,173582,1,0,0:0:0:0:
192,192,173582,1,0,0:0:0:0:
64,192,173691,1,0,0:0:0:0:
320,192,173691,1,0,0:0:0:0:
448,192,173691,1,0,0:0:0:0:
320,192,173799,1,0,0:0:0:0:
192,192,173908,1,0,0:0:0:0:
448,192,173908,1,0,0:0:0:0:
448,192,174017,1,0,0:0:0:0:
64,192,174017,1,0,0:0:0:0:
64,192,174126,1,0,0:0:0:0:
320,192,174126,1,0,0:0:0:0:
192,192,174126,1,0,0:0:0:0:
320,192,174234,1,0,0:0:0:0:
192,192,174234,1,0,0:0:0:0:
320,192,174452,1,0,0:0:0:0:
64,192,174452,1,0,0:0:0:0:
448,192,174560,1,0,0:0:0:0:
192,192,174560,1,0,0:0:0:0:
64,192,174560,1,0,0:0:0:0:
448,192,174669,1,0,0:0:0:0:
320,192,174669,1,0,0:0:0:0:
320,192,174778,1,0,0:0:0:0:
192,192,174778,1,0,0:0:0:0:
448,192,174886,1,0,0:0:0:0:
64,192,174995,1,0,0:0:0:0:
320,192,174995,1,0,0:0:0:0:
192,192,174995,1,0,0:0:0:0:
64,192,175104,1,0,0:0:0:0:
192,192,175212,1,0,0:0:0:0:
448,192,175321,1,0,0:0:0:0:
320,192,175321,1,0,0:0:0:0:
448,192,175430,1,0,0:0:0:0:
192,192,175430,1,0,0:0:0:0:
64,192,175430,1,0,0:0:0:0:
192,192,175539,1,0,0:0:0:0:
320,192,175647,1,0,0:0:0:0:
192,192,175756,1,0,0:0:0:0:
448,192,175756,1,0,0:0:0:0:
64,192,175865,1,0,0:0:0:0:
320,192,175865,1,0,0:0:0:0:
192,192,175865,1,0,0:0:0:0:
64,192,175973,1,0,0:0:0:0:
448,192,176082,1,0,0:0:0:0:
192,192,176191,1,0,0:0:0:0:
320,192,176191,1,0,0:0:0:0:
192,192,176299,1,0,0:0:0:0:
64,192,176299,1,0,0:0:0:0:
448,192,176299,1,0,0:0:0:0:
64,192,176408,1,0,0:0:0:0:
448,192,176517,1,0,0:0:0:0:
192,192,176517,1,0,0:0:0:0:
448,192,176734,1,0,0:0:0:0:
192,192,176734,1,0,0:0:0:0:
320,192,176734,1,0,0:0:0:0:
448,192,176843,1,0,0:0:0:0:
320,192,176952,1,0,0:0:0:0:
64,192,177060,1,0,0:0:0:0:
192,192,177060,1,0,0:0:0:0:
448,192,177169,1,0,0:0:0:0:
320,192,177169,1,0,0:0:0:0:
64,192,177169,1,0,0:0:0:0:
448,192,177278,1,0,0:0:0:0:
320,192,177386,1,0,0:0:0:0:
64,192,177386,1,0,0:0:0:0:
448,192,177495,1,0,0:0:0:0:
64,192,177495,1,0,0:0:0:0:
320,192,177604,1,0,0:0:0:0:
192,192,177604,1,0,0:0:0:0:
448,192,177604,1,0,0:0:0:0:
320,192,177712,1,0,0:0:0:0:
192,192,177821,1,0,0:0:0:0:
192,192,177930,1,0,0:0:0:0:
320,192,178039,128,0,178365:0:0:0:0:
448,192,178039,128,0,178256:0:0:0:0:
64,192,178039,128,0,178147:0:0:0:0:
448,192,178473,1,0,0:0:0:0:
64,192,178473,1,0,0:0:0:0:
192,192,178473,1,0,0:0:0:0:
320,192,178473,1,0,0:0:0:0:
448,192,178582,1,0,0:0:0:0:
320,192,178691,1,0,0:0:0:0:
448,192,178799,1,0,0:0:0:0:
192,192,178799,1,0,0:0:0:0:
448,192,178908,1,0,0:0:0:0:
320,192,178908,1,0,0:0:0:0:
64,192,178908,1,0,0:0:0:0:
64,192,179017,1,0,0:0:0:0:
320,192,179126,1,0,0:0:0:0:
64,192,179126,1,0,0:0:0:0:
192,192,179234,1,0,0:0:0:0:
448,192,179234,1,0,0:0:0:0:
320,192,179343,1,0,0:0:0:0:
192,192,179343,1,0,0:0:0:0:
64,192,179343,1,0,0:0:0:0:
320,192,179452,1,0,0:0:0:0:
320,192,179560,1,0,0:0:0:0:
448,192,179669,1,0,0:0:0:0:
192,192,179669,1,0,0:0:0:0:
448,192,179778,1,0,0:0:0:0:
64,192,179778,1,0,0:0:0:0:
320,192,179778,1,0,0:0:0:0:
64,192,179886,1,0,0:0:0:0:
64,192,179995,1,0,0:0:0:0:
320,192,180212,1,0,0:0:0:0:
192,192,180212,1,0,0:0:0:0:
64,192,180212,1,0,0:0:0:0:
64,192,180321,1,0,0:0:0:0:
192,192,180430,1,0,0:0:0:0:
64,192,180539,1,0,0:0:0:0:
320,192,180539,1,0,0:0:0:0:
64,192,180647,1,0,0:0:0:0:
192,192,180647,1,0,0:0:0:0:
448,192,180647,1,0,0:0:0:0:
448,192,180756,1,0,0:0:0:0:
192,192,180865,1,0,0:0:0:0:
448,192,180865,1,0,0:0:0:0:
64,192,180973,1,0,0:0:0:0:
320,192,181082,1,0,0:0:0:0:
192,192,181082,1,0,0:0:0:0:
448,192,181082,1,0,0:0:0:0:
64,192,181191,1,0,0:0:0:0:
448,192,181191,1,0,0:0:0:0:
320,192,181299,1,0,0:0:0:0:
64,192,181408,1,0,0:0:0:0:
192,192,181408,1,0,0:0:0:0:
320,192,181517,1,0,0:0:0:0:
64,192,181517,1,0,0:0:0:0:
448,192,181517,1,0,0:0:0:0:
448,192,181626,1,0,0:0:0:0:
448,192,181734,1,0,0:0:0:0:
448,192,181952,1,0,0:0:0:0:
192,192,181952,1,0,0:0:0:0:
320,192,181952,1,0,0:0:0:0:
448,192,182060,1,0,0:0:0:0:
192,192,182169,1,0,0:0:0:0:
448,192,182278,1,0,0:0:0:0:
320,192,182278,1,0,0:0:0:0:
448,192,182386,1,0,0:0:0:0:
64,192,182386,1,0,0:0:0:0:
192,192,182386,1,0,0:0:0:0:
192,192,182495,1,0,0:0:0:0:
192,192,182604,1,0,0:0:0:0:
64,192,182712,1,0,0:0:0:0:
192,192,182821,1,0,0:0:0:0:
448,192,182821,1,0,0:0:0:0:
320,192,182821,1,0,0:0:0:0:
320,192,182930,1,0,0:0:0:0:
320,192,183039,1,0,0:0:0:0:
192,192,183147,1,0,0:0:0:0:
64,192,183147,1,0,0:0:0:0:
64,192,183256,1,0,0:0:0:0:
448,192,183256,1,0,0:0:0:0:
320,192,183256,1,0,0:0:0:0:
320,192,183365,1,0,0:0:0:0:
320,192,183473,1,0,0:0:0:0:
448,192,183691,1,0,0:0:0:0:
64,192,183691,1,0,0:0:0:0:
320,192,183836,1,0,0:0:0:0:
320,192,183981,1,0,0:0:0:0:
64,192,184126,1,0,0:0:0:0:
448,192,184126,1,0,0:0:0:0:
192,192,184270,1,0,0:0:0:0:
192,192,184415,1,0,0:0:0:0:
448,192,184560,1,0,0:0:0:0:
64,192,184560,1,0,0:0:0:0:
192,192,184850,1,0,0:0:0:0:
320,192,184850,1,0,0:0:0:0:
64,192,185140,1,0,0:0:0:0:
320,192,185140,1,0,0:0:0:0:
192,192,185285,1,0,0:0:0:0:
64,192,185285,1,0,0:0:0:0:
448,192,185430,1,0,0:0:0:0:
64,192,185430,1,0,0:0:0:0:
192,192,185430,1,0,0:0:0:0:
320,192,185430,1,0,0:0:0:0:
192,192,185539,1,0,0:0:0:0:
448,192,185647,1,0,0:0:0:0:
320,192,185647,1,0,0:0:0:0:
320,192,185756,1,0,0:0:0:0:
64,192,185756,1,0,0:0:0:0:
448,192,185865,1,0,0:0:0:0:
192,192,185865,1,0,0:0:0:0:
64,192,185865,1,0,0:0:0:0:
320,192,185973,1,0,0:0:0:0:
192,192,186082,1,0,0:0:0:0:
64,192,186082,1,0,0:0:0:0:
448,192,186191,1,0,0:0:0:0:
64,192,186191,1,0,0:0:0:0:
448,192,186299,1,0,0:0:0:0:
320,192,186299,1,0,0:0:0:0:
192,192,186299,1,0,0:0:0:0:
192,192,186408,1,0,0:0:0:0:
64,192,186517,1,0,0:0:0:0:
448,192,186626,1,0,0:0:0:0:
320,192,186626,1,0,0:0:0:0:
64,192,186734,1,0,0:0:0:0:
448,192,186734,1,0,0:0:0:0:
192,192,186734,1,0,0:0:0:0:
192,192,186843,1,0,0:0:0:0:
320,192,186952,1,0,0:0:0:0:
448,192,187169,1,0,0:0:0:0:
320,192,187169,1,0,0:0:0:0:
192,192,187169,1,0,0:0:0:0:
448,192,187278,1,0,0:0:0:0:
192,192,187386,1,0,0:0:0:0:
64,192,187386,1,0,0:0:0:0:
192,192,187495,1,0,0:0:0:0:
448,192,187604,1,0,0:0:0:0:
64,192,187604,1,0,0:0:0:0:
320,192,187604,1,0,0:0:0:0:
320,192,187712,1,0,0:0:0:0:
448,192,187821,1,0,0:0:0:0:
64,192,187821,1,0,0:0:0:0:
64,192,187930,1,0,0:0:0:0:
320,192,188039,1,0,0:0:0:0:
448,192,188039,1,0,0:0:0:0:
192,192,188039,1,0,0:0:0:0:
320,192,188147,1,0,0:0:0:0:
448,192,188256,1,0,0:0:0:0:
192,192,188256,1,0,0:0:0:0:
64,192,188365,1,0,0:0:0:0:
192,192,188365,1,0,0:0:0:0:
64,192,188473,1,0,0:0:0:0:
448,192,188473,1,0,0:0:0:0:
320,192,188473,1,0,0:0:0:0:
192,192,188582,1,0,0:0:0:0:
320,192,188691,1,0,0:0:0:0:
448,192,188718,1,0,0:0:0:0:
64,192,188799,1,0,0:0:0:0:
320,192,188908,1,0,0:0:0:0:
192,192,188908,1,0,0:0:0:0:
448,192,188935,1,0,0:0:0:0:
192,192,189017,1,0,0:0:0:0:
320,192,189126,1,0,0:0:0:0:
64,192,189234,1,0,0:0:0:0:
448,192,189234,1,0,0:0:0:0:
192,192,189289,1,0,0:0:0:0:
64,192,189343,1,0,0:0:0:0:
320,192,189343,1,0,0:0:0:0:
448,192,189343,1,0,0:0:0:0:
192,192,189452,1,0,0:0:0:0:
320,192,189452,1,0,0:0:0:0:
64,192,189560,1,0,0:0:0:0:
448,192,189560,1,0,0:0:0:0:
64,192,189669,1,0,0:0:0:0:
192,192,189778,1,0,0:0:0:0:
320,192,189778,1,0,0:0:0:0:
448,192,189778,1,0,0:0:0:0:
448,192,189886,1,0,0:0:0:0:
192,192,189995,1,0,0:0:0:0:
320,192,189995,1,0,0:0:0:0:
64,192,190104,1,0,0:0:0:0:
320,192,190104,1,0,0:0:0:0:
448,192,190212,1,0,0:0:0:0:
64,192,190212,1,0,0:0:0:0:
192,192,190212,1,0,0:0:0:0:
192,192,190321,1,0,0:0:0:0:
320,192,190430,1,0,0:0:0:0:
64,192,190430,1,0,0:0:0:0:
64,192,190539,1,0,0:0:0:0:
320,192,190647,1,0,0:0:0:0:
192,192,190647,1,0,0:0:0:0:
448,192,190647,1,0,0:0:0:0:
64,192,190756,1,0,0:0:0:0:
192,192,190865,1,0,0:0:0:0:
320,192,190865,1,0,0:0:0:0:
320,192,190973,1,0,0:0:0:0:
448,192,190973,1,0,0:0:0:0:
192,192,191082,1,0,0:0:0:0:
64,192,191082,1,0,0:0:0:0:
448,192,191082,1,0,0:0:0:0:
192,192,191191,1,0,0:0:0:0:
448,192,191299,1,0,0:0:0:0:
64,192,191299,1,0,0:0:0:0:
448,192,191408,1,0,0:0:0:0:
320,192,191517,1,0,0:0:0:0:
64,192,191517,1,0,0:0:0:0:
192,192,191517,1,0,0:0:0:0:
64,192,191626,1,0,0:0:0:0:
320,192,191734,1,0,0:0:0:0:
320,192,191843,1,0,0:0:0:0:
448,192,191952,128,0,192060:0:0:0:0:
64,192,191952,128,0,192169:0:0:0:0:
192,192,191952,128,0,192278:0:0:0:0:
320,192,192386,1,0,0:0:0:0:
448,192,192386,1,0,0:0:0:0:
64,192,192386,1,0,0:0:0:0:
192,192,192386,1,0,0:0:0:0:
192,192,192495,1,0,0:0:0:0:
448,192,192604,1,0,0:0:0:0:
320,192,192604,1,0,0:0:0:0:
320,192,192712,1,0,0:0:0:0:
64,192,192712,1,0,0:0:0:0:
448,192,192821,1,0,0:0:0:0:
192,192,192821,1,0,0:0:0:0:
64,192,192821,1,0,0:0:0:0:
320,192,192930,1,0,0:0:0:0:
192,192,193039,1,0,0:0:0:0:
64,192,193039,1,0,0:0:0:0:
448,192,193147,1,0,0:0:0:0:
64,192,193147,1,0,0:0:0:0:
448,192,193256,1,0,0:0:0:0:
320,192,193256,1,0,0:0:0:0:
192,192,193256,1,0,0:0:0:0:
192,192,193365,1,0,0:0:0:0:
64,192,193473,1,0,0:0:0:0:
448,192,193582,1,0,0:0:0:0:
320,192,193582,1,0,0:0:0:0:
64,192,193691,1,0,0:0:0:0:
448,192,193691,1,0,0:0:0:0:
192,192,193691,1,0,0:0:0:0:
192,192,193799,1,0,0:0:0:0:
320,192,193908,1,0,0:0:0:0:
448,192,194126,1,0,0:0:0:0:
320,192,194126,1,0,0:0:0:0:
192,192,194126,1,0,0:0:0:0:
448,192,194234,1,0,0:0:0:0:
192,192,194343,1,0,0:0:0:0:
64,192,194343,1,0,0:0:0:0:
192,192,194452,1,0,0:0:0:0:
448,192,194560,1,0,0:0:0:0:
64,192,194560,1,0,0:0:0:0:
320,192,194560,1,0,0:0:0:0:
320,192,194669,1,0,0:0:0:0:
448,192,194778,1,0,0:0:0:0:
64,192,194778,1,0,0:0:0:0:
64,192,194886,1,0,0:0:0:0:
320,192,194995,1,0,0:0:0:0:
448,192,194995,1,0,0:0:0:0:
192,192,194995,1,0,0:0:0:0:
320,192,195104,1,0,0:0:0:0:
448,192,195212,1,0,0:0:0:0:
192,192,195212,1,0,0:0:0:0:
64,192,195321,1,0,0:0:0:0:
192,192,195321,1,0,0:0:0:0:
64,192,195430,1,0,0:0:0:0:
448,192,195430,1,0,0:0:0:0:
320,192,195430,1,0,0:0:0:0:
192,192,195539,1,0,0:0:0:0:
320,192,195647,1,0,0:0:0:0:
448,192,195674,1,0,0:0:0:0:
64,192,195756,1,0,0:0:0:0:
448,192,195865,1,0,0:0:0:0:
320,192,195865,1,0,0:0:0:0:
192,192,195865,1,0,0:0:0:0:
448,192,196191,1,0,0:0:0:0:
320,192,196245,1,0,0:0:0:0:
64,192,196299,1,0,0:0:0:0:
192,192,196299,1,0,0:0:0:0:
64,192,196517,1,0,0:0:0:0:
320,192,196517,1,0,0:0:0:0:
448,192,196734,1,0,0:0:0:0:
320,192,196734,1,0,0:0:0:0:
192,192,196952,1,0,0:0:0:0:
448,192,196952,1,0,0:0:0:0:
320,192,197169,1,0,0:0:0:0:
64,192,197169,1,0,0:0:0:0:
64,192,197386,1,0,0:0:0:0:
192,192,197386,1,0,0:0:0:0:
64,192,197604,128,0,198039:0:0:0:0:
448,192,197604,1,0,0:0:0:0:
320,192,197821,5,0,0:0:0:0:
192,192,197821,1,0,0:0:0:0:
448,192,198039,128,0,198256:0:0:0:0:
320,192,198256,128,0,198328:0:0:0:0:
64,192,198256,1,0,0:0:0:0:
448,192,198328,128,0,198401:0:0:0:0:
320,192,198401,128,0,198473:0:0:0:0:
192,192,198473,128,0,198908:0:0:0:0:
64,192,198473,1,0,0:0:0:0:
64,192,198908,128,0,199017:0:0:0:0:
448,192,198908,128,0,199126:0:0:0:0:
320,192,198908,128,0,199234:0:0:0:0:
448,192,199343,1,0,0:0:0:0:
192,192,199343,1,0,0:0:0:0:
64,192,199343,1,0,0:0:0:0:
192,192,199452,1,0,0:0:0:0:
192,192,199560,1,0,0:0:0:0:
192,192,199669,1,0,0:0:0:0:
320,192,199778,1,0,0:0:0:0:
448,192,199778,1,0,0:0:0:0:
320,192,199886,1,0,0:0:0:0:
320,192,199995,1,0,0:0:0:0:
320,192,200104,1,0,0:0:0:0:
64,192,200212,1,0,0:0:0:0:
192,192,200212,1,0,0:0:0:0:
64,192,200321,1,0,0:0:0:0:
64,192,200430,1,0,0:0:0:0:
64,192,200539,1,0,0:0:0:0:
448,192,200647,1,0,0:0:0:0:
320,192,200647,1,0,0:0:0:0:
448,192,200756,1,0,0:0:0:0:
192,192,200865,1,0,0:0:0:0:
448,192,201082,1,0,0:0:0:0:
320,192,201082,1,0,0:0:0:0:
448,192,201191,1,0,0:0:0:0:
448,192,201299,1,0,0:0:0:0:
448,192,201408,1,0,0:0:0:0:
64,192,201517,1,0,0:0:0:0:
192,192,201517,1,0,0:0:0:0:
64,192,201626,1,0,0:0:0:0:
64,192,201734,1,0,0:0:0:0:
64,192,201843,1,0,0:0:0:0:
320,192,201952,1,0,0:0:0:0:
448,192,201952,1,0,0:0:0:0:
320,192,202060,1,0,0:0:0:0:
320,192,202169,1,0,0:0:0:0:
320,192,202278,1,0,0:0:0:0:
192,192,202386,1,0,0:0:0:0:
64,192,202386,1,0,0:0:0:0:
192,192,202604,1,0,0:0:0:0:
448,192,202821,1,0,0:0:0:0:
320,192,202821,1,0,0:0:0:0:
448,192,202930,1,0,0:0:0:0:
192,192,202930,1,0,0:0:0:0:
320,192,203039,1,0,0:0:0:0:
64,192,203039,1,0,0:0:0:0:
448,192,203147,1,0,0:0:0:0:
64,192,203147,1,0,0:0:0:0:
448,192,203256,1,0,0:0:0:0:
320,192,203256,1,0,0:0:0:0:
320,192,203365,1,0,0:0:0:0:
64,192,203365,1,0,0:0:0:0:
448,192,203473,1,0,0:0:0:0:
64,192,203473,1,0,0:0:0:0:
320,192,203582,1,0,0:0:0:0:
64,192,203582,1,0,0:0:0:0:
448,192,203691,1,0,0:0:0:0:
320,192,203691,1,0,0:0:0:0:
448,192,203799,1,0,0:0:0:0:
64,192,203799,1,0,0:0:0:0:
320,192,203908,1,0,0:0:0:0:
64,192,203908,1,0,0:0:0:0:
448,192,204017,1,0,0:0:0:0:
64,192,204017,1,0,0:0:0:0:
448,192,204126,1,0,0:0:0:0:
320,192,204126,1,0,0:0:0:0:
192,192,204234,1,0,0:0:0:0:
64,192,204234,1,0,0:0:0:0:
320,192,204343,1,0,0:0:0:0:
64,192,204343,1,0,0:0:0:0:
320,192,204452,1,0,0:0:0:0:
192,192,204560,1,0,0:0:0:0:
64,192,204560,1,0,0:0:0:0:
448,192,204669,1,0,0:0:0:0:
192,192,204669,1,0,0:0:0:0:
448,192,204778,1,0,0:0:0:0:
64,192,204778,1,0,0:0:0:0:
448,192,204886,1,0,0:0:0:0:
192,192,204886,1,0,0:0:0:0:
192,192,204995,1,0,0:0:0:0:
64,192,204995,1,0,0:0:0:0:
448,192,205104,1,0,0:0:0:0:
64,192,205104,1,0,0:0:0:0:
448,192,205212,1,0,0:0:0:0:
192,192,205212,1,0,0:0:0:0:
448,192,205321,1,0,0:0:0:0:
64,192,205321,1,0,0:0:0:0:
192,192,205430,1,0,0:0:0:0:
64,192,205430,1,0,0:0:0:0:
448,192,205539,1,0,0:0:0:0:
192,192,205539,1,0,0:0:0:0:
448,192,205647,1,0,0:0:0:0:
64,192,205647,1,0,0:0:0:0:
448,192,205756,1,0,0:0:0:0:
192,192,205756,1,0,0:0:0:0:
320,192,205865,1,0,0:0:0:0:
192,192,205865,128,0,205973:0:0:0:0:
64,192,205865,128,0,206082:0:0:0:0:
320,192,205973,1,0,0:0:0:0:
192,192,206082,1,0,0:0:0:0:
192,192,206191,1,0,0:0:0:0:
448,192,206299,1,0,0:0:0:0:
320,192,206299,1,0,0:0:0:0:
64,192,206299,1,0,0:0:0:0:
448,192,206408,1,0,0:0:0:0:
192,192,206408,1,0,0:0:0:0:
320,192,206517,1,0,0:0:0:0:
64,192,206517,1,0,0:0:0:0:
448,192,206589,1,0,0:0:0:0:
192,192,206625,1,0,0:0:0:0:
192,192,206734,1,0,0:0:0:0:
64,192,206734,1,0,0:0:0:0:
320,192,206843,1,0,0:0:0:0:
64,192,206843,1,0,0:0:0:0:
448,192,206952,1,0,0:0:0:0:
192,192,206952,1,0,0:0:0:0:
320,192,207060,1,0,0:0:0:0:
64,192,207097,1,0,0:0:0:0:
448,192,207169,1,0,0:0:0:0:
320,192,207169,1,0,0:0:0:0:
192,192,207223,1,0,0:0:0:0:
448,192,207278,1,0,0:0:0:0:
320,192,207386,1,0,0:0:0:0:
64,192,207386,1,0,0:0:0:0:
192,192,207495,1,0,0:0:0:0:
192,192,207604,1,0,0:0:0:0:
64,192,207604,1,0,0:0:0:0:
448,192,207712,1,0,0:0:0:0:
320,192,207712,1,0,0:0:0:0:
192,192,207821,1,0,0:0:0:0:
64,192,207930,1,0,0:0:0:0:
448,192,208039,1,0,0:0:0:0:
192,192,208147,1,0,0:0:0:0:
320,192,208183,1,0,0:0:0:0:
192,192,208256,1,0,0:0:0:0:
320,192,208328,1,0,0:0:0:0:
192,192,208365,1,0,0:0:0:0:
448,192,208473,1,0,0:0:0:0:
64,192,208473,1,0,0:0:0:0:
320,192,208582,1,0,0:0:0:0:
320,192,208691,1,0,0:0:0:0:
192,192,208745,1,0,0:0:0:0:
320,192,208799,1,0,0:0:0:0:
64,192,208854,1,0,0:0:0:0:
448,192,208908,1,0,0:0:0:0:
320,192,208962,1,0,0:0:0:0:
64,192,209017,1,0,0:0:0:0:
448,192,209071,1,0,0:0:0:0:
64,192,209125,1,0,0:0:0:0:
64,192,209234,1,0,0:0:0:0:
448,192,209343,1,0,0:0:0:0:
320,192,209343,1,0,0:0:0:0:
64,192,209560,1,0,0:0:0:0:
192,192,209778,1,0,0:0:0:0:
448,192,209886,1,0,0:0:0:0:
64,192,209923,1,0,0:0:0:0:
448,192,209995,1,0,0:0:0:0:
192,192,210068,1,0,0:0:0:0:
448,192,210104,1,0,0:0:0:0:
320,192,210212,1,0,0:0:0:0:
192,192,210212,1,0,0:0:0:0:
64,192,210321,1,0,0:0:0:0:
448,192,210357,1,0,0:0:0:0:
64,192,210430,1,0,0:0:0:0:
320,192,210502,1,0,0:0:0:0:
64,192,210539,1,0,0:0:0:0:
192,192,210647,1,0,0:0:0:0:
320,192,210756,1,0,0:0:0:0:
192,192,210828,1,0,0:0:0:0:
320,192,210865,1,0,0:0:0:0:
320,192,210973,1,0,0:0:0:0:
192,192,211082,1,0,0:0:0:0:
64,192,211082,1,0,0:0:0:0:
448,192,211191,1,0,0:0:0:0:
320,192,211299,1,0,0:0:0:0:
448,192,211517,1,0,0:0:0:0:
192,192,211517,1,0,0:0:0:0:
192,192,211625,1,0,0:0:0:0:
448,192,211807,1,0,0:0:0:0:
192,192,211807,1,0,0:0:0:0:
192,192,211952,1,0,0:0:0:0:
64,192,211952,1,0,0:0:0:0:
448,192,212097,1,0,0:0:0:0:
192,192,212097,1,0,0:0:0:0:
64,192,212241,1,0,0:0:0:0:
448,192,212386,1,0,0:0:0:0:
192,192,212386,1,0,0:0:0:0:
448,192,212531,1,0,0:0:0:0:
192,192,212531,1,0,0:0:0:0:
448,192,212676,1,0,0:0:0:0:
192,192,212676,1,0,0:0:0:0:
448,192,212821,128,0,213147:0:0:0:0:
320,192,212821,128,0,213039:0:0:0:0:
64,192,212821,128,0,212930:0:0:0:0:
320,192,213256,1,0,0:0:0:0:
192,192,213256,1,0,0:0:0:0:
64,192,213256,1,0,0:0:0:0:
448,192,213256,1,0,0:0:0:0:
448,192,213365,1,0,0:0:0:0:
192,192,213473,1,0,0:0:0:0:
192,192,213582,1,0,0:0:0:0:
320,192,213582,1,0,0:0:0:0:
448,192,213691,1,0,0:0:0:0:
64,192,213691,1,0,0:0:0:0:
320,192,213691,1,0,0:0:0:0:
192,192,213799,1,0,0:0:0:0:
64,192,213908,1,0,0:0:0:0:
64,192,214017,1,0,0:0:0:0:
320,192,214017,1,0,0:0:0:0:
448,192,214125,1,0,0:0:0:0:
192,192,214125,1,0,0:0:0:0:
320,192,214125,1,0,0:0:0:0:
64,192,214234,1,0,0:0:0:0:
448,192,214343,1,0,0:0:0:0:
448,192,214452,1,0,0:0:0:0:
192,192,214452,1,0,0:0:0:0:
192,192,214560,1,0,0:0:0:0:
64,192,214560,1,0,0:0:0:0:
320,192,214560,1,0,0:0:0:0:
448,192,214669,1,0,0:0:0:0:
64,192,214778,1,0,0:0:0:0:
64,192,214886,1,0,0:0:0:0:
320,192,214995,1,0,0:0:0:0:
448,192,214995,1,0,0:0:0:0:
192,192,214995,1,0,0:0:0:0:
64,192,215104,1,0,0:0:0:0:
320,192,215212,1,0,0:0:0:0:
320,192,215321,1,0,0:0:0:0:
192,192,215321,1,0,0:0:0:0:
448,192,215430,1,0,0:0:0:0:
64,192,215430,1,0,0:0:0:0:
192,192,215430,1,0,0:0:0:0:
320,192,215539,1,0,0:0:0:0:
448,192,215647,1,0,0:0:0:0:
448,192,215756,1,0,0:0:0:0:
64,192,215756,1,0,0:0:0:0:
64,192,215865,1,0,0:0:0:0:
192,192,215865,1,0,0:0:0:0:
320,192,215865,1,0,0:0:0:0:
448,192,215973,1,0,0:0:0:0:
64,192,216082,1,0,0:0:0:0:
64,192,216191,1,0,0:0:0:0:
320,192,216191,1,0,0:0:0:0:
448,192,216299,1,0,0:0:0:0:
192,192,216299,1,0,0:0:0:0:
320,192,216299,1,0,0:0:0:0:
64,192,216408,1,0,0:0:0:0:
192,192,216408,1,0,0:0:0:0:
64,192,216517,1,0,0:0:0:0:
192,192,216517,1,0,0:0:0:0:
448,192,216625,1,0,0:0:0:0:
192,192,216734,1,0,0:0:0:0:
64,192,216734,1,0,0:0:0:0:
320,192,216843,1,0,0:0:0:0:
320,192,216952,1,0,0:0:0:0:
192,192,217024,1,0,0:0:0:0:
320,192,217060,1,0,0:0:0:0:
448,192,217169,1,0,0:0:0:0:
64,192,217169,1,0,0:0:0:0:
192,192,217278,1,0,0:0:0:0:
320,192,217314,1,0,0:0:0:0:
192,192,217386,1,0,0:0:0:0:
448,192,217459,1,0,0:0:0:0:
192,192,217495,1,0,0:0:0:0:
320,192,217604,1,0,0:0:0:0:
192,192,217676,1,0,0:0:0:0:
64,192,217712,1,0,0:0:0:0:
64,192,217821,1,0,0:0:0:0:
320,192,217857,1,0,0:0:0:0:
64,192,217930,1,0,0:0:0:0:
448,192,218039,1,0,0:0:0:0:
320,192,218039,1,0,0:0:0:0:
192,192,218147,1,0,0:0:0:0:
64,192,218256,1,0,0:0:0:0:
448,192,218365,1,0,0:0:0:0:
448,192,218473,1,0,0:0:0:0:
320,192,218473,1,0,0:0:0:0:
192,192,218582,1,0,0:0:0:0:
320,192,218618,1,0,0:0:0:0:
192,192,218691,1,0,0:0:0:0:
320,192,218763,1,0,0:0:0:0:
192,192,218799,1,0,0:0:0:0:
448,192,218908,1,0,0:0:0:0:
64,192,218908,1,0,0:0:0:0:
192,192,218962,1,0,0:0:0:0:
448,192,219017,1,0,0:0:0:0:
448,192,219125,1,0,0:0:0:0:
192,192,219180,1,0,0:0:0:0:
448,192,219234,1,0,0:0:0:0:
64,192,219289,1,0,0:0:0:0:
192,192,219343,1,0,0:0:0:0:
448,192,219397,1,0,0:0:0:0:
320,192,219452,1,0,0:0:0:0:
64,192,219506,1,0,0:0:0:0:
320,192,219560,1,0,0:0:0:0:
320,192,219669,1,0,0:0:0:0:
448,192,219778,128,0,219886:0:0:0:0:
192,192,219778,128,0,219995:0:0:0:0:
64,192,219778,128,0,220104:0:0:0:0:
448,192,219995,1,0,0:0:0:0:
320,192,220212,1,0,0:0:0:0:
192,192,220212,1,0,0:0:0:0:
64,192,220212,1,0,0:0:0:0:
448,192,220212,1,0,0:0:0:0:
448,192,220321,1,0,0:0:0:0:
192,192,220430,1,0,0:0:0:0:
192,192,220539,1,0,0:0:0:0:
320,192,220539,1,0,0:0:0:0:
448,192,220647,1,0,0:0:0:0:
64,192,220647,1,0,0:0:0:0:
320,192,220647,1,0,0:0:0:0:
192,192,220756,1,0,0:0:0:0:
64,192,220865,1,0,0:0:0:0:
64,192,220973,1,0,0:0:0:0:
320,192,220973,1,0,0:0:0:0:
448,192,221082,1,0,0:0:0:0:
192,192,221082,1,0,0:0:0:0:
320,192,221082,1,0,0:0:0:0:
64,192,221191,1,0,0:0:0:0:
448,192,221299,1,0,0:0:0:0:
448,192,221408,1,0,0:0:0:0:
192,192,221408,1,0,0:0:0:0:
192,192,221517,1,0,0:0:0:0:
64,192,221517,1,0,0:0:0:0:
320,192,221517,1,0,0:0:0:0:
448,192,221625,1,0,0:0:0:0:
64,192,221734,1,0,0:0:0:0:
64,192,221843,1,0,0:0:0:0:
320,192,221952,1,0,0:0:0:0:
448,192,221952,1,0,0:0:0:0:
192,192,221952,1,0,0:0:0:0:
64,192,222060,1,0,0:0:0:0:
320,192,222169,1,0,0:0:0:0:
320,192,222278,1,0,0:0:0:0:
192,192,222278,1,0,0:0:0:0:
448,192,222386,1,0,0:0:0:0:
64,192,222386,1,0,0:0:0:0:
192,192,222386,1,0,0:0:0:0:
320,192,222495,1,0,0:0:0:0:
448,192,222604,1,0,0:0:0:0:
448,192,222712,1,0,0:0:0:0:
64,192,222712,1,0,0:0:0:0:
64,192,222821,1,0,0:0:0:0:
192,192,222821,1,0,0:0:0:0:
320,192,222821,1,0,0:0:0:0:
448,192,222930,1,0,0:0:0:0:
64,192,223039,1,0,0:0:0:0:
64,192,223147,1,0,0:0:0:0:
320,192,223147,1,0,0:0:0:0:
448,192,223256,1,0,0:0:0:0:
192,192,223256,1,0,0:0:0:0:
320,192,223256,1,0,0:0:0:0:
64,192,223365,1,0,0:0:0:0:
192,192,223365,1,0,0:0:0:0:
64,192,223473,1,0,0:0:0:0:
192,192,223473,1,0,0:0:0:0:
448,192,223582,1,0,0:0:0:0:
320,192,223691,1,0,0:0:0:0:
64,192,223799,1,0,0:0:0:0:
448,192,223836,1,0,0:0:0:0:
64,192,223908,1,0,0:0:0:0:
320,192,223981,1,0,0:0:0:0:
64,192,224017,1,0,0:0:0:0:
320,192,224125,1,0,0:0:0:0:
192,192,224125,1,0,0:0:0:0:
448,192,224234,1,0,0:0:0:0:
64,192,224270,1,0,0:0:0:0:
448,192,224343,1,0,0:0:0:0:
192,192,224415,1,0,0:0:0:0:
448,192,224452,1,0,0:0:0:0:
320,192,224560,1,0,0:0:0:0:
192,192,224669,1,0,0:0:0:0:
320,192,224741,1,0,0:0:0:0:
192,192,224778,1,0,0:0:0:0:
192,192,224886,1,0,0:0:0:0:
448,192,224995,1,0,0:0:0:0:
320,192,224995,1,0,0:0:0:0:
64,192,225104,1,0,0:0:0:0:
192,192,225212,1,0,0:0:0:0:
320,192,225306,1,0,0:0:0:0:
448,192,225394,1,0,0:0:0:0:
64,192,225466,1,0,0:0:0:0:
448,192,225539,1,0,0:0:0:0:
320,192,225611,1,0,0:0:0:0:
192,192,225683,1,0,0:0:0:0:
64,192,225756,1,0,0:0:0:0:
320,192,225816,1,0,0:0:0:0:
448,192,225892,1,0,0:0:0:0:
192,192,225946,1,0,0:0:0:0:
448,192,226010,5,0,0:0:0:0:
64,192,226082,1,0,0:0:0:0:
192,192,226136,1,0,0:0:0:0:
320,192,226191,1,0,0:0:0:0:
64,192,226245,1,0,0:0:0:0:
448,192,226299,1,0,0:0:0:0:
192,192,226354,1,0,0:0:0:0:
448,192,226408,1,0,0:0:0:0:
320,192,226462,1,0,0:0:0:0:
192,192,226517,1,0,0:0:0:0:
64,192,226571,1,0,0:0:0:0:
320,192,226625,1,0,0:0:0:0:
192,192,226680,1,0,0:0:0:0:
448,192,226734,1,0,0:0:0:0:
64,192,226789,1,0,0:0:0:0:
448,192,226843,1,0,0:0:0:0:
192,192,226897,1,0,0:0:0:0:
320,192,226952,1,0,0:0:0:0:
64,192,227006,1,0,0:0:0:0:
192,192,227060,1,0,0:0:0:0:
320,192,227115,1,0,0:0:0:0:
448,192,227169,1,0,0:0:0:0:
192,192,227169,1,0,0:0:0:0:
64,192,227169,1,0,0:0:0:0:
448,192,228691,128,0,228908:0:0:0:0:
320,192,228908,128,0,229017:0:0:0:0:
64,192,229017,128,0,229125:0:0:0:0:
192,192,229125,128,0,229234:0:0:0:0:
320,192,229234,128,0,229448:0:0:0:0:
64,192,229448,128,0,229551:0:0:0:0:
192,192,229551,128,0,229758:0:0:0:0:
448,192,229758,128,0,229862:0:0:0:0:
320,192,229862,128,0,229965:0:0:0:0:
64,192,229965,128,0,230069:0:0:0:0:
192,192,230069,128,0,230172:0:0:0:0:
320,192,230172,128,0,230276:0:0:0:0:
192,192,230276,128,0,230379:0:0:0:0:
448,192,230379,128,0,230586:0:0:0:0:
320,192,230586,128,0,230686:0:0:0:0:
192,192,230686,128,0,230786:0:0:0:0:
320,192,230786,128,0,230986:0:0:0:0:
64,192,230886,128,0,231086:0:0:0:0:
320,192,231086,128,0,231286:0:0:0:0:
64,192,231186,128,0,231386:0:0:0:0:
320,192,231386,128,0,231486:0:0:0:0:
64,192,231486,128,0,231586:0:0:0:0:
192,192,231586,128,0,231686:0:0:0:0:
448,192,231686,128,0,231786:0:0:0:0:
64,192,231786,128,0,231886:0:0:0:0:
192,192,231886,128,0,231986:0:0:0:0:
320,192,231986,128,0,232186:0:0:0:0:
192,192,232186,128,0,232279:0:0:0:0:
64,192,232279,128,0,232373:0:0:0:0:
192,192,232373,128,0,232561:0:0:0:0:
448,192,232467,128,0,232654:0:0:0:0:
192,192,232654,128,0,232842:0:0:0:0:
448,192,232748,128,0,232936:0:0:0:0:
192,192,232936,128,0,233029:0:0:0:0:
64,192,233029,128,0,233123:0:0:0:0:
320,192,233123,128,0,233217:0:0:0:0:
192,192,233217,128,0,233311:0:0:0:0:
448,192,233311,128,0,233404:0:0:0:0:
320,192,233404,128,0,233498:0:0:0:0:
448,192,233498,128,0,233677:0:0:0:0:
320,192,233677,1,0,0:0:0:0:
64,192,233677,1,0,0:0:0:0:
192,192,233677,128,0,233765:0:0:0:0:
448,192,233765,128,0,233853:0:0:0:0:
320,192,233853,128,0,233941:0:0:0:0:
64,192,233941,128,0,234118:0:0:0:0:
320,192,234029,1,0,0:0:0:0:
448,192,234029,1,0,0:0:0:0:
192,192,234118,128,0,234206:0:0:0:0:
320,192,234206,128,0,234382:0:0:0:0:
448,192,234382,1,0,0:0:0:0:
192,192,234382,128,0,234471:0:0:0:0:
64,192,234471,128,0,234559:0:0:0:0:
320,192,234559,128,0,234647:0:0:0:0:
64,192,234647,128,0,234735:0:0:0:0:
448,192,234735,1,0,0:0:0:0:
192,192,234735,128,0,234824:0:0:0:0:
64,192,234824,128,0,234912:0:0:0:0:
192,192,234912,1,0,0:0:0:0:
320,192,234912,128,0,235088:0:0:0:0:
192,192,235088,1,0,0:0:0:0:
64,192,235088,1,0,0:0:0:0:
448,192,235088,128,0,235173:0:0:0:0:
320,192,235173,128,0,235259:0:0:0:0:
192,192,235259,128,0,235345:0:0:0:0:
448,192,235345,128,0,235516:0:0:0:0:
192,192,235430,1,0,0:0:0:0:
64,192,235430,1,0,0:0:0:0:
320,192,235516,128,0,235602:0:0:0:0:
192,192,235602,128,0,235773:0:0:0:0:
64,192,235773,1,0,0:0:0:0:
320,192,235773,128,0,235859:0:0:0:0:
448,192,235859,128,0,235945:0:0:0:0:
64,192,235945,128,0,236030:0:0:0:0:
192,192,236030,1,0,0:0:0:0:
448,192,236030,128,0,236116:0:0:0:0:
64,192,236116,1,0,0:0:0:0:
320,192,236116,128,0,236202:0:0:0:0:
448,192,236202,128,0,236288:0:0:0:0:
320,192,236288,1,0,0:0:0:0:
192,192,236288,128,0,236459:0:0:0:0:
448,192,236459,1,0,0:0:0:0:
64,192,236459,1,0,0:0:0:0:
192,192,236540,1,0,0:0:0:0:
448,192,236621,1,0,0:0:0:0:
320,192,236621,1,0,0:0:0:0:
64,192,236702,1,0,0:0:0:0:
320,192,236783,1,0,0:0:0:0:
192,192,236783,1,0,0:0:0:0:
448,192,236864,1,0,0:0:0:0:
192,192,236945,1,0,0:0:0:0:
64,192,236945,1,0,0:0:0:0:
320,192,237026,1,0,0:0:0:0:
64,192,237107,1,0,0:0:0:0:
192,192,237148,1,0,0:0:0:0:
448,192,237188,1,0,0:0:0:0:
64,192,237229,1,0,0:0:0:0:
320,192,237269,1,0,0:0:0:0:
448,192,237310,1,0,0:0:0:0:
192,192,237350,1,0,0:0:0:0:
320,192,237391,1,0,0:0:0:0:
64,192,237431,1,0,0:0:0:0:
192,192,237472,1,0,0:0:0:0:
448,192,237513,1,0,0:0:0:0:
320,192,237553,1,0,0:0:0:0:
64,192,237594,1,0,0:0:0:0:
192,192,237634,1,0,0:0:0:0:
320,192,237675,1,0,0:0:0:0:
448,192,237715,1,0,0:0:0:0:
64,192,237756,1,0,0:0:0:0:
448,192,239019,1,0,0:0:0:0:
64,192,239019,128,0,239124:0:0:0:0:
192,192,239019,128,0,239545:0:0:0:0:
320,192,239019,128,0,239229:0:0:0:0:
448,192,239124,128,0,239334:0:0:0:0:
64,192,239229,1,0,0:0:0:0:
320,192,239334,128,0,239650:0:0:0:0:
64,192,239334,128,0,239545:0:0:0:0:
448,192,239545,128,0,239650:0:0:0:0:
192,192,239650,128,0,239966:0:0:0:0:
64,192,239650,128,0,239861:0:0:0:0:
448,192,239861,128,0,240071:0:0:0:0:
64,192,239966,128,0,240282:0:0:0:0:
320,192,239966,1,0,0:0:0:0:
192,192,240071,1,0,0:0:0:0:
192,192,240176,1,0,0:0:0:0:
448,192,240282,128,0,240387:0:0:0:0:
320,192,240282,1,0,0:0:0:0:
192,192,240387,128,0,240492:0:0:0:0:
64,192,240387,128,0,240597:0:0:0:0:
448,192,240492,1,0,0:0:0:0:
192,192,240597,1,0,0:0:0:0:
320,192,240597,128,0,240703:0:0:0:0:
64,192,240703,128,0,240808:0:0:0:0:
448,192,240703,128,0,240913:0:0:0:0:
320,192,240808,1,0,0:0:0:0:
192,192,240913,128,0,241019:0:0:0:0:
64,192,240913,1,0,0:0:0:0:
448,192,241019,128,0,241229:0:0:0:0:
320,192,241019,128,0,241124:0:0:0:0:
64,192,241124,1,0,0:0:0:0:
192,192,241229,1,0,0:0:0:0:
320,192,241229,1,0,0:0:0:0:
64,192,241334,1,0,0:0:0:0:
64,192,241440,128,0,241545:0:0:0:0:
320,192,241545,1,0,0:0:0:0:
192,192,241545,128,0,241755:0:0:0:0:
448,192,241650,1,0,0:0:0:0:
448,192,241755,128,0,241966:0:0:0:0:
320,192,241861,1,0,0:0:0:0:
192,192,241861,128,0,241966:0:0:0:0:
64,192,241966,1,0,0:0:0:0:
64,192,242071,128,0,242282:0:0:0:0:
448,192,242176,1,0,0:0:0:0:
320,192,242176,128,0,242282:0:0:0:0:
192,192,242282,1,0,0:0:0:0:
192,192,242387,128,0,242492:0:0:0:0:
320,192,242492,1,0,0:0:0:0:
448,192,242492,128,0,242597:0:0:0:0:
64,192,242597,128,0,242808:0:0:0:0:
192,192,242597,128,0,242703:0:0:0:0:
320,192,242703,128,0,242808:0:0:0:0:
192,192,242808,128,0,243019:0:0:0:0:
448,192,242808,128,0,242913:0:0:0:0:
320,192,242913,1,0,0:0:0:0:
64,192,243019,1,0,0:0:0:0:
192,192,243124,128,0,243334:0:0:0:0:
320,192,243124,1,0,0:0:0:0:
448,192,243229,128,0,243334:0:0:0:0:
320,192,243334,1,0,0:0:0:0:
192,192,243440,128,0,243545:0:0:0:0:
64,192,243440,128,0,243650:0:0:0:0:
320,192,243545,128,0,243650:0:0:0:0:
448,192,243650,1,0,0:0:0:0:
448,192,243755,128,0,243966:0:0:0:0:
192,192,243755,128,0,243861:0:0:0:0:
64,192,243861,1,0,0:0:0:0:
320,192,243966,1,0,0:0:0:0:
320,192,244071,128,0,244176:0:0:0:0:
448,192,244071,1,0,0:0:0:0:
64,192,244071,1,0,0:0:0:0:
192,192,244176,128,0,244387:0:0:0:0:
448,192,244282,1,0,0:0:0:0:
320,192,244387,128,0,244492:0:0:0:0:
64,192,244387,1,0,0:0:0:0:
448,192,244492,128,0,244703:0:0:0:0:
192,192,244492,128,0,244597:0:0:0:0:
320,192,244597,1,0,0:0:0:0:
64,192,244703,128,0,244913:0:0:0:0:
192,192,244703,128,0,244808:0:0:0:0:
448,192,244808,1,0,0:0:0:0:
320,192,244913,128,0,245124:0:0:0:0:
64,192,245019,1,0,0:0:0:0:
448,192,245019,1,0,0:0:0:0:
192,192,245124,128,0,245229:0:0:0:0:
64,192,245229,128,0,245334:0:0:0:0:
192,192,245334,128,0,245545:0:0:0:0:
448,192,245334,128,0,245440:0:0:0:0:
64,192,245440,1,0,0:0:0:0:
320,192,245545,128,0,245650:0:0:0:0:
448,192,245650,128,0,245861:0:0:0:0:
64,192,245650,128,0,245755:0:0:0:0:
320,192,245755,1,0,0:0:0:0:
192,192,245861,128,0,245966:0:0:0:0:
448,192,245966,128,0,246176:0:0:0:0:
64,192,245966,128,0,246071:0:0:0:0:
192,192,246071,1,0,0:0:0:0:
64,192,246176,128,0,246387:0:0:0:0:
448,192,246282,1,0,0:0:0:0:
192,192,246282,1,0,0:0:0:0:
320,192,246387,128,0,246492:0:0:0:0:
192,192,246492,128,0,246597:0:0:0:0:
64,192,246597,1,0,0:0:0:0:
448,192,246597,128,0,246808:0:0:0:0:
320,192,246597,128,0,246808:0:0:0:0:
192,192,246703,128,0,246913:0:0:0:0:
64,192,246808,128,0,246913:0:0:0:0:
320,192,246913,128,0,247019:0:0:0:0:
448,192,246913,1,0,0:0:0:0:
448,192,247019,128,0,247124:0:0:0:0:
192,192,247124,1,0,0:0:0:0:
192,192,247229,128,0,247334:0:0:0:0:
64,192,247229,128,0,247440:0:0:0:0:
448,192,247334,1,0,0:0:0:0:
192,192,247440,128,0,247545:0:0:0:0:
448,192,247545,1,0,0:0:0:0:
320,192,247545,1,0,0:0:0:0:
320,192,247650,1,0,0:0:0:0:
448,192,247755,128,0,247861:0:0:0:0:
320,192,247861,128,0,247966:0:0:0:0:
64,192,247861,128,0,248071:0:0:0:0:
192,192,247966,1,0,0:0:0:0:
448,192,248071,128,0,248282:0:0:0:0:
64,192,248176,128,0,248282:0:0:0:0:
192,192,248176,128,0,248282:0:0:0:0:
320,192,248282,1,0,0:0:0:0:
320,192,248387,1,0,0:0:0:0:
64,192,248492,128,0,248597:0:0:0:0:
448,192,248492,128,0,248597:0:0:0:0:
192,192,248492,1,0,0:0:0:0:
320,192,248597,1,0,0:0:0:0:
448,192,248703,128,0,249019:0:0:0:0:
64,192,248703,128,0,249019:0:0:0:0:
192,192,248808,128,0,249019:0:0:0:0:
320,192,248808,128,0,249019:0:0:0:0:
64,192,249124,1,0,0:0:0:0:
192,192,249124,128,0,249334:0:0:0:0:
448,192,249124,128,0,249229:0:0:0:0:
320,192,249124,128,0,249440:0:0:0:0:
64,192,249229,128,0,249440:0:0:0:0:
448,192,249334,1,0,0:0:0:0:
192,192,249440,128,0,249861:0:0:0:0:
448,192,249440,128,0,249650:0:0:0:0:
320,192,249545,128,0,249650:0:0:0:0:
64,192,249650,128,0,249755:0:0:0:0:
320,192,249755,1,0,0:0:0:0:
448,192,249755,128,0,249966:0:0:0:0:
320,192,249861,128,0,250071:0:0:0:0:
192,192,249966,128,0,250071:0:0:0:0:
64,192,250071,1,0,0:0:0:0:
448,192,250071,128,0,250387:0:0:0:0:
320,192,250176,128,0,250282:0:0:0:0:
192,192,250282,1,0,0:0:0:0:
64,192,250387,128,0,250597:0:0:0:0:
320,192,250387,128,0,250492:0:0:0:0:
448,192,250492,1,0,0:0:0:0:
320,192,250597,128,0,250808:0:0:0:0:
192,192,250597,128,0,250703:0:0:0:0:
448,192,250703,1,0,0:0:0:0:
64,192,250703,1,0,0:0:0:0:
192,192,250808,1,0,0:0:0:0:
192,192,250913,128,0,251019:0:0:0:0:
448,192,251019,1,0,0:0:0:0:
64,192,251019,1,0,0:0:0:0:
448,192,251124,128,0,251334:0:0:0:0:
320,192,251229,128,0,251334:0:0:0:0:
64,192,251334,128,0,251440:0:0:0:0:
192,192,251334,1,0,0:0:0:0:
320,192,251440,128,0,251545:0:0:0:0:
192,192,251545,128,0,251650:0:0:0:0:
64,192,251650,128,0,251861:0:0:0:0:
448,192,251650,128,0,251861:0:0:0:0:
320,192,251650,1,0,0:0:0:0:
320,192,251755,128,0,251966:0:0:0:0:
64,192,251966,1,0,0:0:0:0:
192,192,251966,128,0,252071:0:0:0:0:
448,192,252071,128,0,252282:0:0:0:0:
320,192,252071,128,0,252176:0:0:0:0:
192,192,252282,1,0,0:0:0:0:
64,192,252282,1,0,0:0:0:0:
64,192,252387,128,0,252492:0:0:0:0:
448,192,252492,128,0,252597:0:0:0:0:
192,192,252492,128,0,252703:0:0:0:0:
64,192,252597,1,0,0:0:0:0:
320,192,252597,1,0,0:0:0:0:
448,192,252703,128,0,252913:0:0:0:0:
64,192,252703,128,0,252808:0:0:0:0:
320,192,252808,1,0,0:0:0:0:
64,192,252913,128,0,253019:0:0:0:0:
192,192,252913,128,0,253124:0:0:0:0:
320,192,253019,128,0,253229:0:0:0:0:
448,192,253124,128,0,253229:0:0:0:0:
64,192,253229,1,0,0:0:0:0:
192,192,253229,1,0,0:0:0:0:
320,192,253334,128,0,253440:0:0:0:0:
448,192,253334,128,0,253545:0:0:0:0:
64,192,253440,1,0,0:0:0:0:
320,192,253545,1,0,0:0:0:0:
192,192,253545,128,0,253755:0:0:0:0:
64,192,253650,1,0,0:0:0:0:
64,192,253755,128,0,253861:0:0:0:0:
320,192,253861,128,0,254071:0:0:0:0:
192,192,253861,128,0,253966:0:0:0:0:
64,192,253966,128,0,254071:0:0:0:0:
448,192,254071,128,0,254176:0:0:0:0:
64,192,254176,128,0,254387:0:0:0:0:
192,192,254176,1,0,0:0:0:0:
320,192,254176,1,0,0:0:0:0:
320,192,254282,128,0,254387:0:0:0:0:
448,192,254387,1,0,0:0:0:0:
320,192,254492,1,0,0:0:0:0:
192,192,254492,128,0,254703:0:0:0:0:
320,192,254597,128,0,254703:0:0:0:0:
64,192,254703,1,0,0:0:0:0:
192,192,254808,1,0,0:0:0:0:
448,192,254808,1,0,0:0:0:0:
448,192,254913,128,0,255019:0:0:0:0:
320,192,255019,128,0,255124:0:0:0:0:
64,192,255124,128,0,255334:0:0:0:0:
192,192,255124,128,0,255229:0:0:0:0:
448,192,255229,1,0,0:0:0:0:
320,192,255334,1,0,0:0:0:0:
64,192,255440,1,0,0:0:0:0:
192,192,255440,1,0,0:0:0:0:
192,192,255545,1,0,0:0:0:0:
320,192,255650,1,0,0:0:0:0:
448,192,255755,128,0,255966:0:0:0:0:
320,192,255755,128,0,255861:0:0:0:0:
192,192,255861,1,0,0:0:0:0:
64,192,255966,1,0,0:0:0:0:
448,192,256071,128,0,256282:0:0:0:0:
320,192,256071,128,0,256176:0:0:0:0:
192,192,256176,5,0,0:0:0:0:
64,192,256282,128,0,256492:0:0:0:0:
192,192,256387,1,0,0:0:0:0:
320,192,256492,128,0,256597:0:0:0:0:
192,192,256597,128,0,256703:0:0:0:0:
64,192,256703,1,0,0:0:0:0:
320,192,256703,1,0,0:0:0:0:
448,192,256703,1,0,0:0:0:0:
320,192,256808,128,0,257019:0:0:0:0:
192,192,256913,128,0,257019:0:0:0:0:
64,192,257019,128,0,257124:0:0:0:0:
448,192,257019,128,0,257229:0:0:0:0:
64,192,257334,5,0,0:0:0:0:
192,192,257379,1,0,0:0:0:0:
320,192,257425,1,0,0:0:0:0:
448,192,257472,1,0,0:0:0:0:
192,192,257515,1,0,0:0:0:0:
64,192,257560,1,0,0:0:0:0:
320,192,257611,1,0,0:0:0:0:
192,192,257650,1,0,0:0:0:0:
64,192,257690,1,0,0:0:0:0:
448,192,257729,5,0,0:0:0:0:
320,192,257769,1,0,0:0:0:0:
64,192,257808,1,0,0:0:0:0:
192,192,257847,1,0,0:0:0:0:
320,192,257887,1,0,0:0:0:0:
448,192,257926,1,0,0:0:0:0:
64,192,257966,1,0,0:0:0:0:
64,192,258913,5,0,0:0:0:0:
192,192,258913,1,0,0:0:0:0:
64,192,258992,1,0,0:0:0:0:
448,192,259071,1,0,0:0:0:0:
320,192,259071,1,0,0:0:0:0:
448,192,259229,1,0,0:0:0:0:
64,192,259229,1,0,0:0:0:0:
192,192,259229,1,0,0:0:0:0:
320,192,259282,1,0,0:0:0:0:
64,192,259334,1,0,0:0:0:0:
448,192,259387,1,0,0:0:0:0:
192,192,259440,1,0,0:0:0:0:
320,192,259492,1,0,0:0:0:0:
448,192,259545,1,0,0:0:0:0:
64,192,259545,1,0,0:0:0:0:
192,192,259608,1,0,0:0:0:0:
320,192,259671,1,0,0:0:0:0:
64,192,259734,1,0,0:0:0:0:
192,192,259797,1,0,0:0:0:0:
448,192,259861,1,0,0:0:0:0:
320,192,259861,1,0,0:0:0:0:
64,192,259913,1,0,0:0:0:0:
320,192,259966,1,0,0:0:0:0:
448,192,260019,1,0,0:0:0:0:
192,192,260097,1,0,0:0:0:0:
448,192,260176,1,0,0:0:0:0:
64,192,260176,1,0,0:0:0:0:
64,192,260255,1,0,0:0:0:0:
192,192,260334,1,0,0:0:0:0:
448,192,260361,1,0,0:0:0:0:
320,192,260387,1,0,0:0:0:0:
192,192,260492,1,0,0:0:0:0:
64,192,260492,1,0,0:0:0:0:
320,192,260650,1,0,0:0:0:0:
448,192,260676,1,0,0:0:0:0:
192,192,260703,1,0,0:0:0:0:
448,192,260808,1,0,0:0:0:0:
64,192,260808,1,0,0:0:0:0:
192,192,260861,1,0,0:0:0:0:
320,192,260913,1,0,0:0:0:0:
64,192,260966,1,0,0:0:0:0:
448,192,261124,1,0,0:0:0:0:
320,192,261124,1,0,0:0:0:0:
64,192,261176,1,0,0:0:0:0:
192,192,261229,1,0,0:0:0:0:
448,192,261282,1,0,0:0:0:0:
64,192,261334,1,0,0:0:0:0:
320,192,261387,1,0,0:0:0:0:
448,192,261440,1,0,0:0:0:0:
64,192,261440,1,0,0:0:0:0:
192,192,261492,1,0,0:0:0:0:
448,192,261545,1,0,0:0:0:0:
320,192,261597,1,0,0:0:0:0:
192,192,261597,1,0,0:0:0:0:
192,192,261755,1,0,0:0:0:0:
64,192,261755,1,0,0:0:0:0:
320,192,261808,1,0,0:0:0:0:
64,192,261861,1,0,0:0:0:0:
448,192,261913,1,0,0:0:0:0:
192,192,261966,1,0,0:0:0:0:
320,192,262019,1,0,0:0:0:0:
448,192,262071,1,0,0:0:0:0:
64,192,262071,1,0,0:0:0:0:
192,192,262134,1,0,0:0:0:0:
320,192,262197,1,0,0:0:0:0:
64,192,262261,1,0,0:0:0:0:
192,192,262324,1,0,0:0:0:0:
448,192,262387,1,0,0:0:0:0:
320,192,262387,1,0,0:0:0:0:
64,192,262426,1,0,0:0:0:0:
192,192,262466,1,0,0:0:0:0:
320,192,262545,1,0,0:0:0:0:
448,192,262584,1,0,0:0:0:0:
192,192,262624,1,0,0:0:0:0:
448,192,262703,1,0,0:0:0:0:
64,192,262703,1,0,0:0:0:0:
64,192,262782,1,0,0:0:0:0:
448,192,262861,1,0,0:0:0:0:
320,192,262861,1,0,0:0:0:0:
192,192,262900,1,0,0:0:0:0:
320,192,262940,1,0,0:0:0:0:
192,192,263019,1,0,0:0:0:0:
64,192,263019,1,0,0:0:0:0:
448,192,263124,1,0,0:0:0:0:
64,192,263176,1,0,0:0:0:0:
448,192,263229,1,0,0:0:0:0:
64,192,263282,1,0,0:0:0:0:
448,192,263334,1,0,0:0:0:0:
64,192,263387,1,0,0:0:0:0:
192,192,263440,1,0,0:0:0:0:
320,192,263492,1,0,0:0:0:0:
448,192,263571,1,0,0:0:0:0:
64,192,263887,1,0,0:0:0:0:
448,192,264282,1,0,0:0:0:0:
320,192,264282,1,0,0:0:0:0:
192,192,264334,1,0,0:0:0:0:
448,192,264387,1,0,0:0:0:0:
64,192,264440,1,0,0:0:0:0:
320,192,264492,1,0,0:0:0:0:
192,192,264545,1,0,0:0:0:0:
448,192,264597,1,0,0:0:0:0:
64,192,264597,1,0,0:0:0:0:
320,192,264661,1,0,0:0:0:0:
192,192,264724,1,0,0:0:0:0:
448,192,264787,1,0,0:0:0:0:
320,192,264850,1,0,0:0:0:0:
192,192,264913,1,0,0:0:0:0:
64,192,264913,1,0,0:0:0:0:
448,192,264966,1,0,0:0:0:0:
192,192,265019,1,0,0:0:0:0:
64,192,265071,1,0,0:0:0:0:
320,192,265150,1,0,0:0:0:0:
448,192,265229,1,0,0:0:0:0:
64,192,265229,1,0,0:0:0:0:
448,192,265308,1,0,0:0:0:0:
192,192,265387,1,0,0:0:0:0:
320,192,265413,1,0,0:0:0:0:
64,192,265440,1,0,0:0:0:0:
448,192,265545,1,0,0:0:0:0:
320,192,265545,1,0,0:0:0:0:
64,192,265703,1,0,0:0:0:0:
320,192,265729,1,0,0:0:0:0:
192,192,265755,1,0,0:0:0:0:
448,192,265861,1,0,0:0:0:0:
64,192,265861,1,0,0:0:0:0:
320,192,265913,1,0,0:0:0:0:
192,192,265966,1,0,0:0:0:0:
448,192,266019,1,0,0:0:0:0:
320,192,266019,1,0,0:0:0:0:
192,192,266097,1,0,0:0:0:0:
64,192,266097,1,0,0:0:0:0:
448,192,266176,1,0,0:0:0:0:
320,192,266176,1,0,0:0:0:0:
192,192,266229,1,0,0:0:0:0:
448,192,266334,1,0,0:0:0:0:
64,192,266334,1,0,0:0:0:0:
192,192,266374,1,0,0:0:0:0:
320,192,266413,1,0,0:0:0:0:
448,192,266453,1,0,0:0:0:0:
64,192,266492,1,0,0:0:0:0:
192,192,266545,1,0,0:0:0:0:
320,192,266597,1,0,0:0:0:0:
64,192,266650,1,0,0:0:0:0:
192,192,266729,1,0,0:0:0:0:
448,192,266808,1,0,0:0:0:0:
64,192,266808,1,0,0:0:0:0:
320,192,266861,1,0,0:0:0:0:
192,192,266913,1,0,0:0:0:0:
64,192,266966,1,0,0:0:0:0:
448,192,267019,1,0,0:0:0:0:
320,192,267071,1,0,0:0:0:0:
192,192,267124,1,0,0:0:0:0:
64,192,267124,1,0,0:0:0:0:
448,192,267187,1,0,0:0:0:0:
64,192,267250,1,0,0:0:0:0:
320,192,267313,1,0,0:0:0:0:
192,192,267376,1,0,0:0:0:0:
448,192,267440,1,0,0:0:0:0:
64,192,267440,1,0,0:0:0:0:
192,192,267479,1,0,0:0:0:0:
320,192,267519,1,0,0:0:0:0:
64,192,267597,1,0,0:0:0:0:
448,192,267637,1,0,0:0:0:0:
320,192,267676,1,0,0:0:0:0:
192,192,267755,1,0,0:0:0:0:
64,192,267755,1,0,0:0:0:0:
192,192,267834,1,0,0:0:0:0:
448,192,267913,1,0,0:0:0:0:
320,192,267913,1,0,0:0:0:0:
64,192,267953,1,0,0:0:0:0:
320,192,267992,1,0,0:0:0:0:
448,192,268071,1,0,0:0:0:0:
64,192,268071,1,0,0:0:0:0:
448,192,268282,1,0,0:0:0:0:
64,192,268282,1,0,0:0:0:0:
192,192,268328,1,0,0:0:0:0:
448,192,268387,1,0,0:0:0:0:
320,192,268387,1,0,0:0:0:0:
448,192,268597,1,0,0:0:0:0:
64,192,268597,1,0,0:0:0:0:
320,192,268644,1,0,0:0:0:0:
192,192,268703,1,0,0:0:0:0:
64,192,268703,1,0,0:0:0:0:
448,192,268755,1,0,0:0:0:0:
192,192,268808,1,0,0:0:0:0:
64,192,268808,1,0,0:0:0:0:
320,192,268861,1,0,0:0:0:0:
192,192,268913,1,0,0:0:0:0:
64,192,268913,1,0,0:0:0:0:
448,192,268966,1,0,0:0:0:0:
192,192,269019,1,0,0:0:0:0:
64,192,269019,1,0,0:0:0:0:
320,192,269071,1,0,0:0:0:0:
448,192,269124,1,0,0:0:0:0:
64,192,269176,1,0,0:0:0:0:
192,192,269229,1,0,0:0:0:0:
448,192,269334,1,0,0:0:0:0:
64,192,269334,1,0,0:0:0:0:
192,192,269387,1,0,0:0:0:0:
320,192,269440,1,0,0:0:0:0:
192,192,269492,1,0,0:0:0:0:
64,192,269492,1,0,0:0:0:0:
448,192,269545,1,0,0:0:0:0:
64,192,269597,1,0,0:0:0:0:
448,192,269650,1,0,0:0:0:0:
320,192,269650,1,0,0:0:0:0:
192,192,269713,1,0,0:0:0:0:
64,192,269776,1,0,0:0:0:0:
448,192,269840,1,0,0:0:0:0:
320,192,269903,1,0,0:0:0:0:
448,192,269966,1,0,0:0:0:0:
64,192,269966,1,0,0:0:0:0:
192,192,270019,1,0,0:0:0:0:
448,192,270071,1,0,0:0:0:0:
320,192,270124,1,0,0:0:0:0:
192,192,270203,1,0,0:0:0:0:
448,192,270282,1,0,0:0:0:0:
64,192,270282,1,0,0:0:0:0:
64,192,270361,1,0,0:0:0:0:
192,192,270440,1,0,0:0:0:0:
320,192,270466,1,0,0:0:0:0:
448,192,270492,1,0,0:0:0:0:
192,192,270597,1,0,0:0:0:0:
64,192,270597,1,0,0:0:0:0:
448,192,270755,1,0,0:0:0:0:
448,192,270834,1,0,0:0:0:0:
192,192,270913,1,0,0:0:0:0:
64,192,270913,1,0,0:0:0:0:
320,192,270966,1,0,0:0:0:0:
192,192,271019,1,0,0:0:0:0:
448,192,271071,1,0,0:0:0:0:
64,192,271071,1,0,0:0:0:0:
320,192,271150,1,0,0:0:0:0:
192,192,271150,1,0,0:0:0:0:
448,192,271229,1,0,0:0:0:0:
64,192,271229,1,0,0:0:0:0:
320,192,271282,1,0,0:0:0:0:
192,192,271334,1,0,0:0:0:0:
448,192,271387,1,0,0:0:0:0:
64,192,271440,1,0,0:0:0:0:
448,192,271492,1,0,0:0:0:0:
320,192,271545,1,0,0:0:0:0:
192,192,271545,1,0,0:0:0:0:
64,192,271597,1,0,0:0:0:0:
448,192,271650,1,0,0:0:0:0:
320,192,271703,1,0,0:0:0:0:
192,192,271782,1,0,0:0:0:0:
64,192,271782,1,0,0:0:0:0:
448,192,271861,1,0,0:0:0:0:
320,192,271861,1,0,0:0:0:0:
64,192,271913,1,0,0:0:0:0:
448,192,271966,1,0,0:0:0:0:
320,192,272019,1,0,0:0:0:0:
192,192,272071,1,0,0:0:0:0:
64,192,272124,1,0,0:0:0:0:
448,192,272176,1,0,0:0:0:0:
320,192,272176,1,0,0:0:0:0:
192,192,272240,1,0,0:0:0:0:
448,192,272303,1,0,0:0:0:0:
320,192,272366,1,0,0:0:0:0:
192,192,272429,1,0,0:0:0:0:
448,192,272492,1,0,0:0:0:0:
64,192,272492,1,0,0:0:0:0:
192,192,272532,1,0,0:0:0:0:
320,192,272571,1,0,0:0:0:0:
64,192,272650,1,0,0:0:0:0:
320,192,272690,1,0,0:0:0:0:
192,192,272729,1,0,0:0:0:0:
448,192,272808,1,0,0:0:0:0:
64,192,272808,1,0,0:0:0:0:
448,192,272887,1,0,0:0:0:0:
320,192,272966,1,0,0:0:0:0:
192,192,272966,1,0,0:0:0:0:
64,192,273005,1,0,0:0:0:0:
448,192,273045,1,0,0:0:0:0:
192,192,273124,1,0,0:0:0:0:
64,192,273124,1,0,0:0:0:0:
448,192,273229,1,0,0:0:0:0:
64,192,273282,1,0,0:0:0:0:
448,192,273334,1,0,0:0:0:0:
64,192,273387,1,0,0:0:0:0:
448,192,273440,1,0,0:0:0:0:
320,192,273492,1,0,0:0:0:0:
192,192,273545,1,0,0:0:0:0:
64,192,273755,1,0,0:0:0:0:
192,192,273795,1,0,0:0:0:0:
320,192,273854,1,0,0:0:0:0:
448,192,273894,1,0,0:0:0:0:
192,192,273940,1,0,0:0:0:0:
64,192,273992,1,0,0:0:0:0:
320,192,274032,1,0,0:0:0:0:
192,192,274071,1,0,0:0:0:0:
64,192,274111,1,0,0:0:0:0:
448,192,274150,1,0,0:0:0:0:
320,192,274190,1,0,0:0:0:0:
64,192,274229,1,0,0:0:0:0:
192,192,274269,1,0,0:0:0:0:
320,192,274308,1,0,0:0:0:0:
448,192,274347,1,0,0:0:0:0:
192,192,274387,1,0,0:0:0:0:
64,192,274387,1,0,0:0:0:0:
320,192,274440,1,0,0:0:0:0:
448,192,274492,1,0,0:0:0:0:
192,192,274545,1,0,0:0:0:0:
64,192,274545,1,0,0:0:0:0:
448,192,274597,1,0,0:0:0:0:
320,192,274650,1,0,0:0:0:0:
192,192,274703,1,0,0:0:0:0:
64,192,274703,1,0,0:0:0:0:
320,192,274766,1,0,0:0:0:0:
448,192,274829,1,0,0:0:0:0:
192,192,274861,1,0,0:0:0:0:
192,192,274940,1,0,0:0:0:0:
448,192,275019,1,0,0:0:0:0:
320,192,275019,1,0,0:0:0:0:
64,192,275071,1,0,0:0:0:0:
448,192,275124,1,0,0:0:0:0:
320,192,275176,1,0,0:0:0:0:
192,192,275255,1,0,0:0:0:0:
448,192,275334,1,0,0:0:0:0:
320,192,275334,1,0,0:0:0:0:
320,192,275413,1,0,0:0:0:0:
192,192,275492,1,0,0:0:0:0:
64,192,275492,1,0,0:0:0:0:
448,192,275571,1,0,0:0:0:0:
320,192,275571,1,0,0:0:0:0:
192,192,275650,1,0,0:0:0:0:
64,192,275650,1,0,0:0:0:0:
320,192,275808,1,0,0:0:0:0:
448,192,275834,1,0,0:0:0:0:
64,192,275861,1,0,0:0:0:0:
192,192,275966,1,0,0:0:0:0:
448,192,275966,1,0,0:0:0:0:
64,192,276045,1,0,0:0:0:0:
320,192,276045,1,0,0:0:0:0:
192,192,276124,1,0,0:0:0:0:
448,192,276203,1,0,0:0:0:0:
64,192,276282,1,0,0:0:0:0:
320,192,276282,1,0,0:0:0:0:
192,192,276361,1,0,0:0:0:0:
448,192,276361,1,0,0:0:0:0:
320,192,276440,1,0,0:0:0:0:
192,192,276479,1,0,0:0:0:0:
64,192,276519,1,0,0:0:0:0:
448,192,276558,1,0,0:0:0:0:
320,192,276597,1,0,0:0:0:0:
192,192,276597,1,0,0:0:0:0:
64,192,276650,1,0,0:0:0:0:
448,192,276703,1,0,0:0:0:0:
192,192,276755,1,0,0:0:0:0:
192,192,276834,1,0,0:0:0:0:
448,192,276913,1,0,0:0:0:0:
320,192,276913,1,0,0:0:0:0:
64,192,276966,1,0,0:0:0:0:
448,192,277019,1,0,0:0:0:0:
320,192,277071,1,0,0:0:0:0:
192,192,277124,1,0,0:0:0:0:
64,192,277176,1,0,0:0:0:0:
448,192,277229,1,0,0:0:0:0:
320,192,277229,1,0,0:0:0:0:
192,192,277292,1,0,0:0:0:0:
448,192,277355,1,0,0:0:0:0:
320,192,277419,1,0,0:0:0:0:
192,192,277482,1,0,0:0:0:0:
448,192,277545,1,0,0:0:0:0:
64,192,277545,1,0,0:0:0:0:
320,192,277584,1,0,0:0:0:0:
192,192,277624,1,0,0:0:0:0:
448,192,277703,1,0,0:0:0:0:
64,192,277742,1,0,0:0:0:0:
320,192,277782,1,0,0:0:0:0:
448,192,277861,1,0,0:0:0:0:
64,192,277861,1,0,0:0:0:0:
448,192,277940,1,0,0:0:0:0:
192,192,278019,1,0,0:0:0:0:
64,192,278019,1,0,0:0:0:0:
448,192,278097,1,0,0:0:0:0:
320,192,278097,1,0,0:0:0:0:
192,192,278176,1,0,0:0:0:0:
64,192,278176,1,0,0:0:0:0:
320,192,278334,5,0,0:0:0:0:
320,192,278413,1,0,0:0:0:0:
192,192,278492,1,0,0:0:0:0:
448,192,278545,1,0,0:0:0:0:
320,192,278571,1,0,0:0:0:0:
64,192,278597,1,0,0:0:0:0:
448,192,278729,1,0,0:0:0:0:
64,192,278808,1,0,0:0:0:0:
320,192,278861,1,0,0:0:0:0:
448,192,278913,1,0,0:0:0:0:
192,192,278966,1,0,0:0:0:0:
320,192,279019,1,0,0:0:0:0:
64,192,279071,1,0,0:0:0:0:
320,192,279176,1,0,0:0:0:0:
192,192,279229,1,0,0:0:0:0:
448,192,279282,1,0,0:0:0:0:
320,192,279334,1,0,0:0:0:0:
64,192,279387,1,0,0:0:0:0:
448,192,279440,128,0,279519:0:0:0:0:
192,192,279440,128,0,279597:0:0:0:0:
320,192,279440,128,0,279676:0:0:0:0:
448,192,279597,128,0,279676:0:0:0:0:
64,192,279755,128,0,279834:0:0:0:0:
448,192,279755,1,0,0:0:0:0:
192,192,279755,128,0,279992:0:0:0:0:
320,192,279755,128,0,279913:0:0:0:0:
64,192,279913,128,0,280071:0:0:0:0:
192,192,280071,128,0,280229:0:0:0:0:
448,192,280071,128,0,280150:0:0:0:0:
320,192,280071,128,0,280308:0:0:0:0:
448,192,280229,128,0,280308:0:0:0:0:
320,192,280387,128,0,280624:0:0:0:0:
448,192,280387,1,0,0:0:0:0:
64,192,280387,128,0,280466:0:0:0:0:
192,192,280387,128,0,280466:0:0:0:0:
64,192,280545,128,0,280703:0:0:0:0:
192,192,280545,128,0,280624:0:0:0:0:
192,192,280703,128,0,280861:0:0:0:0:
320,192,280703,128,0,280940:0:0:0:0:
448,192,280703,128,0,280782:0:0:0:0:
448,192,280861,128,0,281019:0:0:0:0:
320,192,281019,1,0,0:0:0:0:
64,192,281019,128,0,281334:0:0:0:0:
192,192,281019,128,0,281176:0:0:0:0:
320,192,281216,128,0,281334:0:0:0:0:
448,192,281334,128,0,281571:0:0:0:0:
192,192,281334,128,0,281492:0:0:0:0:
192,192,281650,128,0,281729:0:0:0:0:
320,192,281650,128,0,281808:0:0:0:0:
448,192,281650,128,0,281861:0:0:0:0:
64,192,281650,128,0,281729:0:0:0:0:
320,192,281861,128,0,281966:0:0:0:0:
448,192,281966,128,0,282124:0:0:0:0:
192,192,281966,128,0,282045:0:0:0:0:
64,192,281966,128,0,282203:0:0:0:0:
192,192,282124,128,0,282203:0:0:0:0:
320,192,282282,128,0,282361:0:0:0:0:
192,192,282282,1,0,0:0:0:0:
64,192,282282,128,0,282440:0:0:0:0:
448,192,282282,128,0,282519:0:0:0:0:
320,192,282440,128,0,282597:0:0:0:0:
448,192,282597,128,0,282755:0:0:0:0:
192,192,282597,128,0,282676:0:0:0:0:
64,192,282597,128,0,282834:0:0:0:0:
192,192,282755,128,0,282834:0:0:0:0:
192,192,282913,1,0,0:0:0:0:
448,192,282913,128,0,282992:0:0:0:0:
64,192,282913,128,0,283071:0:0:0:0:
320,192,282913,128,0,282992:0:0:0:0:
320,192,283071,128,0,283229:0:0:0:0:
448,192,283071,128,0,283150:0:0:0:0:
448,192,283229,128,0,283545:0:0:0:0:
64,192,283229,128,0,283466:0:0:0:0:
192,192,283229,128,0,283308:0:0:0:0:
192,192,283387,128,0,283466:0:0:0:0:
192,192,283545,1,0,0:0:0:0:
64,192,283545,128,0,283782:0:0:0:0:
320,192,283545,128,0,283703:0:0:0:0:
448,192,283703,1,0,0:0:0:0:
192,192,283703,128,0,283861:0:0:0:0:
64,192,283861,1,0,0:0:0:0:
448,192,283861,1,0,0:0:0:0:
320,192,283861,128,0,284019:0:0:0:0:
192,192,284019,128,0,284176:0:0:0:0:
448,192,284176,128,0,284334:0:0:0:0:
64,192,284176,1,0,0:0:0:0:
192,192,284334,1,0,0:0:0:0:
320,192,284413,1,0,0:0:0:0:
64,192,284492,128,0,284571:0:0:0:0:
192,192,284492,128,0,284729:0:0:0:0:
448,192,284492,128,0,284650:0:0:0:0:
64,192,284650,128,0,284729:0:0:0:0:
192,192,284808,128,0,284966:0:0:0:0:
64,192,284808,1,0,0:0:0:0:
320,192,284808,128,0,284887:0:0:0:0:
448,192,284808,128,0,285045:0:0:0:0:
320,192,284966,128,0,285124:0:0:0:0:
64,192,285124,128,0,285203:0:0:0:0:
448,192,285124,128,0,285282:0:0:0:0:
192,192,285124,128,0,285361:0:0:0:0:
64,192,285282,128,0,285361:0:0:0:0:
64,192,285440,1,0,0:0:0:0:
192,192,285440,128,0,285519:0:0:0:0:
448,192,285440,128,0,285676:0:0:0:0:
320,192,285440,128,0,285519:0:0:0:0:
192,192,285597,128,0,285676:0:0:0:0:
320,192,285597,128,0,285755:0:0:0:0:
448,192,285755,128,0,285913:0:0:0:0:
192,192,285755,128,0,285992:0:0:0:0:
64,192,285755,128,0,285834:0:0:0:0:
64,192,285913,128,0,285992:0:0:0:0:
448,192,286071,128,0,286387:0:0:0:0:
320,192,286071,128,0,286229:0:0:0:0:
192,192,286269,128,0,286387:0:0:0:0:
320,192,286387,128,0,286545:0:0:0:0:
64,192,286387,128,0,286624:0:0:0:0:
448,192,286703,128,0,286913:0:0:0:0:
64,192,286703,128,0,286913:0:0:0:0:
320,192,286703,128,0,286782:0:0:0:0:
192,192,286703,128,0,286782:0:0:0:0:
192,192,286913,128,0,287019:0:0:0:0:
64,192,287019,128,0,287176:0:0:0:0:
448,192,287019,128,0,287097:0:0:0:0:
320,192,287019,128,0,287255:0:0:0:0:
448,192,287176,128,0,287255:0:0:0:0:
320,192,287334,128,0,287492:0:0:0:0:
448,192,287334,1,0,0:0:0:0:
192,192,287334,128,0,287413:0:0:0:0:
64,192,287334,128,0,287571:0:0:0:0:
192,192,287492,128,0,287650:0:0:0:0:
448,192,287650,128,0,287729:0:0:0:0:
64,192,287650,128,0,287808:0:0:0:0:
320,192,287650,128,0,287887:0:0:0:0:
448,192,287808,128,0,287966:0:0:0:0:
320,192,287966,128,0,288045:0:0:0:0:
192,192,287966,128,0,288045:0:0:0:0:
64,192,287966,128,0,288203:0:0:0:0:
320,192,288124,128,0,288203:0:0:0:0:
448,192,288124,128,0,288203:0:0:0:0:
192,192,288124,128,0,288203:0:0:0:0:
64,192,288282,1,0,0:0:0:0:
448,192,288282,1,0,0:0:0:0:
192,192,288282,1,0,0:0:0:0:
320,192,288282,128,0,288440:0:0:0:0:
64,192,288492,128,0,288597:0:0:0:0:
192,192,288597,128,0,288795:0:0:0:0:
320,192,288795,128,0,288913:0:0:0:0:
192,192,288913,128,0,289111:0:0:0:0:
448,192,289111,128,0,289229:0:0:0:0:
64,192,289229,128,0,289387:0:0:0:0:
192,192,289426,128,0,289545:0:0:0:0:
448,192,289545,128,0,289782:0:0:0:0:
320,192,289545,128,0,289624:0:0:0:0:
64,192,289545,128,0,289703:0:0:0:0:
320,192,289703,128,0,289861:0:0:0:0:
448,192,289861,128,0,290019:0:0:0:0:
192,192,289861,128,0,289940:0:0:0:0:
64,192,289861,128,0,290097:0:0:0:0:
192,192,290019,128,0,290176:0:0:0:0:
320,192,290176,128,0,290334:0:0:0:0:
64,192,290176,128,0,290492:0:0:0:0:
192,192,290334,128,0,290492:0:0:0:0:
320,192,290492,128,0,290650:0:0:0:0:
448,192,290492,128,0,290729:0:0:0:0:
192,192,290650,128,0,290808:0:0:0:0:
448,192,290808,128,0,291045:0:0:0:0:
320,192,290808,128,0,290887:0:0:0:0:
64,192,290808,128,0,290966:0:0:0:0:
320,192,290966,128,0,291045:0:0:0:0:
448,192,291124,128,0,291440:0:0:0:0:
192,192,291124,128,0,291282:0:0:0:0:
320,192,291282,128,0,291440:0:0:0:0:
64,192,291440,1,0,0:0:0:0:
192,192,291440,128,0,291597:0:0:0:0:
320,192,291597,128,0,291755:0:0:0:0:
64,192,291597,1,0,0:0:0:0:
448,192,291755,1,0,0:0:0:0:
192,192,291755,128,0,291992:0:0:0:0:
64,192,291755,128,0,291992:0:0:0:0:
448,192,291913,128,0,292071:0:0:0:0:
320,192,292071,128,0,292229:0:0:0:0:
192,192,292071,128,0,292308:0:0:0:0:
64,192,292071,128,0,292150:0:0:0:0:
64,192,292229,128,0,292387:0:0:0:0:
448,192,292387,128,0,292466:0:0:0:0:
320,192,292387,128,0,292624:0:0:0:0:
192,192,292387,128,0,292545:0:0:0:0:
448,192,292545,128,0,292703:0:0:0:0:
320,192,292703,128,0,292940:0:0:0:0:
192,192,292703,128,0,292940:0:0:0:0:
64,192,292861,128,0,293019:0:0:0:0:
192,192,293019,128,0,293176:0:0:0:0:
448,192,293019,128,0,293176:0:0:0:0:
320,192,293176,128,0,293334:0:0:0:0:
448,192,293334,128,0,293492:0:0:0:0:
192,192,293334,128,0,293492:0:0:0:0:
64,192,293545,128,0,293650:0:0:0:0:
192,192,293650,128,0,293861:0:0:0:0:
320,192,293650,128,0,293861:0:0:0:0:
64,192,293861,128,0,293966:0:0:0:0:
448,192,293966,1,0,0:0:0:0:
192,192,293966,128,0,294124:0:0:0:0:
64,192,294124,128,0,294282:0:0:0:0:
320,192,294282,1,0,0:0:0:0:
448,192,294282,1,0,0:0:0:0:
192,192,294361,1,0,0:0:0:0:
64,192,294440,1,0,0:0:0:0:
64,192,294597,128,0,294834:0:0:0:0:
192,192,294597,128,0,294676:0:0:0:0:
448,192,294597,128,0,294755:0:0:0:0:
192,192,294755,128,0,294913:0:0:0:0:
64,192,294913,128,0,295071:0:0:0:0:
320,192,294913,128,0,294992:0:0:0:0:
448,192,294913,128,0,295150:0:0:0:0:
320,192,295071,128,0,295229:0:0:0:0:
64,192,295229,1,0,0:0:0:0:
192,192,295229,128,0,295387:0:0:0:0:
448,192,295229,128,0,295466:0:0:0:0:
320,192,295387,128,0,295545:0:0:0:0:
448,192,295545,1,0,0:0:0:0:
192,192,295545,128,0,295703:0:0:0:0:
64,192,295545,128,0,295782:0:0:0:0:
320,192,295703,128,0,295861:0:0:0:0:
64,192,295861,128,0,296097:0:0:0:0:
192,192,295861,128,0,295940:0:0:0:0:
448,192,295861,128,0,296019:0:0:0:0:
192,192,296019,128,0,296176:0:0:0:0:
448,192,296176,1,0,0:0:0:0:
64,192,296176,128,0,296492:0:0:0:0:
320,192,296176,128,0,296334:0:0:0:0:
192,192,296334,128,0,296492:0:0:0:0:
448,192,296492,128,0,296650:0:0:0:0:
320,192,296492,128,0,296650:0:0:0:0:
64,192,296650,128,0,296729:0:0:0:0:
192,192,296650,128,0,296729:0:0:0:0:
64,192,296808,128,0,297045:0:0:0:0:
448,192,296808,128,0,297045:0:0:0:0:
320,192,296966,128,0,297124:0:0:0:0:
448,192,297124,128,0,297203:0:0:0:0:
192,192,297124,128,0,297361:0:0:0:0:
64,192,297124,128,0,297361:0:0:0:0:
320,192,297334,128,0,297571:0:0:0:0:
448,192,297440,128,0,297650:0:0:0:0:
64,192,297440,128,0,297571:0:0:0:0:
192,192,297440,128,0,297650:0:0:0:0:
64,192,297650,128,0,297992:0:0:0:0:
448,192,297755,128,0,297992:0:0:0:0:
192,192,297755,128,0,297913:0:0:0:0:
320,192,297755,128,0,297913:0:0:0:0:
192,192,297992,128,0,298282:0:0:0:0:
320,192,298071,128,0,298203:0:0:0:0:
64,192,298071,128,0,298282:0:0:0:0:
448,192,298071,128,0,298282:0:0:0:0:
320,192,298282,1,0,0:0:0:0:
448,192,298387,128,0,298624:0:0:0:0:
64,192,298387,128,0,298466:0:0:0:0:
192,192,298387,1,0,0:0:0:0:
320,192,298440,128,0,298519:0:0:0:0:
192,192,298492,128,0,298571:0:0:0:0:
64,192,298545,128,0,298861:0:0:0:0:
320,192,298597,128,0,298703:0:0:0:0:
192,192,298650,128,0,298782:0:0:0:0:
448,192,298703,128,0,298782:0:0:0:0:
320,192,298782,128,0,298861:0:0:0:0:
192,192,298861,128,0,298940:0:0:0:0:
64,192,298940,128,0,299019:0:0:0:0:
64,192,299650,128,0,300124:0:0:0:0:
320,192,299650,128,0,302808:0:0:0:0:
192,192,299650,128,0,300124:0:0:0:0:
448,192,299650,128,0,300637:0:0:0:0:
