osu file format v14

[General]
AudioFilename: audio.MP3
AudioLeadIn: 0
PreviewTime: 238279
Countdown: 0
SampleSet: Normal
StackLeniency: 0.7
Mode: 3
LetterboxInBreaks: 0
SpecialStyle: 0
WidescreenStoryboard: 0

[Editor]
Bookmarks: 35557
DistanceSpacing: 0.5
BeatDivisor: 4
GridSize: 32
TimelineZoom: 1.7

[Metadata]
Title:Sound Chimera
TitleUnicode:Sound Chimera
Artist:Laur
ArtistUnicode:Laur
Creator:Fresh Chicken
Version:Typhon
Source:
Tags:electronic Instrumental tano*c video game The Angel's Message trance psytrance psychedelic hardcore Frenchcore WACCA
BeatmapID:2552572
BeatmapSetID:1227519

[Difficulty]
HPDrainRate:9
CircleSize:7
OverallDifficulty:7.7
ApproachRate:5
SliderMultiplier:1.4
SliderTickRate:1

[Events]
//Background and Video events
0,0,"bg.jpg",0,0
//Break Periods
//Storyboard Layer 0 (Background)
//Storyboard Layer 1 (Fail)
//Storyboard Layer 2 (Pass)
//Storyboard Layer 3 (Foreground)
//Storyboard Layer 4 (Overlay)
//Storyboard Sound Samples

[TimingPoints]
1242,315.789473684211,4,1,1,90,1,0
22715,-10000,4,1,1,90,0,0
23031,-100,4,1,1,90,0,0
23051,-10000,4,1,1,90,0,0
23347,-100,4,1,1,90,0,0
23367,-10000,4,1,1,90,0,0
23663,-100,4,1,1,90,0,0
23683,-10000,4,1,1,90,0,0
23978,-100,4,1,1,90,0,0
23998,-10000,4,1,1,90,0,0
24294,-100,4,1,1,90,0,0
24314,-10000,4,1,1,90,0,0
24610,-100,4,1,1,90,0,0
24630,-10000,4,1,1,90,0,0
24926,-100,4,1,1,90,0,0
24946,-10000,4,1,1,90,0,0
25242,-100,4,1,1,90,0,0
25262,-10000,4,1,1,90,0,0
25557,-100,4,1,1,90,0,0
25577,-10000,4,1,1,90,0,0
25873,-100,4,1,1,90,0,0
25893,-10000,4,1,1,90,0,0
26189,-100,4,1,1,90,0,0
26209,-10000,4,1,1,90,0,0
26505,-100,4,1,1,90,0,0
26525,-10000,4,1,1,90,0,0
26820,-100,4,1,1,90,0,0
26840,-10000,4,1,1,90,0,0
27136,-100,4,1,1,90,0,0
27156,-10000,4,1,1,90,0,0
27452,-100,4,1,1,90,0,0
27472,-10000,4,1,1,90,0,0
27768,-100,4,1,1,90,0,0
27788,-10000,4,1,1,90,0,0
28084,-100,4,1,1,90,0,0
28104,-10000,4,1,1,90,0,0
28399,-100,4,1,1,90,0,0
28419,-10000,4,1,1,90,0,0
28715,-100,4,1,1,90,0,0
28735,-10000,4,1,1,90,0,0
29031,-100,4,1,1,90,0,0
29051,-10000,4,1,1,90,0,0
29347,-100,4,1,1,90,0,0
29367,-10000,4,1,1,90,0,0
29663,-100,4,1,1,90,0,0
29683,-10000,4,1,1,90,0,0
29978,-100,4,1,1,90,0,0
29998,-10000,4,1,1,90,0,0
30294,-100,4,1,1,90,0,0
30314,-1666.66666666667,4,1,1,90,0,0
32189,-125,4,1,1,90,0,0
41031,-123.456790123457,4,1,1,90,0,0
41110,-121.951219512195,4,1,1,90,0,0
41189,-120.481927710843,4,1,1,90,0,0
41268,-119.047619047619,4,1,1,90,0,0
41347,-117.647058823529,4,1,1,90,0,0
41426,-116.279069767442,4,1,1,90,0,0
41505,-114.942528735632,4,1,1,90,0,0
41584,-113.636363636364,4,1,1,90,0,0
41663,-112.359550561798,4,1,1,90,0,0
41742,-111.111111111111,4,1,1,90,0,0
41820,-109.89010989011,4,1,1,90,0,0
41899,-108.695652173913,4,1,1,90,0,0
41978,-107.52688172043,4,1,1,90,0,0
42057,-106.382978723404,4,1,1,90,0,0
42136,-105.263157894737,4,1,1,90,0,0
42215,-104.166666666667,4,1,1,90,0,0
42294,-103.092783505155,4,1,1,90,0,0
42373,-102.040816326531,4,1,1,90,0,0
42452,-101.010101010101,4,1,1,90,0,0
42531,-100,4,1,1,90,0,0
71978,-76.9230769230769,4,1,1,90,0,0
72084,-142.857142857143,4,1,1,90,0,0
72189,-100,4,1,1,90,0,0
72610,-76.9230769230769,4,1,1,90,0,0
72715,-142.857142857143,4,1,1,90,0,0
72820,-76.9230769230769,4,1,1,90,0,0
72926,-142.857142857143,4,1,1,90,0,0
73031,-76.9230769230769,4,1,1,90,0,0
73084,-142.857142857143,4,1,1,90,0,0
73136,-76.9230769230769,4,1,1,90,0,0
73189,-142.857142857143,4,1,1,90,0,0
73242,-100,4,1,1,90,0,0
92820,-40,4,1,1,90,0,0
92860,-200,4,1,1,90,0,0
92978,-40,4,1,1,90,0,0
93018,-200,4,1,1,90,0,0
93136,-52.6315789473684,4,1,1,90,0,0
93156,-1000,4,1,1,90,0,0
93176,-55.5555555555556,4,1,1,90,0,0
93195,-500,4,1,1,90,0,0
93215,-58.8235294117647,4,1,1,90,0,0
93235,-333.333333333333,4,1,1,90,0,0
93255,-62.5,4,1,1,90,0,0
93274,-250,4,1,1,90,0,0
93294,-66.6666666666667,4,1,1,90,0,0
93314,-200,4,1,1,90,0,0
93334,-71.4285714285714,4,1,1,90,0,0
93353,-166.666666666667,4,1,1,90,0,0
93373,-76.9230769230769,4,1,1,90,0,0
93393,-142.857142857143,4,1,1,90,0,0
93413,-83.3333333333333,4,1,1,90,0,0
93432,-125,4,1,1,90,0,0
93452,-100,4,1,1,90,0,0
102294,-40,4,1,1,90,0,0
102334,-200,4,1,1,90,0,0
102452,-40,4,1,1,90,0,0
102492,-200,4,1,1,90,0,0
102610,-40,4,1,1,90,0,0
102649,-200,4,1,1,90,0,0
102768,-40,4,1,1,90,0,0
102807,-200,4,1,1,90,0,0
102926,-100,4,1,1,90,0,0
103242,-40,4,1,1,90,0,0
103320,-200,4,1,1,90,0,0
103557,-10,4,1,1,90,0,0
103636,-200,4,1,1,90,0,0
105136,-196.078431372549,4,1,1,90,0,0
105156,-192.307692307692,4,1,1,90,0,0
105176,-188.679245283019,4,1,1,90,0,0
105195,-185.185185185185,4,1,1,90,0,0
105215,-181.818181818182,4,1,1,90,0,0
105235,-178.571428571429,4,1,1,90,0,0
105255,-175.438596491228,4,1,1,90,0,0
105274,-172.413793103448,4,1,1,90,0,0
105294,-169.491525423729,4,1,1,90,0,0
105314,-166.666666666667,4,1,1,90,0,0
105334,-163.934426229508,4,1,1,90,0,0
105353,-161.290322580645,4,1,1,90,0,0
105373,-158.730158730159,4,1,1,90,0,0
105393,-156.25,4,1,1,90,0,0
105413,-153.846153846154,4,1,1,90,0,0
105433,-151.515151515152,4,1,1,90,0,0
105453,-149.253731343284,4,1,1,90,0,0
105472,-147.058823529412,4,1,1,90,0,0
105492,-144.927536231884,4,1,1,90,0,0
105511,-142.857142857143,4,1,1,90,0,0
105531,-140.845070422535,4,1,1,90,0,0
105550,-138.888888888889,4,1,1,90,0,0
105570,-136.986301369863,4,1,1,90,0,0
105590,-135.135135135135,4,1,1,90,0,0
105610,-133.333333333333,4,1,1,90,0,0
105630,-131.578947368421,4,1,1,90,0,0
105650,-129.87012987013,4,1,1,90,0,0
105669,-128.205128205128,4,1,1,90,0,0
105689,-126.582278481013,4,1,1,90,0,0
105709,-125,4,1,1,90,0,0
105728,-123.456790123457,4,1,1,90,0,0
105747,-121.951219512195,4,1,1,90,0,0
105767,-120.481927710843,4,1,1,90,0,0
105787,-119.047619047619,4,1,1,90,0,0
105807,-117.647058823529,4,1,1,90,0,0
105827,-116.279069767442,4,1,1,90,0,0
105847,-114.942528735632,4,1,1,90,0,0
105866,-113.636363636364,4,1,1,90,0,0
105886,-112.359550561798,4,1,1,90,0,0
105906,-111.111111111111,4,1,1,90,0,0
105926,-109.89010989011,4,1,1,90,0,0
105945,-108.695652173913,4,1,1,90,0,0
105965,-107.52688172043,4,1,1,90,0,0
105985,-106.382978723404,4,1,1,90,0,0
106005,-105.263157894737,4,1,1,90,0,0
106025,-104.166666666667,4,1,1,90,0,0
106045,-103.092783505155,4,1,1,90,0,0
106064,-102.040816326531,4,1,1,90,0,0
106084,-101.010101010101,4,1,1,90,0,0
106104,-100,4,1,1,90,0,0
113663,-55.5555555555556,4,1,1,90,0,0
113689,-66.6666666666667,4,1,1,90,0,0
113715,-83.3333333333333,4,1,1,90,0,0
113742,-111.111111111111,4,1,1,90,0,0
113768,-125,4,1,1,90,0,0
113978,-55.5555555555556,4,1,1,90,0,0
114005,-66.6666666666667,4,1,1,90,0,0
114031,-83.3333333333333,4,1,1,90,0,0
114057,-111.111111111111,4,1,1,90,0,0
114084,-125,4,1,1,90,0,0
114294,-55.5555555555556,4,1,1,90,0,0
114320,-66.6666666666667,4,1,1,90,0,0
114347,-83.3333333333333,4,1,1,90,0,0
114373,-111.111111111111,4,1,1,90,0,0
114399,-125,4,1,1,90,0,0
114610,-66.6666666666667,4,1,1,90,0,0
114649,-111.111111111111,4,1,1,90,0,0
114926,-55.5555555555556,4,1,1,90,0,0
114952,-66.6666666666667,4,1,1,90,0,0
114978,-83.3333333333333,4,1,1,90,0,0
115005,-111.111111111111,4,1,1,90,0,0
115031,-125,4,1,1,90,0,0
115242,-66.6666666666667,4,1,1,90,0,0
115281,-111.111111111111,4,1,1,90,0,0
115557,-66.6666666666667,4,1,1,90,0,0
115597,-111.111111111111,4,1,1,90,0,0
115873,-40,4,1,1,90,0,0
115893,-200,4,1,1,90,0,0
115952,-40,4,1,1,90,0,0
115972,-200,4,1,1,90,0,0
116031,-40,4,1,1,90,0,0
116051,-200,4,1,1,90,0,0
116110,-40,4,1,1,90,0,0
116130,-200,4,1,1,90,0,0
116189,-55.5555555555556,4,1,1,90,0,0
116215,-66.6666666666667,4,1,1,90,0,0
116242,-83.3333333333333,4,1,1,90,0,0
116268,-111.111111111111,4,1,1,90,0,0
116294,-125,4,1,1,90,0,0
116505,-55.5555555555556,4,1,1,90,0,0
116531,-66.6666666666667,4,1,1,90,0,0
116557,-83.3333333333333,4,1,1,90,0,0
116584,-111.111111111111,4,1,1,90,0,0
116610,-125,4,1,1,90,0,0
116820,-55.5555555555556,4,1,1,90,0,0
116847,-66.6666666666667,4,1,1,90,0,0
116873,-83.3333333333333,4,1,1,90,0,0
116899,-111.111111111111,4,1,1,90,0,0
116926,-125,4,1,1,90,0,0
117136,-66.6666666666667,4,1,1,90,0,0
117176,-111.111111111111,4,1,1,90,0,0
117452,-55.5555555555556,4,1,1,90,0,0
117478,-66.6666666666667,4,1,1,90,0,0
117504,-83.3333333333333,4,1,1,90,0,0
117531,-111.111111111111,4,1,1,90,0,0
117557,-125,4,1,1,90,0,0
117768,-66.6666666666667,4,1,1,90,0,0
117807,-111.111111111111,4,1,1,90,0,0
117926,-66.6666666666667,4,1,1,90,0,0
117965,-111.111111111111,4,1,1,90,0,0
118084,-66.6666666666667,4,1,1,90,0,0
118123,-111.111111111111,4,1,1,90,0,0
118399,-100,4,1,1,90,0,0
118715,-55.5555555555556,4,1,1,90,0,0
118741,-66.6666666666667,4,1,1,90,0,0
118767,-83.3333333333333,4,1,1,90,0,0
118794,-111.111111111111,4,1,1,90,0,0
118820,-125,4,1,1,90,0,0
119031,-55.5555555555556,4,1,1,90,0,0
119057,-66.6666666666667,4,1,1,90,0,0
119083,-83.3333333333333,4,1,1,90,0,0
119110,-111.111111111111,4,1,1,90,0,0
119136,-125,4,1,1,90,0,0
119347,-55.5555555555556,4,1,1,90,0,0
119373,-66.6666666666667,4,1,1,90,0,0
119399,-83.3333333333333,4,1,1,90,0,0
119426,-111.111111111111,4,1,1,90,0,0
119452,-125,4,1,1,90,0,0
119663,-66.6666666666667,4,1,1,90,0,0
119702,-111.111111111111,4,1,1,90,0,0
119978,-55.5555555555556,4,1,1,90,0,0
120004,-66.6666666666667,4,1,1,90,0,0
120030,-83.3333333333333,4,1,1,90,0,0
120057,-111.111111111111,4,1,1,90,0,0
120083,-125,4,1,1,90,0,0
120294,-66.6666666666667,4,1,1,90,0,0
120333,-111.111111111111,4,1,1,90,0,0
120609,-66.6666666666667,4,1,1,90,0,0
120648,-111.111111111111,4,1,1,90,0,0
120925,-40,4,1,1,90,0,0
120945,-200,4,1,1,90,0,0
121004,-40,4,1,1,90,0,0
121024,-200,4,1,1,90,0,0
121083,-40,4,1,1,90,0,0
121103,-200,4,1,1,90,0,0
121162,-40,4,1,1,90,0,0
121182,-200,4,1,1,90,0,0
121242,-55.5555555555556,4,1,1,90,0,0
121268,-66.6666666666667,4,1,1,90,0,0
121294,-83.3333333333333,4,1,1,90,0,0
121321,-111.111111111111,4,1,1,90,0,0
121347,-125,4,1,1,90,0,0
121557,-55.5555555555556,4,1,1,90,0,0
121583,-66.6666666666667,4,1,1,90,0,0
121609,-83.3333333333333,4,1,1,90,0,0
121636,-111.111111111111,4,1,1,90,0,0
121662,-125,4,1,1,90,0,0
121873,-55.5555555555556,4,1,1,90,0,0
121899,-66.6666666666667,4,1,1,90,0,0
121925,-83.3333333333333,4,1,1,90,0,0
121952,-111.111111111111,4,1,1,90,0,0
121978,-125,4,1,1,90,0,0
122189,-66.6666666666667,4,1,1,90,0,0
122229,-111.111111111111,4,1,1,90,0,0
122505,-66.6666666666667,4,1,1,90,0,0
122557,-111.111111111111,4,1,1,90,0,0
122820,-66.6666666666667,4,1,1,90,0,0
122872,-111.111111111111,4,1,1,90,0,0
123136,-66.6666666666667,4,1,1,90,0,0
123188,-111.111111111111,4,1,1,90,0,0
123452,-66.6666666666667,4,1,1,90,0,0
123478,-111.111111111111,4,1,1,90,0,0
123768,-55.5555555555556,4,1,1,90,0,0
123794,-66.6666666666667,4,1,1,90,0,0
123820,-83.3333333333333,4,1,1,90,0,0
123847,-111.111111111111,4,1,1,90,0,0
123873,-125,4,1,1,90,0,0
124084,-55.5555555555556,4,1,1,90,0,0
124110,-66.6666666666667,4,1,1,90,0,0
124136,-83.3333333333333,4,1,1,90,0,0
124163,-111.111111111111,4,1,1,90,0,0
124189,-125,4,1,1,90,0,0
124399,-66.6666666666667,4,1,1,90,0,0
124439,-111.111111111111,4,1,1,90,0,0
124715,-66.6666666666667,4,1,1,90,0,0
124755,-111.111111111111,4,1,1,90,0,0
125031,-55.5555555555556,4,1,1,90,0,0
125057,-66.6666666666667,4,1,1,90,0,0
125083,-83.3333333333333,4,1,1,90,0,0
125110,-111.111111111111,4,1,1,90,0,0
125136,-125,4,1,1,90,0,0
125347,-66.6666666666667,4,1,1,90,0,0
125387,-111.111111111111,4,1,1,90,0,0
125663,-66.6666666666667,4,1,1,90,0,0
125703,-111.111111111111,4,1,1,90,0,0
125820,-66.6666666666667,4,1,1,90,0,0
125860,-111.111111111111,4,1,1,90,0,0
125978,-40,4,1,1,90,0,0
125998,-200,4,1,1,90,0,0
126057,-40,4,1,1,90,0,0
126077,-200,4,1,1,90,0,0
126136,-40,4,1,1,90,0,0
126156,-200,4,1,1,90,0,0
126176,-111.111111111111,4,1,1,90,0,0
126215,-40,4,1,1,90,0,0
126235,-200,4,1,1,90,0,0
126294,-55.5555555555556,4,1,1,90,0,0
126320,-66.6666666666667,4,1,1,90,0,0
126346,-83.3333333333333,4,1,1,90,0,0
126373,-111.111111111111,4,1,1,90,0,0
126399,-125,4,1,1,90,0,0
126610,-55.5555555555556,4,1,1,90,0,0
126636,-66.6666666666667,4,1,1,90,0,0
126662,-83.3333333333333,4,1,1,90,0,0
126689,-111.111111111111,4,1,1,90,0,0
126715,-125,4,1,1,90,0,0
126926,-66.6666666666667,4,1,1,90,0,0
126965,-111.111111111111,4,1,1,90,0,0
127242,-66.6666666666667,4,1,1,90,0,0
127281,-111.111111111111,4,1,1,90,0,0
127557,-66.6666666666667,4,1,1,90,0,0
127609,-111.111111111111,4,1,1,90,0,0
127873,-66.6666666666667,4,1,1,90,0,0
127925,-111.111111111111,4,1,1,90,0,0
128189,-66.6666666666667,4,1,1,90,0,0
128241,-111.111111111111,4,1,1,90,0,0
128820,-55.5555555555556,4,1,1,90,0,0
128846,-66.6666666666667,4,1,1,90,0,0
128872,-83.3333333333333,4,1,1,90,0,0
128899,-111.111111111111,4,1,1,90,0,0
128925,-125,4,1,1,90,0,0
129136,-55.5555555555556,4,1,1,90,0,0
129162,-66.6666666666667,4,1,1,90,0,0
129188,-83.3333333333333,4,1,1,90,0,0
129215,-111.111111111111,4,1,1,90,0,0
129241,-125,4,1,1,90,0,0
129452,-66.6666666666667,4,1,1,90,0,0
129492,-111.111111111111,4,1,1,90,0,0
129768,-66.6666666666667,4,1,1,90,0,0
129807,-111.111111111111,4,1,1,90,0,0
130084,-55.5555555555556,4,1,1,90,0,0
130110,-66.6666666666667,4,1,1,90,0,0
130136,-83.3333333333333,4,1,1,90,0,0
130163,-111.111111111111,4,1,1,90,0,0
130189,-125,4,1,1,90,0,0
130399,-66.6666666666667,4,1,1,90,0,0
130439,-111.111111111111,4,1,1,90,0,0
130715,-66.6666666666667,4,1,1,90,0,0
130755,-111.111111111111,4,1,1,90,0,0
130873,-66.6666666666667,4,1,1,90,0,0
130913,-111.111111111111,4,1,1,90,0,0
131031,-40,4,1,1,90,0,0
131051,-200,4,1,1,90,0,0
131110,-40,4,1,1,90,0,0
131130,-200,4,1,1,90,0,0
131189,-40,4,1,1,90,0,0
131209,-200,4,1,1,90,0,0
131268,-40,4,1,1,90,0,0
131288,-200,4,1,1,90,0,0
131347,-55.5555555555556,4,1,1,90,0,0
131373,-66.6666666666667,4,1,1,90,0,0
131399,-83.3333333333333,4,1,1,90,0,0
131426,-111.111111111111,4,1,1,90,0,0
131452,-125,4,1,1,90,0,0
131663,-66.6666666666667,4,1,1,90,0,0
131715,-111.111111111111,4,1,1,90,0,0
131978,-66.6666666666667,4,1,1,90,0,0
132030,-111.111111111111,4,1,1,90,0,0
132294,-66.6666666666667,4,1,1,90,0,0
132346,-111.111111111111,4,1,1,90,0,0
132610,-16.6666666666667,4,1,1,90,0,0
132649,-454.545454545455,4,1,1,90,0,0
132847,-66.6666666666667,4,1,1,90,0,0
132867,-1000,4,1,1,90,0,0
132886,-66.6666666666667,4,1,1,90,0,0
132906,-1000,4,1,1,90,0,0
132926,-66.6666666666667,4,1,1,90,0,0
132946,-1000,4,1,1,90,0,0
132965,-66.6666666666667,4,1,1,90,0,0
132985,-1000,4,1,1,90,0,0
133005,-66.6666666666667,4,1,1,90,0,0
133025,-1000,4,1,1,90,0,0
133044,-66.6666666666667,4,1,1,90,0,0
133064,-1000,4,1,1,90,0,0
133084,-100,4,1,1,90,0,0
133242,-10,4,1,1,90,0,0
133281,-10000,4,1,1,90,0,0
133557,-100,4,1,1,90,0,0
143347,-40,4,1,1,90,0,0
143386,-200,4,1,1,90,0,0
143505,-40,4,1,1,90,0,0
143544,-200,4,1,1,90,0,0
143663,-100,4,1,1,90,0,0
153452,-40,4,1,1,90,0,0
153492,-200,4,1,1,90,0,0
153610,-40,4,1,1,90,0,0
153649,-200,4,1,1,90,0,0
153768,-100,4,1,1,90,0,0
154084,434.782608695652,4,1,1,90,1,0
154084,-10,4,1,1,90,0,0
154138,-10000,4,1,1,90,0,0
156910,-10,4,1,1,90,0,0
156937,-10000,4,1,1,90,0,0
157127,-100,4,1,1,90,0,0
157562,-72.463768115942,4,1,1,90,0,0
171040,-10,4,1,1,90,0,0
171094,-72.463768115942,4,1,1,90,0,0
171475,-90.5797101449275,4,1,1,90,0,0
171692,-60.3864734299517,4,1,1,90,0,0
171910,-72.463768115942,4,1,1,90,0,0
173214,-90.5797101449275,4,1,1,90,0,0
173431,-60.3864734299517,4,1,1,90,0,0
173649,-72.463768115942,4,1,1,90,0,0
174953,-90.5797101449275,4,1,1,90,0,0
175170,-60.3864734299517,4,1,1,90,0,0
175388,-72.463768115942,4,1,1,90,0,0
176692,-90.5797101449275,4,1,1,90,0,0
176910,-60.3864734299517,4,1,1,90,0,0
177127,-72.463768115942,4,1,1,90,0,0
177997,-10,4,1,1,90,0,0
178051,-72.463768115942,4,1,1,90,0,0
178431,-90.5797101449275,4,1,1,90,0,0
178648,-60.3864734299517,4,1,1,90,0,0
178866,-72.463768115942,4,1,1,90,0,0
180170,-90.5797101449275,4,1,1,90,0,0
180387,-60.3864734299517,4,1,1,90,0,0
180605,-72.463768115942,4,1,1,90,0,0
181910,-90.5797101449275,4,1,1,90,0,0
182127,-60.3864734299517,4,1,1,90,0,0
182344,-72.463768115942,4,1,1,90,0,0
183649,-53.6768652710682,4,1,1,90,0,0
183866,-111.482720178372,4,1,1,90,0,0
184084,-53.6768652710682,4,1,1,90,0,0
184156,-111.482720178372,4,1,1,90,0,0
184228,-53.6768652710682,4,1,1,90,0,0
184301,-111.482720178372,4,1,1,90,0,0
184373,-53.6768652710682,4,1,1,90,0,0
184446,-111.482720178372,4,1,1,90,0,0
184518,-53.6768652710682,4,1,1,90,0,0
184663,-111.482720178372,4,1,1,90,0,0
184808,-53.6768652710682,4,1,1,90,0,0
184953,-111.482720178372,4,1,1,90,0,0
185098,-53.6768652710682,4,1,1,90,0,0
185170,-111.482720178372,4,1,1,90,0,0
185243,-53.6768652710682,4,1,1,90,0,0
185315,-111.482720178372,4,1,1,90,0,0
185388,-72.463768115942,4,1,1,90,0,0
191910,-10,4,1,1,90,0,0
191964,-72.463768115942,4,1,1,90,0,0
198866,-10,4,1,1,90,0,0
198920,-72.463768115942,4,1,1,90,0,0
200823,-48.3091787439614,4,1,1,90,0,0
200931,-144.927536231884,4,1,1,90,0,0
201040,-72.463768115942,4,1,1,90,0,0
202344,-48.3091787439614,4,1,1,90,0,0
202453,-144.927536231884,4,1,1,90,0,0
202562,-48.3091787439614,4,1,1,90,0,0
202670,-144.927536231884,4,1,1,90,0,0
202779,-48.3091787439614,4,1,1,90,0,0
202834,-144.927536231884,4,1,1,90,0,0
202888,-48.3091787439614,4,1,1,90,0,0
202942,-144.927536231884,4,1,1,90,0,0
202997,-48.3091787439614,4,1,1,90,0,0
203051,-144.927536231884,4,1,1,90,0,0
203105,-48.3091787439614,4,1,1,90,0,0
203160,-144.927536231884,4,1,1,90,0,0
203214,-48.3091787439614,4,1,1,90,0,0
203268,-144.927536231884,4,1,1,90,0,0
203323,-48.3091787439614,4,1,1,90,0,0
203377,-144.927536231884,4,1,1,90,0,0
203431,-48.3091787439614,4,1,1,90,0,0
203486,-144.927536231884,4,1,1,90,0,0
203540,-48.3091787439614,4,1,1,90,0,0
203594,-144.927536231884,4,1,1,90,0,0
203649,-48.3091787439614,4,1,1,90,0,0
203703,-144.927536231884,4,1,1,90,0,0
203757,-48.3091787439614,4,1,1,90,0,0
203812,-144.927536231884,4,1,1,90,0,0
203866,-48.3091787439614,4,1,1,90,0,0
203920,-144.927536231884,4,1,1,90,0,0
203975,-48.3091787439614,4,1,1,90,0,0
204029,-144.927536231884,4,1,1,90,0,0
204084,-48.3091787439614,4,1,1,90,0,0
204138,-144.927536231884,4,1,1,90,0,0
204192,-48.3091787439614,4,1,1,90,0,0
204247,-144.927536231884,4,1,1,90,0,0
204301,-48.3091787439614,4,1,1,90,0,0
204355,-144.927536231884,4,1,1,90,0,0
204410,-48.3091787439614,4,1,1,90,0,0
204464,-144.927536231884,4,1,1,90,0,0
204518,-48.3091787439614,4,1,1,90,0,0
204573,-144.927536231884,4,1,1,90,0,0
204627,-48.3091787439614,4,1,1,90,0,0
204681,-144.927536231884,4,1,1,90,0,0
204736,-48.3091787439614,4,1,1,90,0,0
204790,-144.927536231884,4,1,1,90,0,0
204844,-48.3091787439614,4,1,1,90,0,0
204899,-144.927536231884,4,1,1,90,0,0
204953,-48.3091787439614,4,1,1,90,0,0
205007,-144.927536231884,4,1,1,90,0,0
205062,-48.3091787439614,4,1,1,90,0,0
205116,-144.927536231884,4,1,1,90,0,0
205170,-48.3091787439614,4,1,1,90,0,0
205225,-144.927536231884,4,1,1,90,0,0
205279,-48.3091787439614,4,1,1,90,0,0
205333,-144.927536231884,4,1,1,90,0,0
205388,-48.3091787439614,4,1,1,90,0,0
205442,-144.927536231884,4,1,1,90,0,0
205497,-48.3091787439614,4,1,1,90,0,0
205551,-144.927536231884,4,1,1,90,0,0
205605,-48.3091787439614,4,1,1,90,0,0
205660,-144.927536231884,4,1,1,90,0,0
205714,-48.3091787439614,4,1,1,90,0,0
205768,-144.927536231884,4,1,1,90,0,0
205823,-10,4,1,1,90,0,0
205877,-72.463768115942,4,1,1,90,0,0
206257,-55.7413600891862,4,1,1,90,0,0
206312,-103.51966873706,4,1,1,90,0,0
206366,-55.7413600891862,4,1,1,90,0,0
206420,-103.51966873706,4,1,1,90,0,0
206475,-55.7413600891862,4,1,1,90,0,0
206529,-103.51966873706,4,1,1,90,0,0
206583,-55.7413600891862,4,1,1,90,0,0
206638,-103.51966873706,4,1,1,90,0,0
206692,-55.7413600891862,4,1,1,90,0,0
206747,-103.51966873706,4,1,1,90,0,0
206801,-55.7413600891862,4,1,1,90,0,0
206855,-103.51966873706,4,1,1,90,0,0
206910,-55.7413600891862,4,1,1,90,0,0
206964,-103.51966873706,4,1,1,90,0,0
207018,-55.7413600891862,4,1,1,90,0,0
207073,-103.51966873706,4,1,1,90,0,0
207127,-55.7413600891862,4,1,1,90,0,0
207181,-103.51966873706,4,1,1,90,0,0
207236,-55.7413600891862,4,1,1,90,0,0
207290,-103.51966873706,4,1,1,90,0,0
207344,-55.7413600891862,4,1,1,90,0,0
207399,-103.51966873706,4,1,1,90,0,0
207453,-55.7413600891862,4,1,1,90,0,0
207507,-103.51966873706,4,1,1,90,0,0
207562,-55.7413600891862,4,1,1,90,0,0
207616,-103.51966873706,4,1,1,90,0,0
207670,-55.7413600891862,4,1,1,90,0,0
207725,-103.51966873706,4,1,1,90,0,0
207779,-55.7413600891862,4,1,1,90,0,0
207888,-103.092783505155,4,1,1,90,0,0
207997,-55.7413600891862,4,1,1,90,0,0
208051,-103.51966873706,4,1,1,90,0,0
208105,-55.7413600891862,4,1,1,90,0,0
208160,-103.51966873706,4,1,1,90,0,0
208214,-55.7413600891862,4,1,1,90,0,0
208268,-103.51966873706,4,1,1,90,0,0
208323,-55.7413600891862,4,1,1,90,0,0
208377,-103.51966873706,4,1,1,90,0,0
208431,-55.7413600891862,4,1,1,90,0,0
208486,-103.51966873706,4,1,1,90,0,0
208540,-55.7413600891862,4,1,1,90,0,0
208594,-103.51966873706,4,1,1,90,0,0
208649,-55.7413600891862,4,1,1,90,0,0
208703,-103.51966873706,4,1,1,90,0,0
208757,-55.7413600891862,4,1,1,90,0,0
208812,-103.51966873706,4,1,1,90,0,0
208866,-55.7413600891862,4,1,1,90,0,0
208920,-103.51966873706,4,1,1,90,0,0
208975,-55.7413600891862,4,1,1,90,0,0
209029,-103.51966873706,4,1,1,90,0,0
209083,-55.7413600891862,4,1,1,90,0,0
209138,-103.51966873706,4,1,1,90,0,0
209192,-55.7413600891862,4,1,1,90,0,0
209247,-103.51966873706,4,1,1,90,0,0
209301,-55.7413600891862,4,1,1,90,0,0
209410,-103.092783505155,4,1,1,90,0,0
209518,-55.7413600891862,4,1,1,90,0,0
209627,-103.092783505155,4,1,1,90,0,0
209736,-55.7413600891862,4,1,1,90,0,0
209790,-103.51966873706,4,1,1,90,0,0
209844,-55.7413600891862,4,1,1,90,0,0
209899,-103.51966873706,4,1,1,90,0,0
209953,-55.7413600891862,4,1,1,90,0,0
210007,-103.51966873706,4,1,1,90,0,0
210062,-55.7413600891862,4,1,1,90,0,0
210116,-103.51966873706,4,1,1,90,0,0
210170,-55.7413600891862,4,1,1,90,0,0
210225,-103.51966873706,4,1,1,90,0,0
210279,-55.7413600891862,4,1,1,90,0,0
210333,-103.51966873706,4,1,1,90,0,0
210388,-55.7413600891862,4,1,1,90,0,0
210442,-103.51966873706,4,1,1,90,0,0
210497,-55.7413600891862,4,1,1,90,0,0
210551,-103.51966873706,4,1,1,90,0,0
210605,-55.7413600891862,4,1,1,90,0,0
210660,-103.51966873706,4,1,1,90,0,0
210714,-55.7413600891862,4,1,1,90,0,0
210768,-103.51966873706,4,1,1,90,0,0
210823,-55.7413600891862,4,1,1,90,0,0
210877,-103.51966873706,4,1,1,90,0,0
210931,-55.7413600891862,4,1,1,90,0,0
210986,-103.51966873706,4,1,1,90,0,0
211040,-55.7413600891862,4,1,1,90,0,0
211094,-103.51966873706,4,1,1,90,0,0
211149,-55.7413600891862,4,1,1,90,0,0
211203,-103.51966873706,4,1,1,90,0,0
211257,-55.7413600891862,4,1,1,90,0,0
211366,-103.092783505155,4,1,1,90,0,0
211475,-48.3091787439614,4,1,1,90,0,0
211620,-144.927536231884,4,1,1,90,0,0
211765,-48.3091787439614,4,1,1,90,0,0
211837,-144.927536231884,4,1,1,90,0,0
211910,-48.3091787439614,4,1,1,90,0,0
211982,-144.927536231884,4,1,1,90,0,0
212055,-48.3091787439614,4,1,1,90,0,0
212127,-144.927536231884,4,1,1,90,0,0
212199,-48.3091787439614,4,1,1,90,0,0
212272,-144.927536231884,4,1,1,90,0,0
212344,-48.3091787439614,4,1,1,90,0,0
212417,-144.927536231884,4,1,1,90,0,0
212489,-48.3091787439614,4,1,1,90,0,0
212562,-144.927536231884,4,1,1,90,0,0
212634,-48.3091787439614,4,1,1,90,0,0
212707,-144.927536231884,4,1,1,90,0,0
212779,-10,4,1,1,90,0,0
212833,-72.463768115942,4,1,1,90,0,0
219736,-10,4,1,1,90,0,0
219790,-72.463768115942,4,1,1,90,0,0
233633,352.941176470588,4,1,1,90,1,0
233633,-90.0900900900901,4,1,1,90,0,0
235044,342.857142857143,4,1,1,90,1,0
235044,-92.5925925925926,4,1,1,90,0,0
236415,324.324324324324,4,1,1,90,1,0
236415,-98.0392156862745,4,1,1,90,0,0
237712,-125,4,1,1,90,0,0
238482,-100,4,1,1,90,0,0
238975,315.789473684211,4,1,1,90,1,0
248448,-40,4,1,1,90,0,0
248501,-200,4,1,1,90,0,0
248659,-100,4,1,1,90,0,0
248764,-52.6315789473684,4,1,1,90,0,0
248784,-1000,4,1,1,90,0,0
248803,-55.5555555555556,4,1,1,90,0,0
248823,-500,4,1,1,90,0,0
248843,-58.8235294117647,4,1,1,90,0,0
248863,-333.333333333333,4,1,1,90,0,0
248882,-62.5,4,1,1,90,0,0
248902,-250,4,1,1,90,0,0
248922,-66.6666666666667,4,1,1,90,0,0
248942,-200,4,1,1,90,0,0
248961,-71.4285714285714,4,1,1,90,0,0
248981,-166.666666666667,4,1,1,90,0,0
249001,-76.9230769230769,4,1,1,90,0,0
249021,-142.857142857143,4,1,1,90,0,0
249040,-83.3333333333333,4,1,1,90,0,0
249060,-125,4,1,1,90,0,0
249080,-100,4,1,1,90,0,0
257290,-50.251256281407,4,1,1,90,0,0
257330,-10000,4,1,1,90,0,0
257369,-50.251256281407,4,1,1,90,0,0
257409,-10000,4,1,1,90,0,0
257448,-50.251256281407,4,1,1,90,0,0
257488,-10000,4,1,1,90,0,0
257527,-50.251256281407,4,1,1,90,0,0
257567,-10000,4,1,1,90,0,0
257606,-50.251256281407,4,1,1,90,0,0
257646,-10000,4,1,1,90,0,0
257685,-50.251256281407,4,1,1,90,0,0
257725,-10000,4,1,1,90,0,0
257764,-50.251256281407,4,1,1,90,0,0
257803,-10000,4,1,1,90,0,0
257843,-50.251256281407,4,1,1,90,0,0
257882,-10000,4,1,1,90,0,0
257922,-10,4,1,1,90,0,0
257942,-10000,4,1,1,90,0,0
258553,-100,4,1,1,90,0,0
262975,-16.6666666666667,4,1,1,90,0,0
263014,-454.545454545455,4,1,1,90,0,0
263211,-66.6666666666667,4,1,1,90,0,0
263231,-1000,4,1,1,90,0,0
263251,-66.6666666666667,4,1,1,90,0,0
263271,-1000,4,1,1,90,0,0
263290,-66.6666666666667,4,1,1,90,0,0
263310,-1000,4,1,1,90,0,0
263330,-66.6666666666667,4,1,1,90,0,0
263350,-1000,4,1,1,90,0,0
263369,-66.6666666666667,4,1,1,90,0,0
263389,-1000,4,1,1,90,0,0
263409,-66.6666666666667,4,1,1,90,0,0
263428,-1000,4,1,1,90,0,0
263448,-100,4,1,1,90,0,0
263606,-10,4,1,1,90,0,0
263646,-10000,4,1,1,90,0,0
263922,-100,4,1,1,90,0,0
268027,-55.5555555555556,4,1,1,90,0,0
268132,-500,4,1,1,90,0,0
268238,-55.5555555555556,4,1,1,90,0,0
268290,-500,4,1,1,90,0,0
268343,-55.5555555555556,4,1,1,90,0,0
268448,-500,4,1,1,90,0,0
268553,-55.5555555555556,4,1,1,90,0,0
268606,-500,4,1,1,90,0,0
268659,-55.5555555555556,4,1,1,90,0,0
268711,-500,4,1,1,90,0,0
268764,-55.5555555555556,4,1,1,90,0,0
268817,-500,4,1,1,90,0,0
268869,-55.5555555555556,4,1,1,90,0,0
268922,-500,4,1,1,90,0,0
268975,-50,4,1,1,90,0,0
269014,-100,4,1,1,90,0,0
273080,-16.6666666666667,4,1,1,90,0,0
273119,-454.545454545455,4,1,1,90,0,0
273317,-66.6666666666667,4,1,1,90,0,0
273336,-1000,4,1,1,90,0,0
273356,-66.6666666666667,4,1,1,90,0,0
273376,-1000,4,1,1,90,0,0
273396,-66.6666666666667,4,1,1,90,0,0
273415,-1000,4,1,1,90,0,0
273435,-66.6666666666667,4,1,1,90,0,0
273455,-1000,4,1,1,90,0,0
273475,-66.6666666666667,4,1,1,90,0,0
273494,-1000,4,1,1,90,0,0
273514,-66.6666666666667,4,1,1,90,0,0
273534,-1000,4,1,1,90,0,0
273553,-100,4,1,1,90,0,0
273711,-111.111111111111,4,1,1,90,0,0
274027,-90.9090909090909,4,1,1,90,0,0
274343,-100,4,1,1,90,0,0
279396,-55.5555555555556,4,1,1,90,0,0
279422,-66.6666666666667,4,1,1,90,0,0
279448,-83.3333333333333,4,1,1,90,0,0
279475,-111.111111111111,4,1,1,90,0,0
279501,-125,4,1,1,90,0,0
279711,-55.5555555555556,4,1,1,90,0,0
279737,-66.6666666666667,4,1,1,90,0,0
279763,-83.3333333333333,4,1,1,90,0,0
279790,-111.111111111111,4,1,1,90,0,0
279817,-125,4,1,1,90,0,0
280027,-55.5555555555556,4,1,1,90,0,0
280053,-66.6666666666667,4,1,1,90,0,0
280079,-83.3333333333333,4,1,1,90,0,0
280106,-111.111111111111,4,1,1,90,0,0
280132,-125,4,1,1,90,0,0
280343,-66.6666666666667,4,1,1,90,0,0
280382,-111.111111111111,4,1,1,90,0,0
280659,-55.5555555555556,4,1,1,90,0,0
280685,-66.6666666666667,4,1,1,90,0,0
280711,-83.3333333333333,4,1,1,90,0,0
280738,-111.111111111111,4,1,1,90,0,0
280764,-125,4,1,1,90,0,0
280975,-66.6666666666667,4,1,1,90,0,0
281014,-111.111111111111,4,1,1,90,0,0
281290,-66.6666666666667,4,1,1,90,0,0
281329,-111.111111111111,4,1,1,90,0,0
281606,-40,4,1,1,90,0,0
281626,-200,4,1,1,90,0,0
281685,-40,4,1,1,90,0,0
281705,-200,4,1,1,90,0,0
281764,-40,4,1,1,90,0,0
281784,-200,4,1,1,90,0,0
281843,-40,4,1,1,90,0,0
281863,-200,4,1,1,90,0,0
281922,-55.5555555555556,4,1,1,90,0,0
281948,-66.6666666666667,4,1,1,90,0,0
281974,-83.3333333333333,4,1,1,90,0,0
282001,-111.111111111111,4,1,1,90,0,0
282027,-125,4,1,1,90,0,0
282238,-55.5555555555556,4,1,1,90,0,0
282264,-66.6666666666667,4,1,1,90,0,0
282290,-83.3333333333333,4,1,1,90,0,0
282317,-111.111111111111,4,1,1,90,0,0
282343,-125,4,1,1,90,0,0
282553,-55.5555555555556,4,1,1,90,0,0
282579,-66.6666666666667,4,1,1,90,0,0
282605,-83.3333333333333,4,1,1,90,0,0
282632,-111.111111111111,4,1,1,90,0,0
282658,-125,4,1,1,90,0,0
282869,-66.6666666666667,4,1,1,90,0,0
282909,-111.111111111111,4,1,1,90,0,0
283185,-55.5555555555556,4,1,1,90,0,0
283211,-66.6666666666667,4,1,1,90,0,0
283237,-83.3333333333333,4,1,1,90,0,0
283264,-111.111111111111,4,1,1,90,0,0
283290,-125,4,1,1,90,0,0
283501,-66.6666666666667,4,1,1,90,0,0
283540,-111.111111111111,4,1,1,90,0,0
283659,-66.6666666666667,4,1,1,90,0,0
283698,-111.111111111111,4,1,1,90,0,0
283817,-66.6666666666667,4,1,1,90,0,0
283856,-111.111111111111,4,1,1,90,0,0
284132,-100,4,1,1,90,0,0
284448,-55.5555555555556,4,1,1,90,0,0
284474,-66.6666666666667,4,1,1,90,0,0
284500,-83.3333333333333,4,1,1,90,0,0
284527,-111.111111111111,4,1,1,90,0,0
284553,-125,4,1,1,90,0,0
284764,-55.5555555555556,4,1,1,90,0,0
284790,-66.6666666666667,4,1,1,90,0,0
284816,-83.3333333333333,4,1,1,90,0,0
284843,-111.111111111111,4,1,1,90,0,0
284869,-125,4,1,1,90,0,0
285080,-55.5555555555556,4,1,1,90,0,0
285106,-66.6666666666667,4,1,1,90,0,0
285132,-83.3333333333333,4,1,1,90,0,0
285159,-111.111111111111,4,1,1,90,0,0
285185,-125,4,1,1,90,0,0
285396,-66.6666666666667,4,1,1,90,0,0
285435,-111.111111111111,4,1,1,90,0,0
285711,-55.5555555555556,4,1,1,90,0,0
285737,-66.6666666666667,4,1,1,90,0,0
285763,-83.3333333333333,4,1,1,90,0,0
285790,-111.111111111111,4,1,1,90,0,0
285816,-125,4,1,1,90,0,0
286027,-66.6666666666667,4,1,1,90,0,0
286066,-111.111111111111,4,1,1,90,0,0
286343,-66.6666666666667,4,1,1,90,0,0
286381,-111.111111111111,4,1,1,90,0,0
286659,-40,4,1,1,90,0,0
286678,-200,4,1,1,90,0,0
286737,-40,4,1,1,90,0,0
286757,-200,4,1,1,90,0,0
286816,-40,4,1,1,90,0,0
286836,-200,4,1,1,90,0,0
286895,-40,4,1,1,90,0,0
286915,-200,4,1,1,90,0,0
286975,-55.5555555555556,4,1,1,90,0,0
287001,-66.6666666666667,4,1,1,90,0,0
287027,-83.3333333333333,4,1,1,90,0,0
287054,-111.111111111111,4,1,1,90,0,0
287080,-125,4,1,1,90,0,0
287290,-55.5555555555556,4,1,1,90,0,0
287316,-66.6666666666667,4,1,1,90,0,0
287342,-83.3333333333333,4,1,1,90,0,0
287369,-111.111111111111,4,1,1,90,0,0
287395,-125,4,1,1,90,0,0
287606,-55.5555555555556,4,1,1,90,0,0
287632,-66.6666666666667,4,1,1,90,0,0
287658,-83.3333333333333,4,1,1,90,0,0
287685,-111.111111111111,4,1,1,90,0,0
287711,-125,4,1,1,90,0,0
287922,-66.6666666666667,4,1,1,90,0,0
287961,-111.111111111111,4,1,1,90,0,0
288238,-66.6666666666667,4,1,1,90,0,0
288290,-111.111111111111,4,1,1,90,0,0
288553,-66.6666666666667,4,1,1,90,0,0
288605,-111.111111111111,4,1,1,90,0,0
288869,-66.6666666666667,4,1,1,90,0,0
288921,-111.111111111111,4,1,1,90,0,0
289185,-66.6666666666667,4,1,1,90,0,0
289237,-111.111111111111,4,1,1,90,0,0
289501,-55.5555555555556,4,1,1,90,0,0
289527,-66.6666666666667,4,1,1,90,0,0
289553,-83.3333333333333,4,1,1,90,0,0
289580,-111.111111111111,4,1,1,90,0,0
289606,-125,4,1,1,90,0,0
289817,-55.5555555555556,4,1,1,90,0,0
289843,-66.6666666666667,4,1,1,90,0,0
289869,-83.3333333333333,4,1,1,90,0,0
289896,-111.111111111111,4,1,1,90,0,0
289922,-125,4,1,1,90,0,0
290132,-66.6666666666667,4,1,1,90,0,0
290172,-111.111111111111,4,1,1,90,0,0
290448,-66.6666666666667,4,1,1,90,0,0
290488,-111.111111111111,4,1,1,90,0,0
290764,-55.5555555555556,4,1,1,90,0,0
290790,-66.6666666666667,4,1,1,90,0,0
290816,-83.3333333333333,4,1,1,90,0,0
290843,-111.111111111111,4,1,1,90,0,0
290869,-125,4,1,1,90,0,0
291080,-66.6666666666667,4,1,1,90,0,0
291120,-111.111111111111,4,1,1,90,0,0
291396,-66.6666666666667,4,1,1,90,0,0
291435,-111.111111111111,4,1,1,90,0,0
291553,-66.6666666666667,4,1,1,90,0,0
291593,-111.111111111111,4,1,1,90,0,0
291711,-40,4,1,1,90,0,0
291731,-200,4,1,1,90,0,0
291790,-40,4,1,1,90,0,0
291810,-200,4,1,1,90,0,0
291869,-40,4,1,1,90,0,0
291889,-200,4,1,1,90,0,0
291948,-40,4,1,1,90,0,0
291968,-200,4,1,1,90,0,0
292027,-55.5555555555556,4,1,1,90,0,0
292053,-66.6666666666667,4,1,1,90,0,0
292079,-83.3333333333333,4,1,1,90,0,0
292106,-111.111111111111,4,1,1,90,0,0
292132,-125,4,1,1,90,0,0
292343,-55.5555555555556,4,1,1,90,0,0
292369,-66.6666666666667,4,1,1,90,0,0
292395,-83.3333333333333,4,1,1,90,0,0
292422,-111.111111111111,4,1,1,90,0,0
292448,-125,4,1,1,90,0,0
292659,-66.6666666666667,4,1,1,90,0,0
292698,-111.111111111111,4,1,1,90,0,0
292975,-66.6666666666667,4,1,1,90,0,0
293014,-111.111111111111,4,1,1,90,0,0
293290,-66.6666666666667,4,1,1,90,0,0
293342,-111.111111111111,4,1,1,90,0,0
293606,-66.6666666666667,4,1,1,90,0,0
293658,-111.111111111111,4,1,1,90,0,0
293922,-66.6666666666667,4,1,1,90,0,0
293974,-111.111111111111,4,1,1,90,0,0
294553,-55.5555555555556,4,1,1,90,0,0
294579,-66.6666666666667,4,1,1,90,0,0
294605,-83.3333333333333,4,1,1,90,0,0
294632,-111.111111111111,4,1,1,90,0,0
294658,-125,4,1,1,90,0,0
294869,-55.5555555555556,4,1,1,90,0,0
294895,-66.6666666666667,4,1,1,90,0,0
294921,-83.3333333333333,4,1,1,90,0,0
294948,-111.111111111111,4,1,1,90,0,0
294974,-125,4,1,1,90,0,0
295185,-66.6666666666667,4,1,1,90,0,0
295225,-111.111111111111,4,1,1,90,0,0
295501,-66.6666666666667,4,1,1,90,0,0
295540,-111.111111111111,4,1,1,90,0,0
295817,-55.5555555555556,4,1,1,90,0,0
295843,-66.6666666666667,4,1,1,90,0,0
295869,-83.3333333333333,4,1,1,90,0,0
295896,-111.111111111111,4,1,1,90,0,0
295922,-125,4,1,1,90,0,0
296132,-66.6666666666667,4,1,1,90,0,0
296172,-111.111111111111,4,1,1,90,0,0
296448,-66.6666666666667,4,1,1,90,0,0
296488,-111.111111111111,4,1,1,90,0,0
296606,-66.6666666666667,4,1,1,90,0,0
296646,-111.111111111111,4,1,1,90,0,0
296764,-40,4,1,1,90,0,0
296784,-200,4,1,1,90,0,0
296843,-40,4,1,1,90,0,0
296863,-200,4,1,1,90,0,0
296922,-40,4,1,1,90,0,0
296942,-200,4,1,1,90,0,0
297001,-40,4,1,1,90,0,0
297021,-200,4,1,1,90,0,0
297080,-55.5555555555556,4,1,1,90,0,0
297106,-66.6666666666667,4,1,1,90,0,0
297132,-83.3333333333333,4,1,1,90,0,0
297159,-111.111111111111,4,1,1,90,0,0
297185,-125,4,1,1,90,0,0
297396,-66.6666666666667,4,1,1,90,0,0
297448,-111.111111111111,4,1,1,90,0,0
297711,-66.6666666666667,4,1,1,90,0,0
297763,-111.111111111111,4,1,1,90,0,0
298027,-66.6666666666667,4,1,1,90,0,0
298079,-111.111111111111,4,1,1,90,0,0
298343,-16.6666666666667,4,1,1,90,0,0
298382,-454.545454545455,4,1,1,90,0,0
298580,-66.6666666666667,4,1,1,90,0,0
298600,-1000,4,1,1,90,0,0
298619,-66.6666666666667,4,1,1,90,0,0
298639,-1000,4,1,1,90,0,0
298659,-66.6666666666667,4,1,1,90,0,0
298679,-1000,4,1,1,90,0,0
298698,-66.6666666666667,4,1,1,90,0,0
298718,-1000,4,1,1,90,0,0
298738,-66.6666666666667,4,1,1,90,0,0
298758,-1000,4,1,1,90,0,0
298777,-66.6666666666667,4,1,1,90,0,0
298797,-1000,4,1,1,90,0,0
298817,-100,4,1,1,90,0,0
298975,-10,4,1,1,90,0,0
299014,-10000,4,1,1,90,0,0
299290,-100,4,1,1,90,0,0

[HitObjects]
36,192,2505,5,0,0:0:0:70:bass.wav
182,192,2505,1,0,0:0:0:70:loobass.wav
329,192,2505,1,0,0:0:0:70:cymbal.wav
475,192,2505,1,0,0:0:0:0:
256,192,2663,1,0,0:0:0:0:
36,192,2820,1,0,0:0:0:70:drum.wav
109,192,2820,1,0,0:0:0:0:
182,192,2820,1,0,0:0:0:0:
329,192,2820,1,0,0:0:0:0:
475,192,2820,1,0,0:0:0:0:
36,192,2978,1,0,0:0:0:70:bass.wav
329,192,2978,1,0,0:0:0:0:
402,192,2978,1,0,0:0:0:0:
109,192,3136,1,0,0:0:0:0:
256,192,3294,1,0,0:0:0:0:
36,192,3452,1,0,0:0:0:70:drum.wav
109,192,3452,1,0,0:0:0:0:
182,192,3452,1,0,0:0:0:0:
329,192,3452,1,0,0:0:0:0:
475,192,3452,1,0,0:0:0:0:
182,192,3610,1,0,0:0:0:70:bass.wav
329,192,3610,1,0,0:0:0:0:
402,192,3610,1,0,0:0:0:0:
256,192,3768,1,0,0:0:0:0:
475,192,3926,1,0,0:0:0:0:
36,192,4084,1,0,0:0:0:70:drum.wav
109,192,4084,1,0,0:0:0:0:
182,192,4084,1,0,0:0:0:0:
329,192,4084,1,0,0:0:0:0:
402,192,4084,1,0,0:0:0:0:
36,192,4242,1,0,0:0:0:70:bass.wav
256,192,4242,1,0,0:0:0:0:
402,192,4242,1,0,0:0:0:0:
182,192,4399,1,0,0:0:0:0:
329,192,4557,1,0,0:0:0:0:
36,192,4715,1,0,0:0:0:70:drum.wav
109,192,4715,1,0,0:0:0:0:
182,192,4715,1,0,0:0:0:0:
402,192,4715,1,0,0:0:0:0:
475,192,4715,1,0,0:0:0:0:
256,192,4873,1,0,0:0:0:0:
329,192,4952,1,0,0:0:0:0:
475,192,5031,1,0,0:0:0:0:
36,192,5031,1,0,0:0:0:70:bass.wav
109,192,5031,1,0,0:0:0:0:
329,192,5110,1,0,0:0:0:0:
475,192,5189,1,0,0:0:0:0:
182,192,5189,1,0,0:0:0:0:
329,192,5248,1,0,0:0:0:0:
475,192,5327,1,0,0:0:0:0:
36,192,5347,1,0,0:0:0:70:drum.wav
109,192,5347,1,0,0:0:0:0:
256,192,5347,1,0,0:0:0:0:
329,192,5406,1,0,0:0:0:0:
475,192,5485,1,0,0:0:0:0:
36,192,5505,1,0,0:0:0:70:bass.wav
109,192,5505,1,0,0:0:0:0:
329,192,5564,1,0,0:0:0:0:
475,192,5627,1,0,0:0:0:0:
182,192,5663,1,0,0:0:0:0:
329,192,5702,1,0,0:0:0:0:
475,192,5781,1,0,0:0:0:0:
182,192,5820,1,0,0:0:0:0:
329,192,5860,1,0,0:0:0:0:
475,192,5939,1,0,0:0:0:0:
36,192,5978,1,0,0:0:0:70:drum.wav
109,192,5978,1,0,0:0:0:0:
256,192,5978,1,0,0:0:0:0:
329,192,6018,1,0,0:0:0:0:
475,192,6097,1,0,0:0:0:0:
36,192,6136,1,0,0:0:0:70:bass.wav
109,192,6136,1,0,0:0:0:0:
329,192,6176,1,0,0:0:0:0:
475,192,6255,1,0,0:0:0:0:
256,192,6294,1,0,0:0:0:0:
36,192,6334,1,0,0:0:0:0:
182,192,6413,1,0,0:0:0:0:
329,192,6452,1,0,0:0:0:0:
36,192,6492,1,0,0:0:0:0:
182,192,6570,1,0,0:0:0:0:
256,192,6610,1,0,0:0:0:70:drum.wav
402,192,6610,1,0,0:0:0:0:
475,192,6610,1,0,0:0:0:0:
36,192,6649,1,0,0:0:0:0:
182,192,6728,1,0,0:0:0:0:
402,192,6768,1,0,0:0:0:70:bass.wav
475,192,6768,1,0,0:0:0:0:
36,192,6807,1,0,0:0:0:0:
182,192,6886,1,0,0:0:0:0:
329,192,6926,1,0,0:0:0:0:
36,192,6965,1,0,0:0:0:0:
182,192,7044,1,0,0:0:0:0:
329,192,7084,1,0,0:0:0:0:
36,192,7123,1,0,0:0:0:0:
182,192,7202,1,0,0:0:0:0:
36,192,7242,1,0,0:0:0:70:drum.wav
256,192,7242,1,0,0:0:0:0:
402,192,7242,1,0,0:0:0:0:
475,192,7242,1,0,0:0:0:0:
329,192,7281,1,0,0:0:0:0:
182,192,7360,1,0,0:0:0:0:
36,192,7557,1,0,0:0:0:70:bass.wav
109,192,7557,1,0,0:0:0:0:
475,192,7557,128,0,7873:0:0:0:0:
256,192,7715,1,0,0:0:0:0:
36,192,7873,1,0,0:0:0:70:drum.wav
109,192,7873,1,0,0:0:0:0:
182,192,7873,1,0,0:0:0:0:
329,192,7873,128,0,8031:0:0:0:0:
402,192,7873,1,0,0:0:0:0:
256,192,8031,128,0,8347:0:0:0:0:
475,192,8031,1,0,0:0:0:0:
36,192,8189,1,0,0:0:0:70:bass.wav
109,192,8189,1,0,0:0:0:0:
402,192,8189,1,0,0:0:0:0:
36,192,8347,1,0,0:0:0:70:drum.wav
109,192,8347,1,0,0:0:0:0:
182,192,8347,1,0,0:0:0:0:
329,192,8347,128,0,8505:0:0:0:0:
475,192,8347,1,0,0:0:0:0:
182,192,8505,128,0,8820:0:0:0:0:
402,192,8505,1,0,0:0:0:0:
36,192,8663,1,0,0:0:0:70:bass.wav
109,192,8663,1,0,0:0:0:0:
475,192,8663,1,0,0:0:0:0:
329,192,8820,128,0,9136:0:0:0:0:
256,192,8820,1,0,0:0:0:0:
36,192,8978,1,0,0:0:0:70:drum.wav
109,192,8978,1,0,0:0:0:0:
182,192,8978,1,0,0:0:0:0:
475,192,8978,1,0,0:0:0:0:
402,192,8978,1,0,0:0:0:0:
256,192,9136,128,0,9294:0:0:0:0:
475,192,9136,1,0,0:0:0:0:
109,192,9294,1,0,0:0:0:70:bass.wav
182,192,9294,1,0,0:0:0:0:
402,192,9294,1,0,0:0:0:0:
256,192,9452,1,0,0:0:0:0:
256,192,9610,1,0,0:0:0:0:
36,192,9768,1,0,0:0:0:70:drum.wav
109,192,9768,1,0,0:0:0:0:
182,192,9768,1,0,0:0:0:0:
329,192,9768,1,0,0:0:0:0:
475,192,9768,1,0,0:0:0:0:
256,192,9926,1,0,0:0:0:0:
109,192,10084,1,0,0:0:0:70:bass.wav
402,192,10084,128,0,10399:0:0:0:0:
475,192,10084,1,0,0:0:0:0:
182,192,10242,1,0,0:0:0:0:
36,192,10399,1,0,0:0:0:70:drum.wav
109,192,10399,1,0,0:0:0:0:
256,192,10399,1,0,0:0:0:0:
329,192,10399,1,0,0:0:0:0:
475,192,10399,1,0,0:0:0:0:
182,192,10557,1,0,0:0:0:0:
109,192,10715,1,0,0:0:0:70:bass.wav
329,192,10715,1,0,0:0:0:0:
402,192,10715,1,0,0:0:0:0:
36,192,10873,1,0,0:0:0:70:drum.wav
109,192,10873,1,0,0:0:0:0:
182,192,10873,1,0,0:0:0:0:
256,192,10873,1,0,0:0:0:0:
475,192,10873,1,0,0:0:0:0:
182,192,11031,1,0,0:0:0:0:
36,192,11189,1,0,0:0:0:70:bass.wav
329,192,11189,1,0,0:0:0:0:
475,192,11189,1,0,0:0:0:0:
109,192,11347,128,0,12294:0:0:0:0:
256,192,11347,1,0,0:0:0:0:
256,192,11505,1,0,0:0:0:0:
329,192,11663,1,0,0:0:0:0:
182,192,11820,1,0,0:0:0:70:bass.wav
256,192,11820,1,0,0:0:0:0:
475,192,11820,1,0,0:0:0:0:
402,192,11978,1,0,0:0:0:0:
402,192,12136,1,0,0:0:0:0:
36,192,12294,1,0,0:0:0:70:drum.wav
182,192,12294,1,0,0:0:0:0:
256,192,12294,1,0,0:0:0:0:
329,192,12294,1,0,0:0:0:0:
475,192,12294,1,0,0:0:0:0:
109,192,12452,1,0,0:0:0:0:
36,192,12610,1,0,0:0:0:70:bass.wav
256,192,12610,128,0,12926:0:0:0:70:loobass.wav
329,192,12610,1,0,0:0:0:70:cymbal.wav
475,192,12610,128,0,12926:0:0:0:0:
109,192,12768,1,0,0:0:0:0:
36,192,12926,1,0,0:0:0:70:drum.wav
182,192,12926,128,0,14978:0:0:0:0:
329,192,12926,1,0,0:0:0:0:
402,192,12926,128,0,14978:0:0:0:0:
256,192,13084,1,0,0:0:0:70:bass.wav
475,192,13084,1,0,0:0:0:0:
329,192,13242,1,0,0:0:0:0:
329,192,13399,1,0,0:0:0:0:
36,192,13557,1,0,0:0:0:70:drum.wav
109,192,13557,1,0,0:0:0:0:
475,192,13557,1,0,0:0:0:0:
256,192,13715,1,0,0:0:0:70:bass.wav
329,192,13715,1,0,0:0:0:0:
109,192,13873,1,0,0:0:0:0:
109,192,14031,1,0,0:0:0:0:
256,192,14189,1,0,0:0:0:70:drum.wav
329,192,14189,1,0,0:0:0:0:
475,192,14189,1,0,0:0:0:0:
36,192,14347,1,0,0:0:0:70:bass.wav
109,192,14347,1,0,0:0:0:0:
329,192,14505,1,0,0:0:0:0:
329,192,14663,1,0,0:0:0:0:
36,192,14820,1,0,0:0:0:70:drum.wav
256,192,14820,1,0,0:0:0:0:
475,192,14820,1,0,0:0:0:0:
109,192,14978,1,0,0:0:0:0:
329,192,14978,1,0,0:0:0:0:
36,192,15136,128,0,15294:0:0:0:70:bass.wav
256,192,15136,128,0,15294:0:0:0:0:
402,192,15136,1,0,0:0:0:0:
475,192,15136,1,0,0:0:0:0:
182,192,15294,1,0,0:0:0:0:
109,192,15452,1,0,0:0:0:70:drum.wav
329,192,15452,1,0,0:0:0:0:
475,192,15452,1,0,0:0:0:0:
182,192,15610,128,0,15926:0:0:0:70:bass.wav
402,192,15610,128,0,15926:0:0:0:0:
36,192,15610,1,0,0:0:0:0:
329,192,15610,1,0,0:0:0:0:
36,192,15768,1,0,0:0:0:0:
109,192,15926,1,0,0:0:0:0:
256,192,15926,128,0,17347:0:0:0:0:
475,192,15926,128,0,16399:0:0:0:0:
182,192,16084,1,0,0:0:0:70:drum.wav
329,192,16084,1,0,0:0:0:0:
402,192,16084,1,0,0:0:0:0:
36,192,16242,1,0,0:0:0:70:bass.wav
109,192,16242,1,0,0:0:0:0:
182,192,16399,1,0,0:0:0:0:
402,192,16399,128,0,16557:0:0:0:0:
182,192,16557,1,0,0:0:0:0:
329,192,16557,128,0,16715:0:0:0:0:
36,192,16715,1,0,0:0:0:70:drum.wav
109,192,16715,128,0,17347:0:0:0:0:
402,192,16715,1,0,0:0:0:0:
475,192,16715,1,0,0:0:0:0:
182,192,16873,1,0,0:0:0:70:bass.wav
329,192,16873,1,0,0:0:0:0:
402,192,17031,1,0,0:0:0:0:
402,192,17189,1,0,0:0:0:0:
36,192,17347,1,0,0:0:0:70:drum.wav
182,192,17347,1,0,0:0:0:0:
475,192,17347,1,0,0:0:0:0:
329,192,17505,1,0,0:0:0:0:
36,192,17663,128,0,17978:0:0:0:70:bass.wav
182,192,17663,1,0,0:0:0:70:loobass.wav
256,192,17663,128,0,17978:0:0:0:0:
475,192,17663,1,0,0:0:0:0:
402,192,17820,1,0,0:0:0:0:
109,192,17978,128,0,20031:0:0:0:70:drum.wav
182,192,17978,1,0,0:0:0:0:
329,192,17978,128,0,20031:0:0:0:0:
475,192,17978,1,0,0:0:0:0:
36,192,18136,1,0,0:0:0:0:
256,192,18136,1,0,0:0:0:0:
182,192,18294,1,0,0:0:0:70:bass.wav
402,192,18294,1,0,0:0:0:0:
182,192,18452,1,0,0:0:0:70:drum.wav
256,192,18452,1,0,0:0:0:0:
475,192,18452,1,0,0:0:0:0:
36,192,18610,1,0,0:0:0:0:
182,192,18768,1,0,0:0:0:70:bass.wav
256,192,18768,1,0,0:0:0:0:
402,192,18926,1,0,0:0:0:0:
36,192,19084,1,0,0:0:0:70:drum.wav
256,192,19084,1,0,0:0:0:0:
475,192,19084,1,0,0:0:0:0:
182,192,19242,1,0,0:0:0:0:
402,192,19399,1,0,0:0:0:70:bass.wav
475,192,19399,1,0,0:0:0:0:
182,192,19557,1,0,0:0:0:0:
182,192,19715,1,0,0:0:0:0:
36,192,19873,1,0,0:0:0:70:drum.wav
256,192,19873,1,0,0:0:0:0:
475,192,19873,1,0,0:0:0:0:
182,192,20031,1,0,0:0:0:0:
402,192,20031,1,0,0:0:0:0:
36,192,20189,1,0,0:0:0:70:bass.wav
109,192,20189,1,0,0:0:0:0:
256,192,20189,128,0,20347:0:0:0:0:
475,192,20189,128,0,20347:0:0:0:0:
329,192,20347,1,0,0:0:0:0:
36,192,20505,1,0,0:0:0:70:drum.wav
182,192,20505,1,0,0:0:0:0:
402,192,20505,1,0,0:0:0:0:
109,192,20663,128,0,20978:0:0:0:0:
329,192,20663,128,0,20978:0:0:0:0:
402,192,20820,1,0,0:0:0:70:bass.wav
475,192,20820,1,0,0:0:0:0:
36,192,20978,128,0,21926:0:0:0:70:drum.wav
182,192,20978,1,0,0:0:0:0:
256,192,20978,128,0,22715:0:0:0:0:
475,192,20978,1,0,0:0:0:0:
109,192,21136,1,0,0:0:0:0:
329,192,21294,1,0,0:0:0:70:bass.wav
402,192,21294,1,0,0:0:0:0:
475,192,21452,1,0,0:0:0:0:
475,192,21610,1,0,0:0:0:0:
475,192,21768,1,0,0:0:0:0:
109,192,21926,1,0,0:0:0:70:bass.wav
329,192,21926,128,0,22715:0:0:0:0:
182,192,22084,1,0,0:0:0:0:
182,192,22242,1,0,0:0:0:0:
36,192,22399,1,0,0:0:0:70:drum.wav
402,192,22399,1,0,0:0:0:0:
475,192,22399,1,0,0:0:0:0:
182,192,22715,1,0,0:0:0:70:cymbal.wav
475,192,22715,1,0,0:0:0:0:
402,192,22715,128,0,30294:0:0:0:0:
109,192,22715,128,0,30294:0:0:0:70:loobass.wav
36,192,22715,1,0,0:0:0:0:
109,192,32820,5,0,0:0:0:70:bass.wav
329,192,32820,1,0,0:0:0:0:
402,192,32820,1,0,0:0:0:0:
182,192,33347,1,0,0:0:0:0:
256,192,33347,1,0,0:0:0:0:
475,192,33452,1,0,0:0:0:0:
329,192,33557,1,0,0:0:0:0:
109,192,33768,1,0,0:0:0:70:bass.wav
329,192,33768,1,0,0:0:0:0:
402,192,33768,1,0,0:0:0:0:
109,192,34399,1,0,0:0:0:70:bass.wav
329,192,34399,1,0,0:0:0:0:
402,192,34399,1,0,0:0:0:0:
475,192,34715,1,0,0:0:0:0:
329,192,34820,1,0,0:0:0:0:
475,192,35031,1,0,0:0:0:0:
329,192,35057,1,0,0:0:0:0:
182,192,35084,1,0,0:0:0:0:
36,192,35163,1,0,0:0:0:0:
475,192,35163,1,0,0:0:0:0:
109,192,35347,1,0,0:0:0:70:bass.wav
329,192,35347,1,0,0:0:0:0:
402,192,35347,1,0,0:0:0:0:
329,192,35557,1,0,0:0:0:0:
402,192,35557,1,0,0:0:0:0:
109,192,35557,1,0,0:0:0:70:bass.wav
182,192,35873,1,0,0:0:0:0:
256,192,35873,1,0,0:0:0:0:
475,192,35978,1,0,0:0:0:0:
329,192,36084,1,0,0:0:0:0:
109,192,36294,1,0,0:0:0:70:bass.wav
329,192,36294,1,0,0:0:0:0:
402,192,36294,1,0,0:0:0:0:
109,192,36926,1,0,0:0:0:70:bass.wav
329,192,36926,1,0,0:0:0:0:
402,192,36926,1,0,0:0:0:0:
475,192,37242,1,0,0:0:0:0:
329,192,37347,1,0,0:0:0:0:
475,192,37557,1,0,0:0:0:0:
329,192,37584,1,0,0:0:0:0:
182,192,37610,1,0,0:0:0:0:
36,192,37689,1,0,0:0:0:0:
475,192,37689,1,0,0:0:0:0:
109,192,37873,1,0,0:0:0:70:bass.wav
329,192,37873,1,0,0:0:0:0:
402,192,37873,1,0,0:0:0:0:
256,192,38399,1,0,0:0:0:0:
329,192,38399,1,0,0:0:0:0:
36,192,38505,1,0,0:0:0:0:
182,192,38610,1,0,0:0:0:0:
109,192,38820,1,0,0:0:0:70:bass.wav
329,192,38820,1,0,0:0:0:0:
402,192,38820,1,0,0:0:0:0:
109,192,39452,1,0,0:0:0:70:bass.wav
329,192,39452,1,0,0:0:0:0:
402,192,39452,1,0,0:0:0:0:
36,192,39768,1,0,0:0:0:0:
182,192,39873,1,0,0:0:0:0:
36,192,40084,1,0,0:0:0:0:
182,192,40110,1,0,0:0:0:0:
329,192,40136,1,0,0:0:0:0:
36,192,40215,1,0,0:0:0:0:
475,192,40215,1,0,0:0:0:0:
109,192,40399,1,0,0:0:0:70:bass.wav
329,192,40399,1,0,0:0:0:0:
402,192,40399,1,0,0:0:0:0:
109,192,40610,1,0,0:0:0:70:bass.wav
329,192,40610,1,0,0:0:0:0:
402,192,40610,1,0,0:0:0:0:
256,192,40926,1,0,0:0:0:0:
329,192,40926,1,0,0:0:0:0:
36,192,41031,1,0,0:0:0:0:
182,192,41136,1,0,0:0:0:0:
109,192,41347,1,0,0:0:0:70:bass.wav
329,192,41347,1,0,0:0:0:0:
402,192,41347,1,0,0:0:0:0:
109,192,41663,1,0,0:0:0:70:bass.wav
329,192,41663,1,0,0:0:0:0:
402,192,41663,1,0,0:0:0:0:
36,192,41978,1,0,0:0:0:0:
182,192,42084,1,0,0:0:0:0:
109,192,42136,1,0,0:0:0:70:bass.wav
329,192,42136,1,0,0:0:0:0:
402,192,42136,1,0,0:0:0:0:
256,192,42478,1,0,0:0:0:0:
329,192,42478,1,0,0:0:0:0:
36,192,42610,1,0,0:0:0:0:
182,192,42715,1,0,0:0:0:0:
36,192,42926,128,0,43242:0:0:0:70:loobass.wav
109,192,42926,1,0,0:0:0:70:cymbal.wav
256,192,42926,1,0,0:0:0:0:
329,192,42926,128,0,43242:0:0:0:0:
475,192,42926,128,0,43242:0:0:0:0:
109,192,43242,128,0,43399:0:0:0:0:
256,192,43242,128,0,43399:0:0:0:0:
402,192,43242,128,0,43399:0:0:0:0:
36,192,43399,128,0,43557:0:0:0:0:
182,192,43399,128,0,43557:0:0:0:0:
329,192,43399,128,0,43557:0:0:0:0:
256,192,43557,128,0,44189:0:0:0:0:
402,192,43557,128,0,44189:0:0:0:0:
475,192,43557,128,0,44189:0:0:0:0:
36,192,44189,128,0,44505:0:0:0:0:
182,192,44189,128,0,44505:0:0:0:0:
329,192,44189,128,0,44505:0:0:0:0:
109,192,44505,128,0,44663:0:0:0:0:
256,192,44505,128,0,44663:0:0:0:0:
402,192,44505,128,0,44663:0:0:0:0:
182,192,44663,128,0,44820:0:0:0:0:
329,192,44663,128,0,44820:0:0:0:0:
475,192,44663,128,0,44820:0:0:0:0:
36,192,44820,128,0,45452:0:0:0:0:
109,192,44820,128,0,45452:0:0:0:0:
256,192,44820,128,0,45452:0:0:0:0:
182,192,45452,128,0,45768:0:0:0:0:
329,192,45452,128,0,45768:0:0:0:0:
402,192,45452,128,0,45768:0:0:0:0:
36,192,45768,128,0,46084:0:0:0:0:
109,192,45768,128,0,46084:0:0:0:0:
256,192,45768,128,0,46084:0:0:0:0:
182,192,46084,128,0,47347:0:0:0:0:
402,192,46084,128,0,47347:0:0:0:0:
475,192,46084,128,0,47347:0:0:0:0:
36,192,46715,1,0,0:0:0:0:
109,192,47031,1,0,0:0:0:0:
256,192,47347,1,0,0:0:0:0:
329,192,47663,1,0,0:0:0:0:
36,192,47978,128,0,48294:0:0:0:70:loobass.wav
182,192,47978,128,0,48294:0:0:0:70:cymbal.wav
256,192,47978,1,0,0:0:0:0:
402,192,47978,1,0,0:0:0:0:
475,192,47978,128,0,48294:0:0:0:0:
109,192,48294,128,0,48452:0:0:0:0:
256,192,48294,128,0,48452:0:0:0:0:
402,192,48294,128,0,48452:0:0:0:0:
182,192,48452,128,0,48610:0:0:0:0:
329,192,48452,128,0,48610:0:0:0:0:
475,192,48452,128,0,48610:0:0:0:0:
36,192,48610,128,0,49242:0:0:0:0:
109,192,48610,128,0,49242:0:0:0:0:
256,192,48610,128,0,49242:0:0:0:0:
182,192,49242,128,0,49557:0:0:0:0:
329,192,49242,128,0,49557:0:0:0:0:
475,192,49242,128,0,49557:0:0:0:0:
109,192,49557,128,0,49715:0:0:0:0:
256,192,49557,128,0,49715:0:0:0:0:
402,192,49557,128,0,49715:0:0:0:0:
36,192,49715,128,0,49873:0:0:0:0:
182,192,49715,128,0,49873:0:0:0:0:
329,192,49715,128,0,49873:0:0:0:0:
256,192,49873,128,0,50505:0:0:0:0:
402,192,49873,128,0,50505:0:0:0:0:
475,192,49873,128,0,50505:0:0:0:0:
109,192,50505,128,0,50820:0:0:0:0:
182,192,50505,128,0,50820:0:0:0:0:
329,192,50505,128,0,50820:0:0:0:0:
256,192,50820,128,0,51136:0:0:0:0:
402,192,50820,128,0,51136:0:0:0:0:
475,192,50820,128,0,51136:0:0:0:0:
36,192,51136,128,0,52399:0:0:0:0:
109,192,51136,128,0,52399:0:0:0:0:
329,192,51136,128,0,52399:0:0:0:0:
182,192,51768,128,0,51978:0:0:0:0:
402,192,51978,128,0,52084:0:0:0:0:
256,192,52084,128,0,52399:0:0:0:0:
182,192,52399,128,0,52715:0:0:0:0:
109,192,52715,128,0,53031:0:0:0:0:
36,192,53031,128,0,53347:0:0:0:70:loobass.wav
182,192,53031,1,0,0:0:0:70:cymbal.wav
256,192,53031,1,0,0:0:0:0:
329,192,53031,128,0,53347:0:0:0:0:
475,192,53031,128,0,53347:0:0:0:0:
109,192,53347,128,0,53505:0:0:0:0:
256,192,53347,128,0,53505:0:0:0:0:
402,192,53347,128,0,53505:0:0:0:0:
36,192,53505,128,0,53663:0:0:0:0:
182,192,53505,128,0,53663:0:0:0:0:
329,192,53505,128,0,53663:0:0:0:0:
256,192,53663,128,0,54294:0:0:0:0:
402,192,53663,128,0,54294:0:0:0:0:
475,192,53663,128,0,54294:0:0:0:0:
36,192,54294,128,0,54610:0:0:0:0:
182,192,54294,128,0,54610:0:0:0:0:
329,192,54294,128,0,54610:0:0:0:0:
109,192,54610,128,0,54768:0:0:0:0:
256,192,54610,128,0,54768:0:0:0:0:
402,192,54610,128,0,54768:0:0:0:0:
182,192,54768,128,0,54926:0:0:0:0:
329,192,54768,128,0,54926:0:0:0:0:
475,192,54768,128,0,54926:0:0:0:0:
36,192,54926,128,0,55557:0:0:0:0:
109,192,54926,128,0,55557:0:0:0:0:
256,192,54926,128,0,55557:0:0:0:0:
182,192,55557,128,0,55873:0:0:0:0:
329,192,55557,128,0,55873:0:0:0:0:
402,192,55557,128,0,55873:0:0:0:0:
36,192,55873,128,0,56189:0:0:0:0:
109,192,55873,128,0,56189:0:0:0:0:
256,192,55873,128,0,56189:0:0:0:0:
182,192,56189,128,0,57452:0:0:0:20:drum.wav
329,192,56189,1,0,0:0:0:0:
402,192,56189,128,0,57452:0:0:0:0:
475,192,56189,128,0,57452:0:0:0:0:
329,192,56347,1,0,0:0:0:20:drum.wav
109,192,56505,1,0,0:0:0:20:drum.wav
109,192,56663,1,0,0:0:0:20:drum.wav
256,192,56820,1,0,0:0:0:30:Snare.wav
329,192,56820,1,0,0:0:0:30:drum.wav
256,192,56978,1,0,0:0:0:30:drum.wav
36,192,57057,1,0,0:0:0:30:Snare.wav
329,192,57057,1,0,0:0:0:0:
109,192,57136,1,0,0:0:0:30:drum.wav
109,192,57294,1,0,0:0:0:30:Snare.wav
256,192,57294,1,0,0:0:0:30:drum.wav
36,192,57452,1,0,0:0:0:30:drum.wav
329,192,57452,1,0,0:0:0:0:
402,192,57531,1,0,0:0:0:30:Snare.wav
475,192,57531,1,0,0:0:0:0:
109,192,57610,1,0,0:0:0:30:drum.wav
256,192,57610,1,0,0:0:0:0:
182,192,57768,1,0,0:0:0:30:Snare.wav
329,192,57768,1,0,0:0:0:30:drum.wav
182,192,57926,1,0,0:0:0:30:Snare.wav
329,192,57926,1,0,0:0:0:30:drum.wav
36,192,58084,1,0,0:0:0:70:drum.wav
109,192,58084,1,0,0:0:0:70:cymbal.wav
256,192,58084,1,0,0:0:0:0:
402,192,58084,1,0,0:0:0:0:
475,192,58084,1,0,0:0:0:0:
109,192,58242,1,0,0:0:0:70:drum.wav
182,192,58242,1,0,0:0:0:0:
402,192,58242,1,0,0:0:0:0:
182,192,58399,1,0,0:0:0:70:drum.wav
329,192,58399,1,0,0:0:0:0:
475,192,58399,1,0,0:0:0:0:
36,192,58557,1,0,0:0:0:70:drum.wav
256,192,58557,1,0,0:0:0:0:
329,192,58557,1,0,0:0:0:0:
36,192,58715,1,0,0:0:0:70:drum.wav
182,192,58715,1,0,0:0:0:0:
402,192,58715,1,0,0:0:0:0:
256,192,58873,1,0,0:0:0:70:drum.wav
402,192,58873,1,0,0:0:0:0:
475,192,58873,1,0,0:0:0:0:
109,192,59031,1,0,0:0:0:70:drum.wav
256,192,59031,1,0,0:0:0:0:
329,192,59031,1,0,0:0:0:0:
109,192,59189,1,0,0:0:0:70:drum.wav
182,192,59189,1,0,0:0:0:0:
402,192,59189,1,0,0:0:0:0:
182,192,59347,1,0,0:0:0:50:drum.wav
256,192,59347,1,0,0:0:0:0:
329,192,59347,1,0,0:0:0:0:
475,192,59347,1,0,0:0:0:0:
36,192,59505,1,0,0:0:0:50:drum.wav
109,192,59505,1,0,0:0:0:0:
329,192,59505,1,0,0:0:0:0:
402,192,59505,1,0,0:0:0:0:
36,192,59663,1,0,0:0:0:50:drum.wav
182,192,59663,1,0,0:0:0:0:
329,192,59663,1,0,0:0:0:0:
475,192,59663,1,0,0:0:0:0:
109,192,59820,1,0,0:0:0:50:drum.wav
182,192,59820,1,0,0:0:0:0:
256,192,59820,1,0,0:0:0:0:
402,192,59820,1,0,0:0:0:0:
36,192,59978,1,0,0:0:0:50:drum.wav
109,192,59978,1,0,0:0:0:0:
329,192,59978,1,0,0:0:0:0:
402,192,59978,1,0,0:0:0:0:
475,192,59978,1,0,0:0:0:0:
36,192,60136,1,0,0:0:0:50:drum.wav
182,192,60136,1,0,0:0:0:0:
256,192,60136,1,0,0:0:0:0:
329,192,60136,1,0,0:0:0:0:
475,192,60136,1,0,0:0:0:0:
36,192,60294,1,0,0:0:0:50:drum.wav
109,192,60294,1,0,0:0:0:0:
182,192,60294,1,0,0:0:0:0:
256,192,60294,1,0,0:0:0:0:
402,192,60294,1,0,0:0:0:0:
109,192,60452,1,0,0:0:0:50:drum.wav
182,192,60452,1,0,0:0:0:0:
329,192,60452,1,0,0:0:0:0:
402,192,60452,1,0,0:0:0:0:
475,192,60452,1,0,0:0:0:0:
182,192,60610,1,0,0:0:0:60:drum.wav
256,192,60610,1,0,0:0:0:0:
329,192,60610,1,0,0:0:0:0:
36,192,60689,1,0,0:0:0:60:drum.wav
402,192,60689,1,0,0:0:0:0:
475,192,60689,1,0,0:0:0:0:
182,192,60768,1,0,0:0:0:60:drum.wav
256,192,60768,1,0,0:0:0:0:
329,192,60768,1,0,0:0:0:0:
36,192,60847,1,0,0:0:0:60:drum.wav
402,192,60847,1,0,0:0:0:0:
475,192,60847,1,0,0:0:0:0:
182,192,60926,1,0,0:0:0:60:drum.wav
256,192,60926,1,0,0:0:0:0:
329,192,60926,1,0,0:0:0:0:
36,192,61005,1,0,0:0:0:60:drum.wav
109,192,61005,1,0,0:0:0:0:
475,192,61005,1,0,0:0:0:0:
182,192,61084,1,0,0:0:0:60:drum.wav
256,192,61084,1,0,0:0:0:0:
329,192,61084,1,0,0:0:0:0:
36,192,61163,1,0,0:0:0:60:drum.wav
109,192,61163,1,0,0:0:0:0:
475,192,61163,1,0,0:0:0:0:
182,192,61242,1,0,0:0:0:60:drum.wav
256,192,61242,1,0,0:0:0:0:
329,192,61242,1,0,0:0:0:0:
109,192,61320,1,0,0:0:0:60:drum.wav
402,192,61320,1,0,0:0:0:0:
475,192,61320,1,0,0:0:0:0:
182,192,61399,1,0,0:0:0:60:drum.wav
256,192,61399,1,0,0:0:0:0:
329,192,61399,1,0,0:0:0:0:
109,192,61478,1,0,0:0:0:60:drum.wav
402,192,61478,1,0,0:0:0:0:
475,192,61478,1,0,0:0:0:0:
182,192,61557,1,0,0:0:0:60:drum.wav
256,192,61557,1,0,0:0:0:0:
329,192,61557,1,0,0:0:0:0:
36,192,61636,1,0,0:0:0:60:drum.wav
109,192,61636,1,0,0:0:0:0:
402,192,61636,1,0,0:0:0:0:
182,192,61715,1,0,0:0:0:60:drum.wav
256,192,61715,1,0,0:0:0:0:
329,192,61715,1,0,0:0:0:0:
36,192,61794,1,0,0:0:0:60:drum.wav
109,192,61794,1,0,0:0:0:0:
402,192,61794,1,0,0:0:0:0:
182,192,61873,1,0,0:0:0:70:loobass.wav
256,192,61873,128,0,62189:0:0:0:0:
329,192,61873,1,0,0:0:0:0:
475,192,62031,128,0,62189:0:0:0:0:
36,192,62189,128,0,62505:0:0:0:0:
182,192,62347,128,0,62505:0:0:0:0:
329,192,62505,128,0,62820:0:0:0:0:
182,192,62663,128,0,62820:0:0:0:0:
36,192,62820,128,0,63136:0:0:0:0:
475,192,62820,128,0,63136:0:0:0:0:
109,192,63136,1,0,0:0:0:70:bass.wav
256,192,63136,1,0,0:0:0:70:cymbal.wav
402,192,63136,1,0,0:0:0:0:
329,192,63215,1,0,0:0:0:0:
256,192,63294,1,0,0:0:0:0:
182,192,63373,1,0,0:0:0:0:
329,192,63452,1,0,0:0:0:70:bass.wav
402,192,63452,1,0,0:0:0:0:
475,192,63452,1,0,0:0:0:0:
109,192,63531,1,0,0:0:0:0:
182,192,63610,1,0,0:0:0:0:
109,192,63689,1,0,0:0:0:0:
329,192,63768,1,0,0:0:0:70:bass.wav
402,192,63768,1,0,0:0:0:0:
475,192,63768,1,0,0:0:0:0:
109,192,63847,1,0,0:0:0:0:
182,192,63926,1,0,0:0:0:0:
109,192,64005,1,0,0:0:0:0:
329,192,64084,1,0,0:0:0:70:bass.wav
402,192,64084,1,0,0:0:0:0:
475,192,64084,1,0,0:0:0:0:
182,192,64163,1,0,0:0:0:0:
109,192,64242,1,0,0:0:0:0:
182,192,64320,1,0,0:0:0:0:
36,192,64399,1,0,0:0:0:70:bass.wav
256,192,64399,1,0,0:0:0:0:
329,192,64399,1,0,0:0:0:0:
475,192,64399,1,0,0:0:0:0:
109,192,64478,1,0,0:0:0:0:
402,192,64557,1,0,0:0:0:0:
256,192,64636,1,0,0:0:0:0:
36,192,64715,1,0,0:0:0:70:bass.wav
109,192,64715,1,0,0:0:0:0:
182,192,64715,1,0,0:0:0:0:
402,192,64794,1,0,0:0:0:0:
329,192,64873,1,0,0:0:0:0:
402,192,64952,1,0,0:0:0:0:
36,192,65031,1,0,0:0:0:70:bass.wav
109,192,65031,1,0,0:0:0:0:
182,192,65031,1,0,0:0:0:0:
402,192,65110,1,0,0:0:0:0:
329,192,65189,1,0,0:0:0:0:
402,192,65268,1,0,0:0:0:0:
36,192,65347,1,0,0:0:0:70:bass.wav
109,192,65347,1,0,0:0:0:0:
182,192,65347,1,0,0:0:0:0:
329,192,65426,1,0,0:0:0:0:
402,192,65505,1,0,0:0:0:0:
329,192,65544,1,0,0:0:0:0:
182,192,65584,1,0,0:0:0:0:
109,192,65623,1,0,0:0:0:0:
36,192,65663,128,0,68189:0:0:0:70:bass.wav
256,192,65663,1,0,0:0:0:0:
475,192,65663,1,0,0:0:0:0:
402,192,65742,1,0,0:0:0:0:
182,192,65820,1,0,0:0:0:0:
256,192,65899,1,0,0:0:0:0:
109,192,65978,1,0,0:0:0:70:bass.wav
182,192,65978,1,0,0:0:0:0:
475,192,66057,1,0,0:0:0:0:
329,192,66136,1,0,0:0:0:0:
475,192,66215,1,0,0:0:0:0:
109,192,66294,1,0,0:0:0:70:bass.wav
182,192,66294,1,0,0:0:0:0:
475,192,66373,1,0,0:0:0:0:
329,192,66452,1,0,0:0:0:0:
475,192,66531,1,0,0:0:0:0:
109,192,66610,1,0,0:0:0:70:bass.wav
182,192,66610,1,0,0:0:0:0:
329,192,66689,1,0,0:0:0:0:
256,192,66768,128,0,66926:0:0:0:0:
475,192,66768,1,0,0:0:0:0:
329,192,66847,1,0,0:0:0:0:
109,192,66926,1,0,0:0:0:70:bass.wav
402,192,66926,1,0,0:0:0:0:
475,192,66926,128,0,68189:0:0:0:0:
182,192,67005,1,0,0:0:0:0:
109,192,67084,1,0,0:0:0:0:
256,192,67163,1,0,0:0:0:0:
329,192,67242,1,0,0:0:0:70:bass.wav
402,192,67242,1,0,0:0:0:0:
109,192,67320,1,0,0:0:0:0:
182,192,67399,1,0,0:0:0:0:
109,192,67478,1,0,0:0:0:0:
329,192,67557,1,0,0:0:0:70:bass.wav
402,192,67557,1,0,0:0:0:0:
109,192,67636,1,0,0:0:0:0:
182,192,67715,1,0,0:0:0:0:
109,192,67794,1,0,0:0:0:0:
329,192,67873,1,0,0:0:0:70:bass.wav
402,192,67873,1,0,0:0:0:0:
182,192,67952,1,0,0:0:0:0:
109,192,68031,1,0,0:0:0:0:
182,192,68110,1,0,0:0:0:0:
256,192,68189,128,0,68505:0:0:0:70:bass.wav
329,192,68189,1,0,0:0:0:0:
402,192,68189,1,0,0:0:0:0:
182,192,68268,1,0,0:0:0:0:
109,192,68347,1,0,0:0:0:0:
475,192,68426,1,0,0:0:0:0:
36,192,68505,1,0,0:0:0:70:bass.wav
329,192,68505,128,0,68820:0:0:0:0:
402,192,68505,1,0,0:0:0:0:
182,192,68584,1,0,0:0:0:0:
109,192,68663,1,0,0:0:0:0:
182,192,68742,1,0,0:0:0:0:
36,192,68820,1,0,0:0:0:70:bass.wav
256,192,68820,128,0,70715:0:0:0:0:
475,192,68820,1,0,0:0:0:0:
402,192,68899,1,0,0:0:0:0:
329,192,68978,1,0,0:0:0:0:
402,192,69057,1,0,0:0:0:0:
36,192,69136,1,0,0:0:0:70:bass.wav
109,192,69136,1,0,0:0:0:0:
475,192,69136,1,0,0:0:0:0:
182,192,69215,1,0,0:0:0:0:
329,192,69294,1,0,0:0:0:0:
182,192,69373,1,0,0:0:0:0:
36,192,69452,1,0,0:0:0:70:bass.wav
402,192,69452,1,0,0:0:0:0:
475,192,69452,1,0,0:0:0:0:
329,192,69531,1,0,0:0:0:0:
182,192,69610,1,0,0:0:0:0:
329,192,69689,1,0,0:0:0:0:
36,192,69768,1,0,0:0:0:70:bass.wav
109,192,69768,1,0,0:0:0:0:
475,192,69768,1,0,0:0:0:0:
182,192,69847,1,0,0:0:0:0:
329,192,69926,1,0,0:0:0:0:
182,192,70005,1,0,0:0:0:0:
36,192,70084,1,0,0:0:0:70:bass.wav
402,192,70084,1,0,0:0:0:0:
475,192,70084,1,0,0:0:0:0:
329,192,70163,1,0,0:0:0:0:
182,192,70242,1,0,0:0:0:0:
329,192,70320,1,0,0:0:0:0:
36,192,70399,1,0,0:0:0:70:bass.wav
109,192,70399,1,0,0:0:0:0:
475,192,70399,1,0,0:0:0:0:
182,192,70478,1,0,0:0:0:0:
329,192,70557,1,0,0:0:0:0:
182,192,70636,1,0,0:0:0:0:
36,192,70715,1,0,0:0:0:70:bass.wav
329,192,70715,1,0,0:0:0:0:
402,192,70715,1,0,0:0:0:0:
475,192,70715,1,0,0:0:0:0:
256,192,70794,1,0,0:0:0:0:
182,192,70873,1,0,0:0:0:0:
109,192,70952,1,0,0:0:0:0:
36,192,71031,1,0,0:0:0:70:bass.wav
329,192,71031,1,0,0:0:0:0:
402,192,71031,1,0,0:0:0:0:
182,192,71110,1,0,0:0:0:0:
109,192,71189,1,0,0:0:0:0:
182,192,71268,1,0,0:0:0:0:
36,192,71347,1,0,0:0:0:70:bass.wav
329,192,71347,1,0,0:0:0:0:
402,192,71347,1,0,0:0:0:0:
182,192,71426,1,0,0:0:0:0:
109,192,71505,1,0,0:0:0:0:
182,192,71584,1,0,0:0:0:0:
36,192,71663,1,0,0:0:0:70:bass.wav
329,192,71663,1,0,0:0:0:0:
402,192,71663,1,0,0:0:0:0:
109,192,71742,1,0,0:0:0:0:
182,192,71820,1,0,0:0:0:0:
109,192,71899,1,0,0:0:0:0:
36,192,71978,1,0,0:0:0:50:drum.wav
256,192,71978,1,0,0:0:0:0:
475,192,71978,1,0,0:0:0:0:
256,192,72189,1,0,0:0:0:0:
36,192,72294,1,0,0:0:0:50:drum.wav
182,192,72294,1,0,0:0:0:0:
329,192,72294,1,0,0:0:0:0:
109,192,72399,1,0,0:0:0:50:drum.wav
256,192,72399,1,0,0:0:0:0:
182,192,72505,1,0,0:0:0:50:drum.wav
329,192,72505,1,0,0:0:0:0:
109,192,72610,1,0,0:0:0:50:drum.wav
256,192,72610,1,0,0:0:0:0:
402,192,72610,1,0,0:0:0:0:
109,192,72820,1,0,0:0:0:50:drum.wav
256,192,72820,1,0,0:0:0:0:
402,192,72820,1,0,0:0:0:0:
109,192,73031,1,0,0:0:0:50:drum.wav
256,192,73031,1,0,0:0:0:0:
402,192,73031,1,0,0:0:0:0:
182,192,73136,1,0,0:0:0:50:drum.wav
256,192,73136,1,0,0:0:0:0:
329,192,73136,1,0,0:0:0:0:
36,192,73242,1,0,0:0:0:70:bass.wav
109,192,73242,1,0,0:0:0:70:cymbal.wav
402,192,73242,1,0,0:0:0:0:
475,192,73242,1,0,0:0:0:0:
329,192,73320,1,0,0:0:0:0:
256,192,73399,1,0,0:0:0:0:
182,192,73478,1,0,0:0:0:0:
109,192,73557,1,0,0:0:0:70:bass.wav
402,192,73557,1,0,0:0:0:0:
475,192,73557,1,0,0:0:0:0:
329,192,73636,1,0,0:0:0:0:
36,192,73715,1,0,0:0:0:0:
182,192,73794,1,0,0:0:0:0:
36,192,73873,1,0,0:0:0:70:bass.wav
109,192,73873,1,0,0:0:0:0:
256,192,73873,1,0,0:0:0:0:
329,192,73952,1,0,0:0:0:0:
402,192,74031,1,0,0:0:0:0:
182,192,74110,1,0,0:0:0:0:
109,192,74189,1,0,0:0:0:70:bass.wav
256,192,74189,1,0,0:0:0:0:
329,192,74189,1,0,0:0:0:0:
475,192,74189,1,0,0:0:0:0:
36,192,74268,1,0,0:0:0:0:
402,192,74347,1,0,0:0:0:0:
329,192,74426,1,0,0:0:0:0:
36,192,74505,1,0,0:0:0:70:bass.wav
109,192,74505,1,0,0:0:0:0:
256,192,74505,1,0,0:0:0:0:
475,192,74505,1,0,0:0:0:0:
182,192,74584,1,0,0:0:0:0:
329,192,74663,1,0,0:0:0:0:
402,192,74742,1,0,0:0:0:0:
36,192,74820,1,0,0:0:0:70:bass.wav
182,192,74820,1,0,0:0:0:0:
475,192,74820,1,0,0:0:0:0:
256,192,74899,1,0,0:0:0:0:
109,192,74978,1,0,0:0:0:0:
402,192,74978,1,0,0:0:0:0:
329,192,75057,1,0,0:0:0:0:
36,192,75136,1,0,0:0:0:70:bass.wav
182,192,75136,1,0,0:0:0:0:
256,192,75136,1,0,0:0:0:0:
475,192,75136,1,0,0:0:0:0:
329,192,75215,1,0,0:0:0:0:
109,192,75294,1,0,0:0:0:0:
402,192,75294,1,0,0:0:0:0:
182,192,75373,1,0,0:0:0:0:
36,192,75452,1,0,0:0:0:70:bass.wav
256,192,75452,1,0,0:0:0:0:
329,192,75452,1,0,0:0:0:0:
475,192,75452,1,0,0:0:0:0:
109,192,75531,1,0,0:0:0:0:
182,192,75610,1,0,0:0:0:0:
402,192,75610,1,0,0:0:0:0:
329,192,75689,1,0,0:0:0:0:
36,192,75768,1,0,0:0:0:70:bass.wav
256,192,75768,1,0,0:0:0:0:
475,192,75768,1,0,0:0:0:0:
402,192,75847,1,0,0:0:0:0:
109,192,75926,1,0,0:0:0:0:
256,192,76005,1,0,0:0:0:0:
36,192,76084,1,0,0:0:0:70:bass.wav
182,192,76084,1,0,0:0:0:0:
402,192,76084,1,0,0:0:0:0:
329,192,76163,1,0,0:0:0:0:
36,192,76242,1,0,0:0:0:0:
475,192,76242,1,0,0:0:0:0:
256,192,76320,1,0,0:0:0:0:
109,192,76399,1,0,0:0:0:70:bass.wav
182,192,76399,1,0,0:0:0:0:
402,192,76399,1,0,0:0:0:0:
329,192,76478,1,0,0:0:0:0:
36,192,76557,1,0,0:0:0:0:
402,192,76557,1,0,0:0:0:0:
109,192,76636,1,0,0:0:0:0:
182,192,76715,1,0,0:0:0:70:bass.wav
256,192,76715,1,0,0:0:0:0:
475,192,76715,1,0,0:0:0:0:
402,192,76794,1,0,0:0:0:0:
109,192,76873,1,0,0:0:0:0:
256,192,76952,1,0,0:0:0:0:
36,192,77031,1,0,0:0:0:70:bass.wav
182,192,77031,1,0,0:0:0:0:
402,192,77031,1,0,0:0:0:0:
329,192,77110,1,0,0:0:0:0:
109,192,77189,1,0,0:0:0:0:
256,192,77189,1,0,0:0:0:0:
182,192,77268,1,0,0:0:0:0:
36,192,77347,1,0,0:0:0:70:bass.wav
402,192,77347,1,0,0:0:0:0:
475,192,77347,1,0,0:0:0:0:
109,192,77426,1,0,0:0:0:0:
256,192,77505,1,0,0:0:0:0:
182,192,77584,1,0,0:0:0:0:
36,192,77663,1,0,0:0:0:70:bass.wav
109,192,77663,1,0,0:0:0:0:
402,192,77663,1,0,0:0:0:0:
475,192,77663,1,0,0:0:0:0:
329,192,77742,1,0,0:0:0:0:
182,192,77820,1,0,0:0:0:0:
329,192,77899,1,0,0:0:0:0:
36,192,77978,1,0,0:0:0:70:bass.wav
109,192,77978,1,0,0:0:0:0:
402,192,77978,1,0,0:0:0:0:
475,192,77978,1,0,0:0:0:0:
182,192,78057,1,0,0:0:0:0:
256,192,78136,1,0,0:0:0:0:
329,192,78136,1,0,0:0:0:0:
182,192,78215,1,0,0:0:0:0:
36,192,78294,1,0,0:0:0:70:bass.wav
109,192,78294,1,0,0:0:0:0:
402,192,78294,1,0,0:0:0:0:
475,192,78294,1,0,0:0:0:0:
256,192,78373,1,0,0:0:0:0:
329,192,78452,1,0,0:0:0:0:
402,192,78531,1,0,0:0:0:0:
36,192,78610,1,0,0:0:0:70:bass.wav
109,192,78610,1,0,0:0:0:0:
256,192,78610,1,0,0:0:0:0:
182,192,78689,1,0,0:0:0:0:
36,192,78768,1,0,0:0:0:0:
475,192,78768,1,0,0:0:0:0:
329,192,78847,1,0,0:0:0:0:
256,192,78926,1,0,0:0:0:70:bass.wav
402,192,78926,1,0,0:0:0:0:
475,192,78926,1,0,0:0:0:0:
182,192,79005,1,0,0:0:0:0:
109,192,79084,1,0,0:0:0:0:
329,192,79163,1,0,0:0:0:0:
36,192,79242,1,0,0:0:0:70:bass.wav
182,192,79242,1,0,0:0:0:0:
256,192,79242,1,0,0:0:0:0:
402,192,79242,1,0,0:0:0:0:
475,192,79320,1,0,0:0:0:0:
109,192,79399,1,0,0:0:0:0:
182,192,79478,1,0,0:0:0:0:
36,192,79557,1,0,0:0:0:70:bass.wav
256,192,79557,1,0,0:0:0:0:
402,192,79557,1,0,0:0:0:0:
475,192,79557,1,0,0:0:0:0:
329,192,79636,1,0,0:0:0:0:
182,192,79715,1,0,0:0:0:0:
109,192,79794,1,0,0:0:0:0:
36,192,79873,1,0,0:0:0:70:bass.wav
329,192,79873,1,0,0:0:0:0:
475,192,79873,1,0,0:0:0:0:
256,192,79952,1,0,0:0:0:0:
109,192,80031,1,0,0:0:0:0:
402,192,80031,1,0,0:0:0:0:
182,192,80110,1,0,0:0:0:0:
36,192,80189,1,0,0:0:0:70:bass.wav
256,192,80189,1,0,0:0:0:0:
329,192,80189,1,0,0:0:0:0:
475,192,80189,1,0,0:0:0:0:
182,192,80268,1,0,0:0:0:0:
109,192,80347,1,0,0:0:0:0:
402,192,80347,1,0,0:0:0:0:
329,192,80426,1,0,0:0:0:0:
36,192,80505,1,0,0:0:0:70:bass.wav
256,192,80505,1,0,0:0:0:0:
402,192,80505,1,0,0:0:0:0:
475,192,80505,1,0,0:0:0:0:
109,192,80584,1,0,0:0:0:0:
182,192,80663,1,0,0:0:0:0:
329,192,80663,1,0,0:0:0:0:
402,192,80742,1,0,0:0:0:0:
36,192,80820,1,0,0:0:0:70:bass.wav
109,192,80820,1,0,0:0:0:0:
256,192,80820,1,0,0:0:0:0:
475,192,80820,1,0,0:0:0:0:
182,192,80899,1,0,0:0:0:0:
402,192,80978,1,0,0:0:0:0:
256,192,81057,1,0,0:0:0:0:
109,192,81136,1,0,0:0:0:70:bass.wav
329,192,81136,1,0,0:0:0:0:
475,192,81136,1,0,0:0:0:0:
182,192,81215,1,0,0:0:0:0:
36,192,81294,1,0,0:0:0:0:
475,192,81294,1,0,0:0:0:0:
256,192,81373,1,0,0:0:0:0:
329,192,81452,1,0,0:0:0:70:bass.wav
402,192,81452,1,0,0:0:0:0:
182,192,81531,1,0,0:0:0:0:
109,192,81610,1,0,0:0:0:0:
475,192,81610,1,0,0:0:0:0:
402,192,81689,1,0,0:0:0:0:
36,192,81768,1,0,0:0:0:70:bass.wav
256,192,81768,1,0,0:0:0:0:
109,192,81847,1,0,0:0:0:0:
402,192,81926,1,0,0:0:0:0:
256,192,82005,1,0,0:0:0:0:
182,192,82084,1,0,0:0:0:70:loobass.wav
329,192,82103,1,0,0:0:0:0:
402,192,82163,1,0,0:0:0:0:
475,192,82222,1,0,0:0:0:0:
182,192,82281,1,0,0:0:0:0:
256,192,82340,1,0,0:0:0:0:
329,192,82399,1,0,0:0:0:0:
402,192,82452,1,0,0:0:0:0:
36,192,82505,1,0,0:0:0:0:
109,192,82557,1,0,0:0:0:0:
182,192,82610,1,0,0:0:0:0:
256,192,82663,1,0,0:0:0:0:
329,192,82715,1,0,0:0:0:0:
402,192,82768,1,0,0:0:0:0:
475,192,82820,1,0,0:0:0:0:
182,192,82873,1,0,0:0:0:0:
256,192,82926,1,0,0:0:0:0:
329,192,82978,1,0,0:0:0:0:
36,192,83031,1,0,0:0:0:0:
109,192,83084,1,0,0:0:0:0:
182,192,83136,1,0,0:0:0:0:
402,192,83189,1,0,0:0:0:0:
329,192,83242,1,0,0:0:0:0:
256,192,83294,1,0,0:0:0:0:
36,192,83347,1,0,0:0:0:70:bass.wav
109,192,83347,1,0,0:0:0:70:cymbal.wav
182,192,83347,1,0,0:0:0:0:
475,192,83347,1,0,0:0:0:0:
402,192,83386,1,0,0:0:0:0:
329,192,83426,1,0,0:0:0:0:
256,192,83465,1,0,0:0:0:0:
109,192,83505,1,0,0:0:0:0:
182,192,83505,1,0,0:0:0:0:
36,192,83584,1,0,0:0:0:0:
182,192,83663,128,0,83820:0:0:0:70:bass.wav
256,192,83663,1,0,0:0:0:0:
402,192,83663,128,0,83820:0:0:0:0:
36,192,83820,128,0,83978:0:0:0:0:
329,192,83820,128,0,83978:0:0:0:0:
109,192,83978,1,0,0:0:0:70:bass.wav
182,192,83978,1,0,0:0:0:0:
402,192,83978,1,0,0:0:0:0:
256,192,84057,128,0,84215:0:0:0:0:
182,192,84215,1,0,0:0:0:0:
475,192,84215,1,0,0:0:0:0:
109,192,84294,128,0,84452:0:0:0:70:bass.wav
329,192,84294,128,0,84452:0:0:0:0:
402,192,84294,1,0,0:0:0:0:
182,192,84452,1,0,0:0:0:0:
256,192,84452,1,0,0:0:0:0:
36,192,84531,1,0,0:0:0:0:
109,192,84531,1,0,0:0:0:0:
329,192,84610,1,0,0:0:0:70:bass.wav
402,192,84610,1,0,0:0:0:0:
475,192,84610,1,0,0:0:0:0:
109,192,84689,1,0,0:0:0:0:
182,192,84689,1,0,0:0:0:0:
256,192,84768,1,0,0:0:0:0:
475,192,84768,1,0,0:0:0:0:
36,192,84847,1,0,0:0:0:0:
182,192,84926,1,0,0:0:0:70:bass.wav
329,192,84926,1,0,0:0:0:0:
402,192,84926,1,0,0:0:0:0:
109,192,85005,1,0,0:0:0:0:
256,192,85005,1,0,0:0:0:0:
36,192,85084,1,0,0:0:0:0:
475,192,85084,1,0,0:0:0:0:
329,192,85163,1,0,0:0:0:0:
182,192,85242,1,0,0:0:0:70:bass.wav
402,192,85242,128,0,85399:0:0:0:0:
475,192,85242,128,0,85399:0:0:0:0:
109,192,85399,1,0,0:0:0:0:
329,192,85399,1,0,0:0:0:0:
182,192,85478,1,0,0:0:0:0:
402,192,85478,1,0,0:0:0:0:
36,192,85557,128,0,85715:0:0:0:70:bass.wav
109,192,85557,128,0,85715:0:0:0:0:
256,192,85557,1,0,0:0:0:0:
182,192,85715,1,0,0:0:0:0:
402,192,85715,1,0,0:0:0:0:
109,192,85794,1,0,0:0:0:0:
329,192,85794,1,0,0:0:0:0:
36,192,85873,1,0,0:0:0:70:bass.wav
256,192,85873,1,0,0:0:0:70:cymbal.wav
402,192,85873,1,0,0:0:0:0:
475,192,85873,1,0,0:0:0:0:
182,192,85913,1,0,0:0:0:0:
109,192,85952,1,0,0:0:0:0:
329,192,85992,1,0,0:0:0:0:
256,192,86031,1,0,0:0:0:0:
182,192,86110,1,0,0:0:0:0:
36,192,86189,128,0,86347:0:0:0:70:bass.wav
109,192,86189,128,0,86347:0:0:0:0:
329,192,86189,1,0,0:0:0:0:
402,192,86347,128,0,86505:0:0:0:0:
475,192,86347,128,0,86505:0:0:0:0:
36,192,86505,1,0,0:0:0:70:bass.wav
109,192,86505,1,0,0:0:0:0:
329,192,86505,1,0,0:0:0:0:
182,192,86584,1,0,0:0:0:0:
402,192,86584,1,0,0:0:0:0:
329,192,86663,1,0,0:0:0:0:
256,192,86702,1,0,0:0:0:0:
182,192,86742,1,0,0:0:0:0:
36,192,86820,128,0,86978:0:0:0:70:bass.wav
402,192,86820,128,0,86978:0:0:0:0:
475,192,86820,1,0,0:0:0:0:
109,192,86978,1,0,0:0:0:0:
256,192,86978,1,0,0:0:0:0:
182,192,87057,1,0,0:0:0:0:
329,192,87057,1,0,0:0:0:0:
36,192,87136,1,0,0:0:0:70:bass.wav
402,192,87136,1,0,0:0:0:0:
475,192,87136,1,0,0:0:0:0:
402,192,87215,1,0,0:0:0:0:
475,192,87215,1,0,0:0:0:0:
329,192,87294,1,0,0:0:0:0:
36,192,87373,1,0,0:0:0:0:
109,192,87373,1,0,0:0:0:0:
182,192,87452,1,0,0:0:0:70:bass.wav
256,192,87452,1,0,0:0:0:0:
475,192,87452,1,0,0:0:0:0:
329,192,87531,1,0,0:0:0:0:
36,192,87610,1,0,0:0:0:0:
402,192,87610,1,0,0:0:0:0:
182,192,87689,1,0,0:0:0:0:
109,192,87768,1,0,0:0:0:70:bass.wav
256,192,87768,1,0,0:0:0:0:
475,192,87768,1,0,0:0:0:0:
329,192,87847,1,0,0:0:0:0:
402,192,87847,1,0,0:0:0:0:
182,192,87926,1,0,0:0:0:0:
329,192,88005,1,0,0:0:0:0:
402,192,88005,1,0,0:0:0:0:
36,192,88084,1,0,0:0:0:70:bass.wav
109,192,88084,1,0,0:0:0:0:
256,192,88084,1,0,0:0:0:0:
475,192,88163,1,0,0:0:0:0:
182,192,88242,1,0,0:0:0:0:
402,192,88242,1,0,0:0:0:0:
109,192,88320,1,0,0:0:0:0:
329,192,88320,1,0,0:0:0:0:
36,192,88399,1,0,0:0:0:70:bass.wav
256,192,88399,1,0,0:0:0:70:cymbal.wav
402,192,88399,1,0,0:0:0:0:
475,192,88399,1,0,0:0:0:0:
182,192,88478,1,0,0:0:0:0:
329,192,88557,1,0,0:0:0:0:
475,192,88557,1,0,0:0:0:0:
36,192,88636,1,0,0:0:0:0:
256,192,88636,1,0,0:0:0:0:
109,192,88715,1,0,0:0:0:70:bass.wav
182,192,88715,1,0,0:0:0:0:
402,192,88715,1,0,0:0:0:0:
329,192,88794,128,0,88952:0:0:0:0:
109,192,88952,1,0,0:0:0:0:
256,192,88952,1,0,0:0:0:0:
36,192,89031,1,0,0:0:0:70:bass.wav
402,192,89031,1,0,0:0:0:0:
475,192,89031,1,0,0:0:0:0:
182,192,89110,1,0,0:0:0:0:
329,192,89110,1,0,0:0:0:0:
109,192,89189,128,0,89347:0:0:0:0:
402,192,89189,128,0,89347:0:0:0:0:
36,192,89347,128,0,89505:0:0:0:70:bass.wav
182,192,89347,1,0,0:0:0:0:
256,192,89347,128,0,89505:0:0:0:0:
402,192,89505,1,0,0:0:0:0:
475,192,89505,1,0,0:0:0:0:
109,192,89584,1,0,0:0:0:0:
182,192,89584,1,0,0:0:0:0:
256,192,89663,1,0,0:0:0:70:bass.wav
329,192,89663,1,0,0:0:0:0:
402,192,89663,1,0,0:0:0:0:
36,192,89715,1,0,0:0:0:0:
109,192,89768,1,0,0:0:0:0:
182,192,89820,1,0,0:0:0:0:
475,192,89873,1,0,0:0:0:0:
402,192,89926,1,0,0:0:0:0:
36,192,89978,1,0,0:0:0:70:bass.wav
256,192,89978,1,0,0:0:0:0:
329,192,89978,1,0,0:0:0:0:
109,192,90057,1,0,0:0:0:0:
475,192,90057,1,0,0:0:0:0:
182,192,90136,1,0,0:0:0:0:
329,192,90136,1,0,0:0:0:0:
36,192,90215,1,0,0:0:0:0:
402,192,90215,1,0,0:0:0:0:
109,192,90294,1,0,0:0:0:70:bass.wav
256,192,90294,1,0,0:0:0:0:
475,192,90294,1,0,0:0:0:0:
329,192,90373,128,0,90531:0:0:0:0:
36,192,90531,1,0,0:0:0:0:
256,192,90531,1,0,0:0:0:0:
109,192,90610,1,0,0:0:0:70:bass.wav
182,192,90610,1,0,0:0:0:0:
402,192,90610,1,0,0:0:0:0:
475,192,90689,1,0,0:0:0:0:
36,192,90768,1,0,0:0:0:0:
256,192,90768,1,0,0:0:0:0:
329,192,90847,1,0,0:0:0:0:
402,192,90847,1,0,0:0:0:0:
36,192,90926,1,0,0:0:0:70:bass.wav
109,192,90926,128,0,91084:0:0:0:70:cymbal.wav
182,192,90926,128,0,91084:0:0:0:0:
475,192,90926,1,0,0:0:0:0:
256,192,91084,1,0,0:0:0:0:
402,192,91084,1,0,0:0:0:0:
36,192,91163,1,0,0:0:0:0:
109,192,91163,1,0,0:0:0:0:
256,192,91242,128,0,91399:0:0:0:70:bass.wav
329,192,91242,1,0,0:0:0:0:
475,192,91242,128,0,91399:0:0:0:0:
182,192,91399,1,0,0:0:0:0:
402,192,91399,1,0,0:0:0:0:
36,192,91478,1,0,0:0:0:0:
329,192,91478,1,0,0:0:0:0:
109,192,91557,1,0,0:0:0:70:bass.wav
402,192,91557,1,0,0:0:0:0:
475,192,91557,1,0,0:0:0:0:
182,192,91610,1,0,0:0:0:0:
256,192,91663,1,0,0:0:0:0:
402,192,91715,1,0,0:0:0:0:
329,192,91755,1,0,0:0:0:0:
109,192,91794,1,0,0:0:0:0:
256,192,91794,1,0,0:0:0:0:
36,192,91873,1,0,0:0:0:70:bass.wav
329,192,91873,128,0,92031:0:0:0:0:
402,192,91873,128,0,92031:0:0:0:0:
109,192,92031,128,0,92189:0:0:0:0:
182,192,92031,128,0,92189:0:0:0:0:
36,192,92189,1,0,0:0:0:70:bass.wav
256,192,92189,128,0,92347:0:0:0:0:
475,192,92189,128,0,92347:0:0:0:0:
182,192,92347,128,0,92505:0:0:0:0:
329,192,92347,128,0,92505:0:0:0:0:
36,192,92505,1,0,0:0:0:70:bass.wav
402,192,92505,1,0,0:0:0:0:
475,192,92505,1,0,0:0:0:0:
256,192,92584,128,0,92742:0:0:0:0:
182,192,92742,1,0,0:0:0:0:
402,192,92742,1,0,0:0:0:0:
36,192,92820,1,0,0:0:0:70:bass.wav
109,192,92820,1,0,0:0:0:0:
475,192,92820,1,0,0:0:0:0:
36,192,92978,1,0,0:0:0:0:
329,192,92978,1,0,0:0:0:0:
402,192,92978,1,0,0:0:0:0:
182,192,93136,1,0,0:0:0:0:
256,192,93136,128,0,93452:0:0:0:0:
36,192,93452,1,0,0:0:0:70:bass.wav
329,192,93452,1,0,0:0:0:70:cymbal.wav
402,192,93452,1,0,0:0:0:0:
475,192,93452,1,0,0:0:0:0:
109,192,93505,1,0,0:0:0:0:
182,192,93557,1,0,0:0:0:0:
256,192,93610,1,0,0:0:0:0:
475,192,93610,1,0,0:0:0:0:
402,192,93649,1,0,0:0:0:0:
329,192,93689,1,0,0:0:0:0:
36,192,93768,1,0,0:0:0:50:Snare.wav
256,192,93768,1,0,0:0:0:0:
475,192,93768,1,0,0:0:0:0:
109,192,93847,1,0,0:0:0:0:
329,192,93847,1,0,0:0:0:0:
182,192,93926,1,0,0:0:0:0:
402,192,93926,1,0,0:0:0:0:
256,192,94005,1,0,0:0:0:0:
36,192,94084,1,0,0:0:0:70:bass.wav
109,192,94084,1,0,0:0:0:0:
475,192,94084,1,0,0:0:0:0:
256,192,94163,1,0,0:0:0:0:
329,192,94242,1,0,0:0:0:0:
402,192,94242,1,0,0:0:0:0:
109,192,94320,1,0,0:0:0:0:
182,192,94320,1,0,0:0:0:0:
36,192,94399,1,0,0:0:0:50:Snare.wav
402,192,94399,1,0,0:0:0:0:
475,192,94399,1,0,0:0:0:0:
256,192,94478,1,0,0:0:0:0:
182,192,94557,1,0,0:0:0:0:
329,192,94557,1,0,0:0:0:0:
256,192,94636,1,0,0:0:0:0:
402,192,94636,1,0,0:0:0:0:
36,192,94715,1,0,0:0:0:70:bass.wav
109,192,94715,1,0,0:0:0:0:
475,192,94715,1,0,0:0:0:0:
329,192,94794,1,0,0:0:0:0:
109,192,94873,1,0,0:0:0:0:
182,192,94873,1,0,0:0:0:0:
256,192,94952,1,0,0:0:0:0:
402,192,94952,1,0,0:0:0:0:
36,192,95031,1,0,0:0:0:50:Snare.wav
329,192,95031,1,0,0:0:0:0:
475,192,95031,1,0,0:0:0:0:
109,192,95110,1,0,0:0:0:0:
256,192,95110,1,0,0:0:0:0:
402,192,95189,1,0,0:0:0:0:
182,192,95268,1,0,0:0:0:0:
329,192,95268,1,0,0:0:0:0:
36,192,95347,1,0,0:0:0:70:bass.wav
256,192,95347,1,0,0:0:0:0:
475,192,95347,1,0,0:0:0:0:
109,192,95426,1,0,0:0:0:0:
402,192,95505,1,0,0:0:0:0:
475,192,95505,1,0,0:0:0:0:
182,192,95584,1,0,0:0:0:0:
329,192,95584,1,0,0:0:0:0:
36,192,95663,1,0,0:0:0:50:Snare.wav
109,192,95663,1,0,0:0:0:0:
475,192,95663,1,0,0:0:0:0:
182,192,95742,1,0,0:0:0:0:
402,192,95742,1,0,0:0:0:0:
256,192,95820,1,0,0:0:0:0:
402,192,95899,1,0,0:0:0:0:
475,192,95899,1,0,0:0:0:0:
36,192,95978,1,0,0:0:0:70:bass.wav
109,192,95978,1,0,0:0:0:70:cymbal.wav
329,192,95978,1,0,0:0:0:0:
182,192,96018,1,0,0:0:0:0:
256,192,96057,1,0,0:0:0:0:
475,192,96097,1,0,0:0:0:0:
329,192,96136,1,0,0:0:0:0:
402,192,96136,1,0,0:0:0:0:
109,192,96215,1,0,0:0:0:0:
182,192,96215,1,0,0:0:0:0:
36,192,96294,1,0,0:0:0:50:Snare.wav
402,192,96294,1,0,0:0:0:0:
475,192,96294,1,0,0:0:0:0:
109,192,96373,1,0,0:0:0:0:
256,192,96373,1,0,0:0:0:0:
182,192,96452,1,0,0:0:0:0:
329,192,96452,1,0,0:0:0:0:
256,192,96531,1,0,0:0:0:0:
402,192,96531,1,0,0:0:0:0:
36,192,96610,1,0,0:0:0:70:bass.wav
109,192,96610,1,0,0:0:0:0:
475,192,96610,1,0,0:0:0:0:
329,192,96689,1,0,0:0:0:0:
36,192,96768,1,0,0:0:0:0:
256,192,96768,1,0,0:0:0:0:
109,192,96847,1,0,0:0:0:0:
329,192,96847,1,0,0:0:0:0:
182,192,96926,1,0,0:0:0:50:Snare.wav
402,192,96926,1,0,0:0:0:0:
475,192,96926,1,0,0:0:0:0:
36,192,97005,1,0,0:0:0:0:
256,192,97084,1,0,0:0:0:0:
475,192,97084,1,0,0:0:0:0:
182,192,97163,1,0,0:0:0:0:
402,192,97163,1,0,0:0:0:0:
36,192,97242,1,0,0:0:0:70:bass.wav
109,192,97242,1,0,0:0:0:0:
329,192,97242,1,0,0:0:0:0:
36,192,97320,1,0,0:0:0:0:
109,192,97320,1,0,0:0:0:0:
329,192,97399,1,0,0:0:0:0:
475,192,97399,1,0,0:0:0:0:
182,192,97478,1,0,0:0:0:0:
256,192,97478,1,0,0:0:0:0:
36,192,97557,1,0,0:0:0:50:Snare.wav
109,192,97557,1,0,0:0:0:0:
475,192,97557,1,0,0:0:0:0:
329,192,97636,1,0,0:0:0:0:
256,192,97715,1,0,0:0:0:0:
402,192,97715,1,0,0:0:0:0:
182,192,97794,1,0,0:0:0:0:
36,192,97873,1,0,0:0:0:70:bass.wav
329,192,97873,1,0,0:0:0:0:
475,192,97873,1,0,0:0:0:0:
109,192,97952,1,0,0:0:0:0:
256,192,97952,1,0,0:0:0:0:
402,192,98031,1,0,0:0:0:0:
182,192,98110,1,0,0:0:0:0:
329,192,98110,1,0,0:0:0:0:
36,192,98189,1,0,0:0:0:50:Snare.wav
109,192,98189,1,0,0:0:0:0:
475,192,98189,1,0,0:0:0:0:
402,192,98228,1,0,0:0:0:0:
329,192,98268,1,0,0:0:0:0:
256,192,98307,1,0,0:0:0:0:
109,192,98347,1,0,0:0:0:0:
182,192,98347,1,0,0:0:0:0:
402,192,98426,1,0,0:0:0:0:
475,192,98426,1,0,0:0:0:0:
36,192,98505,1,0,0:0:0:70:bass.wav
109,192,98505,1,0,0:0:0:70:cymbal.wav
256,192,98505,1,0,0:0:0:0:
329,192,98505,1,0,0:0:0:0:
402,192,98584,1,0,0:0:0:0:
475,192,98584,1,0,0:0:0:0:
182,192,98663,1,0,0:0:0:0:
256,192,98742,1,0,0:0:0:0:
475,192,98742,1,0,0:0:0:0:
36,192,98820,1,0,0:0:0:50:Snare.wav
109,192,98820,1,0,0:0:0:0:
402,192,98820,1,0,0:0:0:0:
182,192,98899,1,0,0:0:0:0:
256,192,98899,1,0,0:0:0:0:
36,192,98978,1,0,0:0:0:0:
329,192,98978,1,0,0:0:0:0:
109,192,99057,1,0,0:0:0:0:
182,192,99136,1,0,0:0:0:70:bass.wav
402,192,99136,1,0,0:0:0:0:
475,192,99136,1,0,0:0:0:0:
329,192,99215,1,0,0:0:0:0:
256,192,99294,1,0,0:0:0:0:
475,192,99294,1,0,0:0:0:0:
182,192,99373,1,0,0:0:0:0:
402,192,99373,1,0,0:0:0:0:
36,192,99452,1,0,0:0:0:50:Snare.wav
109,192,99452,1,0,0:0:0:0:
329,192,99452,1,0,0:0:0:0:
182,192,99531,1,0,0:0:0:0:
256,192,99610,1,0,0:0:0:0:
475,192,99610,1,0,0:0:0:0:
109,192,99689,1,0,0:0:0:0:
182,192,99689,1,0,0:0:0:0:
36,192,99768,1,0,0:0:0:70:bass.wav
402,192,99768,1,0,0:0:0:0:
475,192,99768,1,0,0:0:0:0:
329,192,99820,1,0,0:0:0:0:
256,192,99873,1,0,0:0:0:0:
109,192,99926,1,0,0:0:0:0:
182,192,99978,1,0,0:0:0:0:
256,192,100031,1,0,0:0:0:0:
36,192,100084,1,0,0:0:0:50:Snare.wav
329,192,100084,1,0,0:0:0:0:
475,192,100084,1,0,0:0:0:0:
109,192,100163,1,0,0:0:0:0:
182,192,100163,1,0,0:0:0:0:
329,192,100242,1,0,0:0:0:0:
402,192,100242,1,0,0:0:0:0:
36,192,100320,1,0,0:0:0:0:
182,192,100320,1,0,0:0:0:0:
256,192,100399,1,0,0:0:0:70:bass.wav
402,192,100399,1,0,0:0:0:0:
475,192,100399,1,0,0:0:0:0:
109,192,100478,1,0,0:0:0:0:
182,192,100478,1,0,0:0:0:0:
475,192,100557,1,0,0:0:0:0:
256,192,100636,1,0,0:0:0:0:
402,192,100636,1,0,0:0:0:0:
36,192,100715,1,0,0:0:0:50:Snare.wav
109,192,100715,1,0,0:0:0:0:
329,192,100715,1,0,0:0:0:0:
182,192,100794,1,0,0:0:0:0:
329,192,100873,1,0,0:0:0:0:
475,192,100873,1,0,0:0:0:0:
36,192,100952,1,0,0:0:0:0:
182,192,100952,1,0,0:0:0:0:
256,192,101031,1,0,0:0:0:70:bass.wav
329,192,101031,1,0,0:0:0:70:cymbal.wav
402,192,101031,1,0,0:0:0:0:
475,192,101031,1,0,0:0:0:0:
109,192,101110,1,0,0:0:0:0:
36,192,101189,1,0,0:0:0:0:
329,192,101189,1,0,0:0:0:0:
109,192,101268,1,0,0:0:0:0:
402,192,101268,1,0,0:0:0:0:
182,192,101347,1,0,0:0:0:50:Snare.wav
256,192,101347,1,0,0:0:0:0:
475,192,101347,1,0,0:0:0:0:
329,192,101426,1,0,0:0:0:0:
109,192,101505,1,0,0:0:0:0:
256,192,101505,1,0,0:0:0:0:
36,192,101584,1,0,0:0:0:0:
402,192,101584,1,0,0:0:0:0:
256,192,101663,1,0,0:0:0:70:bass.wav
329,192,101663,1,0,0:0:0:0:
475,192,101663,1,0,0:0:0:0:
182,192,101715,1,0,0:0:0:0:
109,192,101768,1,0,0:0:0:0:
36,192,101820,1,0,0:0:0:0:
475,192,101820,1,0,0:0:0:0:
402,192,101860,1,0,0:0:0:0:
256,192,101899,1,0,0:0:0:0:
329,192,101899,1,0,0:0:0:0:
36,192,101978,1,0,0:0:0:50:Snare.wav
182,192,101978,1,0,0:0:0:0:
475,192,101978,1,0,0:0:0:0:
256,192,102057,1,0,0:0:0:0:
402,192,102057,1,0,0:0:0:0:
36,192,102136,1,0,0:0:0:0:
329,192,102136,1,0,0:0:0:0:
182,192,102215,1,0,0:0:0:0:
475,192,102215,1,0,0:0:0:0:
36,192,102294,1,0,0:0:0:70:bass.wav
109,192,102294,1,0,0:0:0:0:
329,192,102294,1,0,0:0:0:0:
402,192,102294,1,0,0:0:0:0:
109,192,102452,1,0,0:0:0:70:bass.wav
182,192,102452,1,0,0:0:0:0:
402,192,102452,1,0,0:0:0:0:
475,192,102452,1,0,0:0:0:0:
36,192,102610,1,0,0:0:0:70:bass.wav
109,192,102610,1,0,0:0:0:0:
329,192,102610,1,0,0:0:0:0:
475,192,102610,1,0,0:0:0:0:
36,192,102768,1,0,0:0:0:70:bass.wav
256,192,102768,1,0,0:0:0:0:
402,192,102768,1,0,0:0:0:0:
475,192,102768,1,0,0:0:0:0:
109,192,102926,1,0,0:0:0:0:
182,192,102926,1,0,0:0:0:0:
256,192,103084,1,0,0:0:0:0:
329,192,103084,1,0,0:0:0:0:
36,192,103242,1,0,0:0:0:70:bass.wav
182,192,103242,1,0,0:0:0:0:
402,192,103242,128,0,103557:0:0:0:0:
475,192,103242,128,0,103557:0:0:0:0:
36,192,103557,1,0,0:0:0:70:loobass.wav
109,192,103557,1,0,0:0:0:70:cymbal.wav
182,192,103557,1,0,0:0:0:0:
256,192,103557,128,0,106084:0:0:0:0:
329,192,103557,1,0,0:0:0:0:
329,192,105452,1,0,0:0:0:20:drum.wav
329,192,105610,1,0,0:0:0:20:drum.wav
182,192,105768,1,0,0:0:0:20:drum.wav
182,192,105926,1,0,0:0:0:20:drum.wav
329,192,106084,1,0,0:0:0:20:drum.wav
475,192,106084,1,0,0:0:0:0:
329,192,106242,1,0,0:0:0:20:drum.wav
475,192,106242,1,0,0:0:0:0:
36,192,106399,1,0,0:0:0:20:drum.wav
182,192,106399,1,0,0:0:0:0:
36,192,106557,1,0,0:0:0:20:drum.wav
182,192,106557,1,0,0:0:0:0:
329,192,106715,1,0,0:0:0:20:drum.wav
402,192,106715,1,0,0:0:0:0:
329,192,106873,1,0,0:0:0:20:drum.wav
402,192,106873,1,0,0:0:0:0:
109,192,107031,1,0,0:0:0:20:drum.wav
182,192,107031,1,0,0:0:0:0:
109,192,107189,1,0,0:0:0:20:drum.wav
182,192,107189,1,0,0:0:0:0:
36,192,107347,1,0,0:0:0:30:Snare.wav
256,192,107347,1,0,0:0:0:30:drum.wav
475,192,107347,1,0,0:0:0:0:
329,192,107505,1,0,0:0:0:30:drum.wav
475,192,107505,1,0,0:0:0:0:
256,192,107584,1,0,0:0:0:30:Snare.wav
36,192,107584,1,0,0:0:0:0:
475,192,107663,1,0,0:0:0:30:drum.wav
329,192,107663,1,0,0:0:0:0:
36,192,107820,1,0,0:0:0:30:Snare.wav
256,192,107820,1,0,0:0:0:30:drum.wav
182,192,107978,1,0,0:0:0:30:drum.wav
36,192,107978,1,0,0:0:0:0:
475,192,108057,1,0,0:0:0:30:Snare.wav
256,192,108057,1,0,0:0:0:0:
182,192,108136,1,0,0:0:0:30:drum.wav
36,192,108136,1,0,0:0:0:0:
329,192,108294,1,0,0:0:0:30:Snare.wav
256,192,108294,1,0,0:0:0:30:drum.wav
182,192,108452,1,0,0:0:0:30:Snare.wav
256,192,108452,1,0,0:0:0:30:drum.wav
36,192,108610,1,0,0:0:0:40:drum.wav
109,192,108610,1,0,0:0:0:70:cymbal.wav
329,192,108610,1,0,0:0:0:0:
402,192,108610,1,0,0:0:0:0:
475,192,108610,1,0,0:0:0:0:
109,192,108768,1,0,0:0:0:40:drum.wav
182,192,108768,1,0,0:0:0:0:
329,192,108768,1,0,0:0:0:0:
475,192,108768,1,0,0:0:0:0:
36,192,108926,1,0,0:0:0:40:drum.wav
182,192,108926,1,0,0:0:0:0:
256,192,108926,1,0,0:0:0:0:
402,192,108926,1,0,0:0:0:0:
36,192,109084,1,0,0:0:0:40:drum.wav
109,192,109084,1,0,0:0:0:0:
402,192,109084,1,0,0:0:0:0:
475,192,109084,1,0,0:0:0:0:
109,192,109242,1,0,0:0:0:40:drum.wav
182,192,109242,1,0,0:0:0:0:
256,192,109242,1,0,0:0:0:0:
329,192,109242,1,0,0:0:0:0:
475,192,109242,1,0,0:0:0:0:
36,192,109399,1,0,0:0:0:40:drum.wav
256,192,109399,1,0,0:0:0:0:
329,192,109399,1,0,0:0:0:0:
402,192,109399,1,0,0:0:0:0:
109,192,109557,1,0,0:0:0:40:drum.wav
182,192,109557,1,0,0:0:0:0:
402,192,109557,1,0,0:0:0:0:
475,192,109557,1,0,0:0:0:0:
36,192,109715,1,0,0:0:0:40:drum.wav
256,192,109715,1,0,0:0:0:0:
329,192,109715,1,0,0:0:0:0:
475,192,109715,1,0,0:0:0:0:
36,192,109873,1,0,0:0:0:50:drum.wav
109,192,109873,1,0,0:0:0:0:
182,192,109873,1,0,0:0:0:0:
256,192,109873,1,0,0:0:0:0:
402,192,109873,1,0,0:0:0:0:
109,192,110031,1,0,0:0:0:50:drum.wav
329,192,110031,1,0,0:0:0:0:
402,192,110031,1,0,0:0:0:0:
475,192,110031,1,0,0:0:0:0:
36,192,110189,1,0,0:0:0:50:drum.wav
182,192,110189,1,0,0:0:0:0:
256,192,110189,1,0,0:0:0:0:
329,192,110189,1,0,0:0:0:0:
36,192,110347,1,0,0:0:0:50:drum.wav
109,192,110347,1,0,0:0:0:0:
402,192,110347,1,0,0:0:0:0:
475,192,110347,1,0,0:0:0:0:
109,192,110505,1,0,0:0:0:50:drum.wav
182,192,110505,1,0,0:0:0:0:
256,192,110505,1,0,0:0:0:0:
329,192,110505,1,0,0:0:0:0:
475,192,110505,1,0,0:0:0:0:
36,192,110663,1,0,0:0:0:50:drum.wav
256,192,110663,1,0,0:0:0:0:
329,192,110663,1,0,0:0:0:0:
402,192,110663,1,0,0:0:0:0:
109,192,110820,1,0,0:0:0:50:drum.wav
182,192,110820,1,0,0:0:0:0:
402,192,110820,1,0,0:0:0:0:
475,192,110820,1,0,0:0:0:0:
36,192,110978,1,0,0:0:0:50:drum.wav
256,192,110978,1,0,0:0:0:0:
329,192,110978,1,0,0:0:0:0:
475,192,110978,1,0,0:0:0:0:
36,192,111136,1,0,0:0:0:60:drum.wav
109,192,111136,1,0,0:0:0:0:
402,192,111136,1,0,0:0:0:0:
475,192,111136,1,0,0:0:0:0:
182,192,111215,1,0,0:0:0:60:drum.wav
256,192,111215,1,0,0:0:0:0:
329,192,111294,1,0,0:0:0:60:drum.wav
402,192,111294,1,0,0:0:0:0:
182,192,111373,1,0,0:0:0:60:drum.wav
256,192,111373,1,0,0:0:0:0:
36,192,111452,1,0,0:0:0:60:drum.wav
109,192,111452,1,0,0:0:0:0:
402,192,111452,1,0,0:0:0:0:
475,192,111452,1,0,0:0:0:0:
256,192,111531,1,0,0:0:0:60:drum.wav
329,192,111531,1,0,0:0:0:0:
109,192,111610,1,0,0:0:0:60:drum.wav
182,192,111610,1,0,0:0:0:0:
256,192,111689,1,0,0:0:0:60:drum.wav
329,192,111689,1,0,0:0:0:0:
36,192,111768,1,0,0:0:0:60:drum.wav
109,192,111768,1,0,0:0:0:0:
402,192,111768,1,0,0:0:0:0:
475,192,111768,1,0,0:0:0:0:
182,192,111847,1,0,0:0:0:60:drum.wav
329,192,111847,1,0,0:0:0:0:
36,192,111926,1,0,0:0:0:60:drum.wav
109,192,111926,1,0,0:0:0:0:
402,192,111926,1,0,0:0:0:0:
475,192,111926,1,0,0:0:0:0:
182,192,112005,1,0,0:0:0:60:drum.wav
329,192,112005,1,0,0:0:0:0:
36,192,112084,1,0,0:0:0:60:drum.wav
109,192,112084,1,0,0:0:0:0:
402,192,112084,1,0,0:0:0:0:
475,192,112084,1,0,0:0:0:0:
182,192,112163,1,0,0:0:0:60:drum.wav
329,192,112163,1,0,0:0:0:0:
36,192,112242,1,0,0:0:0:60:drum.wav
109,192,112242,1,0,0:0:0:0:
402,192,112242,1,0,0:0:0:0:
475,192,112242,1,0,0:0:0:0:
182,192,112320,1,0,0:0:0:60:drum.wav
329,192,112320,1,0,0:0:0:0:
256,192,112399,128,0,112715:0:0:0:70:loobass.wav
475,192,112557,128,0,112715:0:0:0:0:
36,192,112715,128,0,113031:0:0:0:0:
256,192,112873,128,0,113031:0:0:0:0:
329,192,113031,128,0,113347:0:0:0:0:
182,192,113189,128,0,113347:0:0:0:0:
36,192,113347,128,0,113584:0:0:0:0:
475,192,113347,128,0,113584:0:0:0:0:
36,192,113663,1,0,0:0:0:70:bass.wav
109,192,113663,1,0,0:0:0:50:Snare.wav
182,192,113663,1,0,0:0:0:70:cymbal.wav
329,192,113663,1,0,0:0:0:0:
402,192,113663,1,0,0:0:0:0:
475,192,113663,1,0,0:0:0:0:
36,192,113978,1,0,0:0:0:70:bass.wav
109,192,113978,1,0,0:0:0:50:Snare.wav
182,192,113978,1,0,0:0:0:0:
329,192,113978,1,0,0:0:0:0:
402,192,113978,1,0,0:0:0:0:
475,192,113978,1,0,0:0:0:0:
36,192,114294,1,0,0:0:0:70:bass.wav
109,192,114294,1,0,0:0:0:50:Snare.wav
182,192,114294,1,0,0:0:0:0:
329,192,114294,1,0,0:0:0:0:
402,192,114294,1,0,0:0:0:0:
475,192,114294,1,0,0:0:0:0:
36,192,114610,1,0,0:0:0:70:bass.wav
109,192,114610,1,0,0:0:0:50:Snare.wav
182,192,114610,1,0,0:0:0:0:
329,192,114610,1,0,0:0:0:0:
402,192,114610,1,0,0:0:0:0:
475,192,114610,1,0,0:0:0:0:
36,192,114768,1,0,0:0:0:0:
475,192,114768,1,0,0:0:0:0:
36,192,114926,1,0,0:0:0:70:bass.wav
109,192,114926,1,0,0:0:0:50:Snare.wav
182,192,114926,1,0,0:0:0:0:
329,192,114926,1,0,0:0:0:0:
402,192,114926,1,0,0:0:0:0:
475,192,114926,1,0,0:0:0:0:
36,192,115242,1,0,0:0:0:70:bass.wav
109,192,115242,1,0,0:0:0:50:Snare.wav
256,192,115242,1,0,0:0:0:0:
402,192,115242,1,0,0:0:0:0:
475,192,115242,1,0,0:0:0:0:
109,192,115399,1,0,0:0:0:0:
402,192,115399,1,0,0:0:0:0:
36,192,115557,1,0,0:0:0:70:bass.wav
182,192,115557,1,0,0:0:0:50:Snare.wav
256,192,115557,1,0,0:0:0:0:
329,192,115557,1,0,0:0:0:0:
475,192,115557,1,0,0:0:0:0:
182,192,115715,1,0,0:0:0:0:
329,192,115715,1,0,0:0:0:0:
36,192,115873,1,0,0:0:0:70:bass.wav
109,192,115873,1,0,0:0:0:50:Snare.wav
256,192,115873,128,0,116189:0:0:0:0:
402,192,115873,1,0,0:0:0:0:
475,192,115873,1,0,0:0:0:0:
36,192,116189,1,0,0:0:0:70:bass.wav
109,192,116189,1,0,0:0:0:50:Snare.wav
182,192,116189,1,0,0:0:0:0:
329,192,116189,1,0,0:0:0:0:
402,192,116189,1,0,0:0:0:0:
475,192,116189,1,0,0:0:0:0:
36,192,116505,1,0,0:0:0:70:bass.wav
109,192,116505,1,0,0:0:0:50:Snare.wav
182,192,116505,1,0,0:0:0:0:
329,192,116505,1,0,0:0:0:0:
402,192,116505,1,0,0:0:0:0:
475,192,116505,1,0,0:0:0:0:
36,192,116820,1,0,0:0:0:70:bass.wav
109,192,116820,1,0,0:0:0:50:Snare.wav
182,192,116820,1,0,0:0:0:0:
329,192,116820,1,0,0:0:0:0:
402,192,116820,1,0,0:0:0:0:
475,192,116820,1,0,0:0:0:0:
36,192,117136,1,0,0:0:0:70:bass.wav
109,192,117136,1,0,0:0:0:50:Snare.wav
182,192,117136,1,0,0:0:0:0:
329,192,117136,1,0,0:0:0:0:
402,192,117136,1,0,0:0:0:0:
475,192,117136,1,0,0:0:0:0:
36,192,117294,1,0,0:0:0:0:
475,192,117294,1,0,0:0:0:0:
36,192,117452,1,0,0:0:0:70:bass.wav
109,192,117452,1,0,0:0:0:50:Snare.wav
182,192,117452,1,0,0:0:0:0:
329,192,117452,1,0,0:0:0:0:
402,192,117452,1,0,0:0:0:0:
475,192,117452,1,0,0:0:0:0:
36,192,117768,1,0,0:0:0:70:bass.wav
109,192,117768,1,0,0:0:0:50:Snare.wav
182,192,117768,1,0,0:0:0:0:
256,192,117768,1,0,0:0:0:0:
329,192,117768,1,0,0:0:0:0:
36,192,117926,1,0,0:0:0:70:bass.wav
109,192,117926,1,0,0:0:0:50:Snare.wav
182,192,117926,1,0,0:0:0:0:
402,192,117926,1,0,0:0:0:0:
475,192,117926,1,0,0:0:0:0:
182,192,118084,1,0,0:0:0:70:bass.wav
256,192,118084,1,0,0:0:0:50:Snare.wav
329,192,118084,1,0,0:0:0:0:
402,192,118084,1,0,0:0:0:0:
475,192,118084,1,0,0:0:0:0:
36,192,118242,1,0,0:0:0:0:
109,192,118242,1,0,0:0:0:0:
182,192,118399,1,0,0:0:0:70:drum.wav
402,192,118399,1,0,0:0:0:0:
329,192,118557,1,0,0:0:0:0:
256,192,118636,1,0,0:0:0:0:
36,192,118715,1,0,0:0:0:70:bass.wav
109,192,118715,1,0,0:0:0:50:Snare.wav
182,192,118715,1,0,0:0:0:0:
329,192,118715,1,0,0:0:0:0:
402,192,118715,1,0,0:0:0:0:
475,192,118715,1,0,0:0:0:0:
36,192,119031,1,0,0:0:0:70:bass.wav
109,192,119031,1,0,0:0:0:50:Snare.wav
182,192,119031,1,0,0:0:0:0:
329,192,119031,1,0,0:0:0:0:
402,192,119031,1,0,0:0:0:0:
475,192,119031,1,0,0:0:0:0:
36,192,119347,1,0,0:0:0:70:bass.wav
109,192,119347,1,0,0:0:0:50:Snare.wav
182,192,119347,1,0,0:0:0:0:
329,192,119347,1,0,0:0:0:0:
402,192,119347,1,0,0:0:0:0:
475,192,119347,1,0,0:0:0:0:
36,192,119663,1,0,0:0:0:70:bass.wav
109,192,119663,1,0,0:0:0:50:Snare.wav
182,192,119663,1,0,0:0:0:0:
329,192,119663,1,0,0:0:0:0:
402,192,119663,1,0,0:0:0:0:
475,192,119663,1,0,0:0:0:0:
36,192,119820,1,0,0:0:0:0:
475,192,119820,1,0,0:0:0:0:
36,192,119978,1,0,0:0:0:70:bass.wav
109,192,119978,1,0,0:0:0:50:Snare.wav
182,192,119978,1,0,0:0:0:0:
329,192,119978,1,0,0:0:0:0:
402,192,119978,1,0,0:0:0:0:
475,192,119978,1,0,0:0:0:0:
36,192,120294,1,0,0:0:0:70:bass.wav
109,192,120294,1,0,0:0:0:50:Snare.wav
256,192,120294,1,0,0:0:0:0:
402,192,120294,1,0,0:0:0:0:
475,192,120294,1,0,0:0:0:0:
109,192,120452,1,0,0:0:0:0:
402,192,120452,1,0,0:0:0:0:
36,192,120610,1,0,0:0:0:70:bass.wav
182,192,120610,1,0,0:0:0:50:Snare.wav
256,192,120610,1,0,0:0:0:0:
329,192,120610,1,0,0:0:0:0:
475,192,120610,1,0,0:0:0:0:
182,192,120768,1,0,0:0:0:0:
329,192,120768,1,0,0:0:0:0:
36,192,120926,1,0,0:0:0:70:bass.wav
109,192,120926,1,0,0:0:0:50:Snare.wav
256,192,120926,128,0,121242:0:0:0:0:
402,192,120926,1,0,0:0:0:0:
475,192,120926,1,0,0:0:0:0:
36,192,121242,1,0,0:0:0:70:bass.wav
109,192,121242,1,0,0:0:0:50:Snare.wav
182,192,121242,1,0,0:0:0:0:
329,192,121242,1,0,0:0:0:0:
402,192,121242,1,0,0:0:0:0:
475,192,121242,1,0,0:0:0:0:
36,192,121557,1,0,0:0:0:70:bass.wav
109,192,121557,1,0,0:0:0:50:Snare.wav
182,192,121557,1,0,0:0:0:0:
329,192,121557,1,0,0:0:0:0:
402,192,121557,1,0,0:0:0:0:
475,192,121557,1,0,0:0:0:0:
36,192,121873,1,0,0:0:0:70:bass.wav
109,192,121873,1,0,0:0:0:50:Snare.wav
182,192,121873,1,0,0:0:0:0:
329,192,121873,1,0,0:0:0:0:
402,192,121873,1,0,0:0:0:0:
475,192,121873,1,0,0:0:0:0:
36,192,122189,1,0,0:0:0:70:bass.wav
109,192,122189,1,0,0:0:0:50:Snare.wav
182,192,122189,1,0,0:0:0:0:
329,192,122189,1,0,0:0:0:0:
402,192,122189,1,0,0:0:0:0:
475,192,122189,1,0,0:0:0:0:
36,192,122347,1,0,0:0:0:70:bass.wav
109,192,122347,1,0,0:0:0:50:Snare.wav
182,192,122347,1,0,0:0:0:0:
329,192,122347,1,0,0:0:0:0:
402,192,122347,1,0,0:0:0:0:
475,192,122347,1,0,0:0:0:0:
109,192,122505,1,0,0:0:0:70:drum.wav
182,192,122505,1,0,0:0:0:0:
402,192,122505,1,0,0:0:0:0:
36,192,122715,1,0,0:0:0:70:drum.wav
256,192,122715,1,0,0:0:0:0:
475,192,122715,1,0,0:0:0:0:
109,192,122820,1,0,0:0:0:70:drum.wav
182,192,122820,1,0,0:0:0:0:
329,192,122820,1,0,0:0:0:0:
182,192,123031,1,0,0:0:0:70:drum.wav
329,192,123031,1,0,0:0:0:0:
402,192,123031,1,0,0:0:0:0:
36,192,123136,1,0,0:0:0:70:drum.wav
256,192,123136,1,0,0:0:0:0:
475,192,123136,1,0,0:0:0:0:
109,192,123347,1,0,0:0:0:70:drum.wav
182,192,123347,1,0,0:0:0:0:
475,192,123347,1,0,0:0:0:0:
36,192,123452,1,0,0:0:0:70:drum.wav
256,192,123452,1,0,0:0:0:0:
402,192,123452,1,0,0:0:0:0:
329,192,123557,1,0,0:0:0:0:
182,192,123557,1,0,0:0:0:70:drum.wav
256,192,123663,1,0,0:0:0:70:drum.wav
36,192,123768,1,0,0:0:0:70:bass.wav
109,192,123768,1,0,0:0:0:50:Snare.wav
182,192,123768,1,0,0:0:0:70:cymbal.wav
329,192,123768,1,0,0:0:0:0:
402,192,123768,1,0,0:0:0:0:
475,192,123768,1,0,0:0:0:0:
36,192,124084,1,0,0:0:0:70:bass.wav
109,192,124084,1,0,0:0:0:50:Snare.wav
182,192,124084,1,0,0:0:0:0:
329,192,124084,1,0,0:0:0:0:
402,192,124084,1,0,0:0:0:0:
475,192,124084,1,0,0:0:0:0:
109,192,124399,1,0,0:0:0:70:bass.wav
182,192,124399,1,0,0:0:0:0:
402,192,124399,1,0,0:0:0:0:
475,192,124399,1,0,0:0:0:0:
182,192,124557,1,0,0:0:0:0:
475,192,124557,1,0,0:0:0:0:
36,192,124715,1,0,0:0:0:70:bass.wav
109,192,124715,1,0,0:0:0:0:
329,192,124715,1,0,0:0:0:0:
402,192,124715,1,0,0:0:0:0:
36,192,124873,1,0,0:0:0:0:
329,192,124873,1,0,0:0:0:0:
36,192,125031,1,0,0:0:0:70:bass.wav
109,192,125031,1,0,0:0:0:50:Snare.wav
182,192,125031,1,0,0:0:0:0:
329,192,125031,1,0,0:0:0:0:
402,192,125031,1,0,0:0:0:0:
475,192,125031,1,0,0:0:0:0:
109,192,125347,1,0,0:0:0:70:bass.wav
182,192,125347,1,0,0:0:0:0:
402,192,125347,1,0,0:0:0:0:
475,192,125347,1,0,0:0:0:0:
182,192,125505,1,0,0:0:0:0:
475,192,125505,1,0,0:0:0:0:
109,192,125663,1,0,0:0:0:50:Snare.wav
182,192,125663,1,0,0:0:0:0:
329,192,125663,1,0,0:0:0:0:
402,192,125663,1,0,0:0:0:0:
109,192,125820,1,0,0:0:0:50:Snare.wav
182,192,125820,1,0,0:0:0:0:
329,192,125820,1,0,0:0:0:0:
402,192,125820,1,0,0:0:0:0:
109,192,125978,1,0,0:0:0:70:bass.wav
182,192,125978,1,0,0:0:0:0:
256,192,125978,128,0,126294:0:0:0:0:
329,192,125978,1,0,0:0:0:0:
402,192,125978,1,0,0:0:0:0:
36,192,126294,1,0,0:0:0:70:bass.wav
109,192,126294,1,0,0:0:0:50:Snare.wav
182,192,126294,1,0,0:0:0:0:
329,192,126294,1,0,0:0:0:0:
402,192,126294,1,0,0:0:0:0:
475,192,126294,1,0,0:0:0:0:
36,192,126610,1,0,0:0:0:70:bass.wav
109,192,126610,1,0,0:0:0:50:Snare.wav
182,192,126610,1,0,0:0:0:0:
329,192,126610,1,0,0:0:0:0:
402,192,126610,1,0,0:0:0:0:
475,192,126610,1,0,0:0:0:0:
109,192,126926,1,0,0:0:0:70:bass.wav
182,192,126926,1,0,0:0:0:0:
402,192,126926,1,0,0:0:0:0:
475,192,126926,1,0,0:0:0:0:
182,192,127084,1,0,0:0:0:0:
475,192,127084,1,0,0:0:0:0:
36,192,127242,1,0,0:0:0:70:bass.wav
109,192,127242,1,0,0:0:0:0:
329,192,127242,1,0,0:0:0:0:
402,192,127242,1,0,0:0:0:0:
36,192,127399,1,0,0:0:0:0:
329,192,127399,1,0,0:0:0:0:
109,192,127557,1,0,0:0:0:70:bass.wav
182,192,127557,1,0,0:0:0:0:
402,192,127557,1,0,0:0:0:0:
475,192,127557,1,0,0:0:0:0:
256,192,127768,1,0,0:0:0:0:
36,192,127873,1,0,0:0:0:70:bass.wav
109,192,127873,1,0,0:0:0:0:
329,192,127873,1,0,0:0:0:0:
402,192,127873,1,0,0:0:0:0:
256,192,128031,1,0,0:0:0:0:
36,192,128189,1,0,0:0:0:70:bass.wav
182,192,128189,1,0,0:0:0:0:
329,192,128189,1,0,0:0:0:0:
475,192,128189,1,0,0:0:0:0:
109,192,128347,1,0,0:0:0:70:drum.wav
402,192,128347,1,0,0:0:0:0:
36,192,128505,1,0,0:0:0:70:drum.wav
475,192,128505,1,0,0:0:0:0:
182,192,128584,1,0,0:0:0:70:drum.wav
329,192,128584,1,0,0:0:0:0:
36,192,128663,1,0,0:0:0:70:drum.wav
475,192,128663,1,0,0:0:0:0:
36,192,128820,1,0,0:0:0:70:bass.wav
109,192,128820,1,0,0:0:0:50:Snare.wav
182,192,128820,1,0,0:0:0:0:
329,192,128820,1,0,0:0:0:0:
402,192,128820,1,0,0:0:0:0:
475,192,128820,1,0,0:0:0:0:
36,192,129136,1,0,0:0:0:70:bass.wav
109,192,129136,1,0,0:0:0:50:Snare.wav
182,192,129136,1,0,0:0:0:0:
329,192,129136,1,0,0:0:0:0:
402,192,129136,1,0,0:0:0:0:
475,192,129136,1,0,0:0:0:0:
36,192,129452,1,0,0:0:0:70:bass.wav
109,192,129452,1,0,0:0:0:0:
329,192,129452,1,0,0:0:0:0:
402,192,129452,1,0,0:0:0:0:
36,192,129610,1,0,0:0:0:0:
329,192,129610,1,0,0:0:0:0:
109,192,129768,1,0,0:0:0:70:bass.wav
182,192,129768,1,0,0:0:0:0:
402,192,129768,1,0,0:0:0:0:
475,192,129768,1,0,0:0:0:0:
182,192,129926,1,0,0:0:0:0:
475,192,129926,1,0,0:0:0:0:
36,192,130084,1,0,0:0:0:70:bass.wav
109,192,130084,1,0,0:0:0:50:Snare.wav
182,192,130084,1,0,0:0:0:0:
329,192,130084,1,0,0:0:0:0:
402,192,130084,1,0,0:0:0:0:
475,192,130084,1,0,0:0:0:0:
36,192,130399,1,0,0:0:0:70:bass.wav
109,192,130399,1,0,0:0:0:0:
329,192,130399,1,0,0:0:0:0:
402,192,130399,1,0,0:0:0:0:
36,192,130557,1,0,0:0:0:0:
329,192,130557,1,0,0:0:0:0:
109,192,130715,1,0,0:0:0:50:Snare.wav
182,192,130715,1,0,0:0:0:0:
402,192,130715,1,0,0:0:0:0:
475,192,130715,1,0,0:0:0:0:
109,192,130873,1,0,0:0:0:50:Snare.wav
182,192,130873,1,0,0:0:0:0:
402,192,130873,1,0,0:0:0:0:
475,192,130873,1,0,0:0:0:0:
109,192,131031,1,0,0:0:0:70:bass.wav
182,192,131031,1,0,0:0:0:0:
256,192,131031,128,0,131347:0:0:0:0:
329,192,131031,1,0,0:0:0:0:
402,192,131031,1,0,0:0:0:0:
36,192,131347,1,0,0:0:0:70:bass.wav
109,192,131347,1,0,0:0:0:50:Snare.wav
182,192,131347,1,0,0:0:0:0:
329,192,131347,1,0,0:0:0:0:
402,192,131347,1,0,0:0:0:0:
475,192,131347,1,0,0:0:0:0:
256,192,131557,1,0,0:0:0:0:
109,192,131663,1,0,0:0:0:50:Snare.wav
329,192,131663,1,0,0:0:0:0:
475,192,131663,1,0,0:0:0:0:
256,192,131873,1,0,0:0:0:0:
36,192,131978,1,0,0:0:0:50:Snare.wav
182,192,131978,1,0,0:0:0:0:
402,192,131978,1,0,0:0:0:0:
256,192,132189,1,0,0:0:0:0:
109,192,132294,1,0,0:0:0:50:Snare.wav
182,192,132294,1,0,0:0:0:0:
329,192,132294,1,0,0:0:0:0:
402,192,132294,1,0,0:0:0:0:
256,192,132505,1,0,0:0:0:0:
36,192,132610,128,0,133242:0:0:0:70:bass.wav
109,192,132610,128,0,133242:0:0:0:50:Snare.wav
182,192,132610,128,0,133242:0:0:0:70:cymbal.wav
329,192,132610,128,0,133242:0:0:0:0:
402,192,132610,128,0,133242:0:0:0:0:
475,192,132610,128,0,133242:0:0:0:0:
36,192,133873,1,0,0:0:0:70:bass.wav
256,192,133873,1,0,0:0:0:70:cymbal.wav
402,192,133873,1,0,0:0:0:0:
475,192,133873,1,0,0:0:0:0:
109,192,133913,1,0,0:0:0:0:
182,192,133952,1,0,0:0:0:0:
329,192,133992,1,0,0:0:0:0:
402,192,134031,1,0,0:0:0:0:
475,192,134070,1,0,0:0:0:0:
36,192,134110,1,0,0:0:0:0:
109,192,134149,1,0,0:0:0:0:
329,192,134189,1,0,0:0:0:50:Snare.wav
402,192,134189,1,0,0:0:0:0:
256,192,134228,1,0,0:0:0:0:
182,192,134268,1,0,0:0:0:0:
109,192,134307,1,0,0:0:0:0:
329,192,134347,1,0,0:0:0:0:
402,192,134426,1,0,0:0:0:0:
109,192,134505,1,0,0:0:0:70:bass.wav
256,192,134505,1,0,0:0:0:0:
475,192,134505,1,0,0:0:0:0:
36,192,134584,1,0,0:0:0:0:
182,192,134663,1,0,0:0:0:0:
402,192,134663,1,0,0:0:0:0:
256,192,134742,1,0,0:0:0:0:
475,192,134742,1,0,0:0:0:0:
36,192,134820,1,0,0:0:0:50:Snare.wav
109,192,134820,1,0,0:0:0:0:
329,192,134820,1,0,0:0:0:0:
182,192,134899,1,0,0:0:0:0:
402,192,134899,1,0,0:0:0:0:
109,192,134978,1,0,0:0:0:0:
329,192,134978,1,0,0:0:0:0:
256,192,135057,1,0,0:0:0:0:
36,192,135136,1,0,0:0:0:70:bass.wav
402,192,135136,1,0,0:0:0:0:
475,192,135136,1,0,0:0:0:0:
182,192,135215,1,0,0:0:0:0:
109,192,135294,1,0,0:0:0:0:
329,192,135294,1,0,0:0:0:0:
182,192,135373,1,0,0:0:0:0:
402,192,135373,1,0,0:0:0:0:
36,192,135452,1,0,0:0:0:50:Snare.wav
256,192,135452,1,0,0:0:0:0:
475,192,135452,1,0,0:0:0:0:
329,192,135531,1,0,0:0:0:0:
36,192,135610,1,0,0:0:0:0:
402,192,135610,1,0,0:0:0:0:
109,192,135689,1,0,0:0:0:0:
182,192,135768,1,0,0:0:0:70:bass.wav
256,192,135768,1,0,0:0:0:0:
475,192,135768,1,0,0:0:0:0:
402,192,135807,1,0,0:0:0:0:
329,192,135847,1,0,0:0:0:0:
36,192,135886,1,0,0:0:0:0:
109,192,135926,1,0,0:0:0:0:
182,192,135965,1,0,0:0:0:0:
256,192,136005,1,0,0:0:0:0:
329,192,136044,1,0,0:0:0:0:
402,192,136084,1,0,0:0:0:50:Snare.wav
475,192,136084,1,0,0:0:0:0:
182,192,136123,1,0,0:0:0:0:
109,192,136163,1,0,0:0:0:0:
36,192,136202,1,0,0:0:0:0:
402,192,136242,1,0,0:0:0:70:bass.wav
475,192,136242,1,0,0:0:0:0:
256,192,136320,1,0,0:0:0:0:
36,192,136399,1,0,0:0:0:70:bass.wav
402,192,136399,1,0,0:0:0:0:
475,192,136399,1,0,0:0:0:0:
109,192,136439,1,0,0:0:0:0:
182,192,136478,1,0,0:0:0:0:
256,192,136518,1,0,0:0:0:0:
329,192,136557,1,0,0:0:0:0:
182,192,136597,1,0,0:0:0:0:
109,192,136636,1,0,0:0:0:0:
36,192,136676,1,0,0:0:0:0:
402,192,136715,1,0,0:0:0:50:Snare.wav
475,192,136715,1,0,0:0:0:0:
182,192,136755,1,0,0:0:0:0:
256,192,136794,1,0,0:0:0:0:
329,192,136834,1,0,0:0:0:0:
475,192,136873,1,0,0:0:0:0:
402,192,136952,1,0,0:0:0:0:
36,192,137031,1,0,0:0:0:70:bass.wav
182,192,137031,1,0,0:0:0:0:
256,192,137031,1,0,0:0:0:0:
475,192,137110,1,0,0:0:0:0:
109,192,137189,1,0,0:0:0:0:
329,192,137189,1,0,0:0:0:0:
256,192,137268,1,0,0:0:0:0:
36,192,137347,1,0,0:0:0:50:Snare.wav
402,192,137347,1,0,0:0:0:0:
475,192,137347,1,0,0:0:0:0:
109,192,137426,1,0,0:0:0:0:
329,192,137426,1,0,0:0:0:0:
182,192,137505,1,0,0:0:0:70:bass.wav
256,192,137505,1,0,0:0:0:0:
402,192,137505,1,0,0:0:0:0:
36,192,137663,1,0,0:0:0:70:bass.wav
109,192,137663,1,0,0:0:0:0:
475,192,137663,1,0,0:0:0:0:
182,192,137742,1,0,0:0:0:0:
402,192,137742,1,0,0:0:0:0:
109,192,137820,1,0,0:0:0:0:
329,192,137820,1,0,0:0:0:0:
36,192,137899,1,0,0:0:0:0:
256,192,137899,1,0,0:0:0:0:
182,192,137978,1,0,0:0:0:50:Snare.wav
402,192,137978,1,0,0:0:0:0:
475,192,137978,1,0,0:0:0:0:
109,192,138057,1,0,0:0:0:0:
182,192,138136,1,0,0:0:0:70:bass.wav
329,192,138136,1,0,0:0:0:0:
402,192,138215,1,0,0:0:0:0:
36,192,138294,1,0,0:0:0:70:bass.wav
256,192,138294,1,0,0:0:0:0:
475,192,138294,1,0,0:0:0:0:
109,192,138334,1,0,0:0:0:0:
182,192,138373,1,0,0:0:0:0:
329,192,138413,1,0,0:0:0:0:
402,192,138452,1,0,0:0:0:70:bass.wav
475,192,138452,1,0,0:0:0:0:
36,192,138531,1,0,0:0:0:70:bass.wav
109,192,138531,1,0,0:0:0:0:
402,192,138610,1,0,0:0:0:50:Snare.wav
475,192,138610,1,0,0:0:0:0:
329,192,138649,1,0,0:0:0:0:
256,192,138689,1,0,0:0:0:0:
182,192,138728,1,0,0:0:0:0:
402,192,138768,1,0,0:0:0:70:bass.wav
475,192,138768,1,0,0:0:0:0:
36,192,138847,1,0,0:0:0:70:bass.wav
109,192,138847,1,0,0:0:0:0:
329,192,138926,1,0,0:0:0:70:bass.wav
402,192,138926,1,0,0:0:0:0:
475,192,138926,1,0,0:0:0:0:
256,192,138965,1,0,0:0:0:0:
182,192,139005,1,0,0:0:0:0:
109,192,139044,1,0,0:0:0:0:
36,192,139084,1,0,0:0:0:0:
475,192,139123,1,0,0:0:0:0:
402,192,139163,1,0,0:0:0:0:
329,192,139202,1,0,0:0:0:0:
109,192,139242,1,0,0:0:0:50:Snare.wav
182,192,139242,1,0,0:0:0:0:
256,192,139281,1,0,0:0:0:0:
475,192,139320,1,0,0:0:0:0:
402,192,139360,1,0,0:0:0:0:
329,192,139399,1,0,0:0:0:0:
109,192,139478,1,0,0:0:0:0:
36,192,139557,1,0,0:0:0:70:bass.wav
256,192,139557,1,0,0:0:0:0:
475,192,139557,1,0,0:0:0:0:
182,192,139636,1,0,0:0:0:0:
402,192,139636,1,0,0:0:0:0:
109,192,139715,1,0,0:0:0:0:
329,192,139715,1,0,0:0:0:0:
256,192,139794,1,0,0:0:0:0:
36,192,139873,1,0,0:0:0:50:Snare.wav
182,192,139873,1,0,0:0:0:0:
475,192,139873,1,0,0:0:0:0:
109,192,139952,1,0,0:0:0:0:
329,192,139952,1,0,0:0:0:0:
182,192,140031,1,0,0:0:0:0:
402,192,140031,1,0,0:0:0:0:
256,192,140110,1,0,0:0:0:0:
475,192,140110,1,0,0:0:0:0:
36,192,140189,1,0,0:0:0:70:bass.wav
109,192,140189,1,0,0:0:0:0:
329,192,140189,1,0,0:0:0:0:
182,192,140268,1,0,0:0:0:0:
402,192,140347,1,0,0:0:0:0:
475,192,140347,1,0,0:0:0:0:
329,192,140426,1,0,0:0:0:0:
109,192,140505,1,0,0:0:0:50:Snare.wav
182,192,140505,1,0,0:0:0:0:
256,192,140505,1,0,0:0:0:0:
475,192,140584,1,0,0:0:0:0:
36,192,140663,1,0,0:0:0:70:bass.wav
109,192,140663,1,0,0:0:0:0:
182,192,140663,1,0,0:0:0:0:
329,192,140742,1,0,0:0:0:70:bass.wav
402,192,140742,1,0,0:0:0:0:
475,192,140742,1,0,0:0:0:0:
36,192,140820,1,0,0:0:0:70:bass.wav
109,192,140820,1,0,0:0:0:0:
182,192,140820,1,0,0:0:0:0:
475,192,140860,1,0,0:0:0:0:
402,192,140899,1,0,0:0:0:0:
329,192,140939,1,0,0:0:0:0:
36,192,140978,1,0,0:0:0:50:Snare.wav
109,192,140978,1,0,0:0:0:0:
182,192,141018,1,0,0:0:0:0:
256,192,141057,1,0,0:0:0:0:
329,192,141097,1,0,0:0:0:0:
402,192,141136,1,0,0:0:0:70:bass.wav
475,192,141136,1,0,0:0:0:0:
182,192,141176,1,0,0:0:0:0:
109,192,141215,1,0,0:0:0:0:
36,192,141255,1,0,0:0:0:0:
256,192,141294,1,0,0:0:0:70:bass.wav
329,192,141294,1,0,0:0:0:0:
402,192,141334,1,0,0:0:0:0:
475,192,141373,1,0,0:0:0:0:
36,192,141452,1,0,0:0:0:70:bass.wav
109,192,141452,1,0,0:0:0:0:
182,192,141452,1,0,0:0:0:0:
402,192,141492,1,0,0:0:0:0:
329,192,141531,1,0,0:0:0:0:
256,192,141570,1,0,0:0:0:0:
182,192,141610,1,0,0:0:0:0:
475,192,141649,1,0,0:0:0:0:
402,192,141689,1,0,0:0:0:0:
329,192,141728,1,0,0:0:0:0:
36,192,141768,1,0,0:0:0:50:Snare.wav
109,192,141768,1,0,0:0:0:0:
182,192,141807,1,0,0:0:0:0:
256,192,141847,1,0,0:0:0:0:
329,192,141886,1,0,0:0:0:0:
402,192,141926,1,0,0:0:0:0:
182,192,142005,1,0,0:0:0:0:
109,192,142084,1,0,0:0:0:70:bass.wav
329,192,142084,1,0,0:0:0:0:
475,192,142084,1,0,0:0:0:0:
36,192,142163,1,0,0:0:0:0:
182,192,142242,1,0,0:0:0:0:
402,192,142242,1,0,0:0:0:0:
256,192,142320,1,0,0:0:0:0:
36,192,142399,1,0,0:0:0:50:Snare.wav
109,192,142399,1,0,0:0:0:0:
475,192,142399,1,0,0:0:0:0:
182,192,142478,1,0,0:0:0:0:
402,192,142478,1,0,0:0:0:0:
109,192,142557,1,0,0:0:0:70:bass.wav
256,192,142557,1,0,0:0:0:0:
329,192,142557,1,0,0:0:0:0:
36,192,142715,1,0,0:0:0:70:bass.wav
402,192,142715,1,0,0:0:0:0:
475,192,142715,1,0,0:0:0:0:
109,192,142794,1,0,0:0:0:0:
329,192,142794,1,0,0:0:0:0:
182,192,142873,1,0,0:0:0:0:
402,192,142873,1,0,0:0:0:0:
256,192,142952,1,0,0:0:0:0:
475,192,142952,1,0,0:0:0:0:
36,192,143031,1,0,0:0:0:50:Snare.wav
109,192,143031,1,0,0:0:0:0:
402,192,143031,1,0,0:0:0:0:
329,192,143110,1,0,0:0:0:0:
36,192,143189,1,0,0:0:0:70:bass.wav
109,192,143189,1,0,0:0:0:0:
256,192,143189,1,0,0:0:0:0:
182,192,143268,1,0,0:0:0:70:bass.wav
402,192,143268,1,0,0:0:0:0:
475,192,143268,1,0,0:0:0:0:
36,192,143347,1,0,0:0:0:70:bass.wav
109,192,143347,1,0,0:0:0:0:
329,192,143347,1,0,0:0:0:0:
256,192,143347,1,0,0:0:0:0:
36,192,143505,1,0,0:0:0:70:bass.wav
109,192,143505,1,0,0:0:0:70:cymbal.wav
329,192,143505,1,0,0:0:0:0:
256,192,143505,1,0,0:0:0:0:
36,192,143663,1,0,0:0:0:70:bass.wav
109,192,143663,1,0,0:0:0:70:cymbal.wav
329,192,143663,1,0,0:0:0:0:
256,192,143663,1,0,0:0:0:0:
475,192,143715,1,0,0:0:0:0:
402,192,143768,1,0,0:0:0:0:
329,192,143820,1,0,0:0:0:0:
256,192,143873,1,0,0:0:0:0:
182,192,143926,1,0,0:0:0:0:
36,192,143978,1,0,0:0:0:70:bass.wav
109,192,143978,1,0,0:0:0:70:cymbal.wav
475,192,143978,1,0,0:0:0:0:
402,192,144018,1,0,0:0:0:0:
329,192,144057,1,0,0:0:0:0:
182,192,144097,1,0,0:0:0:0:
109,192,144136,1,0,0:0:0:70:bass.wav
256,192,144136,1,0,0:0:0:0:
36,192,144176,1,0,0:0:0:0:
329,192,144215,1,0,0:0:0:0:
402,192,144255,1,0,0:0:0:0:
182,192,144294,1,0,0:0:0:50:Snare.wav
475,192,144294,1,0,0:0:0:0:
109,192,144334,1,0,0:0:0:0:
256,192,144373,1,0,0:0:0:0:
329,192,144413,1,0,0:0:0:0:
402,192,144452,1,0,0:0:0:0:
182,192,144531,1,0,0:0:0:0:
36,192,144610,1,0,0:0:0:70:bass.wav
256,192,144610,1,0,0:0:0:0:
402,192,144610,1,0,0:0:0:0:
475,192,144689,1,0,0:0:0:0:
109,192,144768,1,0,0:0:0:0:
329,192,144768,1,0,0:0:0:0:
36,192,144847,1,0,0:0:0:0:
256,192,144847,1,0,0:0:0:0:
182,192,144926,1,0,0:0:0:50:Snare.wav
402,192,144926,1,0,0:0:0:0:
475,192,144926,1,0,0:0:0:0:
109,192,145005,1,0,0:0:0:0:
329,192,145005,1,0,0:0:0:0:
182,192,145084,1,0,0:0:0:0:
402,192,145084,1,0,0:0:0:0:
256,192,145163,1,0,0:0:0:0:
36,192,145242,1,0,0:0:0:70:bass.wav
109,192,145242,1,0,0:0:0:0:
475,192,145242,1,0,0:0:0:0:
329,192,145320,1,0,0:0:0:0:
182,192,145399,1,0,0:0:0:0:
402,192,145399,1,0,0:0:0:0:
109,192,145478,1,0,0:0:0:0:
329,192,145478,1,0,0:0:0:0:
36,192,145557,1,0,0:0:0:50:Snare.wav
256,192,145557,1,0,0:0:0:0:
402,192,145557,1,0,0:0:0:0:
182,192,145636,1,0,0:0:0:0:
36,192,145715,1,0,0:0:0:70:bass.wav
109,192,145715,1,0,0:0:0:0:
475,192,145715,1,0,0:0:0:0:
256,192,145794,1,0,0:0:0:70:bass.wav
329,192,145794,1,0,0:0:0:0:
402,192,145794,1,0,0:0:0:0:
36,192,145873,1,0,0:0:0:70:bass.wav
109,192,145873,1,0,0:0:0:0:
475,192,145873,1,0,0:0:0:0:
182,192,145913,1,0,0:0:0:0:
256,192,145952,1,0,0:0:0:0:
329,192,145992,1,0,0:0:0:0:
109,192,146031,1,0,0:0:0:70:bass.wav
402,192,146031,1,0,0:0:0:0:
182,192,146070,1,0,0:0:0:0:
256,192,146110,1,0,0:0:0:0:
329,192,146149,1,0,0:0:0:0:
402,192,146189,1,0,0:0:0:50:Snare.wav
475,192,146189,1,0,0:0:0:0:
182,192,146228,1,0,0:0:0:0:
109,192,146268,1,0,0:0:0:0:
36,192,146307,1,0,0:0:0:0:
256,192,146347,1,0,0:0:0:70:bass.wav
329,192,146347,1,0,0:0:0:0:
402,192,146426,1,0,0:0:0:70:bass.wav
475,192,146426,1,0,0:0:0:0:
36,192,146505,1,0,0:0:0:70:bass.wav
256,192,146505,1,0,0:0:0:0:
329,192,146505,1,0,0:0:0:0:
109,192,146544,1,0,0:0:0:0:
182,192,146584,1,0,0:0:0:0:
475,192,146623,1,0,0:0:0:0:
402,192,146663,1,0,0:0:0:0:
329,192,146702,1,0,0:0:0:0:
36,192,146742,1,0,0:0:0:0:
109,192,146781,1,0,0:0:0:0:
182,192,146820,1,0,0:0:0:50:Snare.wav
402,192,146820,1,0,0:0:0:0:
329,192,146860,1,0,0:0:0:0:
256,192,146899,1,0,0:0:0:0:
36,192,146939,1,0,0:0:0:0:
109,192,146978,1,0,0:0:0:0:
475,192,147057,1,0,0:0:0:0:
182,192,147136,1,0,0:0:0:70:bass.wav
256,192,147136,1,0,0:0:0:0:
402,192,147136,1,0,0:0:0:0:
36,192,147215,1,0,0:0:0:0:
182,192,147294,1,0,0:0:0:0:
329,192,147294,1,0,0:0:0:0:
256,192,147373,1,0,0:0:0:0:
36,192,147452,1,0,0:0:0:50:Snare.wav
109,192,147452,1,0,0:0:0:0:
475,192,147452,1,0,0:0:0:0:
182,192,147531,1,0,0:0:0:0:
402,192,147531,1,0,0:0:0:0:
109,192,147610,1,0,0:0:0:70:bass.wav
256,192,147610,1,0,0:0:0:0:
329,192,147610,1,0,0:0:0:0:
36,192,147768,1,0,0:0:0:70:bass.wav
402,192,147768,1,0,0:0:0:0:
475,192,147768,1,0,0:0:0:0:
109,192,147847,1,0,0:0:0:0:
182,192,147926,1,0,0:0:0:0:
329,192,147926,1,0,0:0:0:0:
256,192,148005,1,0,0:0:0:0:
402,192,148005,1,0,0:0:0:0:
36,192,148084,1,0,0:0:0:50:Snare.wav
109,192,148084,1,0,0:0:0:0:
475,192,148084,1,0,0:0:0:0:
329,192,148163,1,0,0:0:0:0:
182,192,148242,1,0,0:0:0:70:bass.wav
256,192,148242,1,0,0:0:0:0:
402,192,148242,1,0,0:0:0:0:
109,192,148320,1,0,0:0:0:0:
36,192,148399,1,0,0:0:0:70:bass.wav
256,192,148399,1,0,0:0:0:0:
475,192,148399,1,0,0:0:0:0:
402,192,148439,1,0,0:0:0:0:
329,192,148478,1,0,0:0:0:0:
182,192,148518,1,0,0:0:0:0:
36,192,148557,1,0,0:0:0:70:bass.wav
109,192,148557,1,0,0:0:0:0:
402,192,148636,1,0,0:0:0:70:bass.wav
475,192,148636,1,0,0:0:0:0:
36,192,148715,1,0,0:0:0:50:Snare.wav
109,192,148715,1,0,0:0:0:0:
182,192,148755,1,0,0:0:0:0:
256,192,148794,1,0,0:0:0:0:
329,192,148834,1,0,0:0:0:0:
36,192,148873,1,0,0:0:0:70:bass.wav
109,192,148873,1,0,0:0:0:0:
402,192,148952,1,0,0:0:0:70:bass.wav
475,192,148952,1,0,0:0:0:0:
182,192,149031,1,0,0:0:0:70:bass.wav
256,192,149031,1,0,0:0:0:0:
329,192,149031,1,0,0:0:0:0:
109,192,149070,1,0,0:0:0:0:
36,192,149110,1,0,0:0:0:0:
475,192,149149,1,0,0:0:0:0:
329,192,149189,1,0,0:0:0:70:bass.wav
402,192,149189,1,0,0:0:0:0:
109,192,149228,1,0,0:0:0:0:
182,192,149268,1,0,0:0:0:0:
256,192,149307,1,0,0:0:0:0:
402,192,149347,1,0,0:0:0:50:Snare.wav
475,192,149347,1,0,0:0:0:0:
329,192,149386,1,0,0:0:0:0:
182,192,149426,1,0,0:0:0:0:
109,192,149465,1,0,0:0:0:0:
36,192,149505,1,0,0:0:0:0:
182,192,149584,1,0,0:0:0:0:
402,192,149663,1,0,0:0:0:70:bass.wav
256,192,149663,1,0,0:0:0:0:
475,192,149663,1,0,0:0:0:0:
109,192,149742,1,0,0:0:0:0:
182,192,149820,1,0,0:0:0:0:
329,192,149820,1,0,0:0:0:0:
256,192,149899,1,0,0:0:0:0:
402,192,149899,1,0,0:0:0:0:
36,192,149978,1,0,0:0:0:50:Snare.wav
109,192,149978,1,0,0:0:0:0:
475,192,149978,1,0,0:0:0:0:
182,192,150057,1,0,0:0:0:0:
402,192,150057,1,0,0:0:0:0:
36,192,150136,1,0,0:0:0:70:bass.wav
256,192,150136,1,0,0:0:0:0:
329,192,150136,1,0,0:0:0:0:
109,192,150215,1,0,0:0:0:70:bass.wav
182,192,150215,1,0,0:0:0:0:
475,192,150215,1,0,0:0:0:0:
256,192,150294,1,0,0:0:0:70:bass.wav
329,192,150294,1,0,0:0:0:0:
402,192,150294,1,0,0:0:0:0:
475,192,150373,1,0,0:0:0:0:
36,192,150452,1,0,0:0:0:0:
109,192,150452,1,0,0:0:0:0:
182,192,150531,1,0,0:0:0:0:
256,192,150610,1,0,0:0:0:50:Snare.wav
329,192,150610,1,0,0:0:0:0:
475,192,150610,1,0,0:0:0:0:
36,192,150689,1,0,0:0:0:70:bass.wav
109,192,150689,1,0,0:0:0:0:
182,192,150689,1,0,0:0:0:0:
329,192,150768,1,0,0:0:0:70:bass.wav
402,192,150768,1,0,0:0:0:0:
475,192,150768,1,0,0:0:0:0:
256,192,150847,1,0,0:0:0:0:
329,192,150926,1,0,0:0:0:70:bass.wav
402,192,150926,1,0,0:0:0:0:
475,192,150926,1,0,0:0:0:0:
36,192,150965,1,0,0:0:0:0:
109,192,151005,1,0,0:0:0:70:bass.wav
182,192,151005,1,0,0:0:0:0:
256,192,151044,1,0,0:0:0:0:
402,192,151084,1,0,0:0:0:50:Snare.wav
475,192,151084,1,0,0:0:0:0:
329,192,151123,1,0,0:0:0:0:
36,192,151163,1,0,0:0:0:0:
109,192,151202,1,0,0:0:0:0:
182,192,151242,1,0,0:0:0:70:bass.wav
475,192,151242,1,0,0:0:0:0:
402,192,151281,1,0,0:0:0:0:
329,192,151320,1,0,0:0:0:0:
36,192,151360,1,0,0:0:0:0:
109,192,151399,1,0,0:0:0:70:drum.wav
256,192,151399,1,0,0:0:0:0:
402,192,151478,1,0,0:0:0:70:drum.wav
475,192,151478,1,0,0:0:0:0:
109,192,151557,1,0,0:0:0:70:bass.wav
182,192,151557,1,0,0:0:0:0:
256,192,151557,1,0,0:0:0:0:
329,192,151597,1,0,0:0:0:0:
402,192,151636,1,0,0:0:0:0:
36,192,151676,1,0,0:0:0:0:
182,192,151715,1,0,0:0:0:0:
256,192,151755,1,0,0:0:0:0:
329,192,151794,1,0,0:0:0:0:
402,192,151834,1,0,0:0:0:0:
36,192,151873,1,0,0:0:0:50:Snare.wav
109,192,151873,1,0,0:0:0:0:
182,192,151913,1,0,0:0:0:0:
475,192,151952,1,0,0:0:0:0:
402,192,151992,1,0,0:0:0:0:
329,192,152031,1,0,0:0:0:0:
182,192,152110,1,0,0:0:0:0:
36,192,152189,1,0,0:0:0:70:bass.wav
256,192,152189,1,0,0:0:0:0:
402,192,152189,1,0,0:0:0:0:
475,192,152268,1,0,0:0:0:0:
109,192,152347,1,0,0:0:0:0:
329,192,152347,1,0,0:0:0:0:
256,192,152426,1,0,0:0:0:0:
36,192,152505,1,0,0:0:0:50:Snare.wav
402,192,152505,1,0,0:0:0:0:
475,192,152505,1,0,0:0:0:0:
109,192,152584,1,0,0:0:0:0:
329,192,152584,1,0,0:0:0:0:
182,192,152663,1,0,0:0:0:70:bass.wav
256,192,152663,1,0,0:0:0:0:
402,192,152663,1,0,0:0:0:0:
36,192,152742,1,0,0:0:0:70:bass.wav
109,192,152742,1,0,0:0:0:0:
475,192,152742,1,0,0:0:0:0:
256,192,152820,1,0,0:0:0:70:bass.wav
329,192,152820,1,0,0:0:0:0:
402,192,152820,1,0,0:0:0:0:
36,192,152899,1,0,0:0:0:0:
329,192,152978,1,0,0:0:0:70:drum.wav
402,192,152978,1,0,0:0:0:0:
475,192,152978,1,0,0:0:0:0:
36,192,153057,1,0,0:0:0:70:drum.wav
109,192,153057,1,0,0:0:0:0:
182,192,153057,1,0,0:0:0:0:
329,192,153136,1,0,0:0:0:50:Snare.wav
402,192,153136,1,0,0:0:0:0:
475,192,153136,1,0,0:0:0:0:
256,192,153215,1,0,0:0:0:0:
36,192,153294,1,0,0:0:0:70:bass.wav
109,192,153294,1,0,0:0:0:0:
182,192,153294,1,0,0:0:0:0:
329,192,153373,1,0,0:0:0:70:bass.wav
402,192,153373,1,0,0:0:0:0:
475,192,153373,1,0,0:0:0:0:
36,192,153452,1,0,0:0:0:70:bass.wav
109,192,153452,1,0,0:0:0:70:cymbal.wav
182,192,153452,1,0,0:0:0:0:
256,192,153452,1,0,0:0:0:0:
36,192,153610,1,0,0:0:0:70:bass.wav
109,192,153610,1,0,0:0:0:70:cymbal.wav
182,192,153610,1,0,0:0:0:0:
256,192,153610,1,0,0:0:0:0:
36,192,153768,1,0,0:0:0:70:bass.wav
109,192,153768,1,0,0:0:0:70:cymbal.wav
182,192,153768,1,0,0:0:0:0:
256,192,153768,1,0,0:0:0:0:
475,192,153820,1,0,0:0:0:0:
402,192,153873,1,0,0:0:0:0:
329,192,153926,1,0,0:0:0:0:
36,192,153978,1,0,0:0:0:0:
109,192,154031,1,0,0:0:0:0:
182,192,154084,1,0,0:0:0:70:loobass.wav
475,192,154084,1,0,0:0:0:0:
256,192,154084,128,0,157562:0:0:0:0:
36,192,157562,1,0,0:0:0:70:loobass.wav
109,192,157562,1,0,0:0:0:70:cymbal.wav
402,192,157562,1,0,0:0:0:0:
475,192,157562,1,0,0:0:0:0:
329,192,157779,1,0,0:0:0:0:
182,192,157997,1,0,0:0:0:0:
402,192,158105,1,0,0:0:0:0:
182,192,158323,1,0,0:0:0:0:
475,192,158431,1,0,0:0:0:0:
182,192,158649,1,0,0:0:0:0:
329,192,158757,1,0,0:0:0:0:
182,192,158975,1,0,0:0:0:0:
402,192,159084,1,0,0:0:0:0:
36,192,159301,1,0,0:0:0:0:
329,192,159518,1,0,0:0:0:0:
182,192,159736,1,0,0:0:0:0:
402,192,159844,1,0,0:0:0:0:
182,192,160062,1,0,0:0:0:0:
475,192,160170,1,0,0:0:0:0:
182,192,160388,1,0,0:0:0:0:
329,192,160497,1,0,0:0:0:0:
182,192,160714,1,0,0:0:0:0:
402,192,160823,1,0,0:0:0:0:
109,192,161040,1,0,0:0:0:0:
329,192,161257,1,0,0:0:0:0:
182,192,161475,1,0,0:0:0:0:
402,192,161584,1,0,0:0:0:0:
182,192,161801,1,0,0:0:0:0:
475,192,161910,1,0,0:0:0:0:
182,192,162127,1,0,0:0:0:0:
329,192,162236,1,0,0:0:0:0:
182,192,162453,1,0,0:0:0:0:
402,192,162562,1,0,0:0:0:0:
256,192,162779,1,0,0:0:0:0:
329,192,162997,1,0,0:0:0:0:
182,192,163214,1,0,0:0:0:0:
402,192,163323,1,0,0:0:0:0:
182,192,163540,1,0,0:0:0:0:
475,192,163649,1,0,0:0:0:0:
182,192,163866,1,0,0:0:0:0:
329,192,163975,1,0,0:0:0:0:
182,192,164192,1,0,0:0:0:0:
402,192,164301,1,0,0:0:0:0:
36,192,164518,5,0,0:0:0:50:Snare.wav
109,192,164518,1,0,0:0:0:70:cymbal.wav
182,192,164518,1,0,0:0:0:0:
329,192,164518,1,0,0:0:0:0:
475,192,164736,1,0,0:0:0:0:
36,192,164953,1,0,0:0:0:50:Snare.wav
109,192,164953,1,0,0:0:0:0:
182,192,164953,1,0,0:0:0:0:
329,192,164953,1,0,0:0:0:0:
475,192,165062,1,0,0:0:0:0:
475,192,165279,1,0,0:0:0:0:
36,192,165388,1,0,0:0:0:50:Snare.wav
109,192,165388,1,0,0:0:0:0:
182,192,165388,1,0,0:0:0:0:
329,192,165388,1,0,0:0:0:0:
475,192,165605,1,0,0:0:0:0:
36,192,165823,1,0,0:0:0:50:Snare.wav
109,192,165823,1,0,0:0:0:0:
182,192,165823,1,0,0:0:0:0:
329,192,165823,1,0,0:0:0:0:
475,192,165931,1,0,0:0:0:0:
36,192,166040,1,0,0:0:0:50:Snare.wav
109,192,166040,1,0,0:0:0:0:
182,192,166040,1,0,0:0:0:0:
256,192,166149,1,0,0:0:0:0:
36,192,166257,1,0,0:0:0:50:Snare.wav
329,192,166257,1,0,0:0:0:70:cymbal.wav
402,192,166257,1,0,0:0:0:0:
475,192,166257,1,0,0:0:0:0:
182,192,166475,1,0,0:0:0:0:
36,192,166692,1,0,0:0:0:50:Snare.wav
329,192,166692,1,0,0:0:0:0:
402,192,166692,1,0,0:0:0:0:
475,192,166692,1,0,0:0:0:0:
182,192,166801,1,0,0:0:0:0:
182,192,167018,1,0,0:0:0:0:
36,192,167127,1,0,0:0:0:50:Snare.wav
329,192,167127,1,0,0:0:0:0:
402,192,167127,1,0,0:0:0:0:
475,192,167127,1,0,0:0:0:0:
182,192,167344,1,0,0:0:0:0:
329,192,167453,1,0,0:0:0:50:Snare.wav
402,192,167453,1,0,0:0:0:0:
475,192,167453,1,0,0:0:0:0:
36,192,167562,1,0,0:0:0:50:Snare.wav
329,192,167562,1,0,0:0:0:0:
402,192,167562,1,0,0:0:0:0:
475,192,167562,1,0,0:0:0:0:
182,192,167670,1,0,0:0:0:0:
329,192,167779,1,0,0:0:0:50:Snare.wav
402,192,167779,1,0,0:0:0:0:
475,192,167779,1,0,0:0:0:0:
256,192,167888,1,0,0:0:0:0:
36,192,167997,1,0,0:0:0:50:Snare.wav
109,192,167997,1,0,0:0:0:70:cymbal.wav
182,192,167997,1,0,0:0:0:0:
36,192,168105,1,0,0:0:0:50:Snare.wav
109,192,168105,1,0,0:0:0:0:
182,192,168105,1,0,0:0:0:0:
329,192,168214,1,0,0:0:0:50:Snare.wav
402,192,168214,1,0,0:0:0:0:
475,192,168214,1,0,0:0:0:0:
329,192,168323,1,0,0:0:0:50:Snare.wav
402,192,168323,1,0,0:0:0:0:
475,192,168323,1,0,0:0:0:0:
109,192,168431,1,0,0:0:0:50:Snare.wav
182,192,168431,1,0,0:0:0:0:
109,192,168540,1,0,0:0:0:50:Snare.wav
182,192,168540,1,0,0:0:0:0:
329,192,168649,1,0,0:0:0:50:Snare.wav
402,192,168649,1,0,0:0:0:0:
329,192,168757,1,0,0:0:0:50:Snare.wav
402,192,168757,1,0,0:0:0:0:
36,192,168866,1,0,0:0:0:50:Snare.wav
182,192,168866,1,0,0:0:0:0:
329,192,168920,1,0,0:0:0:50:Snare.wav
475,192,168920,1,0,0:0:0:0:
36,192,168975,1,0,0:0:0:50:Snare.wav
182,192,168975,1,0,0:0:0:0:
329,192,169029,1,0,0:0:0:50:Snare.wav
475,192,169029,1,0,0:0:0:0:
36,192,169084,1,0,0:0:0:50:Snare.wav
182,192,169084,1,0,0:0:0:0:
329,192,169138,1,0,0:0:0:50:Snare.wav
475,192,169138,1,0,0:0:0:0:
36,192,169192,1,0,0:0:0:50:Snare.wav
182,192,169192,1,0,0:0:0:0:
329,192,169247,1,0,0:0:0:50:Snare.wav
475,192,169247,1,0,0:0:0:0:
36,192,169301,1,0,0:0:0:50:Snare.wav
182,192,169301,1,0,0:0:0:0:
329,192,169355,1,0,0:0:0:50:Snare.wav
475,192,169355,1,0,0:0:0:0:
36,192,169410,1,0,0:0:0:50:Snare.wav
182,192,169410,1,0,0:0:0:0:
329,192,169464,1,0,0:0:0:50:Snare.wav
475,192,169464,1,0,0:0:0:0:
36,192,169518,1,0,0:0:0:50:Snare.wav
182,192,169518,1,0,0:0:0:0:
329,192,169573,1,0,0:0:0:50:Snare.wav
475,192,169573,1,0,0:0:0:0:
36,192,169627,1,0,0:0:0:50:Snare.wav
182,192,169627,1,0,0:0:0:0:
329,192,169681,1,0,0:0:0:50:Snare.wav
475,192,169681,1,0,0:0:0:0:
256,192,169736,1,0,0:0:0:70:drum.wav
109,192,170026,1,0,0:0:0:70:drum.wav
182,192,170026,1,0,0:0:0:0:
402,192,170026,1,0,0:0:0:0:
329,192,170170,1,0,0:0:0:0:
402,192,170170,1,0,0:0:0:0:
36,192,170315,1,0,0:0:0:70:drum.wav
109,192,170315,1,0,0:0:0:0:
256,192,170315,1,0,0:0:0:0:
109,192,170460,1,0,0:0:0:0:
329,192,170460,1,0,0:0:0:0:
182,192,170605,1,0,0:0:0:70:drum.wav
402,192,170605,1,0,0:0:0:0:
475,192,170605,1,0,0:0:0:0:
256,192,170750,1,0,0:0:0:70:drum.wav
329,192,170750,1,0,0:0:0:0:
402,192,170750,1,0,0:0:0:0:
109,192,170895,1,0,0:0:0:70:drum.wav
182,192,170895,1,0,0:0:0:0:
256,192,170895,1,0,0:0:0:0:
36,192,171040,128,0,171366:0:0:0:50:Snare.wav
109,192,171040,128,0,171366:0:0:0:70:loobass.wav
182,192,171040,128,0,171366:0:0:0:0:
329,192,171040,128,0,171366:0:0:0:0:
402,192,171040,128,0,171366:0:0:0:0:
475,192,171040,128,0,171366:0:0:0:0:
36,192,171475,1,0,0:0:0:70:loobass.wav
109,192,171475,1,0,0:0:0:70:cymbal.wav
256,192,171475,128,0,171910:0:0:0:0:
402,192,171475,1,0,0:0:0:0:
475,192,171475,1,0,0:0:0:0:
36,192,171910,1,0,0:0:0:50:Snare.wav
109,192,171910,1,0,0:0:0:0:
182,192,171910,1,0,0:0:0:0:
402,192,171910,1,0,0:0:0:0:
109,192,172018,1,0,0:0:0:0:
329,192,172018,1,0,0:0:0:0:
182,192,172127,1,0,0:0:0:0:
402,192,172127,1,0,0:0:0:0:
36,192,172236,1,0,0:0:0:0:
256,192,172236,1,0,0:0:0:0:
329,192,172344,1,0,0:0:0:70:bass.wav
402,192,172344,1,0,0:0:0:0:
475,192,172344,1,0,0:0:0:0:
182,192,172453,1,0,0:0:0:0:
402,192,172453,1,0,0:0:0:0:
109,192,172562,1,0,0:0:0:0:
329,192,172562,1,0,0:0:0:0:
256,192,172670,1,0,0:0:0:0:
475,192,172670,1,0,0:0:0:0:
36,192,172779,1,0,0:0:0:50:Snare.wav
109,192,172779,1,0,0:0:0:0:
182,192,172779,1,0,0:0:0:0:
402,192,172779,1,0,0:0:0:0:
109,192,172888,1,0,0:0:0:0:
329,192,172888,1,0,0:0:0:0:
182,192,172997,1,0,0:0:0:0:
402,192,172997,1,0,0:0:0:0:
36,192,173214,1,0,0:0:0:70:bass.wav
256,192,173214,128,0,173649:0:0:0:70:loobass.wav
475,192,173214,1,0,0:0:0:0:
109,192,173649,1,0,0:0:0:50:Snare.wav
329,192,173649,1,0,0:0:0:0:
402,192,173649,1,0,0:0:0:0:
475,192,173649,1,0,0:0:0:0:
182,192,173757,1,0,0:0:0:0:
402,192,173757,1,0,0:0:0:0:
109,192,173866,1,0,0:0:0:0:
329,192,173866,1,0,0:0:0:0:
256,192,173975,1,0,0:0:0:0:
475,192,173975,1,0,0:0:0:0:
36,192,174084,1,0,0:0:0:70:bass.wav
109,192,174084,1,0,0:0:0:0:
182,192,174084,1,0,0:0:0:0:
109,192,174192,1,0,0:0:0:0:
329,192,174192,1,0,0:0:0:0:
36,192,174410,1,0,0:0:0:0:
256,192,174410,1,0,0:0:0:0:
109,192,174518,1,0,0:0:0:50:Snare.wav
329,192,174518,1,0,0:0:0:0:
402,192,174518,1,0,0:0:0:0:
475,192,174518,1,0,0:0:0:0:
182,192,174627,1,0,0:0:0:0:
402,192,174627,1,0,0:0:0:0:
109,192,174736,1,0,0:0:0:0:
329,192,174736,1,0,0:0:0:0:
256,192,174844,1,0,0:0:0:0:
475,192,174844,1,0,0:0:0:0:
36,192,174953,1,0,0:0:0:70:bass.wav
182,192,174953,128,0,175388:0:0:0:70:loobass.wav
402,192,174953,1,0,0:0:0:0:
36,192,175388,1,0,0:0:0:50:Snare.wav
109,192,175388,1,0,0:0:0:0:
329,192,175388,1,0,0:0:0:0:
475,192,175388,1,0,0:0:0:0:
329,192,175497,1,0,0:0:0:0:
402,192,175497,1,0,0:0:0:0:
36,192,175605,1,0,0:0:0:0:
256,192,175605,1,0,0:0:0:0:
109,192,175714,1,0,0:0:0:0:
329,192,175714,1,0,0:0:0:0:
182,192,175823,1,0,0:0:0:70:bass.wav
402,192,175823,1,0,0:0:0:0:
475,192,175823,1,0,0:0:0:0:
109,192,175931,1,0,0:0:0:0:
182,192,175931,1,0,0:0:0:0:
256,192,176040,1,0,0:0:0:0:
475,192,176040,1,0,0:0:0:0:
182,192,176149,1,0,0:0:0:0:
402,192,176149,1,0,0:0:0:0:
36,192,176257,1,0,0:0:0:50:Snare.wav
109,192,176257,1,0,0:0:0:0:
329,192,176257,1,0,0:0:0:0:
475,192,176257,1,0,0:0:0:0:
329,192,176366,1,0,0:0:0:0:
402,192,176366,1,0,0:0:0:0:
36,192,176475,1,0,0:0:0:0:
256,192,176475,1,0,0:0:0:0:
109,192,176692,1,0,0:0:0:70:bass.wav
329,192,176692,128,0,177127:0:0:0:70:loobass.wav
475,192,176692,1,0,0:0:0:0:
36,192,177127,1,0,0:0:0:50:Snare.wav
182,192,177127,1,0,0:0:0:0:
402,192,177127,1,0,0:0:0:0:
475,192,177127,1,0,0:0:0:0:
109,192,177236,1,0,0:0:0:0:
182,192,177236,1,0,0:0:0:0:
256,192,177344,1,0,0:0:0:0:
475,192,177344,1,0,0:0:0:0:
182,192,177453,1,0,0:0:0:0:
402,192,177453,1,0,0:0:0:0:
36,192,177562,1,0,0:0:0:70:bass.wav
109,192,177562,1,0,0:0:0:0:
329,192,177562,1,0,0:0:0:0:
329,192,177670,1,0,0:0:0:0:
402,192,177670,1,0,0:0:0:0:
36,192,177779,1,0,0:0:0:0:
256,192,177779,1,0,0:0:0:0:
109,192,177888,1,0,0:0:0:0:
329,192,177888,1,0,0:0:0:0:
36,192,177997,128,0,178323:0:0:0:50:Snare.wav
109,192,177997,128,0,178323:0:0:0:0:
182,192,177997,128,0,178323:0:0:0:0:
329,192,177997,128,0,178323:0:0:0:0:
402,192,177997,128,0,178323:0:0:0:0:
475,192,177997,128,0,178323:0:0:0:0:
36,192,178431,1,0,0:0:0:70:bass.wav
109,192,178431,1,0,0:0:0:70:loobass.wav
402,192,178431,1,0,0:0:0:70:cymbal.wav
256,192,178431,128,0,178866:0:0:0:0:
475,192,178431,1,0,0:0:0:0:
36,192,178866,1,0,0:0:0:50:Snare.wav
182,192,178866,1,0,0:0:0:0:
329,192,178866,1,0,0:0:0:0:
402,192,178866,1,0,0:0:0:0:
182,192,178975,1,0,0:0:0:0:
475,192,178975,1,0,0:0:0:0:
109,192,179084,1,0,0:0:0:0:
329,192,179084,1,0,0:0:0:0:
36,192,179192,1,0,0:0:0:0:
256,192,179192,1,0,0:0:0:0:
182,192,179301,1,0,0:0:0:70:bass.wav
329,192,179301,1,0,0:0:0:0:
475,192,179301,1,0,0:0:0:0:
36,192,179410,1,0,0:0:0:0:
329,192,179410,1,0,0:0:0:0:
182,192,179518,1,0,0:0:0:0:
402,192,179518,1,0,0:0:0:0:
256,192,179627,1,0,0:0:0:0:
475,192,179627,1,0,0:0:0:0:
36,192,179736,1,0,0:0:0:50:Snare.wav
182,192,179736,1,0,0:0:0:0:
329,192,179736,1,0,0:0:0:0:
402,192,179736,1,0,0:0:0:0:
182,192,179844,1,0,0:0:0:0:
475,192,179844,1,0,0:0:0:0:
109,192,179953,1,0,0:0:0:0:
329,192,179953,1,0,0:0:0:0:
36,192,180170,1,0,0:0:0:70:bass.wav
256,192,180170,128,0,180605:0:0:0:70:loobass.wav
475,192,180170,1,0,0:0:0:0:
109,192,180605,1,0,0:0:0:50:Snare.wav
182,192,180605,1,0,0:0:0:0:
329,192,180605,1,0,0:0:0:0:
475,192,180605,1,0,0:0:0:0:
36,192,180714,1,0,0:0:0:0:
329,192,180714,1,0,0:0:0:0:
182,192,180823,1,0,0:0:0:0:
402,192,180823,1,0,0:0:0:0:
256,192,180931,1,0,0:0:0:0:
475,192,180931,1,0,0:0:0:0:
36,192,181040,1,0,0:0:0:70:bass.wav
182,192,181040,1,0,0:0:0:0:
329,192,181040,1,0,0:0:0:0:
182,192,181149,1,0,0:0:0:0:
475,192,181149,1,0,0:0:0:0:
36,192,181366,1,0,0:0:0:0:
256,192,181366,1,0,0:0:0:0:
109,192,181475,1,0,0:0:0:50:Snare.wav
182,192,181475,1,0,0:0:0:0:
329,192,181475,1,0,0:0:0:0:
402,192,181475,1,0,0:0:0:0:
182,192,181692,1,0,0:0:0:0:
475,192,181692,1,0,0:0:0:0:
36,192,181910,1,0,0:0:0:70:bass.wav
109,192,181910,1,0,0:0:0:70:loobass.wav
402,192,181910,128,0,182344:0:0:0:0:
36,192,182344,1,0,0:0:0:50:Snare.wav
256,192,182344,1,0,0:0:0:0:
329,192,182344,1,0,0:0:0:0:
475,192,182344,1,0,0:0:0:0:
36,192,182453,1,0,0:0:0:0:
182,192,182453,1,0,0:0:0:0:
256,192,182562,1,0,0:0:0:0:
475,192,182562,1,0,0:0:0:0:
109,192,182670,1,0,0:0:0:0:
329,192,182670,1,0,0:0:0:0:
36,192,182779,1,0,0:0:0:70:bass.wav
182,192,182779,1,0,0:0:0:0:
475,192,182779,1,0,0:0:0:0:
329,192,182888,1,0,0:0:0:0:
475,192,182888,1,0,0:0:0:0:
36,192,182997,1,0,0:0:0:0:
256,192,182997,1,0,0:0:0:0:
182,192,183105,1,0,0:0:0:0:
402,192,183105,1,0,0:0:0:0:
36,192,183214,1,0,0:0:0:50:Snare.wav
256,192,183214,1,0,0:0:0:0:
329,192,183214,1,0,0:0:0:0:
475,192,183214,1,0,0:0:0:0:
36,192,183323,1,0,0:0:0:0:
182,192,183323,1,0,0:0:0:0:
256,192,183431,1,0,0:0:0:0:
475,192,183431,1,0,0:0:0:0:
109,192,183649,1,0,0:0:0:50:drum.wav
402,192,183649,1,0,0:0:0:0:
475,192,183649,1,0,0:0:0:0:
36,192,184084,1,0,0:0:0:50:drum.wav
109,192,184084,1,0,0:0:0:0:
402,192,184084,1,0,0:0:0:0:
256,192,184228,1,0,0:0:0:50:drum.wav
329,192,184228,1,0,0:0:0:0:
256,192,184373,1,0,0:0:0:50:drum.wav
329,192,184373,1,0,0:0:0:0:
182,192,184518,1,0,0:0:0:50:drum.wav
402,192,184518,1,0,0:0:0:0:
475,192,184518,1,0,0:0:0:0:
36,192,184808,1,0,0:0:0:50:drum.wav
109,192,184808,1,0,0:0:0:0:
329,192,184808,1,0,0:0:0:0:
182,192,185098,1,0,0:0:0:50:drum.wav
256,192,185098,1,0,0:0:0:0:
329,192,185098,1,0,0:0:0:0:
182,192,185243,1,0,0:0:0:50:drum.wav
256,192,185243,1,0,0:0:0:0:
329,192,185243,1,0,0:0:0:0:
36,192,185388,128,0,185605:0:0:0:70:loobass.wav
109,192,185388,1,0,0:0:0:70:cymbal.wav
402,192,185388,1,0,0:0:0:0:
475,192,185388,1,0,0:0:0:0:
256,192,185388,1,0,0:0:0:0:
182,192,185605,128,0,186040:0:0:0:0:
36,192,185823,1,0,0:0:0:50:Snare.wav
402,192,185823,1,0,0:0:0:0:
475,192,185823,1,0,0:0:0:0:
256,192,185931,1,0,0:0:0:0:
475,192,185931,1,0,0:0:0:0:
109,192,186040,128,0,186257:0:0:0:0:
329,192,186040,1,0,0:0:0:0:
402,192,186149,1,0,0:0:0:0:
475,192,186149,1,0,0:0:0:0:
182,192,186257,1,0,0:0:0:70:bass.wav
256,192,186257,128,0,187127:0:0:0:0:
329,192,186257,1,0,0:0:0:0:
36,192,186366,1,0,0:0:0:0:
182,192,186366,1,0,0:0:0:0:
329,192,186475,1,0,0:0:0:0:
475,192,186475,1,0,0:0:0:0:
182,192,186584,1,0,0:0:0:0:
402,192,186584,1,0,0:0:0:0:
36,192,186692,1,0,0:0:0:50:Snare.wav
109,192,186692,1,0,0:0:0:0:
475,192,186692,1,0,0:0:0:0:
109,192,186801,1,0,0:0:0:0:
329,192,186801,1,0,0:0:0:0:
182,192,186910,1,0,0:0:0:0:
402,192,186910,1,0,0:0:0:0:
36,192,187127,1,0,0:0:0:70:bass.wav
329,192,187127,128,0,187344:0:0:0:70:loobass.wav
475,192,187127,1,0,0:0:0:0:
182,192,187344,128,0,187562:0:0:0:0:
109,192,187562,128,0,187670:0:0:0:50:Snare.wav
402,192,187562,1,0,0:0:0:0:
475,192,187562,1,0,0:0:0:0:
36,192,187670,1,0,0:0:0:0:
256,192,187670,128,0,187779:0:0:0:0:
475,192,187670,1,0,0:0:0:0:
182,192,187779,1,0,0:0:0:0:
329,192,187779,128,0,187997:0:0:0:0:
36,192,187888,1,0,0:0:0:0:
109,192,187888,1,0,0:0:0:0:
182,192,187997,1,0,0:0:0:70:bass.wav
256,192,187997,1,0,0:0:0:0:
402,192,187997,128,0,188214:0:0:0:0:
36,192,188105,1,0,0:0:0:0:
256,192,188105,1,0,0:0:0:0:
475,192,188214,128,0,188649:0:0:0:0:
182,192,188323,1,0,0:0:0:0:
256,192,188323,1,0,0:0:0:0:
36,192,188431,1,0,0:0:0:50:Snare.wav
109,192,188431,1,0,0:0:0:0:
329,192,188431,1,0,0:0:0:0:
182,192,188649,1,0,0:0:0:0:
402,192,188649,128,0,188866:0:0:0:0:
36,192,188866,1,0,0:0:0:70:bass.wav
109,192,188866,1,0,0:0:0:70:loobass.wav
329,192,188866,128,0,189192:0:0:0:0:
402,192,189192,1,0,0:0:0:0:
329,192,189247,1,0,0:0:0:0:
36,192,189301,1,0,0:0:0:50:Snare.wav
256,192,189301,1,0,0:0:0:0:
402,192,189301,128,0,189518:0:0:0:0:
36,192,189410,1,0,0:0:0:0:
182,192,189410,1,0,0:0:0:0:
329,192,189518,1,0,0:0:0:0:
475,192,189518,128,0,189736:0:0:0:0:
109,192,189627,1,0,0:0:0:0:
182,192,189627,1,0,0:0:0:0:
36,192,189736,1,0,0:0:0:70:bass.wav
256,192,189736,1,0,0:0:0:0:
402,192,189736,128,0,189953:0:0:0:0:
109,192,189844,1,0,0:0:0:0:
256,192,189844,1,0,0:0:0:0:
182,192,189953,1,0,0:0:0:0:
329,192,189953,128,0,190170:0:0:0:0:
36,192,190062,1,0,0:0:0:0:
109,192,190062,1,0,0:0:0:0:
182,192,190170,1,0,0:0:0:50:Snare.wav
256,192,190170,128,0,190388:0:0:0:0:
475,192,190170,1,0,0:0:0:0:
329,192,190279,1,0,0:0:0:0:
475,192,190279,1,0,0:0:0:0:
109,192,190388,1,0,0:0:0:0:
182,192,190388,128,0,190605:0:0:0:0:
36,192,190605,128,0,190823:0:0:0:70:bass.wav
329,192,190605,1,0,0:0:0:70:loobass.wav
475,192,190605,1,0,0:0:0:0:
109,192,190823,128,0,191257:0:0:0:0:
182,192,191040,1,0,0:0:0:50:Snare.wav
329,192,191040,1,0,0:0:0:0:
475,192,191040,1,0,0:0:0:0:
475,192,191149,1,0,0:0:0:0:
402,192,191149,1,0,0:0:0:0:
36,192,191257,1,0,0:0:0:0:
256,192,191257,128,0,191475:0:0:0:0:
109,192,191366,1,0,0:0:0:0:
402,192,191366,1,0,0:0:0:0:
182,192,191475,128,0,191801:0:0:0:70:bass.wav
329,192,191475,1,0,0:0:0:0:
475,192,191475,1,0,0:0:0:0:
329,192,191584,1,0,0:0:0:0:
402,192,191584,1,0,0:0:0:0:
109,192,191692,1,0,0:0:0:0:
256,192,191692,1,0,0:0:0:0:
329,192,191801,1,0,0:0:0:0:
402,192,191801,1,0,0:0:0:0:
36,192,191910,128,0,192236:0:0:0:50:Snare.wav
109,192,191910,128,0,192236:0:0:0:0:
182,192,191910,128,0,192236:0:0:0:0:
329,192,191910,128,0,192236:0:0:0:0:
402,192,191910,128,0,192236:0:0:0:0:
475,192,191910,128,0,192236:0:0:0:0:
36,192,192344,1,0,0:0:0:70:bass.wav
109,192,192344,1,0,0:0:0:70:loobass.wav
256,192,192344,1,0,0:0:0:70:cymbal.wav
402,192,192344,1,0,0:0:0:0:
475,192,192344,128,0,192562:0:0:0:0:
329,192,192562,128,0,192997:0:0:0:0:
36,192,192779,1,0,0:0:0:50:Snare.wav
109,192,192779,1,0,0:0:0:0:
475,192,192779,1,0,0:0:0:0:
36,192,192888,1,0,0:0:0:0:
256,192,192888,1,0,0:0:0:0:
182,192,192997,1,0,0:0:0:0:
402,192,192997,128,0,193214:0:0:0:0:
36,192,193105,1,0,0:0:0:0:
109,192,193105,1,0,0:0:0:0:
182,192,193214,1,0,0:0:0:70:bass.wav
256,192,193214,128,0,194084:0:0:0:0:
329,192,193214,1,0,0:0:0:0:
329,192,193323,1,0,0:0:0:0:
475,192,193323,1,0,0:0:0:0:
36,192,193431,1,0,0:0:0:0:
182,192,193431,1,0,0:0:0:0:
109,192,193540,1,0,0:0:0:0:
329,192,193540,1,0,0:0:0:0:
36,192,193649,1,0,0:0:0:50:Snare.wav
402,192,193649,1,0,0:0:0:0:
475,192,193649,1,0,0:0:0:0:
182,192,193757,1,0,0:0:0:0:
402,192,193757,1,0,0:0:0:0:
109,192,193866,1,0,0:0:0:0:
329,192,193866,1,0,0:0:0:0:
36,192,194084,1,0,0:0:0:70:bass.wav
182,192,194084,128,0,194301:0:0:0:70:loobass.wav
475,192,194084,1,0,0:0:0:0:
329,192,194301,128,0,194518:0:0:0:0:
36,192,194518,1,0,0:0:0:50:Snare.wav
109,192,194518,1,0,0:0:0:0:
402,192,194518,128,0,194627:0:0:0:0:
36,192,194627,1,0,0:0:0:0:
256,192,194627,128,0,194736:0:0:0:0:
475,192,194627,1,0,0:0:0:0:
182,192,194736,128,0,194953:0:0:0:0:
329,192,194736,1,0,0:0:0:0:
402,192,194844,1,0,0:0:0:0:
475,192,194844,1,0,0:0:0:0:
109,192,194953,128,0,195170:0:0:0:70:bass.wav
256,192,194953,1,0,0:0:0:0:
329,192,194953,1,0,0:0:0:0:
256,192,195062,1,0,0:0:0:0:
475,192,195062,1,0,0:0:0:0:
36,192,195170,128,0,195605:0:0:0:0:
256,192,195279,1,0,0:0:0:0:
329,192,195279,1,0,0:0:0:0:
182,192,195388,1,0,0:0:0:50:Snare.wav
402,192,195388,1,0,0:0:0:0:
475,192,195388,1,0,0:0:0:0:
109,192,195605,128,0,195823:0:0:0:0:
329,192,195605,1,0,0:0:0:0:
182,192,195823,128,0,196149:0:0:0:70:bass.wav
402,192,195823,1,0,0:0:0:70:loobass.wav
475,192,195823,1,0,0:0:0:0:
109,192,196149,1,0,0:0:0:0:
182,192,196203,1,0,0:0:0:0:
109,192,196257,128,0,196475:0:0:0:0:
36,192,196475,128,0,196692:0:0:0:0:
109,192,196692,128,0,196801:0:0:0:0:
182,192,196692,128,0,196801:0:0:0:0:
475,192,196692,128,0,196910:0:0:0:0:
109,192,196910,128,0,197018:0:0:0:0:
182,192,196910,128,0,197018:0:0:0:0:
402,192,196910,128,0,197127:0:0:0:0:
109,192,197127,128,0,197236:0:0:0:0:
182,192,197127,128,0,197236:0:0:0:0:
329,192,197127,128,0,197344:0:0:0:0:
109,192,197344,128,0,197453:0:0:0:0:
182,192,197344,128,0,197453:0:0:0:0:
475,192,197344,128,0,197562:0:0:0:0:
109,192,197562,128,0,197888:0:0:0:0:
182,192,197562,128,0,197888:0:0:0:0:
329,192,197562,128,0,197888:0:0:0:0:
402,192,197562,128,0,197888:0:0:0:0:
36,192,197997,128,0,198323:0:0:0:0:
182,192,197997,128,0,198323:0:0:0:0:
329,192,197997,128,0,198323:0:0:0:0:
475,192,197997,128,0,198323:0:0:0:0:
109,192,198431,128,0,198757:0:0:0:0:
182,192,198431,128,0,198757:0:0:0:0:
329,192,198431,128,0,198757:0:0:0:0:
402,192,198431,128,0,198757:0:0:0:0:
36,192,198866,128,0,199192:0:0:0:50:Snare.wav
109,192,198866,128,0,199192:0:0:0:0:
182,192,198866,128,0,199192:0:0:0:0:
329,192,198866,128,0,199192:0:0:0:0:
402,192,198866,128,0,199192:0:0:0:0:
475,192,198866,128,0,199192:0:0:0:0:
182,192,199301,1,0,0:0:0:70:bass.wav
256,192,199301,1,0,0:0:0:50:cymbal.wav
402,192,199301,1,0,0:0:0:0:
475,192,199301,1,0,0:0:0:0:
109,192,199410,1,0,0:0:0:0:
329,192,199410,1,0,0:0:0:0:
109,192,199518,1,0,0:0:0:0:
329,192,199518,1,0,0:0:0:0:
36,192,199627,1,0,0:0:0:0:
256,192,199627,1,0,0:0:0:0:
182,192,199736,1,0,0:0:0:70:bass.wav
402,192,199736,1,0,0:0:0:0:
475,192,199736,1,0,0:0:0:0:
109,192,199844,1,0,0:0:0:0:
329,192,199844,1,0,0:0:0:0:
109,192,199953,1,0,0:0:0:0:
329,192,199953,1,0,0:0:0:0:
36,192,200062,1,0,0:0:0:0:
256,192,200062,1,0,0:0:0:0:
182,192,200170,1,0,0:0:0:70:bass.wav
402,192,200170,1,0,0:0:0:0:
475,192,200170,1,0,0:0:0:0:
109,192,200279,1,0,0:0:0:0:
329,192,200279,1,0,0:0:0:0:
109,192,200388,1,0,0:0:0:0:
329,192,200388,1,0,0:0:0:0:
36,192,200497,1,0,0:0:0:0:
256,192,200497,1,0,0:0:0:0:
182,192,200605,1,0,0:0:0:70:bass.wav
402,192,200605,1,0,0:0:0:0:
475,192,200605,1,0,0:0:0:0:
109,192,200714,1,0,0:0:0:0:
256,192,200714,1,0,0:0:0:0:
109,192,200823,1,0,0:0:0:0:
329,192,200823,1,0,0:0:0:0:
36,192,201040,1,0,0:0:0:70:bass.wav
109,192,201040,1,0,0:0:0:0:
329,192,201040,1,0,0:0:0:0:
182,192,201149,1,0,0:0:0:0:
402,192,201149,1,0,0:0:0:0:
182,192,201257,1,0,0:0:0:0:
402,192,201257,1,0,0:0:0:0:
256,192,201366,1,0,0:0:0:0:
475,192,201366,1,0,0:0:0:0:
36,192,201475,1,0,0:0:0:70:bass.wav
109,192,201475,1,0,0:0:0:0:
329,192,201475,1,0,0:0:0:0:
182,192,201584,1,0,0:0:0:0:
402,192,201584,1,0,0:0:0:0:
182,192,201692,1,0,0:0:0:0:
402,192,201692,1,0,0:0:0:0:
256,192,201801,1,0,0:0:0:0:
475,192,201801,1,0,0:0:0:0:
36,192,201910,1,0,0:0:0:70:bass.wav
109,192,201910,1,0,0:0:0:0:
329,192,201910,1,0,0:0:0:0:
182,192,202018,1,0,0:0:0:0:
402,192,202018,1,0,0:0:0:0:
182,192,202127,1,0,0:0:0:0:
402,192,202127,1,0,0:0:0:0:
256,192,202236,1,0,0:0:0:0:
475,192,202236,1,0,0:0:0:0:
36,192,202344,1,0,0:0:0:70:bass.wav
109,192,202344,1,0,0:0:0:0:
329,192,202344,1,0,0:0:0:0:
182,192,202562,1,0,0:0:0:0:
402,192,202562,1,0,0:0:0:0:
36,192,202779,1,0,0:0:0:70:bass.wav
109,192,202779,1,0,0:0:0:0:
475,192,202779,1,0,0:0:0:0:
109,192,202888,1,0,0:0:0:0:
329,192,202888,1,0,0:0:0:0:
182,192,202997,1,0,0:0:0:0:
402,192,202997,1,0,0:0:0:0:
36,192,203105,1,0,0:0:0:0:
402,192,203105,1,0,0:0:0:0:
109,192,203214,1,0,0:0:0:70:bass.wav
182,192,203214,1,0,0:0:0:0:
475,192,203214,1,0,0:0:0:0:
182,192,203323,1,0,0:0:0:0:
256,192,203323,1,0,0:0:0:0:
36,192,203431,1,0,0:0:0:0:
402,192,203431,1,0,0:0:0:0:
329,192,203540,1,0,0:0:0:0:
402,192,203540,1,0,0:0:0:0:
36,192,203649,1,0,0:0:0:70:bass.wav
182,192,203649,1,0,0:0:0:0:
475,192,203649,1,0,0:0:0:0:
109,192,203757,1,0,0:0:0:0:
182,192,203757,1,0,0:0:0:0:
256,192,203866,1,0,0:0:0:0:
402,192,203866,1,0,0:0:0:0:
256,192,203975,1,0,0:0:0:0:
329,192,203975,1,0,0:0:0:0:
36,192,204084,1,0,0:0:0:70:bass.wav
109,192,204084,1,0,0:0:0:0:
182,192,204084,1,0,0:0:0:0:
182,192,204192,1,0,0:0:0:0:
329,192,204192,1,0,0:0:0:0:
256,192,204301,1,0,0:0:0:0:
402,192,204301,1,0,0:0:0:0:
109,192,204410,1,0,0:0:0:0:
402,192,204410,1,0,0:0:0:0:
36,192,204518,1,0,0:0:0:70:bass.wav
256,192,204518,1,0,0:0:0:0:
475,192,204518,1,0,0:0:0:0:
182,192,204627,1,0,0:0:0:0:
475,192,204627,1,0,0:0:0:0:
109,192,204736,1,0,0:0:0:0:
329,192,204736,1,0,0:0:0:0:
109,192,204844,1,0,0:0:0:0:
256,192,204844,1,0,0:0:0:0:
36,192,204953,1,0,0:0:0:70:bass.wav
402,192,204953,1,0,0:0:0:0:
475,192,204953,1,0,0:0:0:0:
109,192,205062,1,0,0:0:0:0:
402,192,205062,1,0,0:0:0:0:
182,192,205170,1,0,0:0:0:0:
329,192,205170,1,0,0:0:0:0:
182,192,205279,1,0,0:0:0:0:
36,192,205279,1,0,0:0:0:0:
329,192,205388,1,0,0:0:0:70:bass.wav
256,192,205388,1,0,0:0:0:0:
475,192,205388,1,0,0:0:0:0:
109,192,205497,1,0,0:0:0:0:
329,192,205497,1,0,0:0:0:0:
475,192,205605,1,0,0:0:0:0:
256,192,205605,1,0,0:0:0:0:
182,192,205714,1,0,0:0:0:0:
256,192,205714,1,0,0:0:0:0:
36,192,205823,128,0,206149:0:0:0:50:Snare.wav
109,192,205823,128,0,206149:0:0:0:0:
182,192,205823,128,0,206149:0:0:0:0:
329,192,205823,128,0,206149:0:0:0:0:
402,192,205823,128,0,206149:0:0:0:0:
475,192,205823,128,0,206149:0:0:0:0:
36,192,206257,1,0,0:0:0:70:bass.wav
256,192,206257,1,0,0:0:0:50:cymbal.wav
329,192,206257,1,0,0:0:0:0:
475,192,206257,1,0,0:0:0:0:
109,192,206366,1,0,0:0:0:0:
329,192,206366,1,0,0:0:0:0:
182,192,206475,1,0,0:0:0:0:
402,192,206475,1,0,0:0:0:0:
36,192,206583,1,0,0:0:0:0:
182,192,206583,1,0,0:0:0:0:
109,192,206692,1,0,0:0:0:50:Snare.wav
256,192,206692,1,0,0:0:0:0:
329,192,206692,1,0,0:0:0:0:
475,192,206692,1,0,0:0:0:0:
182,192,206801,1,0,0:0:0:0:
475,192,206801,1,0,0:0:0:0:
109,192,206910,1,0,0:0:0:0:
329,192,206910,1,0,0:0:0:0:
109,192,207018,1,0,0:0:0:0:
256,192,207018,1,0,0:0:0:0:
36,192,207127,1,0,0:0:0:70:bass.wav
402,192,207127,1,0,0:0:0:0:
475,192,207127,1,0,0:0:0:0:
182,192,207236,1,0,0:0:0:0:
402,192,207236,1,0,0:0:0:0:
109,192,207344,1,0,0:0:0:0:
256,192,207344,1,0,0:0:0:0:
256,192,207453,1,0,0:0:0:0:
475,192,207453,1,0,0:0:0:0:
36,192,207562,1,0,0:0:0:50:Snare.wav
109,192,207562,1,0,0:0:0:0:
329,192,207562,1,0,0:0:0:0:
402,192,207562,1,0,0:0:0:0:
182,192,207670,1,0,0:0:0:0:
402,192,207670,1,0,0:0:0:0:
36,192,207779,1,0,0:0:0:0:
329,192,207779,1,0,0:0:0:0:
182,192,207997,1,0,0:0:0:70:bass.wav
256,192,207997,1,0,0:0:0:0:
475,192,207997,1,0,0:0:0:0:
182,192,208105,1,0,0:0:0:0:
402,192,208105,1,0,0:0:0:0:
109,192,208214,1,0,0:0:0:0:
329,192,208214,1,0,0:0:0:0:
329,192,208323,1,0,0:0:0:0:
475,192,208323,1,0,0:0:0:0:
36,192,208431,1,0,0:0:0:50:Snare.wav
182,192,208431,1,0,0:0:0:0:
256,192,208431,1,0,0:0:0:0:
402,192,208431,1,0,0:0:0:0:
36,192,208540,1,0,0:0:0:0:
329,192,208540,1,0,0:0:0:0:
182,192,208649,1,0,0:0:0:0:
402,192,208649,1,0,0:0:0:0:
256,192,208757,1,0,0:0:0:0:
402,192,208757,1,0,0:0:0:0:
36,192,208866,1,0,0:0:0:70:bass.wav
109,192,208866,1,0,0:0:0:0:
475,192,208866,1,0,0:0:0:0:
109,192,208975,1,0,0:0:0:0:
329,192,208975,1,0,0:0:0:0:
256,192,209083,1,0,0:0:0:0:
402,192,209083,1,0,0:0:0:0:
36,192,209192,1,0,0:0:0:0:
256,192,209192,1,0,0:0:0:0:
109,192,209301,1,0,0:0:0:50:Snare.wav
182,192,209301,1,0,0:0:0:0:
402,192,209301,1,0,0:0:0:0:
475,192,209301,1,0,0:0:0:0:
182,192,209518,1,0,0:0:0:0:
329,192,209518,1,0,0:0:0:0:
109,192,209736,1,0,0:0:0:70:bass.wav
256,192,209736,1,0,0:0:0:0:
402,192,209736,1,0,0:0:0:0:
329,192,209844,1,0,0:0:0:0:
402,192,209844,1,0,0:0:0:0:
182,192,209953,1,0,0:0:0:0:
256,192,209953,1,0,0:0:0:0:
109,192,210062,1,0,0:0:0:0:
182,192,210062,1,0,0:0:0:0:
36,192,210170,1,0,0:0:0:50:Snare.wav
256,192,210170,1,0,0:0:0:0:
329,192,210170,1,0,0:0:0:0:
475,192,210170,1,0,0:0:0:0:
182,192,210279,1,0,0:0:0:0:
475,192,210279,1,0,0:0:0:0:
109,192,210388,1,0,0:0:0:0:
329,192,210388,1,0,0:0:0:0:
109,192,210497,1,0,0:0:0:0:
256,192,210497,1,0,0:0:0:0:
182,192,210605,1,0,0:0:0:70:bass.wav
402,192,210605,1,0,0:0:0:0:
475,192,210605,1,0,0:0:0:0:
256,192,210714,1,0,0:0:0:0:
402,192,210714,1,0,0:0:0:0:
36,192,210823,1,0,0:0:0:0:
109,192,210823,1,0,0:0:0:0:
36,192,210931,1,0,0:0:0:0:
329,192,210931,1,0,0:0:0:0:
182,192,211040,1,0,0:0:0:50:Snare.wav
256,192,211040,1,0,0:0:0:0:
402,192,211040,1,0,0:0:0:0:
475,192,211040,1,0,0:0:0:0:
109,192,211149,1,0,0:0:0:0:
402,192,211149,1,0,0:0:0:0:
36,192,211257,1,0,0:0:0:0:
329,192,211257,1,0,0:0:0:0:
109,192,211475,1,0,0:0:0:50:drum.wav
402,192,211475,1,0,0:0:0:0:
475,192,211475,1,0,0:0:0:0:
36,192,211765,1,0,0:0:0:50:drum.wav
182,192,211765,1,0,0:0:0:0:
402,192,211765,1,0,0:0:0:0:
256,192,211910,1,0,0:0:0:0:
329,192,211910,1,0,0:0:0:0:
109,192,212055,1,0,0:0:0:50:drum.wav
329,192,212055,1,0,0:0:0:0:
475,192,212055,1,0,0:0:0:0:
36,192,212199,1,0,0:0:0:0:
109,192,212199,1,0,0:0:0:0:
182,192,212344,1,0,0:0:0:50:drum.wav
402,192,212344,1,0,0:0:0:0:
475,192,212344,1,0,0:0:0:0:
36,192,212489,1,0,0:0:0:50:drum.wav
256,192,212489,1,0,0:0:0:0:
329,192,212489,1,0,0:0:0:0:
109,192,212634,1,0,0:0:0:50:drum.wav
182,192,212634,1,0,0:0:0:0:
402,192,212634,1,0,0:0:0:0:
36,192,212779,128,0,213105:0:0:0:50:Snare.wav
109,192,212779,128,0,213105:0:0:0:0:
182,192,212779,128,0,213105:0:0:0:0:
329,192,212779,128,0,213105:0:0:0:0:
402,192,212779,128,0,213105:0:0:0:0:
475,192,212779,128,0,213105:0:0:0:0:
36,192,213214,1,0,0:0:0:70:bass.wav
109,192,213214,1,0,0:0:0:70:cymbal.wav
256,192,213214,1,0,0:0:0:0:
402,192,213214,1,0,0:0:0:0:
475,192,213214,1,0,0:0:0:0:
109,192,213323,1,0,0:0:0:0:
182,192,213431,1,0,0:0:0:0:
256,192,213540,1,0,0:0:0:0:
109,192,213649,128,0,214518:0:0:0:50:Snare.wav
329,192,213649,128,0,214083:0:0:0:0:
402,192,213649,1,0,0:0:0:0:
475,192,213649,1,0,0:0:0:0:
182,192,213757,1,0,0:0:0:0:
256,192,213866,1,0,0:0:0:0:
182,192,213975,1,0,0:0:0:0:
36,192,214083,1,0,0:0:0:70:bass.wav
402,192,214083,1,0,0:0:0:0:
475,192,214083,128,0,214953:0:0:0:0:
182,192,214192,1,0,0:0:0:0:
256,192,214301,1,0,0:0:0:0:
329,192,214410,1,0,0:0:0:0:
36,192,214518,128,0,215388:0:0:0:50:Snare.wav
182,192,214518,1,0,0:0:0:0:
256,192,214518,1,0,0:0:0:0:
402,192,214518,1,0,0:0:0:0:
182,192,214627,1,0,0:0:0:0:
329,192,214736,1,0,0:0:0:0:
109,192,214953,1,0,0:0:0:70:bass.wav
182,192,214953,1,0,0:0:0:0:
256,192,214953,128,0,215823:0:0:0:0:
402,192,215062,1,0,0:0:0:0:
329,192,215170,1,0,0:0:0:0:
475,192,215279,1,0,0:0:0:0:
109,192,215388,1,0,0:0:0:50:Snare.wav
182,192,215388,1,0,0:0:0:0:
329,192,215388,1,0,0:0:0:0:
402,192,215388,128,0,216257:0:0:0:0:
182,192,215497,1,0,0:0:0:0:
109,192,215605,1,0,0:0:0:0:
329,192,215714,1,0,0:0:0:0:
36,192,215823,1,0,0:0:0:70:bass.wav
182,192,215823,1,0,0:0:0:0:
475,192,215823,1,0,0:0:0:0:
256,192,215931,1,0,0:0:0:0:
329,192,216040,1,0,0:0:0:0:
109,192,216149,1,0,0:0:0:0:
36,192,216257,1,0,0:0:0:50:Snare.wav
182,192,216257,1,0,0:0:0:0:
256,192,216257,1,0,0:0:0:0:
475,192,216257,1,0,0:0:0:0:
182,192,216475,1,0,0:0:0:0:
329,192,216475,1,0,0:0:0:0:
36,192,216692,1,0,0:0:0:70:bass.wav
256,192,216692,128,0,217997:0:0:0:0:
475,192,216692,1,0,0:0:0:0:
109,192,216801,1,0,0:0:0:0:
402,192,216910,1,0,0:0:0:0:
329,192,217018,1,0,0:0:0:0:
36,192,217127,128,0,218431:0:0:0:50:Snare.wav
109,192,217127,1,0,0:0:0:0:
182,192,217127,1,0,0:0:0:0:
475,192,217127,1,0,0:0:0:0:
182,192,217236,1,0,0:0:0:0:
402,192,217344,1,0,0:0:0:0:
329,192,217453,1,0,0:0:0:0:
109,192,217562,1,0,0:0:0:70:bass.wav
182,192,217562,1,0,0:0:0:0:
475,192,217562,1,0,0:0:0:0:
402,192,217670,1,0,0:0:0:0:
109,192,217779,1,0,0:0:0:0:
329,192,217888,1,0,0:0:0:0:
109,192,217997,1,0,0:0:0:50:Snare.wav
182,192,217997,1,0,0:0:0:0:
402,192,217997,1,0,0:0:0:0:
475,192,217997,128,0,218866:0:0:0:0:
402,192,218105,1,0,0:0:0:0:
256,192,218214,1,0,0:0:0:0:
109,192,218431,128,0,219301:0:0:0:70:bass.wav
182,192,218431,1,0,0:0:0:0:
402,192,218431,1,0,0:0:0:0:
256,192,218540,1,0,0:0:0:0:
329,192,218649,1,0,0:0:0:0:
256,192,218757,1,0,0:0:0:0:
36,192,218866,1,0,0:0:0:50:Snare.wav
182,192,218866,1,0,0:0:0:0:
329,192,218866,128,0,219627:0:0:0:0:
402,192,218866,1,0,0:0:0:0:
182,192,218975,1,0,0:0:0:0:
475,192,219083,1,0,0:0:0:0:
402,192,219192,1,0,0:0:0:0:
36,192,219301,1,0,0:0:0:70:bass.wav
182,192,219301,128,0,219627:0:0:0:0:
256,192,219301,1,0,0:0:0:0:
475,192,219410,1,0,0:0:0:0:
402,192,219518,1,0,0:0:0:0:
256,192,219627,1,0,0:0:0:0:
36,192,219736,128,0,220062:0:0:0:50:Snare.wav
109,192,219736,128,0,220062:0:0:0:0:
182,192,219736,128,0,220062:0:0:0:0:
329,192,219736,128,0,220062:0:0:0:0:
402,192,219736,128,0,220062:0:0:0:0:
475,192,219736,128,0,220062:0:0:0:0:
36,192,220170,1,0,0:0:0:70:bass.wav
109,192,220170,1,0,0:0:0:70:cymbal.wav
256,192,220170,1,0,0:0:0:0:
402,192,220170,1,0,0:0:0:0:
475,192,220170,1,0,0:0:0:0:
402,192,220279,1,0,0:0:0:0:
329,192,220388,1,0,0:0:0:0:
256,192,220497,1,0,0:0:0:0:
36,192,220605,1,0,0:0:0:50:Snare.wav
109,192,220605,1,0,0:0:0:0:
182,192,220605,128,0,221040:0:0:0:0:
402,192,220605,128,0,221475:0:0:0:0:
329,192,220714,1,0,0:0:0:0:
256,192,220823,1,0,0:0:0:0:
329,192,220931,1,0,0:0:0:0:
36,192,221040,128,0,221910:0:0:0:70:bass.wav
109,192,221040,1,0,0:0:0:0:
475,192,221040,1,0,0:0:0:0:
329,192,221149,1,0,0:0:0:0:
256,192,221257,1,0,0:0:0:0:
182,192,221366,1,0,0:0:0:0:
109,192,221475,1,0,0:0:0:50:Snare.wav
256,192,221475,1,0,0:0:0:0:
329,192,221475,1,0,0:0:0:0:
475,192,221475,128,0,222344:0:0:0:0:
329,192,221583,1,0,0:0:0:0:
182,192,221692,1,0,0:0:0:0:
256,192,221910,128,0,222779:0:0:0:70:bass.wav
329,192,221910,1,0,0:0:0:0:
402,192,221910,1,0,0:0:0:0:
109,192,222018,1,0,0:0:0:0:
182,192,222127,1,0,0:0:0:0:
36,192,222236,1,0,0:0:0:0:
109,192,222344,128,0,223649:0:0:0:50:Snare.wav
182,192,222344,1,0,0:0:0:0:
329,192,222344,1,0,0:0:0:0:
402,192,222344,1,0,0:0:0:0:
329,192,222453,1,0,0:0:0:0:
402,192,222562,1,0,0:0:0:0:
182,192,222670,1,0,0:0:0:0:
36,192,222779,1,0,0:0:0:70:bass.wav
329,192,222779,1,0,0:0:0:0:
475,192,222779,1,0,0:0:0:0:
256,192,222888,1,0,0:0:0:0:
182,192,222997,1,0,0:0:0:0:
402,192,223105,1,0,0:0:0:0:
36,192,223214,1,0,0:0:0:50:Snare.wav
256,192,223214,1,0,0:0:0:0:
329,192,223214,128,0,223649:0:0:0:0:
475,192,223214,1,0,0:0:0:0:
182,192,223431,1,0,0:0:0:0:
36,192,223649,1,0,0:0:0:70:bass.wav
256,192,223649,128,0,225388:0:0:0:0:
475,192,223649,1,0,0:0:0:0:
402,192,223757,1,0,0:0:0:0:
329,192,223866,1,0,0:0:0:0:
182,192,223975,1,0,0:0:0:0:
36,192,224083,1,0,0:0:0:50:Snare.wav
329,192,224083,1,0,0:0:0:0:
402,192,224083,1,0,0:0:0:0:
475,192,224083,128,0,225388:0:0:0:0:
329,192,224192,1,0,0:0:0:0:
109,192,224301,1,0,0:0:0:0:
182,192,224410,1,0,0:0:0:0:
36,192,224518,1,0,0:0:0:70:bass.wav
329,192,224518,1,0,0:0:0:0:
402,192,224518,1,0,0:0:0:0:
109,192,224627,1,0,0:0:0:0:
402,192,224736,1,0,0:0:0:0:
329,192,224844,1,0,0:0:0:0:
109,192,224953,1,0,0:0:0:50:Snare.wav
182,192,224953,1,0,0:0:0:0:
402,192,224953,1,0,0:0:0:0:
109,192,225062,1,0,0:0:0:0:
329,192,225170,1,0,0:0:0:0:
36,192,225388,1,0,0:0:0:70:bass.wav
109,192,225388,1,0,0:0:0:0:
402,192,225388,1,0,0:0:0:0:
329,192,225497,1,0,0:0:0:0:
256,192,225605,1,0,0:0:0:0:
182,192,225678,1,0,0:0:0:0:
109,192,225750,1,0,0:0:0:0:
329,192,225823,1,0,0:0:0:60:bass.wav
402,192,225823,1,0,0:0:0:0:
475,192,225823,1,0,0:0:0:0:
256,192,225885,1,0,0:0:0:0:
182,192,225947,1,0,0:0:0:0:
109,192,226009,1,0,0:0:0:0:
36,192,226071,1,0,0:0:0:0:
329,192,226133,1,0,0:0:0:0:
402,192,226195,1,0,0:0:0:0:
36,192,226257,1,0,0:0:0:50:bass.wav
475,192,226257,1,0,0:0:0:0:
109,192,226312,1,0,0:0:0:0:
182,192,226366,1,0,0:0:0:0:
256,192,226420,1,0,0:0:0:0:
36,192,226475,1,0,0:0:0:0:
109,192,226529,1,0,0:0:0:0:
182,192,226583,1,0,0:0:0:0:
475,192,226638,1,0,0:0:0:0:
402,192,226692,1,0,0:0:0:40:bass.wav
329,192,226747,1,0,0:0:0:0:
256,192,226801,1,0,0:0:0:0:
182,192,226855,1,0,0:0:0:0:
402,192,226910,1,0,0:0:0:0:
329,192,226964,1,0,0:0:0:0:
256,192,227018,1,0,0:0:0:0:
475,192,227073,1,0,0:0:0:0:
182,192,227127,1,0,0:0:0:0:
329,192,227127,1,0,0:0:0:0:
109,192,227127,128,0,233633:0:0:0:70:cymbal.wav
36,192,227127,1,0,0:0:0:70:loobass.wav
402,192,227127,128,0,233633:0:0:0:0:
36,192,233633,5,0,0:0:0:50:Snare.wav
182,192,233633,1,0,0:0:0:70:cymbal.wav
256,192,233633,1,0,0:0:0:0:
329,192,233633,1,0,0:0:0:0:
475,192,233721,1,0,0:0:0:0:
402,192,233809,1,0,0:0:0:0:
182,192,233897,1,0,0:0:0:0:
36,192,233985,1,0,0:0:0:50:Snare.wav
329,192,233985,1,0,0:0:0:0:
402,192,233985,1,0,0:0:0:0:
475,192,233985,1,0,0:0:0:0:
256,192,234074,1,0,0:0:0:0:
109,192,234162,1,0,0:0:0:0:
182,192,234250,1,0,0:0:0:0:
36,192,234338,1,0,0:0:0:50:Snare.wav
256,192,234338,1,0,0:0:0:0:
329,192,234338,1,0,0:0:0:0:
475,192,234338,1,0,0:0:0:0:
109,192,234427,1,0,0:0:0:0:
329,192,234515,1,0,0:0:0:0:
256,192,234603,1,0,0:0:0:0:
36,192,234691,1,0,0:0:0:50:Snare.wav
182,192,234691,1,0,0:0:0:0:
402,192,234691,1,0,0:0:0:0:
475,192,234691,1,0,0:0:0:0:
329,192,234780,1,0,0:0:0:0:
109,192,234868,1,0,0:0:0:50:Snare.wav
182,192,234868,1,0,0:0:0:0:
402,192,234868,1,0,0:0:0:0:
475,192,234868,1,0,0:0:0:0:
256,192,234956,1,0,0:0:0:0:
36,192,235044,1,0,0:0:0:50:Snare.wav
109,192,235044,1,0,0:0:0:70:cymbal.wav
329,192,235044,1,0,0:0:0:0:
475,192,235044,1,0,0:0:0:0:
182,192,235129,1,0,0:0:0:0:
256,192,235215,1,0,0:0:0:0:
329,192,235301,1,0,0:0:0:0:
36,192,235386,1,0,0:0:0:50:Snare.wav
109,192,235386,1,0,0:0:0:0:
182,192,235386,1,0,0:0:0:0:
475,192,235386,1,0,0:0:0:0:
402,192,235472,1,0,0:0:0:0:
329,192,235558,1,0,0:0:0:0:
256,192,235644,1,0,0:0:0:0:
109,192,235729,1,0,0:0:0:50:Snare.wav
182,192,235729,1,0,0:0:0:0:
402,192,235729,1,0,0:0:0:0:
475,192,235729,1,0,0:0:0:0:
329,192,235815,1,0,0:0:0:0:
36,192,235901,1,0,0:0:0:0:
182,192,235986,1,0,0:0:0:50:Snare.wav
402,192,235986,1,0,0:0:0:0:
475,192,235986,1,0,0:0:0:0:
109,192,236072,1,0,0:0:0:50:Snare.wav
256,192,236072,1,0,0:0:0:0:
329,192,236072,1,0,0:0:0:0:
36,192,236158,1,0,0:0:0:0:
182,192,236244,1,0,0:0:0:50:Snare.wav
256,192,236244,1,0,0:0:0:0:
475,192,236244,1,0,0:0:0:0:
329,192,236329,1,0,0:0:0:0:
36,192,236415,1,0,0:0:0:50:Snare.wav
109,192,236415,1,0,0:0:0:70:cymbal.wav
182,192,236415,1,0,0:0:0:0:
329,192,236496,1,0,0:0:0:50:Snare.wav
475,192,236496,1,0,0:0:0:0:
109,192,236577,1,0,0:0:0:50:Snare.wav
182,192,236577,1,0,0:0:0:0:
329,192,236658,1,0,0:0:0:50:Snare.wav
402,192,236658,1,0,0:0:0:0:
36,192,236739,1,0,0:0:0:50:Snare.wav
182,192,236739,1,0,0:0:0:0:
402,192,236820,1,0,0:0:0:50:Snare.wav
475,192,236820,1,0,0:0:0:0:
36,192,236901,1,0,0:0:0:50:Snare.wav
109,192,236901,1,0,0:0:0:0:
329,192,236982,1,0,0:0:0:50:Snare.wav
475,192,236982,1,0,0:0:0:0:
36,192,237063,1,0,0:0:0:50:Snare.wav
109,192,237104,1,0,0:0:0:50:Snare.wav
182,192,237144,1,0,0:0:0:50:Snare.wav
475,192,237144,1,0,0:0:0:0:
402,192,237185,1,0,0:0:0:50:Snare.wav
36,192,237225,1,0,0:0:0:50:Snare.wav
329,192,237225,1,0,0:0:0:0:
109,192,237266,1,0,0:0:0:50:Snare.wav
182,192,237306,1,0,0:0:0:50:Snare.wav
475,192,237306,1,0,0:0:0:0:
402,192,237347,1,0,0:0:0:50:Snare.wav
36,192,237387,1,0,0:0:0:50:Snare.wav
329,192,237387,1,0,0:0:0:0:
109,192,237428,1,0,0:0:0:50:Snare.wav
182,192,237469,1,0,0:0:0:50:Snare.wav
475,192,237469,1,0,0:0:0:0:
402,192,237509,1,0,0:0:0:50:Snare.wav
36,192,237550,1,0,0:0:0:50:Snare.wav
329,192,237550,1,0,0:0:0:0:
109,192,237590,1,0,0:0:0:50:Snare.wav
182,192,237631,1,0,0:0:0:50:Snare.wav
475,192,237631,1,0,0:0:0:0:
402,192,237671,1,0,0:0:0:50:Snare.wav
329,192,237712,128,0,238482:0:0:0:70:loobass.wav
36,192,238482,1,0,0:0:0:0:
109,192,238523,1,0,0:0:0:0:
182,192,238563,1,0,0:0:0:0:
256,192,238604,128,0,238975:0:0:0:0:
36,192,238975,1,0,0:0:0:70:bass.wav
329,192,238975,1,0,0:0:0:70:cymbal.wav
402,192,238975,1,0,0:0:0:0:
475,192,238975,1,0,0:0:0:0:
182,192,239080,1,0,0:0:0:0:
402,192,239080,1,0,0:0:0:0:
109,192,239185,1,0,0:0:0:0:
329,192,239185,1,0,0:0:0:0:
109,192,239290,1,0,0:0:0:70:bass.wav
256,192,239290,1,0,0:0:0:0:
475,192,239290,1,0,0:0:0:0:
182,192,239396,1,0,0:0:0:0:
329,192,239396,1,0,0:0:0:0:
109,192,239501,1,0,0:0:0:0:
402,192,239501,1,0,0:0:0:0:
36,192,239606,1,0,0:0:0:70:bass.wav
256,192,239606,1,0,0:0:0:0:
402,192,239606,1,0,0:0:0:0:
109,192,239711,1,0,0:0:0:0:
329,192,239711,1,0,0:0:0:0:
182,192,239817,1,0,0:0:0:0:
402,192,239817,1,0,0:0:0:0:
36,192,239922,1,0,0:0:0:70:bass.wav
109,192,239922,1,0,0:0:0:0:
475,192,239922,1,0,0:0:0:0:
36,192,240027,1,0,0:0:0:0:
109,192,240027,1,0,0:0:0:0:
329,192,240132,1,0,0:0:0:0:
402,192,240132,1,0,0:0:0:0:
182,192,240238,1,0,0:0:0:70:bass.wav
256,192,240238,1,0,0:0:0:0:
475,192,240238,1,0,0:0:0:0:
182,192,240343,1,0,0:0:0:0:
329,192,240343,1,0,0:0:0:0:
256,192,240448,1,0,0:0:0:0:
402,192,240448,1,0,0:0:0:0:
36,192,240553,1,0,0:0:0:70:bass.wav
109,192,240553,1,0,0:0:0:0:
475,192,240553,1,0,0:0:0:0:
182,192,240659,1,0,0:0:0:0:
402,192,240659,1,0,0:0:0:0:
36,192,240764,1,0,0:0:0:0:
329,192,240764,1,0,0:0:0:0:
109,192,240869,1,0,0:0:0:70:bass.wav
256,192,240869,1,0,0:0:0:0:
475,192,240869,1,0,0:0:0:0:
182,192,240975,1,0,0:0:0:0:
475,192,240975,1,0,0:0:0:0:
36,192,241080,1,0,0:0:0:0:
256,192,241080,1,0,0:0:0:0:
182,192,241185,1,0,0:0:0:70:bass.wav
329,192,241185,1,0,0:0:0:0:
402,192,241185,1,0,0:0:0:0:
329,192,241290,1,0,0:0:0:0:
402,192,241290,1,0,0:0:0:0:
36,192,241396,1,0,0:0:0:0:
256,192,241396,1,0,0:0:0:0:
109,192,241501,1,0,0:0:0:70:bass.wav
182,192,241501,1,0,0:0:0:70:cymbal.wav
402,192,241501,1,0,0:0:0:0:
475,192,241501,1,0,0:0:0:0:
109,192,241606,1,0,0:0:0:0:
182,192,241606,1,0,0:0:0:0:
256,192,241711,1,0,0:0:0:0:
475,192,241711,1,0,0:0:0:0:
36,192,241817,1,0,0:0:0:70:bass.wav
329,192,241817,1,0,0:0:0:0:
402,192,241817,1,0,0:0:0:0:
182,192,241922,1,0,0:0:0:0:
402,192,241922,1,0,0:0:0:0:
36,192,242027,1,0,0:0:0:0:
329,192,242027,1,0,0:0:0:0:
109,192,242132,1,0,0:0:0:70:bass.wav
182,192,242132,1,0,0:0:0:0:
475,192,242132,1,0,0:0:0:0:
109,192,242238,1,0,0:0:0:0:
475,192,242238,1,0,0:0:0:0:
182,192,242343,1,0,0:0:0:0:
402,192,242343,1,0,0:0:0:0:
36,192,242448,1,0,0:0:0:70:bass.wav
256,192,242448,1,0,0:0:0:0:
329,192,242448,1,0,0:0:0:0:
256,192,242553,1,0,0:0:0:0:
475,192,242553,1,0,0:0:0:0:
109,192,242659,1,0,0:0:0:0:
402,192,242659,1,0,0:0:0:0:
36,192,242764,1,0,0:0:0:70:bass.wav
256,192,242764,1,0,0:0:0:0:
329,192,242764,1,0,0:0:0:0:
182,192,242869,1,0,0:0:0:0:
402,192,242869,1,0,0:0:0:0:
109,192,242975,1,0,0:0:0:0:
475,192,242975,1,0,0:0:0:0:
36,192,243080,1,0,0:0:0:70:bass.wav
256,192,243080,1,0,0:0:0:0:
329,192,243080,1,0,0:0:0:0:
182,192,243185,1,0,0:0:0:0:
329,192,243185,1,0,0:0:0:0:
109,192,243290,1,0,0:0:0:0:
475,192,243290,1,0,0:0:0:0:
36,192,243396,1,0,0:0:0:70:bass.wav
329,192,243396,1,0,0:0:0:0:
402,192,243396,1,0,0:0:0:0:
109,192,243501,1,0,0:0:0:0:
256,192,243501,1,0,0:0:0:0:
329,192,243606,1,0,0:0:0:0:
475,192,243606,1,0,0:0:0:0:
36,192,243711,1,0,0:0:0:70:bass.wav
109,192,243711,1,0,0:0:0:0:
329,192,243711,1,0,0:0:0:0:
256,192,243817,1,0,0:0:0:0:
475,192,243817,1,0,0:0:0:0:
36,192,243922,1,0,0:0:0:0:
402,192,243922,1,0,0:0:0:0:
109,192,244027,1,0,0:0:0:70:bass.wav
256,192,244027,1,0,0:0:0:70:cymbal.wav
329,192,244027,1,0,0:0:0:0:
475,192,244027,1,0,0:0:0:0:
182,192,244132,1,0,0:0:0:0:
256,192,244132,1,0,0:0:0:0:
109,192,244238,1,0,0:0:0:0:
329,192,244238,1,0,0:0:0:0:
36,192,244343,1,0,0:0:0:70:bass.wav
402,192,244343,1,0,0:0:0:0:
475,192,244343,1,0,0:0:0:0:
109,192,244448,1,0,0:0:0:0:
475,192,244448,1,0,0:0:0:0:
182,192,244553,1,0,0:0:0:0:
256,192,244553,1,0,0:0:0:0:
36,192,244659,1,0,0:0:0:70:bass.wav
329,192,244659,1,0,0:0:0:0:
402,192,244659,1,0,0:0:0:0:
109,192,244764,1,0,0:0:0:0:
256,192,244764,1,0,0:0:0:0:
329,192,244869,1,0,0:0:0:0:
475,192,244869,1,0,0:0:0:0:
36,192,244975,1,0,0:0:0:70:bass.wav
182,192,244975,1,0,0:0:0:0:
256,192,244975,1,0,0:0:0:0:
182,192,245080,1,0,0:0:0:0:
256,192,245080,1,0,0:0:0:0:
402,192,245185,1,0,0:0:0:0:
475,192,245185,1,0,0:0:0:0:
36,192,245290,1,0,0:0:0:70:bass.wav
182,192,245290,1,0,0:0:0:0:
329,192,245290,1,0,0:0:0:0:
256,192,245396,1,0,0:0:0:0:
402,192,245396,1,0,0:0:0:0:
36,192,245501,1,0,0:0:0:0:
182,192,245501,1,0,0:0:0:0:
182,192,245606,1,0,0:0:0:70:bass.wav
329,192,245606,1,0,0:0:0:0:
475,192,245606,1,0,0:0:0:0:
109,192,245711,1,0,0:0:0:0:
402,192,245711,1,0,0:0:0:0:
36,192,245817,1,0,0:0:0:0:
329,192,245817,1,0,0:0:0:0:
109,192,245922,1,0,0:0:0:70:bass.wav
329,192,245922,1,0,0:0:0:0:
475,192,245922,1,0,0:0:0:0:
182,192,246027,1,0,0:0:0:0:
256,192,246027,1,0,0:0:0:0:
36,192,246132,1,0,0:0:0:0:
109,192,246132,1,0,0:0:0:0:
182,192,246238,1,0,0:0:0:70:bass.wav
402,192,246238,1,0,0:0:0:0:
475,192,246238,1,0,0:0:0:0:
182,192,246343,1,0,0:0:0:0:
402,192,246343,1,0,0:0:0:0:
109,192,246448,1,0,0:0:0:0:
329,192,246448,1,0,0:0:0:0:
36,192,246553,1,0,0:0:0:70:bass.wav
182,192,246553,1,0,0:0:0:70:cymbal.wav
256,192,246553,1,0,0:0:0:0:
475,192,246553,1,0,0:0:0:0:
402,192,246606,1,0,0:0:0:0:
329,192,246659,1,0,0:0:0:0:
109,192,246711,1,0,0:0:0:0:
182,192,246764,1,0,0:0:0:0:
256,192,246817,1,0,0:0:0:0:
36,192,246869,1,0,0:0:0:70:bass.wav
329,192,246869,1,0,0:0:0:0:
475,192,246869,1,0,0:0:0:0:
109,192,246975,1,0,0:0:0:0:
256,192,246975,1,0,0:0:0:0:
109,192,247080,1,0,0:0:0:0:
256,192,247080,1,0,0:0:0:0:
182,192,247185,1,0,0:0:0:70:bass.wav
329,192,247185,1,0,0:0:0:0:
402,192,247185,1,0,0:0:0:0:
36,192,247290,1,0,0:0:0:0:
475,192,247290,1,0,0:0:0:0:
109,192,247396,1,0,0:0:0:0:
329,192,247396,1,0,0:0:0:0:
182,192,247501,1,0,0:0:0:70:bass.wav
256,192,247501,1,0,0:0:0:0:
475,192,247501,1,0,0:0:0:0:
182,192,247606,1,0,0:0:0:0:
256,192,247606,1,0,0:0:0:0:
109,192,247711,1,0,0:0:0:0:
329,192,247711,1,0,0:0:0:0:
36,192,247817,1,0,0:0:0:70:bass.wav
256,192,247817,1,0,0:0:0:0:
475,192,247817,1,0,0:0:0:0:
329,192,247922,1,0,0:0:0:0:
402,192,247922,1,0,0:0:0:0:
109,192,248027,1,0,0:0:0:0:
402,192,248027,1,0,0:0:0:0:
36,192,248132,1,0,0:0:0:70:bass.wav
182,192,248132,1,0,0:0:0:0:
475,192,248132,1,0,0:0:0:0:
256,192,248238,1,0,0:0:0:0:
329,192,248238,1,0,0:0:0:0:
402,192,248343,1,0,0:0:0:0:
475,192,248343,1,0,0:0:0:0:
36,192,248448,1,0,0:0:0:70:bass.wav
109,192,248448,1,0,0:0:0:0:
256,192,248448,1,0,0:0:0:0:
329,192,248448,1,0,0:0:0:0:
182,192,248659,1,0,0:0:0:0:
402,192,248659,1,0,0:0:0:0:
182,192,248764,128,0,249080:0:0:0:0:
402,192,248764,128,0,249080:0:0:0:0:
36,192,249080,1,0,0:0:0:70:bass.wav
256,192,249080,1,0,0:0:0:70:cymbal.wav
475,192,249080,1,0,0:0:0:0:
109,192,249185,1,0,0:0:0:0:
329,192,249185,1,0,0:0:0:0:
182,192,249290,1,0,0:0:0:0:
475,192,249290,1,0,0:0:0:0:
36,192,249396,1,0,0:0:0:70:bass.wav
256,192,249396,1,0,0:0:0:0:
475,192,249396,1,0,0:0:0:0:
182,192,249501,1,0,0:0:0:0:
329,192,249501,1,0,0:0:0:0:
109,192,249606,1,0,0:0:0:0:
402,192,249606,1,0,0:0:0:0:
36,192,249711,1,0,0:0:0:70:bass.wav
256,192,249711,1,0,0:0:0:0:
475,192,249711,1,0,0:0:0:0:
36,192,249817,1,0,0:0:0:0:
402,192,249817,1,0,0:0:0:0:
182,192,249922,1,0,0:0:0:0:
329,192,249922,1,0,0:0:0:0:
36,192,250027,1,0,0:0:0:70:bass.wav
402,192,250027,1,0,0:0:0:0:
475,192,250027,1,0,0:0:0:0:
256,192,250132,1,0,0:0:0:0:
475,192,250132,1,0,0:0:0:0:
109,192,250238,1,0,0:0:0:0:
182,192,250238,1,0,0:0:0:0:
36,192,250343,1,0,0:0:0:70:bass.wav
256,192,250343,1,0,0:0:0:0:
402,192,250343,1,0,0:0:0:0:
182,192,250448,1,0,0:0:0:0:
475,192,250448,1,0,0:0:0:0:
109,192,250553,1,0,0:0:0:0:
256,192,250553,1,0,0:0:0:0:
36,192,250659,1,0,0:0:0:70:bass.wav
402,192,250659,1,0,0:0:0:0:
475,192,250659,1,0,0:0:0:0:
109,192,250764,1,0,0:0:0:0:
402,192,250764,1,0,0:0:0:0:
182,192,250869,1,0,0:0:0:0:
329,192,250869,1,0,0:0:0:0:
36,192,250975,1,0,0:0:0:70:bass.wav
256,192,250975,1,0,0:0:0:0:
475,192,250975,1,0,0:0:0:0:
36,192,251080,1,0,0:0:0:0:
475,192,251080,1,0,0:0:0:0:
182,192,251185,1,0,0:0:0:0:
256,192,251185,1,0,0:0:0:0:
36,192,251290,1,0,0:0:0:70:bass.wav
402,192,251290,1,0,0:0:0:0:
475,192,251290,1,0,0:0:0:0:
109,192,251396,1,0,0:0:0:0:
402,192,251396,1,0,0:0:0:0:
182,192,251501,1,0,0:0:0:0:
256,192,251501,1,0,0:0:0:0:
36,192,251606,1,0,0:0:0:70:bass.wav
109,192,251606,1,0,0:0:0:70:cymbal.wav
329,192,251606,1,0,0:0:0:0:
402,192,251606,1,0,0:0:0:0:
329,192,251711,1,0,0:0:0:0:
475,192,251711,1,0,0:0:0:0:
36,192,251817,1,0,0:0:0:0:
256,192,251817,1,0,0:0:0:0:
109,192,251922,1,0,0:0:0:70:bass.wav
182,192,251922,1,0,0:0:0:0:
475,192,251922,1,0,0:0:0:0:
182,192,252027,1,0,0:0:0:0:
329,192,252027,1,0,0:0:0:0:
256,192,252132,1,0,0:0:0:0:
475,192,252132,1,0,0:0:0:0:
36,192,252238,1,0,0:0:0:70:bass.wav
329,192,252238,1,0,0:0:0:0:
402,192,252238,1,0,0:0:0:0:
36,192,252343,1,0,0:0:0:0:
402,192,252343,1,0,0:0:0:0:
109,192,252448,1,0,0:0:0:0:
329,192,252448,1,0,0:0:0:0:
182,192,252553,1,0,0:0:0:70:bass.wav
256,192,252553,1,0,0:0:0:0:
475,192,252553,1,0,0:0:0:0:
36,192,252659,1,0,0:0:0:0:
256,192,252659,1,0,0:0:0:0:
109,192,252764,1,0,0:0:0:0:
402,192,252764,1,0,0:0:0:0:
182,192,252869,1,0,0:0:0:70:bass.wav
256,192,252869,1,0,0:0:0:0:
475,192,252869,1,0,0:0:0:0:
109,192,252975,1,0,0:0:0:0:
329,192,252975,1,0,0:0:0:0:
36,192,253080,1,0,0:0:0:0:
402,192,253080,1,0,0:0:0:0:
109,192,253185,1,0,0:0:0:70:bass.wav
256,192,253185,1,0,0:0:0:0:
475,192,253185,1,0,0:0:0:0:
182,192,253290,1,0,0:0:0:0:
475,192,253290,1,0,0:0:0:0:
36,192,253396,1,0,0:0:0:0:
329,192,253396,1,0,0:0:0:0:
109,192,253501,1,0,0:0:0:70:bass.wav
182,192,253501,1,0,0:0:0:0:
475,192,253501,1,0,0:0:0:0:
329,192,253606,1,0,0:0:0:0:
402,192,253606,1,0,0:0:0:0:
36,192,253711,1,0,0:0:0:0:
182,192,253711,1,0,0:0:0:0:
182,192,253817,1,0,0:0:0:70:bass.wav
402,192,253817,1,0,0:0:0:0:
475,192,253817,1,0,0:0:0:0:
36,192,253922,1,0,0:0:0:0:
256,192,253922,1,0,0:0:0:0:
109,192,254027,1,0,0:0:0:0:
329,192,254027,1,0,0:0:0:0:
182,192,254132,1,0,0:0:0:70:bass.wav
256,192,254132,1,0,0:0:0:70:cymbal.wav
402,192,254132,1,0,0:0:0:0:
475,192,254132,1,0,0:0:0:0:
36,192,254238,1,0,0:0:0:0:
329,192,254238,1,0,0:0:0:0:
182,192,254343,1,0,0:0:0:0:
402,192,254343,1,0,0:0:0:0:
36,192,254448,1,0,0:0:0:70:bass.wav
109,192,254448,1,0,0:0:0:0:
475,192,254448,1,0,0:0:0:0:
256,192,254553,1,0,0:0:0:0:
329,192,254553,1,0,0:0:0:0:
109,192,254659,1,0,0:0:0:0:
329,192,254659,1,0,0:0:0:0:
36,192,254764,1,0,0:0:0:70:bass.wav
182,192,254764,1,0,0:0:0:0:
475,192,254764,1,0,0:0:0:0:
256,192,254869,1,0,0:0:0:0:
402,192,254869,1,0,0:0:0:0:
256,192,254975,1,0,0:0:0:0:
402,192,254975,1,0,0:0:0:0:
109,192,255080,1,0,0:0:0:70:bass.wav
182,192,255080,1,0,0:0:0:0:
475,192,255080,1,0,0:0:0:0:
256,192,255185,1,0,0:0:0:0:
329,192,255185,1,0,0:0:0:0:
36,192,255290,1,0,0:0:0:0:
109,192,255290,1,0,0:0:0:0:
182,192,255396,1,0,0:0:0:70:bass.wav
329,192,255396,1,0,0:0:0:0:
475,192,255396,1,0,0:0:0:0:
329,192,255501,1,0,0:0:0:0:
475,192,255501,1,0,0:0:0:0:
109,192,255606,1,0,0:0:0:0:
182,192,255606,1,0,0:0:0:0:
36,192,255711,1,0,0:0:0:70:bass.wav
256,192,255711,1,0,0:0:0:0:
329,192,255711,1,0,0:0:0:0:
109,192,255817,1,0,0:0:0:0:
402,192,255817,1,0,0:0:0:0:
182,192,255922,1,0,0:0:0:0:
475,192,255922,1,0,0:0:0:0:
36,192,256027,1,0,0:0:0:70:bass.wav
182,192,256027,1,0,0:0:0:0:
402,192,256027,1,0,0:0:0:0:
256,192,256132,1,0,0:0:0:0:
329,192,256132,1,0,0:0:0:0:
182,192,256238,1,0,0:0:0:0:
475,192,256238,1,0,0:0:0:0:
36,192,256343,1,0,0:0:0:70:bass.wav
109,192,256343,1,0,0:0:0:0:
329,192,256343,1,0,0:0:0:0:
109,192,256448,1,0,0:0:0:0:
329,192,256448,1,0,0:0:0:0:
182,192,256553,1,0,0:0:0:0:
402,192,256553,1,0,0:0:0:0:
36,192,256659,1,0,0:0:0:70:bass.wav
256,192,256659,1,0,0:0:0:70:cymbal.wav
329,192,256659,1,0,0:0:0:0:
475,192,256659,1,0,0:0:0:0:
256,192,256764,1,0,0:0:0:0:
329,192,256764,1,0,0:0:0:0:
109,192,256869,1,0,0:0:0:0:
182,192,256869,1,0,0:0:0:0:
36,192,256975,1,0,0:0:0:0:
256,192,256975,128,0,257290:0:0:0:0:
475,192,256975,1,0,0:0:0:0:
109,192,257290,128,0,257922:0:0:0:0:
182,192,257290,128,0,257922:0:0:0:0:
329,192,257290,128,0,257922:0:0:0:0:
402,192,257290,128,0,257922:0:0:0:0:
256,192,257922,1,0,0:0:0:70:loobass.wav
329,192,258869,1,0,0:0:0:50:Snare.wav
402,192,258869,1,0,0:0:0:0:
475,192,258869,1,0,0:0:0:0:
36,192,258948,1,0,0:0:0:50:Snare.wav
109,192,258948,1,0,0:0:0:0:
182,192,258948,1,0,0:0:0:0:
329,192,259027,1,0,0:0:0:50:Snare.wav
402,192,259027,1,0,0:0:0:0:
475,192,259027,1,0,0:0:0:0:
36,192,259185,1,0,0:0:0:70:bass.wav
109,192,259185,1,0,0:0:0:70:cymbal.wav
256,192,259185,1,0,0:0:0:0:
475,192,259185,1,0,0:0:0:0:
402,192,259225,1,0,0:0:0:0:
329,192,259264,1,0,0:0:0:0:
182,192,259303,1,0,0:0:0:0:
109,192,259343,1,0,0:0:0:0:
36,192,259382,1,0,0:0:0:0:
475,192,259422,1,0,0:0:0:0:
402,192,259461,1,0,0:0:0:0:
182,192,259501,1,0,0:0:0:50:Snare.wav
329,192,259501,1,0,0:0:0:0:
109,192,259540,1,0,0:0:0:0:
402,192,259580,1,0,0:0:0:0:
329,192,259619,1,0,0:0:0:0:
182,192,259659,1,0,0:0:0:0:
109,192,259738,1,0,0:0:0:0:
36,192,259817,1,0,0:0:0:70:bass.wav
256,192,259817,1,0,0:0:0:0:
402,192,259817,1,0,0:0:0:0:
475,192,259896,1,0,0:0:0:0:
109,192,259975,1,0,0:0:0:0:
329,192,259975,1,0,0:0:0:0:
36,192,260053,1,0,0:0:0:0:
256,192,260053,1,0,0:0:0:0:
182,192,260132,1,0,0:0:0:50:Snare.wav
402,192,260132,1,0,0:0:0:0:
475,192,260132,1,0,0:0:0:0:
109,192,260211,1,0,0:0:0:0:
329,192,260211,1,0,0:0:0:0:
182,192,260290,1,0,0:0:0:0:
402,192,260290,1,0,0:0:0:0:
256,192,260369,1,0,0:0:0:0:
36,192,260448,1,0,0:0:0:70:bass.wav
109,192,260448,1,0,0:0:0:0:
475,192,260448,1,0,0:0:0:0:
329,192,260527,1,0,0:0:0:0:
182,192,260606,1,0,0:0:0:0:
402,192,260606,1,0,0:0:0:0:
109,192,260685,1,0,0:0:0:0:
329,192,260685,1,0,0:0:0:0:
36,192,260764,1,0,0:0:0:50:Snare.wav
256,192,260764,1,0,0:0:0:0:
475,192,260764,1,0,0:0:0:0:
182,192,260843,1,0,0:0:0:0:
109,192,260922,1,0,0:0:0:0:
475,192,260922,1,0,0:0:0:0:
402,192,261001,1,0,0:0:0:0:
36,192,261080,1,0,0:0:0:70:bass.wav
256,192,261080,1,0,0:0:0:0:
329,192,261080,1,0,0:0:0:0:
109,192,261119,1,0,0:0:0:0:
182,192,261159,1,0,0:0:0:0:
475,192,261198,1,0,0:0:0:0:
402,192,261238,1,0,0:0:0:0:
329,192,261277,1,0,0:0:0:0:
36,192,261317,1,0,0:0:0:0:
109,192,261356,1,0,0:0:0:0:
329,192,261396,1,0,0:0:0:50:Snare.wav
402,192,261396,1,0,0:0:0:0:
256,192,261435,1,0,0:0:0:0:
182,192,261475,1,0,0:0:0:0:
475,192,261475,1,0,0:0:0:0:
36,192,261553,1,0,0:0:0:70:bass.wav
109,192,261553,1,0,0:0:0:0:
329,192,261632,1,0,0:0:0:0:
36,192,261711,1,0,0:0:0:70:bass.wav
402,192,261711,1,0,0:0:0:0:
475,192,261711,1,0,0:0:0:0:
109,192,261751,1,0,0:0:0:0:
182,192,261790,1,0,0:0:0:0:
256,192,261830,1,0,0:0:0:0:
402,192,261869,1,0,0:0:0:0:
329,192,261909,1,0,0:0:0:0:
36,192,261948,1,0,0:0:0:0:
109,192,261988,1,0,0:0:0:0:
182,192,262027,1,0,0:0:0:50:Snare.wav
475,192,262027,1,0,0:0:0:0:
402,192,262067,1,0,0:0:0:0:
329,192,262106,1,0,0:0:0:0:
256,192,262146,1,0,0:0:0:0:
109,192,262185,1,0,0:0:0:0:
182,192,262264,1,0,0:0:0:0:
256,192,262343,1,0,0:0:0:70:bass.wav
329,192,262343,1,0,0:0:0:0:
475,192,262343,1,0,0:0:0:0:
36,192,262422,1,0,0:0:0:0:
182,192,262501,1,0,0:0:0:0:
402,192,262501,1,0,0:0:0:0:
256,192,262580,1,0,0:0:0:0:
36,192,262659,1,0,0:0:0:50:Snare.wav
109,192,262659,1,0,0:0:0:0:
475,192,262659,1,0,0:0:0:0:
329,192,262738,1,0,0:0:0:0:
402,192,262738,1,0,0:0:0:0:
36,192,262817,1,0,0:0:0:70:bass.wav
109,192,262817,1,0,0:0:0:0:
182,192,262817,1,0,0:0:0:0:
329,192,262896,1,0,0:0:0:70:bass.wav
402,192,262896,1,0,0:0:0:0:
475,192,262896,1,0,0:0:0:0:
36,192,262975,128,0,263606:0:0:0:70:bass.wav
109,192,262975,128,0,263606:0:0:0:70:cymbal.wav
182,192,262975,128,0,263606:0:0:0:0:
256,192,262975,128,0,263606:0:0:0:0:
36,192,264238,1,0,0:0:0:70:bass.wav
109,192,264238,1,0,0:0:0:70:cymbal.wav
329,192,264238,1,0,0:0:0:0:
256,192,264277,1,0,0:0:0:0:
182,192,264317,1,0,0:0:0:0:
475,192,264356,1,0,0:0:0:0:
402,192,264396,1,0,0:0:0:0:
329,192,264435,1,0,0:0:0:0:
182,192,264475,1,0,0:0:0:0:
109,192,264514,1,0,0:0:0:0:
36,192,264553,1,0,0:0:0:50:Snare.wav
402,192,264553,1,0,0:0:0:0:
475,192,264553,1,0,0:0:0:0:
329,192,264593,1,0,0:0:0:0:
182,192,264632,1,0,0:0:0:0:
109,192,264672,1,0,0:0:0:0:
402,192,264711,1,0,0:0:0:0:
182,192,264790,1,0,0:0:0:0:
36,192,264869,1,0,0:0:0:70:bass.wav
256,192,264869,1,0,0:0:0:0:
475,192,264869,1,0,0:0:0:0:
109,192,264948,1,0,0:0:0:0:
329,192,264948,1,0,0:0:0:0:
182,192,265027,1,0,0:0:0:0:
402,192,265027,1,0,0:0:0:0:
256,192,265106,1,0,0:0:0:0:
36,192,265185,1,0,0:0:0:50:Snare.wav
329,192,265185,1,0,0:0:0:0:
475,192,265185,1,0,0:0:0:0:
182,192,265264,1,0,0:0:0:0:
402,192,265264,1,0,0:0:0:0:
109,192,265343,1,0,0:0:0:0:
329,192,265343,1,0,0:0:0:0:
36,192,265422,1,0,0:0:0:0:
256,192,265422,1,0,0:0:0:0:
182,192,265501,1,0,0:0:0:70:bass.wav
402,192,265501,1,0,0:0:0:0:
475,192,265501,1,0,0:0:0:0:
329,192,265580,1,0,0:0:0:0:
36,192,265659,1,0,0:0:0:0:
109,192,265659,1,0,0:0:0:0:
182,192,265738,1,0,0:0:0:0:
256,192,265817,1,0,0:0:0:50:Snare.wav
329,192,265817,1,0,0:0:0:0:
475,192,265817,1,0,0:0:0:0:
36,192,265896,1,0,0:0:0:0:
329,192,265975,1,0,0:0:0:70:bass.wav
402,192,265975,1,0,0:0:0:0:
475,192,265975,1,0,0:0:0:0:
36,192,266053,1,0,0:0:0:70:bass.wav
109,192,266053,1,0,0:0:0:0:
182,192,266053,1,0,0:0:0:0:
329,192,266132,1,0,0:0:0:70:bass.wav
402,192,266132,1,0,0:0:0:0:
475,192,266132,1,0,0:0:0:0:
36,192,266172,1,0,0:0:0:0:
109,192,266211,1,0,0:0:0:0:
182,192,266251,1,0,0:0:0:0:
402,192,266290,1,0,0:0:0:50:Snare.wav
475,192,266290,1,0,0:0:0:0:
329,192,266330,1,0,0:0:0:0:
256,192,266369,1,0,0:0:0:0:
182,192,266409,1,0,0:0:0:0:
36,192,266448,1,0,0:0:0:70:bass.wav
109,192,266448,1,0,0:0:0:0:
402,192,266488,1,0,0:0:0:0:
329,192,266527,1,0,0:0:0:0:
256,192,266567,1,0,0:0:0:0:
36,192,266606,1,0,0:0:0:70:bass.wav
109,192,266606,1,0,0:0:0:0:
182,192,266646,1,0,0:0:0:0:
402,192,266685,1,0,0:0:0:0:
256,192,266764,1,0,0:0:0:70:bass.wav
329,192,266764,1,0,0:0:0:0:
475,192,266764,1,0,0:0:0:0:
36,192,266803,1,0,0:0:0:0:
109,192,266843,1,0,0:0:0:0:
182,192,266882,1,0,0:0:0:0:
256,192,266922,1,0,0:0:0:0:
475,192,266961,1,0,0:0:0:0:
402,192,267001,1,0,0:0:0:0:
36,192,267040,1,0,0:0:0:0:
109,192,267080,1,0,0:0:0:50:Snare.wav
329,192,267080,1,0,0:0:0:0:
256,192,267119,1,0,0:0:0:0:
475,192,267159,1,0,0:0:0:0:
402,192,267198,1,0,0:0:0:0:
109,192,267238,1,0,0:0:0:0:
329,192,267317,1,0,0:0:0:0:
36,192,267396,1,0,0:0:0:70:bass.wav
256,192,267396,1,0,0:0:0:0:
402,192,267396,1,0,0:0:0:0:
475,192,267475,1,0,0:0:0:0:
109,192,267553,1,0,0:0:0:0:
329,192,267553,1,0,0:0:0:0:
256,192,267632,1,0,0:0:0:0:
36,192,267711,1,0,0:0:0:50:Snare.wav
402,192,267711,1,0,0:0:0:0:
475,192,267711,1,0,0:0:0:0:
109,192,267790,1,0,0:0:0:0:
329,192,267790,1,0,0:0:0:0:
182,192,267869,1,0,0:0:0:70:bass.wav
256,192,267869,1,0,0:0:0:0:
402,192,267869,1,0,0:0:0:0:
36,192,268027,1,0,0:0:0:70:bass.wav
109,192,268027,1,0,0:0:0:70:cymbal.wav
329,192,268027,1,0,0:0:0:0:
475,192,268027,1,0,0:0:0:0:
109,192,268238,1,0,0:0:0:70:bass.wav
256,192,268238,1,0,0:0:0:0:
402,192,268238,1,0,0:0:0:0:
36,192,268343,1,0,0:0:0:50:Snare.wav
182,192,268343,1,0,0:0:0:70:cymbal.wav
329,192,268343,1,0,0:0:0:0:
475,192,268343,1,0,0:0:0:0:
36,192,268553,1,0,0:0:0:70:bass.wav
109,192,268553,1,0,0:0:0:0:
402,192,268553,1,0,0:0:0:0:
475,192,268553,1,0,0:0:0:0:
182,192,268659,1,0,0:0:0:70:bass.wav
256,192,268659,1,0,0:0:0:70:cymbal.wav
329,192,268659,1,0,0:0:0:0:
182,192,268764,1,0,0:0:0:70:bass.wav
256,192,268764,1,0,0:0:0:0:
329,192,268764,1,0,0:0:0:0:
182,192,268869,1,0,0:0:0:70:bass.wav
256,192,268869,1,0,0:0:0:0:
329,192,268869,1,0,0:0:0:0:
36,192,268975,1,0,0:0:0:70:bass.wav
109,192,268975,1,0,0:0:0:70:cymbal.wav
402,192,268975,1,0,0:0:0:0:
475,192,268975,1,0,0:0:0:0:
36,192,269290,1,0,0:0:0:70:bass.wav
402,192,269290,1,0,0:0:0:70:cymbal.wav
475,192,269290,1,0,0:0:0:0:
329,192,269330,1,0,0:0:0:0:
256,192,269369,1,0,0:0:0:0:
109,192,269409,1,0,0:0:0:0:
402,192,269448,1,0,0:0:0:70:bass.wav
475,192,269448,1,0,0:0:0:0:
329,192,269488,1,0,0:0:0:0:
256,192,269527,1,0,0:0:0:0:
182,192,269567,1,0,0:0:0:0:
36,192,269606,1,0,0:0:0:50:Snare.wav
475,192,269606,1,0,0:0:0:0:
109,192,269646,1,0,0:0:0:0:
182,192,269685,1,0,0:0:0:0:
402,192,269725,1,0,0:0:0:0:
329,192,269764,1,0,0:0:0:0:
256,192,269803,1,0,0:0:0:0:
182,192,269843,1,0,0:0:0:0:
36,192,269922,1,0,0:0:0:70:bass.wav
402,192,269922,1,0,0:0:0:0:
475,192,269922,1,0,0:0:0:0:
109,192,270001,1,0,0:0:0:0:
329,192,270001,1,0,0:0:0:0:
182,192,270080,1,0,0:0:0:0:
475,192,270080,1,0,0:0:0:0:
36,192,270159,1,0,0:0:0:0:
402,192,270159,1,0,0:0:0:0:
109,192,270238,1,0,0:0:0:50:Snare.wav
182,192,270238,1,0,0:0:0:0:
256,192,270238,1,0,0:0:0:0:
329,192,270238,1,0,0:0:0:0:
402,192,270317,1,0,0:0:0:0:
475,192,270317,1,0,0:0:0:0:
36,192,270396,1,0,0:0:0:0:
109,192,270396,1,0,0:0:0:0:
256,192,270475,1,0,0:0:0:0:
329,192,270475,1,0,0:0:0:0:
36,192,270553,1,0,0:0:0:70:bass.wav
402,192,270553,1,0,0:0:0:0:
475,192,270553,1,0,0:0:0:0:
109,192,270632,1,0,0:0:0:0:
256,192,270632,1,0,0:0:0:0:
182,192,270711,1,0,0:0:0:0:
475,192,270711,1,0,0:0:0:0:
109,192,270790,1,0,0:0:0:0:
402,192,270790,1,0,0:0:0:0:
36,192,270869,1,0,0:0:0:50:Snare.wav
256,192,270869,1,0,0:0:0:0:
329,192,270869,1,0,0:0:0:0:
475,192,270869,1,0,0:0:0:0:
109,192,270948,1,0,0:0:0:0:
182,192,270948,1,0,0:0:0:0:
329,192,271027,1,0,0:0:0:70:bass.wav
402,192,271027,1,0,0:0:0:0:
475,192,271027,1,0,0:0:0:0:
36,192,271106,1,0,0:0:0:70:bass.wav
109,192,271106,1,0,0:0:0:0:
182,192,271106,1,0,0:0:0:0:
329,192,271185,1,0,0:0:0:70:bass.wav
402,192,271185,1,0,0:0:0:0:
475,192,271185,1,0,0:0:0:0:
36,192,271225,1,0,0:0:0:0:
109,192,271264,1,0,0:0:0:0:
182,192,271303,1,0,0:0:0:0:
256,192,271343,1,0,0:0:0:70:bass.wav
475,192,271343,1,0,0:0:0:0:
402,192,271382,1,0,0:0:0:0:
329,192,271422,1,0,0:0:0:0:
36,192,271461,1,0,0:0:0:0:
109,192,271501,1,0,0:0:0:50:Snare.wav
182,192,271501,1,0,0:0:0:0:
475,192,271540,1,0,0:0:0:0:
402,192,271580,1,0,0:0:0:0:
329,192,271619,1,0,0:0:0:0:
36,192,271659,1,0,0:0:0:70:bass.wav
109,192,271659,1,0,0:0:0:0:
182,192,271659,1,0,0:0:0:0:
329,192,271738,1,0,0:0:0:70:bass.wav
402,192,271738,1,0,0:0:0:0:
475,192,271738,1,0,0:0:0:0:
36,192,271817,1,0,0:0:0:70:bass.wav
182,192,271817,1,0,0:0:0:0:
256,192,271817,1,0,0:0:0:0:
475,192,271856,1,0,0:0:0:0:
402,192,271896,1,0,0:0:0:0:
329,192,271935,1,0,0:0:0:0:
109,192,271975,1,0,0:0:0:0:
182,192,272014,1,0,0:0:0:0:
256,192,272053,1,0,0:0:0:0:
329,192,272093,1,0,0:0:0:0:
402,192,272132,1,0,0:0:0:50:Snare.wav
475,192,272132,1,0,0:0:0:0:
36,192,272172,1,0,0:0:0:0:
109,192,272211,1,0,0:0:0:0:
182,192,272251,1,0,0:0:0:0:
402,192,272290,1,0,0:0:0:0:
329,192,272330,1,0,0:0:0:0:
256,192,272369,1,0,0:0:0:0:
36,192,272448,1,0,0:0:0:70:bass.wav
109,192,272448,1,0,0:0:0:0:
475,192,272448,1,0,0:0:0:0:
182,192,272527,1,0,0:0:0:0:
402,192,272527,1,0,0:0:0:0:
36,192,272606,1,0,0:0:0:0:
329,192,272606,1,0,0:0:0:0:
109,192,272685,1,0,0:0:0:0:
475,192,272685,1,0,0:0:0:0:
182,192,272764,1,0,0:0:0:50:Snare.wav
256,192,272764,1,0,0:0:0:0:
402,192,272764,1,0,0:0:0:0:
36,192,272843,1,0,0:0:0:70:bass.wav
109,192,272843,1,0,0:0:0:0:
329,192,272843,1,0,0:0:0:0:
182,192,272922,1,0,0:0:0:70:bass.wav
402,192,272922,1,0,0:0:0:0:
475,192,272922,1,0,0:0:0:0:
36,192,273080,128,0,273553:0:0:0:70:bass.wav
182,192,273080,128,0,273553:0:0:0:70:cymbal.wav
256,192,273080,1,0,0:0:0:0:
329,192,273080,128,0,273553:0:0:0:0:
475,192,273080,128,0,273553:0:0:0:0:
256,192,273711,128,0,274343:0:0:0:0:
36,192,274343,1,0,0:0:0:70:bass.wav
329,192,274343,1,0,0:0:0:70:cymbal.wav
475,192,274343,1,0,0:0:0:0:
109,192,274382,1,0,0:0:0:0:
182,192,274422,1,0,0:0:0:0:
402,192,274461,1,0,0:0:0:0:
36,192,274501,1,0,0:0:0:70:bass.wav
329,192,274501,1,0,0:0:0:0:
256,192,274540,1,0,0:0:0:0:
182,192,274580,1,0,0:0:0:0:
109,192,274619,1,0,0:0:0:0:
402,192,274659,1,0,0:0:0:50:Snare.wav
475,192,274659,1,0,0:0:0:0:
329,192,274698,1,0,0:0:0:0:
256,192,274738,1,0,0:0:0:0:
36,192,274777,1,0,0:0:0:0:
109,192,274817,1,0,0:0:0:0:
182,192,274856,1,0,0:0:0:0:
256,192,274896,1,0,0:0:0:0:
36,192,274975,1,0,0:0:0:70:bass.wav
329,192,274975,1,0,0:0:0:0:
475,192,274975,1,0,0:0:0:0:
182,192,275053,1,0,0:0:0:0:
402,192,275053,1,0,0:0:0:0:
36,192,275132,1,0,0:0:0:0:
256,192,275132,1,0,0:0:0:0:
109,192,275211,1,0,0:0:0:0:
329,192,275211,1,0,0:0:0:0:
182,192,275290,1,0,0:0:0:50:Snare.wav
256,192,275290,1,0,0:0:0:0:
402,192,275290,1,0,0:0:0:0:
475,192,275290,1,0,0:0:0:0:
36,192,275369,1,0,0:0:0:0:
109,192,275369,1,0,0:0:0:0:
329,192,275448,1,0,0:0:0:70:bass.wav
402,192,275448,1,0,0:0:0:0:
475,192,275448,1,0,0:0:0:0:
109,192,275527,1,0,0:0:0:70:bass.wav
182,192,275527,1,0,0:0:0:0:
256,192,275527,1,0,0:0:0:0:
36,192,275606,1,0,0:0:0:70:bass.wav
402,192,275606,1,0,0:0:0:0:
475,192,275606,1,0,0:0:0:0:
182,192,275685,1,0,0:0:0:0:
256,192,275685,1,0,0:0:0:0:
36,192,275764,1,0,0:0:0:0:
329,192,275764,1,0,0:0:0:0:
109,192,275843,1,0,0:0:0:0:
402,192,275843,1,0,0:0:0:0:
36,192,275922,1,0,0:0:0:50:Snare.wav
182,192,275922,1,0,0:0:0:0:
256,192,275922,1,0,0:0:0:0:
329,192,276001,1,0,0:0:0:70:bass.wav
402,192,276001,1,0,0:0:0:0:
475,192,276001,1,0,0:0:0:0:
36,192,276080,1,0,0:0:0:70:bass.wav
109,192,276080,1,0,0:0:0:0:
182,192,276080,1,0,0:0:0:0:
329,192,276159,1,0,0:0:0:0:
475,192,276159,1,0,0:0:0:0:
36,192,276238,1,0,0:0:0:70:bass.wav
109,192,276238,1,0,0:0:0:0:
182,192,276238,1,0,0:0:0:0:
329,192,276317,1,0,0:0:0:70:bass.wav
402,192,276317,1,0,0:0:0:0:
475,192,276317,1,0,0:0:0:0:
109,192,276396,1,0,0:0:0:50:Snare.wav
182,192,276396,1,0,0:0:0:0:
256,192,276396,1,0,0:0:0:0:
475,192,276435,1,0,0:0:0:0:
402,192,276475,1,0,0:0:0:0:
329,192,276514,1,0,0:0:0:0:
36,192,276553,1,0,0:0:0:70:bass.wav
256,192,276553,1,0,0:0:0:0:
109,192,276632,1,0,0:0:0:0:
182,192,276632,1,0,0:0:0:0:
329,192,276711,1,0,0:0:0:70:drum.wav
402,192,276711,1,0,0:0:0:0:
475,192,276711,1,0,0:0:0:0:
36,192,276790,1,0,0:0:0:70:drum.wav
109,192,276790,1,0,0:0:0:0:
182,192,276790,1,0,0:0:0:0:
256,192,276869,1,0,0:0:0:70:bass.wav
329,192,276869,1,0,0:0:0:0:
475,192,276869,1,0,0:0:0:0:
36,192,276909,1,0,0:0:0:0:
109,192,276948,1,0,0:0:0:0:
182,192,276988,1,0,0:0:0:0:
402,192,277027,1,0,0:0:0:0:
329,192,277067,1,0,0:0:0:0:
256,192,277106,1,0,0:0:0:0:
182,192,277146,1,0,0:0:0:0:
36,192,277185,1,0,0:0:0:50:Snare.wav
109,192,277185,1,0,0:0:0:0:
475,192,277225,1,0,0:0:0:0:
402,192,277264,1,0,0:0:0:0:
329,192,277303,1,0,0:0:0:0:
109,192,277343,1,0,0:0:0:0:
256,192,277422,1,0,0:0:0:0:
36,192,277501,1,0,0:0:0:70:bass.wav
402,192,277501,1,0,0:0:0:0:
475,192,277501,1,0,0:0:0:0:
109,192,277580,1,0,0:0:0:0:
329,192,277580,1,0,0:0:0:0:
182,192,277659,1,0,0:0:0:0:
475,192,277659,1,0,0:0:0:0:
36,192,277738,1,0,0:0:0:0:
402,192,277738,1,0,0:0:0:0:
109,192,277817,1,0,0:0:0:50:Snare.wav
256,192,277817,1,0,0:0:0:0:
329,192,277817,1,0,0:0:0:0:
182,192,277896,1,0,0:0:0:0:
475,192,277896,1,0,0:0:0:0:
36,192,277975,1,0,0:0:0:70:bass.wav
109,192,277975,1,0,0:0:0:0:
329,192,277975,1,0,0:0:0:0:
256,192,278053,1,0,0:0:0:70:bass.wav
402,192,278053,1,0,0:0:0:0:
475,192,278053,1,0,0:0:0:0:
36,192,278132,1,0,0:0:0:70:bass.wav
109,192,278132,1,0,0:0:0:0:
182,192,278132,1,0,0:0:0:0:
329,192,278132,1,0,0:0:0:0:
256,192,278290,1,0,0:0:0:0:
329,192,278448,1,0,0:0:0:0:
256,192,278527,1,0,0:0:0:0:
182,192,278685,1,0,0:0:0:0:
256,192,278764,128,0,279396:0:0:0:0:
402,192,278764,128,0,279080:0:0:0:0:
36,192,279396,1,0,0:0:0:70:bass.wav
109,192,279396,1,0,0:0:0:50:Snare.wav
182,192,279396,1,0,0:0:0:70:cymbal.wav
329,192,279396,1,0,0:0:0:0:
402,192,279396,1,0,0:0:0:0:
475,192,279396,1,0,0:0:0:0:
36,192,279711,1,0,0:0:0:70:bass.wav
109,192,279711,1,0,0:0:0:50:Snare.wav
182,192,279711,1,0,0:0:0:0:
329,192,279711,1,0,0:0:0:0:
402,192,279711,1,0,0:0:0:0:
475,192,279711,1,0,0:0:0:0:
36,192,280027,1,0,0:0:0:70:bass.wav
109,192,280027,1,0,0:0:0:50:Snare.wav
182,192,280027,1,0,0:0:0:0:
329,192,280027,1,0,0:0:0:0:
402,192,280027,1,0,0:0:0:0:
475,192,280027,1,0,0:0:0:0:
36,192,280343,1,0,0:0:0:70:bass.wav
109,192,280343,1,0,0:0:0:50:Snare.wav
182,192,280343,1,0,0:0:0:0:
329,192,280343,1,0,0:0:0:0:
402,192,280343,1,0,0:0:0:0:
475,192,280343,1,0,0:0:0:0:
36,192,280501,1,0,0:0:0:0:
475,192,280501,1,0,0:0:0:0:
36,192,280659,1,0,0:0:0:70:bass.wav
109,192,280659,1,0,0:0:0:50:Snare.wav
182,192,280659,1,0,0:0:0:0:
329,192,280659,1,0,0:0:0:0:
402,192,280659,1,0,0:0:0:0:
475,192,280659,1,0,0:0:0:0:
36,192,280975,1,0,0:0:0:70:bass.wav
109,192,280975,1,0,0:0:0:50:Snare.wav
256,192,280975,1,0,0:0:0:0:
402,192,280975,1,0,0:0:0:0:
475,192,280975,1,0,0:0:0:0:
109,192,281132,1,0,0:0:0:0:
402,192,281132,1,0,0:0:0:0:
36,192,281290,1,0,0:0:0:70:bass.wav
182,192,281290,1,0,0:0:0:50:Snare.wav
256,192,281290,1,0,0:0:0:0:
329,192,281290,1,0,0:0:0:0:
475,192,281290,1,0,0:0:0:0:
182,192,281448,1,0,0:0:0:0:
329,192,281448,1,0,0:0:0:0:
36,192,281606,1,0,0:0:0:70:bass.wav
109,192,281606,1,0,0:0:0:50:Snare.wav
256,192,281606,128,0,281922:0:0:0:0:
402,192,281606,1,0,0:0:0:0:
475,192,281606,1,0,0:0:0:0:
36,192,281922,1,0,0:0:0:70:bass.wav
109,192,281922,1,0,0:0:0:50:Snare.wav
182,192,281922,1,0,0:0:0:0:
329,192,281922,1,0,0:0:0:0:
402,192,281922,1,0,0:0:0:0:
475,192,281922,1,0,0:0:0:0:
36,192,282238,1,0,0:0:0:70:bass.wav
109,192,282238,1,0,0:0:0:50:Snare.wav
182,192,282238,1,0,0:0:0:0:
329,192,282238,1,0,0:0:0:0:
402,192,282238,1,0,0:0:0:0:
475,192,282238,1,0,0:0:0:0:
36,192,282553,1,0,0:0:0:70:bass.wav
109,192,282553,1,0,0:0:0:50:Snare.wav
182,192,282553,1,0,0:0:0:0:
329,192,282553,1,0,0:0:0:0:
402,192,282553,1,0,0:0:0:0:
475,192,282553,1,0,0:0:0:0:
36,192,282869,1,0,0:0:0:70:bass.wav
109,192,282869,1,0,0:0:0:50:Snare.wav
182,192,282869,1,0,0:0:0:0:
329,192,282869,1,0,0:0:0:0:
402,192,282869,1,0,0:0:0:0:
475,192,282869,1,0,0:0:0:0:
36,192,283027,1,0,0:0:0:0:
475,192,283027,1,0,0:0:0:0:
36,192,283185,1,0,0:0:0:70:bass.wav
109,192,283185,1,0,0:0:0:50:Snare.wav
182,192,283185,1,0,0:0:0:0:
329,192,283185,1,0,0:0:0:0:
402,192,283185,1,0,0:0:0:0:
475,192,283185,1,0,0:0:0:0:
182,192,283501,1,0,0:0:0:70:bass.wav
256,192,283501,1,0,0:0:0:50:Snare.wav
329,192,283501,1,0,0:0:0:0:
402,192,283501,1,0,0:0:0:0:
475,192,283501,1,0,0:0:0:0:
36,192,283659,1,0,0:0:0:70:bass.wav
109,192,283659,1,0,0:0:0:50:Snare.wav
329,192,283659,1,0,0:0:0:0:
402,192,283659,1,0,0:0:0:0:
475,192,283659,1,0,0:0:0:0:
36,192,283817,1,0,0:0:0:70:bass.wav
109,192,283817,1,0,0:0:0:50:Snare.wav
182,192,283817,1,0,0:0:0:0:
256,192,283817,1,0,0:0:0:0:
329,192,283817,1,0,0:0:0:0:
402,192,283975,1,0,0:0:0:0:
475,192,283975,1,0,0:0:0:0:
109,192,284132,1,0,0:0:0:70:drum.wav
329,192,284132,1,0,0:0:0:0:
182,192,284290,1,0,0:0:0:0:
256,192,284369,1,0,0:0:0:0:
36,192,284448,1,0,0:0:0:70:bass.wav
109,192,284448,1,0,0:0:0:50:Snare.wav
182,192,284448,1,0,0:0:0:0:
329,192,284448,1,0,0:0:0:0:
402,192,284448,1,0,0:0:0:0:
475,192,284448,1,0,0:0:0:0:
36,192,284764,1,0,0:0:0:70:bass.wav
109,192,284764,1,0,0:0:0:50:Snare.wav
182,192,284764,1,0,0:0:0:0:
329,192,284764,1,0,0:0:0:0:
402,192,284764,1,0,0:0:0:0:
475,192,284764,1,0,0:0:0:0:
36,192,285080,1,0,0:0:0:70:bass.wav
109,192,285080,1,0,0:0:0:50:Snare.wav
182,192,285080,1,0,0:0:0:0:
329,192,285080,1,0,0:0:0:0:
402,192,285080,1,0,0:0:0:0:
475,192,285080,1,0,0:0:0:0:
36,192,285396,1,0,0:0:0:70:bass.wav
109,192,285396,1,0,0:0:0:50:Snare.wav
182,192,285396,1,0,0:0:0:0:
329,192,285396,1,0,0:0:0:0:
402,192,285396,1,0,0:0:0:0:
475,192,285396,1,0,0:0:0:0:
36,192,285553,1,0,0:0:0:0:
475,192,285553,1,0,0:0:0:0:
36,192,285711,1,0,0:0:0:70:bass.wav
109,192,285711,1,0,0:0:0:50:Snare.wav
182,192,285711,1,0,0:0:0:0:
329,192,285711,1,0,0:0:0:0:
402,192,285711,1,0,0:0:0:0:
475,192,285711,1,0,0:0:0:0:
36,192,286027,1,0,0:0:0:70:bass.wav
109,192,286027,1,0,0:0:0:50:Snare.wav
256,192,286027,1,0,0:0:0:0:
402,192,286027,1,0,0:0:0:0:
475,192,286027,1,0,0:0:0:0:
109,192,286185,1,0,0:0:0:0:
402,192,286185,1,0,0:0:0:0:
36,192,286343,1,0,0:0:0:70:bass.wav
182,192,286343,1,0,0:0:0:50:Snare.wav
256,192,286343,1,0,0:0:0:0:
329,192,286343,1,0,0:0:0:0:
475,192,286343,1,0,0:0:0:0:
182,192,286501,1,0,0:0:0:0:
329,192,286501,1,0,0:0:0:0:
36,192,286659,1,0,0:0:0:70:bass.wav
109,192,286659,1,0,0:0:0:50:Snare.wav
256,192,286659,128,0,286975:0:0:0:0:
402,192,286659,1,0,0:0:0:0:
475,192,286659,1,0,0:0:0:0:
36,192,286975,1,0,0:0:0:70:bass.wav
109,192,286975,1,0,0:0:0:50:Snare.wav
182,192,286975,1,0,0:0:0:0:
329,192,286975,1,0,0:0:0:0:
402,192,286975,1,0,0:0:0:0:
475,192,286975,1,0,0:0:0:0:
36,192,287290,1,0,0:0:0:70:bass.wav
109,192,287290,1,0,0:0:0:50:Snare.wav
182,192,287290,1,0,0:0:0:0:
329,192,287290,1,0,0:0:0:0:
402,192,287290,1,0,0:0:0:0:
475,192,287290,1,0,0:0:0:0:
36,192,287606,1,0,0:0:0:70:bass.wav
109,192,287606,1,0,0:0:0:50:Snare.wav
182,192,287606,1,0,0:0:0:0:
329,192,287606,1,0,0:0:0:0:
402,192,287606,1,0,0:0:0:0:
475,192,287606,1,0,0:0:0:0:
36,192,287922,1,0,0:0:0:70:bass.wav
109,192,287922,1,0,0:0:0:50:Snare.wav
182,192,287922,1,0,0:0:0:0:
329,192,287922,1,0,0:0:0:0:
402,192,287922,1,0,0:0:0:0:
475,192,287922,1,0,0:0:0:0:
36,192,288080,1,0,0:0:0:70:bass.wav
109,192,288080,1,0,0:0:0:50:Snare.wav
182,192,288080,1,0,0:0:0:0:
329,192,288080,1,0,0:0:0:0:
402,192,288080,1,0,0:0:0:0:
475,192,288080,1,0,0:0:0:0:
36,192,288238,1,0,0:0:0:70:bass.wav
109,192,288238,1,0,0:0:0:50:Snare.wav
256,192,288238,1,0,0:0:0:70:cymbal.wav
402,192,288238,1,0,0:0:0:0:
475,192,288238,1,0,0:0:0:0:
109,192,288448,1,0,0:0:0:0:
256,192,288448,1,0,0:0:0:0:
329,192,288553,1,0,0:0:0:0:
475,192,288553,1,0,0:0:0:0:
256,192,288764,1,0,0:0:0:0:
402,192,288764,1,0,0:0:0:0:
36,192,288869,1,0,0:0:0:0:
182,192,288869,1,0,0:0:0:0:
182,192,289080,1,0,0:0:0:0:
329,192,289080,1,0,0:0:0:0:
36,192,289185,1,0,0:0:0:0:
475,192,289185,1,0,0:0:0:0:
256,192,289396,1,0,0:0:0:0:
36,192,289501,1,0,0:0:0:70:bass.wav
109,192,289501,1,0,0:0:0:50:Snare.wav
182,192,289501,1,0,0:0:0:70:cymbal.wav
329,192,289501,1,0,0:0:0:0:
402,192,289501,1,0,0:0:0:0:
475,192,289501,1,0,0:0:0:0:
36,192,289817,1,0,0:0:0:70:bass.wav
109,192,289817,1,0,0:0:0:50:Snare.wav
182,192,289817,1,0,0:0:0:0:
329,192,289817,1,0,0:0:0:0:
402,192,289817,1,0,0:0:0:0:
475,192,289817,1,0,0:0:0:0:
36,192,290132,1,0,0:0:0:70:bass.wav
109,192,290132,1,0,0:0:0:0:
329,192,290132,1,0,0:0:0:0:
402,192,290132,1,0,0:0:0:0:
36,192,290290,1,0,0:0:0:0:
329,192,290290,1,0,0:0:0:0:
109,192,290448,1,0,0:0:0:70:bass.wav
182,192,290448,1,0,0:0:0:0:
402,192,290448,1,0,0:0:0:0:
475,192,290448,1,0,0:0:0:0:
182,192,290606,1,0,0:0:0:0:
475,192,290606,1,0,0:0:0:0:
36,192,290764,1,0,0:0:0:70:bass.wav
109,192,290764,1,0,0:0:0:50:Snare.wav
182,192,290764,1,0,0:0:0:0:
329,192,290764,1,0,0:0:0:0:
402,192,290764,1,0,0:0:0:0:
475,192,290764,1,0,0:0:0:0:
36,192,291080,1,0,0:0:0:70:bass.wav
109,192,291080,1,0,0:0:0:0:
329,192,291080,1,0,0:0:0:0:
402,192,291080,1,0,0:0:0:0:
36,192,291238,1,0,0:0:0:0:
329,192,291238,1,0,0:0:0:0:
109,192,291396,1,0,0:0:0:50:Snare.wav
182,192,291396,1,0,0:0:0:0:
402,192,291396,1,0,0:0:0:0:
475,192,291396,1,0,0:0:0:0:
109,192,291553,1,0,0:0:0:50:Snare.wav
182,192,291553,1,0,0:0:0:0:
402,192,291553,1,0,0:0:0:0:
475,192,291553,1,0,0:0:0:0:
109,192,291711,1,0,0:0:0:70:bass.wav
182,192,291711,1,0,0:0:0:0:
256,192,291711,128,0,292027:0:0:0:0:
402,192,291711,1,0,0:0:0:0:
475,192,291711,1,0,0:0:0:0:
36,192,292027,1,0,0:0:0:70:bass.wav
109,192,292027,1,0,0:0:0:50:Snare.wav
182,192,292027,1,0,0:0:0:0:
329,192,292027,1,0,0:0:0:0:
402,192,292027,1,0,0:0:0:0:
475,192,292027,1,0,0:0:0:0:
36,192,292343,1,0,0:0:0:70:bass.wav
109,192,292343,1,0,0:0:0:50:Snare.wav
182,192,292343,1,0,0:0:0:0:
329,192,292343,1,0,0:0:0:0:
402,192,292343,1,0,0:0:0:0:
475,192,292343,1,0,0:0:0:0:
36,192,292659,1,0,0:0:0:70:bass.wav
109,192,292659,1,0,0:0:0:0:
329,192,292659,1,0,0:0:0:0:
402,192,292659,1,0,0:0:0:0:
36,192,292817,1,0,0:0:0:0:
329,192,292817,1,0,0:0:0:0:
109,192,292975,1,0,0:0:0:70:bass.wav
182,192,292975,1,0,0:0:0:0:
402,192,292975,1,0,0:0:0:0:
475,192,292975,1,0,0:0:0:0:
182,192,293132,1,0,0:0:0:0:
475,192,293132,1,0,0:0:0:0:
36,192,293290,1,0,0:0:0:70:bass.wav
109,192,293290,1,0,0:0:0:0:
329,192,293290,1,0,0:0:0:0:
402,192,293290,1,0,0:0:0:0:
256,192,293501,1,0,0:0:0:0:
109,192,293606,1,0,0:0:0:70:bass.wav
182,192,293606,1,0,0:0:0:0:
402,192,293606,1,0,0:0:0:0:
475,192,293606,1,0,0:0:0:0:
256,192,293764,1,0,0:0:0:0:
36,192,293922,1,0,0:0:0:70:bass.wav
182,192,293922,1,0,0:0:0:0:
329,192,293922,1,0,0:0:0:0:
475,192,293922,1,0,0:0:0:0:
109,192,294080,1,0,0:0:0:70:drum.wav
402,192,294080,1,0,0:0:0:0:
36,192,294238,1,0,0:0:0:70:drum.wav
475,192,294238,1,0,0:0:0:0:
182,192,294317,1,0,0:0:0:70:drum.wav
329,192,294317,1,0,0:0:0:0:
36,192,294396,1,0,0:0:0:70:drum.wav
475,192,294396,1,0,0:0:0:0:
36,192,294553,1,0,0:0:0:70:bass.wav
109,192,294553,1,0,0:0:0:50:Snare.wav
182,192,294553,1,0,0:0:0:0:
329,192,294553,1,0,0:0:0:0:
402,192,294553,1,0,0:0:0:0:
475,192,294553,1,0,0:0:0:0:
36,192,294869,1,0,0:0:0:70:bass.wav
109,192,294869,1,0,0:0:0:50:Snare.wav
182,192,294869,1,0,0:0:0:0:
329,192,294869,1,0,0:0:0:0:
402,192,294869,1,0,0:0:0:0:
475,192,294869,1,0,0:0:0:0:
109,192,295185,1,0,0:0:0:70:bass.wav
182,192,295185,1,0,0:0:0:0:
402,192,295185,1,0,0:0:0:0:
475,192,295185,1,0,0:0:0:0:
182,192,295343,1,0,0:0:0:0:
475,192,295343,1,0,0:0:0:0:
36,192,295501,1,0,0:0:0:70:bass.wav
109,192,295501,1,0,0:0:0:0:
329,192,295501,1,0,0:0:0:0:
402,192,295501,1,0,0:0:0:0:
36,192,295659,1,0,0:0:0:0:
329,192,295659,1,0,0:0:0:0:
36,192,295817,1,0,0:0:0:70:bass.wav
109,192,295817,1,0,0:0:0:50:Snare.wav
182,192,295817,1,0,0:0:0:0:
329,192,295817,1,0,0:0:0:0:
402,192,295817,1,0,0:0:0:0:
475,192,295817,1,0,0:0:0:0:
109,192,296132,1,0,0:0:0:70:bass.wav
182,192,296132,1,0,0:0:0:0:
402,192,296132,1,0,0:0:0:0:
475,192,296132,1,0,0:0:0:0:
182,192,296290,1,0,0:0:0:0:
475,192,296290,1,0,0:0:0:0:
36,192,296448,1,0,0:0:0:50:Snare.wav
109,192,296448,1,0,0:0:0:0:
329,192,296448,1,0,0:0:0:0:
402,192,296448,1,0,0:0:0:0:
36,192,296606,1,0,0:0:0:50:Snare.wav
109,192,296606,1,0,0:0:0:0:
329,192,296606,1,0,0:0:0:0:
402,192,296606,1,0,0:0:0:0:
109,192,296764,1,0,0:0:0:70:bass.wav
182,192,296764,1,0,0:0:0:0:
256,192,296764,128,0,297080:0:0:0:0:
329,192,296764,1,0,0:0:0:0:
402,192,296764,1,0,0:0:0:0:
36,192,297080,1,0,0:0:0:70:bass.wav
109,192,297080,1,0,0:0:0:50:Snare.wav
182,192,297080,1,0,0:0:0:0:
329,192,297080,1,0,0:0:0:0:
402,192,297080,1,0,0:0:0:0:
475,192,297080,1,0,0:0:0:0:
256,192,297290,1,0,0:0:0:0:
36,192,297396,1,0,0:0:0:50:Snare.wav
182,192,297396,1,0,0:0:0:0:
402,192,297396,1,0,0:0:0:0:
256,192,297606,1,0,0:0:0:0:
109,192,297711,1,0,0:0:0:50:Snare.wav
329,192,297711,1,0,0:0:0:0:
475,192,297711,1,0,0:0:0:0:
256,192,297922,1,0,0:0:0:0:
109,192,298027,1,0,0:0:0:50:Snare.wav
182,192,298027,1,0,0:0:0:0:
329,192,298027,1,0,0:0:0:0:
402,192,298027,1,0,0:0:0:0:
256,192,298238,1,0,0:0:0:0:
36,192,298343,128,0,298975:0:0:0:70:bass.wav
109,192,298343,128,0,298975:0:0:0:50:Snare.wav
182,192,298343,128,0,298975:0:0:0:70:cymbal.wav
329,192,298343,128,0,298975:0:0:0:0:
402,192,298343,128,0,298975:0:0:0:0:
475,192,298343,128,0,298975:0:0:0:0:
36,192,299606,1,0,0:0:0:70:loobass.wav
109,192,299606,128,0,302764:0:0:0:0:
182,192,299606,128,0,301501:0:0:0:0:
256,192,299606,128,0,303396:0:0:0:0:
329,192,299606,128,0,300869:0:0:0:0:
402,192,299606,128,0,302132:0:0:0:0:
475,192,299606,1,0,0:0:0:0:
