osu file format v14

[General]
AudioFilename: audio.MP3
AudioLeadIn: 0
PreviewTime: -1
Countdown: 0
SampleSet: None
StackLeniency: 0.7
Mode: 0
LetterboxInBreaks: 0
WidescreenStoryboard: 0

[Editor]
DistanceSpacing: 0.4
BeatDivisor: 4
GridSize: 32
TimelineZoom: 1.8

[Metadata]
Title:Sound Chimera
TitleUnicode:Sound Chimera
Artist:Laur
ArtistUnicode:Laur
Creator:Dziuras
Version:Mystic
Source:
Tags:
BeatmapID:1982261
BeatmapSetID:949273

[Difficulty]
HPDrainRate:5
CircleSize:3.2
OverallDifficulty:5
ApproachRate:9
SliderMultiplier:1.8
SliderTickRate:1

[Events]
//Background and Video events
//Break Periods
2,22900,24627
2,25427,27153
2,27953,29679
2,43111,46100
2,48163,51153
2,53216,54311
//Storyboard Layer 0 (Background)
//Storyboard Layer 1 (Fail)
//Storyboard Layer 2 (Pass)
//Storyboard Layer 3 (Foreground)
//Storyboard Sound Samples

[TimingPoints]
1227,315.789473684211,4,1,0,100,1,0
7542,-66.6666666666667,4,2,0,70,0,0
9279,-100,4,2,0,70,0,0
12595,-66.6666666666667,4,2,0,70,0,0
14963,-100,4,2,0,70,0,0
15911,-66.6666666666667,4,2,0,70,0,0
17332,-100,4,2,0,70,0,0
17963,-66.6666666666667,4,2,0,70,0,0
20016,-100,4,2,0,70,0,0
20963,-66.6666666666667,4,2,0,70,0,0
32805,-100,4,2,0,80,0,0
35016,-100,4,2,0,40,0,0
35174,-100,4,2,0,80,0,0
37542,-100,4,2,0,40,0,0
37700,-100,4,2,0,80,0,0
40069,-100,4,2,0,30,0,0
40227,-100,4,2,0,80,0,0
46700,-133.333333333333,4,2,0,80,0,0
54911,-250,4,1,0,30,0,0
55227,-200,4,1,0,30,0,0
55542,-166.666666666667,4,1,0,40,0,0
55858,-142.857142857143,4,1,0,40,0,0
56174,-125,4,1,0,50,0,0
56490,-111.111111111111,4,1,0,50,0,0
56805,-100,4,1,0,50,0,0
57121,-90.9090909090909,4,1,0,50,0,0
57437,-83.3333333333333,4,1,0,60,0,0
57753,-76.9230769230769,4,1,0,60,0,0
58069,-71.4285714285714,4,1,0,60,0,0
58384,-66.6666666666667,4,1,0,60,0,0
58700,-62.5,4,1,0,70,0,0
59016,-58.8235294117647,4,1,0,70,0,0
59332,-55.5555555555556,4,1,0,70,0,0
59648,-52.6315789473684,4,1,0,70,0,0
59963,-50,4,1,0,80,0,0
60279,-47.6190476190476,4,1,0,80,0,0
60595,-45.4545454545455,4,1,0,90,0,0
60911,-43.4782608695652,4,1,0,90,0,0
61227,-41.6666666666667,4,1,0,100,0,0
61542,-40,4,1,0,100,0,0
63121,-66.6666666666667,4,3,0,80,0,0
71963,-100,4,3,0,70,0,0
73227,-66.6666666666667,4,3,0,80,0,0
81121,-66.6666666666667,4,3,0,70,0,0
81437,-66.6666666666667,4,3,0,60,0,0
81753,-66.6666666666667,4,3,0,50,0,0
82069,-100,4,3,0,40,0,0
82384,-133.333333333333,4,3,0,40,0,0
82858,-200,4,3,0,47,0,0
83332,-66.6666666666667,4,3,0,80,0,0
154069,434.782608695652,4,1,0,100,1,0
233618,352.941176470588,4,1,0,100,1,0
235029,342.857142857143,4,1,0,100,1,0
236400,324.324324324324,4,1,0,100,1,0
238960,315.789473684211,4,1,0,100,1,0

[HitObjects]
176,48,2490,5,4,0:3:0:0:
246,61,2648,1,0,0:0:0:0:
166,118,2805,1,8,0:0:0:0:
237,129,2963,2,0,P|238:170|187:244,2,90,4|0|0,0:3|0:0|0:0,0:0:0:0:
309,127,3437,1,8,0:0:0:0:
303,198,3595,5,4,0:3:0:0:
231,202,3753,1,0,0:0:0:0:
158,204,3911,1,0,0:0:0:0:
110,149,4069,1,8,0:0:0:0:
153,88,4227,2,0,B|190:9|245:46|236:77,2,90,4|0|0,0:3|0:0|0:0,0:0:0:0:
219,114,4700,1,8,0:0:0:0:
276,71,4858,5,0,0:0:0:0:
283,142,5016,1,4,0:3:0:0:
339,97,5174,1,0,0:0:0:0:
346,168,5332,1,8,0:0:0:0:
417,157,5490,2,0,P|391:220|335:241,2,90,4|0|0,0:3|0:0|0:0,0:0:0:0:
346,168,5963,1,8,0:0:0:0:
300,224,6121,5,4,0:3:0:0:
287,294,6279,1,0,0:0:0:0:
233,246,6437,1,0,0:0:0:0:
223,317,6595,1,8,0:0:0:0:
161,280,6753,2,0,P|124:260|98:214,2,90,4|0|0,0:3|0:0|0:0,0:0:0:0:
172,208,7227,1,8,0:0:0:0:
241,225,7384,1,0,0:0:0:0:
289,169,7542,6,0,P|328:128|239:128,1,202.500007724762,4|0,0:3|0:0,0:0:0:0:
239,122,7858,2,0,B|110:-13|182:167|182:167|27:-20|130:211|130:211|-58:-70|68:226,1,742.500028324128,8|0,0:0|0:0,0:0:0:0:
170,301,8805,2,0,B|227:349|285:280|285:280|230:197|161:239,1,270.000010299683,0|0,0:0|0:0,0:0:0:0:
149,164,9279,2,0,P|197:156|248:161,2,90,4|0|0,0:3|0:0|0:0,0:0:0:0:
144,91,9753,1,8,0:0:0:0:
243,93,9911,1,0,0:0:0:0:
199,35,10069,6,0,P|249:23|320:38,2,90,4|0|8,0:3|0:0|0:0,0:0:0:0:
130,57,10542,1,0,0:0:0:0:
58,68,10700,1,4,0:3:0:0:
137,127,10858,1,8,0:0:0:0:
43,159,11016,1,0,0:0:0:0:
151,202,11174,1,4,0:3:0:0:
42,244,11332,2,0,P|60:292|106:336,2,90,0|0|0,0:0|0:0|0:0,0:0:0:0:
151,202,11805,2,0,P|188:243|240:274,2,90,4|0|0,0:3|0:0|0:0,0:0:0:0:
201,150,12279,1,8,0:0:0:0:
270,169,12437,1,0,0:0:0:0:
253,71,12595,6,0,B|298:34|358:45|358:45|383:105|311:135,1,202.500007724762,4|0,0:3|0:0,0:0:0:0:
333,123,12911,2,0,B|597:123|331:161|331:161|596:159|332:182|332:182|602:195|333:210|333:210|600:222|327:231|327:231|592:247|328:255|328:255|611:283|297:292,1,1620.0000617981,8|8,0:0|0:0,0:0:0:0:
236,301,14963,1,0,0:0:0:0:
130,306,15121,2,0,P|100:257|100:203,1,90,4|0,0:3|0:0,0:0:0:0:
187,232,15437,2,0,P|204:182|95:129,1,180,8|0,0:0|0:0,0:0:0:0:
198,43,15911,2,0,B|230:68|230:68|251:48|251:48|256:89|256:89|299:82|299:82|265:108|265:108|310:110|310:110|269:129|269:129|315:138|315:138|273:151|273:151|316:155|316:155|274:168|274:168|315:174|315:174|276:183|276:183|315:188|315:188|276:202|276:202|315:205|315:205|276:216|276:216|315:218|315:218|276:226|276:226|315:230|315:230|278:237|278:237|315:242|315:242|278:247|278:247|315:253|315:253|280:257|280:257|314:264|314:264|285:267|285:267|306:284,1,1080.00004119873,0|0,0:0|0:0,0:0:0:0:
386,262,17332,2,0,P|452:252|480:226,1,90,8|0,0:0|0:0,0:0:0:0:
412,182,17648,2,0,P|397:129|412:85,1,90,4|0,0:3|0:0,0:0:0:0:
332,42,17963,6,0,B|199:52|331:52|331:52|192:60|327:64|327:64|186:69|319:73|319:73|180:76|309:81|309:81|175:84|303:89|303:89|168:90|300:95|300:95|164:96|299:103|299:103|159:103|292:109|292:109|155:109|287:115|287:115|150:114|282:121|282:121|146:120|277:127|277:127|145:128|274:134|274:134|272:147,1,1620.0000617981,8|8,0:0|0:0,0:0:0:0:
235,216,20016,1,0,0:0:0:0:
128,220,20174,2,0,P|87:161|90:120,1,90,4|0,0:3|0:0,0:0:0:0:
30,232,20490,2,0,P|43:288|166:312,1,180,8|0,0:0|0:0,0:0:0:0:
245,315,20963,2,0,B|320:302|320:302|258:290|258:290|328:279|328:279|262:268|262:268|324:260|324:260|258:250|258:250|329:236|329:236|256:231|256:231|313:212|313:212|250:208|250:208|318:194|318:194|253:180|253:180|321:173|321:173|249:158|249:158|329:146|329:146|265:125,1,1080.00004119873,8|0,0:0|0:0,0:0:0:0:
226,86,22384,2,0,B|59:13|291:193|105:124,1,202.500007724762,8|0,0:0|0:0,0:0:0:0:
117,128,22700,1,4,0:3:0:0:
256,189,25227,5,0,0:0:0:0:
251,182,27753,5,0,0:0:0:0:
150,95,30279,6,0,P|219:89|253:99,1,67.5000025749208,2|2,0:0|0:0,0:0:0:0:
356,133,30595,2,0,L|356:63,1,67.5000025749208,2|2,0:0|0:0,0:0:0:0:
356,133,30753,2,0,L|356:203,1,67.5000025749208,2|2,0:0|0:0,0:0:0:0:
356,200,30911,2,0,P|252:189|252:152,1,135.000005149842,2|2,0:0|0:0,0:0:0:0:
308,163,31227,2,0,P|247:120|186:155,1,135.000005149842,2|2,0:0|0:0,0:0:0:0:
196,204,31542,2,0,B|140:257|140:257|112:188,1,135.000005149842,2|2,0:0|0:0,0:0:0:0:
160,157,31858,2,0,B|121:93|121:93|102:157,1,135.000005149842,2|2,0:0|0:0,0:0:0:0:
80,214,32174,2,0,L|51:285,3,67.5000025749208,2|2|2|2,0:0|0:0|0:0|0:0,0:0:0:0:
153,240,32490,2,0,P|224:279|365:258,1,202.500007724762,2|2,0:0|0:0,0:0:0:0:
342,270,32805,1,4,0:3:0:0:
342,270,33332,1,4,0:3:0:0:
411,216,33437,2,0,P|335:180|279:206,1,120,8|0,0:0|0:0,0:0:0:0:
342,270,33753,1,4,0:3:0:0:
342,270,34384,1,4,0:3:0:0:
249,273,34700,2,0,P|245:207|310:175,1,120,8|0,0:0|0:0,0:0:0:0:
260,105,35016,2,0,L|249:123,8,11.25,2|2|2|2|2|2|2|2|2,0:3|0:3|0:3|0:3|0:3|0:3|0:3|0:3|0:3,0:0:0:0:
69,159,35332,2,0,L|73:78,1,60,4|0,0:3|0:0,0:0:0:0:
142,174,35542,2,0,L|135:255,1,60,4|0,0:3|0:0,0:0:0:0:
136,233,35858,5,4,0:3:0:0:
80,294,35963,2,0,P|167:317|206:278,1,120,8|0,0:0|0:0,0:0:0:0:
140,238,36279,1,4,0:3:0:0:
140,238,36911,1,4,0:3:0:0:
126,312,37227,2,0,P|215:317|279:275,1,120,8|0,0:0|0:0,0:0:0:0:
300,268,37542,2,0,L|288:255,8,11.25,2|2|2|2|2|2|2|2|2,0:3|0:3|0:3|0:3|0:3|0:3|0:3|0:3|0:3,0:0:0:0:
412,232,37858,2,0,B|409:167|309:123|309:123|204:137|200:194,1,300,4|4,0:3|0:3,0:0:0:0:
122,189,38490,6,0,P|147:118|203:75,1,120,8|0,0:0|0:0,0:0:0:0:
252,88,38805,1,4,0:3:0:0:
252,88,39437,1,4,0:3:0:0:
344,88,39753,2,0,P|343:161|313:241,1,120,8|0,0:0|0:0,0:0:0:0:
274,253,40069,2,0,L|271:233,8,11.25,2|2|2|2|2|2|2|2|2,0:3|0:3|0:3|0:3|0:3|0:3|0:3|0:3|0:3,0:0:0:0:
135,279,40384,2,0,P|114:207|118:146,1,120,4|4,0:3|0:3,0:0:0:0:
112,161,40911,5,4,0:3:0:0:
190,134,41016,2,0,P|140:88|74:88,1,120,8|0,0:0|0:0,0:0:0:0:
112,161,41332,1,4,0:3:0:0:
202,247,41648,2,0,P|234:305|310:300,1,120,4|0,0:3|0:0,0:0:0:0:
346,271,41963,2,0,P|303:214|262:207,2,105,8|4|0,0:0|0:3|0:0,0:0:0:0:
268,263,42463,1,4,0:3:0:0:
202,248,42595,2,0,P|183:222|224:135,1,135,8|0,0:0|0:0,0:0:0:0:
280,150,42911,1,4,0:3:0:0:
201,175,46700,6,0,P|240:168|307:78,1,135.000005149842,0|0,0:0|0:0,0:0:0:0:
302,100,47332,2,0,P|263:107|196:197,1,135.000005149842,0|0,0:0|0:0,0:0:0:0:
300,105,47963,1,4,1:0:0:0:
209,210,51753,6,0,P|261:245|294:241,1,67.5000025749208,0|0,0:0|0:0,0:0:0:0:
263,245,52069,2,0,P|271:187|220:123,2,135.000005149842,0|0|0,0:0|0:0|0:0,0:0:0:0:
231,125,53016,1,4,1:0:0:0:
234,133,54911,6,0,L|221:162,3,18,0|0|0|0,0:0|0:0|0:0|0:0,0:0:0:0:
294,154,55227,2,0,L|272:180,3,22.5,0|0|0|0,0:0|0:0|0:0|0:0,0:0:0:0:
335,226,55542,2,0,L|301:229,3,26.9999991760254,0|0|0|0,0:0|0:0|0:0|0:0,0:0:0:0:
318,311,55858,2,0,L|281:289,3,31.4999990386963,0|0|0|0,0:0|0:0|0:0|0:0,0:0:0:0:
223,318,56174,6,0,L|222:279,3,36,0|0|0|0,0:0|0:0|0:0|0:0,0:0:0:0:
145,281,56490,2,0,L|174:236,3,40.4999987640381,0|0|0|0,0:3|0:3|0:3|0:3,0:0:0:0:
111,190,56805,2,0,L|164:182,3,45,0|0|0|0,0:0|0:0|0:0|0:0,0:0:0:0:
135,108,57121,2,0,L|200:130,3,49.5000015106202,0|0|0|0,0:0|0:0|0:0|0:0,0:0:0:0:
214,56,57437,6,0,L|247:104,3,53.9999983520508,0|0|0|0,0:0|0:0|0:0|0:0,0:0:0:0:
324,80,57753,2,0,L|306:137,3,58.4999973220826,0|0|0|0,0:0|0:0|0:0|0:0,0:0:0:0:
369,169,58069,2,0,P|340:198|298:204,3,62.9999980773926,0|0|0|0,0:0|0:0|0:0|0:0,0:0:0:0:
337,274,58384,2,0,P|290:259|268:239,3,67.5000025749208,0|0|0|0,0:3|0:3|0:3|0:3,0:0:0:0:
233,274,58700,6,0,P|215:236|241:204,3,72,0|0|0|0,0:3|0:3|0:3|0:3,0:0:0:0:
160,218,59016,2,0,P|173:163|219:153,3,76.5000014591217,0|0|0|0,0:3|0:3|0:3|0:3,0:0:0:0:
135,116,59332,2,0,P|156:88|224:128,3,80.9999975280763,0|0|0|0,0:3|0:3|0:3|0:3,0:0:0:0:
215,33,59648,2,0,P|258:49|241:111,3,85.4999977169037,0|0|0|0,0:3|0:3|0:3|0:3,0:0:0:0:
325,87,59963,6,0,P|305:139|256:121,3,90,0|0|0|0,0:3|0:3|0:3|0:3,0:0:0:0:
255,182,60279,2,0,P|210:156|263:108,3,94.499997116089,0|0|0|0,0:3|0:3|0:3|0:3,0:0:0:0:
194,213,60595,6,0,B|140:241|140:241|190:267,1,99.0000030212403,0|0,0:0|0:0,0:0:0:0:
218,246,60753,2,0,B|164:274|164:274|214:300,1,99.0000030212403,0|0,0:0|0:0,0:0:0:0:
263,272,60911,2,0,B|209:300|209:300|265:328,1,103.500001974106,0|0,0:0|0:0,0:0:0:0:
316,279,61069,2,0,B|262:307|262:307|326:341,1,103.500001974106,0|0,0:0|0:0,0:0:0:0:
382,263,61227,2,0,B|328:291|328:291|395:326,1,107.999996704102,0|0,0:0|0:0,0:0:0:0:
412,212,61384,2,0,B|358:240|358:240|426:273,1,107.999996704102,0|0,0:0|0:0,0:0:0:0:
419,151,61542,2,0,B|365:179|365:179|438:214,1,112.5,0|0,0:0|0:0,0:0:0:0:
388,88,61700,2,0,B|334:116|334:116|407:151,1,112.5,0|0,0:0|0:0,0:0:0:0:
226,57,63121,5,8,0:0:0:0:
223,77,63200,1,0,0:0:0:0:
221,97,63279,1,0,0:0:0:0:
217,116,63358,1,0,0:0:0:0:
216,136,63437,2,0,L|139:136,3,67.5000025749208,8|0|0|0,0:0|0:0|0:0|0:0,0:0:0:0:
252,217,63753,2,0,L|329:217,3,67.5000025749208,8|0|0|0,0:0|0:0|0:0|0:0,0:0:0:0:
203,285,64069,2,0,L|126:285,3,67.5000025749208,8|0|0|0,0:0|0:0|0:0|0:0,0:0:0:0:
241,358,64385,6,0,L|318:358,3,67.5000025749208,8|0|0|0,0:0|0:0|0:0|0:0,0:0:0:0:
275,283,64700,2,0,L|275:199,3,67.5000025749208,8|0|0|0,0:0|0:0|0:0|0:0,0:0:0:0:
196,167,65016,2,0,L|196:251,3,67.5000025749208,8|0|0|0,0:0|0:0|0:0|0:0,0:0:0:0:
117,195,65332,2,0,L|117:111,3,67.5000025749208,8|0|0|0,0:0|0:0|0:0|0:0,0:0:0:0:
168,71,65648,5,8,0:0:0:0:
194,69,65727,1,0,0:0:0:0:
220,66,65805,1,0,0:0:0:0:
246,64,65884,1,0,0:0:0:0:
272,60,65963,2,0,L|347:51,3,67.5000025749208,8|0|0|0,0:0|0:0|0:0|0:0,0:0:0:0:
256,148,66279,2,0,L|181:139,3,67.5000025749208,8|0|0|0,0:0|0:0|0:0|0:0,0:0:0:0:
300,227,66595,2,0,L|375:218,3,67.5000025749208,8|0|0|0,0:0|0:0|0:0|0:0,0:0:0:0:
244,291,66911,6,0,L|169:282,3,67.5000025749208,8|0|0|0,0:0|0:0|0:0|0:0,0:0:0:0:
296,350,67227,2,0,L|371:341,3,67.5000025749208,8|0|0|0,0:0|0:0|0:0|0:0,0:0:0:0:
378,252,67542,2,0,L|319:213,3,67.5000025749208,8|0|0|0,0:0|0:0|0:0|0:0,0:0:0:0:
397,167,67858,2,0,L|456:128,3,67.5000025749208,8|0|0|0,0:0|0:0|0:0|0:0,0:0:0:0:
347,101,68174,5,8,0:0:0:0:
313,95,68253,1,0,0:0:0:0:
280,85,68332,1,0,0:0:0:0:
247,76,68411,1,0,0:0:0:0:
214,67,68490,2,0,L|191:150,3,67.5000025749208,8|0|0|0,0:0|0:0|0:0|0:0,0:0:0:0:
62,95,68805,2,0,L|140:180,3,67.5000025749208,8|0|0|0,0:0|0:0|0:0|0:0,0:0:0:0:
35,234,69121,2,0,L|129:221,3,67.5000025749208,8|0|0|0,0:0|0:0|0:0|0:0,0:0:0:0:
166,338,69437,6,0,L|176:254,3,67.5000025749208,8|0|0|0,0:0|0:0|0:0|0:0,0:0:0:0:
305,266,69753,2,0,L|223:208,3,67.5000025749208,8|0|0|0,0:0|0:0|0:0|0:0,0:0:0:0:
306,127,70069,2,0,L|224:154,3,67.5000025749208,8|0|0|0,0:0|0:0|0:0|0:0,0:0:0:0:
173,63,70384,2,0,L|165:141,3,67.5000025749208,8|0|0|0,0:0|0:0|0:0|0:0,0:0:0:0:
152,253,70700,6,0,L|161:175,3,67.5000025749208,8|0|0|0,0:0|0:0|0:0|0:0,0:0:0:0:
239,119,71016,2,0,L|231:197,3,67.5000025749208,8|0|0|0,0:0|0:0|0:0|0:0,0:0:0:0:
296,266,71332,2,0,L|305:188,3,67.5000025749208,8|0|0|0,0:0|0:0|0:0|0:0,0:0:0:0:
384,135,71648,2,0,L|376:213,3,67.5000025749208,8|0|0|0,0:0|0:0|0:0|0:0,0:0:0:0:
326,88,71963,6,0,P|267:69|214:121,1,135,12|0,3:0|0:0,0:0:0:0:
143,170,72279,2,0,P|114:148|105:120,2,60,8|8|8,0:0|0:0|0:0,0:0:0:0:
132,249,72595,2,0,P|80:244|75:233,1,60,12|0,0:0|0:0,0:0:0:0:
43,317,72805,2,0,P|75:338|116:339,1,60,12|0,0:0|0:0,0:0:0:0:
176,337,73016,2,0,P|222:320|241:303,1,60,8|8,0:0|0:0,0:0:0:0:
313,247,73227,5,8,0:0:0:0:
296,225,73305,1,0,0:0:0:0:
279,203,73384,1,0,0:0:0:0:
262,181,73463,1,0,0:0:0:0:
243,161,73542,2,0,B|221:133|221:133|212:93,3,67.5000025749208,8|0|0|0,0:0|0:0|0:0|0:0,0:0:0:0:
194,232,73858,2,0,B|215:259|215:259|225:300,3,67.5000025749208,8|0|0|0,0:0|0:0|0:0|0:0,0:0:0:0:
119,206,74174,2,0,B|97:178|97:178|88:138,3,67.5000025749208,8|0|0|0,0:0|0:0|0:0|0:0,0:0:0:0:
160,60,74490,6,0,B|179:89|179:89|159:134,3,67.5000025749208,8|0|0|0,0:0|0:0|0:0|0:0,0:0:0:0:
273,107,74805,2,0,B|254:78|254:78|274:33,3,67.5000025749208,8|0|0|0,0:0|0:0|0:0|0:0,0:0:0:0:
347,34,75121,2,0,B|366:63|366:63|346:108,3,67.5000025749208,8|0|0|0,0:0|0:0|0:0|0:0,0:0:0:0:
458,79,75437,2,0,B|439:50|439:50|459:5,3,67.5000025749208,8|0|0|0,0:0|0:0|0:0|0:0,0:0:0:0:
472,145,75753,6,0,B|420:144|420:144|400:164,3,67.5000025749208,8|0|0|0,0:0|0:0|0:0|0:0,0:0:0:0:
477,213,76069,2,0,B|425:214|425:214|405:194,3,67.5000025749208,8|0|0|0,0:0|0:0|0:0|0:0,0:0:0:0:
478,280,76384,2,0,B|426:279|426:279|406:299,3,67.5000025749208,8|0|0|0,0:0|0:0|0:0|0:0,0:0:0:0:
480,350,76700,2,0,B|428:351|428:351|408:331,3,67.5000025749208,8|0|0|0,0:0|0:0|0:0|0:0,0:0:0:0:
372,265,77016,6,0,B|354:225|354:225|314:225,3,67.5000025749208,8|0|0|0,0:0|0:0|0:0|0:0,0:0:0:0:
254,252,77332,2,0,B|272:292|272:292|312:292,3,67.5000025749208,8|0|0|0,0:0|0:0|0:0|0:0,0:0:0:0:
197,306,77648,2,0,B|179:266|179:266|139:266,3,67.5000025749208,8|0|0|0,0:0|0:0|0:0|0:0,0:0:0:0:
83,297,77963,2,0,B|101:337|101:337|141:337,3,67.5000025749208,8|0|0|0,0:0|0:0|0:0|0:0,0:0:0:0:
56,224,78279,6,0,B|114:224|114:224|143:202,3,67.5000025749208,8|0|0|0,0:0|0:0|0:0|0:0,0:0:0:0:
55,153,78595,2,0,B|113:153|113:153|142:175,3,67.5000025749208,8|0|0|0,0:0|0:0|0:0|0:0,0:0:0:0:
61,85,78911,2,0,B|119:85|119:85|148:63,3,67.5000025749208,8|0|0|0,0:0|0:0|0:0|0:0,0:0:0:0:
63,17,79227,2,0,B|121:17|121:17|150:39,3,67.5000025749208,8|0|0|0,0:0|0:0|0:0|0:0,0:0:0:0:
209,36,79542,6,0,B|209:74|209:74|256:74,3,67.5000025749208,8|0|0|0,0:0|0:0|0:0|0:0,0:0:0:0:
307,62,79858,2,0,B|307:24|307:24|260:24,3,67.5000025749208,8|0|0|0,0:0|0:0|0:0|0:0,0:0:0:0:
309,177,80174,2,0,B|309:139|309:139|262:139,3,67.5000025749208,8|0|0|0,0:0|0:0|0:0|0:0,0:0:0:0:
214,159,80490,2,0,B|214:197|214:197|261:197,3,67.5000025749208,8|0|0|0,0:0|0:0|0:0|0:0,0:0:0:0:
338,237,80805,6,0,B|301:273|301:273|252:273,3,67.5000025749208,8|0|0|0,0:0|0:0|0:0|0:0,0:0:0:0:
266,252,81121,1,0,0:0:0:0:
246,233,81200,1,0,0:0:0:0:
227,213,81279,1,0,0:0:0:0:
203,199,81358,1,0,0:0:0:0:
167,196,81437,2,0,B|130:232|130:232|81:232,3,67.5000025749208,10|2|2|2,0:0|0:0|0:0|0:0,0:0:0:0:
44,199,81753,2,0,B|81:163|81:163|130:163,3,67.5000025749208,10|2|2|2,0:0|0:0|0:0|0:0,0:0:0:0:
149,117,82069,6,0,L|196:110,3,45,2|2|2|2,0:0|0:0|0:0|0:0,0:0:0:0:
256,96,82384,2,0,L|249:146,5,33.7500012874604,2|2|2|2|2|2,0:0|0:0|0:0|0:0|0:0|0:0,0:0:0:0:
310,128,82858,2,0,L|319:144,11,11.25,2|2|2|2|2|2|2|2|2|2|2|2,1:0|1:0|1:0|1:0|1:0|1:0|1:0|1:0|1:0|1:0|1:0|1:0,1:0:0:0:
314,136,83332,6,0,P|310:175|284:256,3,67.5000025749208,12|0|0|0,0:0|0:0|0:0|0:0,0:0:0:0:
226,209,83648,2,0,L|236:141,1,67.5000025749208,8|0,0:0|0:0,0:0:0:0:
168,126,83805,2,0,L|152:205,2,67.5000025749208
168,126,84042,2,0,L|126:68,2,67.5000025749208
101,126,84279,2,0,L|78:204,3,67.5000025749208
81,190,84595,6,0,L|160:194,5,67.5000025749208,8|0|0|0|0|0,0:0|0:0|0:0|0:0|0:0|0:0,0:0:0:0:
148,193,85069,2,0,L|208:222,3,67.5000025749208
215,228,85384,1,0,0:0:0:0:
215,228,85463,2,0,L|152:276,2,67.5000025749208
262,271,85700,5,0,0:0:0:0:
262,271,85779,2,0,L|205:335,6,67.5000025749208
337,273,86332,2,0,L|439:269,2,67.5000025749208
272,305,86569,2,0,L|209:361,2,67.5000025749208
239,241,86805,2,0,L|169:152,1,67.5000025749208
