osu file format v14

[General]
AudioFilename: audio.mp3
AudioLeadIn: 0
PreviewTime: 212769
Countdown: 1
SampleSet: None
StackLeniency: 0.7
Mode: 3
LetterboxInBreaks: 0
SpecialStyle: 0
WidescreenStoryboard: 0

[Editor]
Bookmarks: 113657,185378
DistanceSpacing: 1.2
BeatDivisor: 4
GridSize: 4
TimelineZoom: 2.4

[Metadata]
Title:Sound Chimera
TitleUnicode:Sound Chimera
Artist:Laur
ArtistUnicode:Laur
Creator:Devvi-
Version:Interstellar Failure
Source:
Tags:
BeatmapID:1915234
BeatmapSetID:917047

[Difficulty]
HPDrainRate:5
CircleSize:4
OverallDifficulty:5
ApproachRate:5
SliderMultiplier:1.4
SliderTickRate:1

[Events]
//Background and Video events
0,0,"bg a.jpg",0,0
//Break Periods
2,103752,109931
2,132805,166786
//Storyboard Layer 0 (Background)
//Storyboard Layer 1 (Fail)
//Storyboard Layer 2 (Pass)
//Storyboard Layer 3 (Foreground)
//Storyboard Sound Samples

[TimingPoints]
2500,315.789473684211,4,3,0,100,1,0
22710,-111.111111111111,4,3,0,100,0,0
32815,-105.263157894737,4,3,0,100,0,0
53026,-33.3333333333333,4,3,0,100,0,0
53105,-50,4,3,0,100,0,0
53184,-100,4,3,0,100,0,0
63131,-133.333333333333,4,3,0,100,0,0
63447,-100,4,3,0,100,0,0
113657,-33.3333333333333,4,3,0,100,0,0
113736,-500,4,3,0,100,0,0
113973,-33.3333333333333,4,3,0,100,0,0
114052,-500,4,3,0,100,0,0
114289,-33.3333333333333,4,3,0,100,0,0
114368,-500,4,3,0,100,0,0
114605,-33.3333333333333,4,3,0,100,0,0
114684,-500,4,3,0,100,0,0
114921,-33.3333333333333,4,3,0,100,0,0
115000,-500,4,3,0,100,0,0
115236,-33.3333333333333,4,3,0,100,0,0
115315,-500,4,3,0,100,0,0
115552,-33.3333333333333,4,3,0,100,0,0
115631,-500,4,3,0,100,0,0
115868,-33.3333333333333,4,3,0,100,0,0
115947,-500,4,3,0,100,0,0
116184,-33.3333333333333,4,3,0,100,0,0
116263,-500,4,3,0,100,0,0
116500,-33.3333333333333,4,3,0,100,0,0
116578,-500,4,3,0,100,0,0
116815,-33.3333333333333,4,3,0,100,0,0
116894,-500,4,3,0,100,0,0
117131,-33.3333333333333,4,3,0,100,0,0
117210,-500,4,3,0,100,0,0
117447,-33.3333333333333,4,3,0,100,0,0
117526,-500,4,3,0,100,0,0
117763,-100,4,3,0,100,0,0
118710,-33.3333333333333,4,3,0,100,0,0
118789,-500,4,3,0,100,0,0
119026,-33.3333333333333,4,3,0,100,0,0
119105,-500,4,3,0,100,0,0
119342,-33.3333333333333,4,3,0,100,0,0
119421,-500,4,3,0,100,0,0
119657,-33.3333333333333,4,3,0,100,0,0
119736,-500,4,3,0,100,0,0
119973,-33.3333333333333,4,3,0,100,0,0
120052,-500,4,3,0,100,0,0
120289,-33.3333333333333,4,3,0,100,0,0
120368,-500,4,3,0,100,0,0
120605,-33.3333333333333,4,3,0,100,0,0
120684,-500,4,3,0,100,0,0
120921,-33.3333333333333,4,3,0,100,0,0
121000,-500,4,3,0,100,0,0
121236,-33.3333333333333,4,3,0,100,0,0
121315,-500,4,3,0,100,0,0
121552,-33.3333333333333,4,3,0,100,0,0
121631,-500,4,3,0,100,0,0
121868,-33.3333333333333,4,3,0,100,0,0
121947,-500,4,3,0,100,0,0
122184,-33.3333333333333,4,3,0,100,0,0
122263,-500,4,3,0,100,0,0
122500,-200,4,3,0,100,0,0
122657,-66.6666666666667,4,3,0,100,0,0
122736,-200,4,3,0,100,0,0
122815,-66.6666666666667,4,3,0,100,0,0
122894,-200,4,3,0,100,0,0
122973,-66.6666666666667,4,3,0,100,0,0
123052,-200,4,3,0,100,0,0
123131,-66.6666666666667,4,3,0,100,0,0
123210,-200,4,3,0,100,0,0
123289,-200,4,3,0,100,0,0
123447,-83.3333333333333,4,3,0,100,0,0
123605,-200,4,3,0,100,0,0
123763,-33.3333333333333,4,3,0,100,0,0
123842,-500,4,3,0,100,0,0
124078,-33.3333333333333,4,3,0,100,0,0
124157,-500,4,3,0,100,0,0
124394,-33.3333333333333,4,3,0,100,0,0
124473,-500,4,3,0,100,0,0
124710,-33.3333333333333,4,3,0,100,0,0
124789,-500,4,3,0,100,0,0
125026,-33.3333333333333,4,3,0,100,0,0
125105,-500,4,3,0,100,0,0
125342,-33.3333333333333,4,3,0,100,0,0
125421,-100,4,3,0,100,0,0
126289,-33.3333333333333,4,3,0,100,0,0
126368,-500,4,3,0,100,0,0
126605,-33.3333333333333,4,3,0,100,0,0
126684,-500,4,3,0,100,0,0
126921,-33.3333333333333,4,3,0,100,0,0
127000,-500,4,3,0,100,0,0
127236,-33.3333333333333,4,3,0,100,0,0
127315,-500,4,3,0,100,0,0
127552,-33.3333333333333,4,3,0,100,0,0
127631,-500,4,3,0,100,0,0
127868,-33.3333333333333,4,3,0,100,0,0
127947,-500,4,3,0,100,0,0
128184,-33.3333333333333,4,3,0,100,0,0
128263,-500,4,3,0,100,0,0
128500,-33.3333333333333,4,3,0,100,0,0
128578,-500,4,3,0,100,0,0
128815,-33.3333333333333,4,3,0,100,0,0
128894,-500,4,3,0,100,0,0
129131,-33.3333333333333,4,3,0,100,0,0
129210,-500,4,3,0,100,0,0
129447,-33.3333333333333,4,3,0,100,0,0
129526,-500,4,3,0,100,0,0
129763,-33.3333333333333,4,3,0,100,0,0
129842,-500,4,3,0,100,0,0
130078,-33.3333333333333,4,3,0,100,0,0
130157,-500,4,3,0,100,0,0
130394,-33.3333333333333,4,3,0,100,0,0
130473,-500,4,3,0,100,0,0
130710,-33.3333333333333,4,3,0,100,0,0
130789,-500,4,3,0,100,0,0
131026,-33.3333333333333,4,3,0,100,0,0
131105,-500,4,3,0,100,0,0
131342,-66.6666666666667,4,3,0,100,0,0
131421,-200,4,3,0,100,0,0
131500,-66.6666666666667,4,3,0,100,0,0
131578,-200,4,3,0,100,0,0
131657,-66.6666666666667,4,3,0,100,0,0
131736,-200,4,3,0,100,0,0
131815,-66.6666666666667,4,3,0,100,0,0
131894,-200,4,3,0,100,0,0
131973,-66.6666666666667,4,3,0,100,0,0
132052,-200,4,3,0,100,0,0
132131,-66.6666666666667,4,3,0,100,0,0
132210,-200,4,3,0,100,0,0
132289,-250,4,3,0,100,0,0
132605,-100,4,3,0,100,0,0
157552,434.782608695652,4,3,0,100,1,0
171030,-142.857142857143,4,3,0,100,0,0
171465,-33.3333333333333,4,3,0,100,0,0
171519,-200,4,3,0,100,0,0
171573,-33.3333333333333,4,3,0,100,0,0
171628,-200,4,3,0,100,0,0
171682,-33.3333333333333,4,3,0,100,0,0
171736,-200,4,3,0,100,0,0
171791,-33.3333333333333,4,3,0,100,0,0
171845,-200,4,3,0,100,0,0
171899,-33.3333333333333,4,3,0,100,0,0
171954,-200,4,3,0,100,0,0
172008,-33.3333333333333,4,3,0,100,0,0
172062,-200,4,3,0,100,0,0
172117,-33.3333333333333,4,3,0,100,0,0
172171,-200,4,3,0,100,0,0
172225,-33.3333333333333,4,3,0,100,0,0
172280,-200,4,3,0,100,0,0
172334,-33.3333333333333,4,3,0,100,0,0
172388,-200,4,3,0,100,0,0
172443,-33.3333333333333,4,3,0,100,0,0
172497,-200,4,3,0,100,0,0
172552,-33.3333333333333,4,3,0,100,0,0
172606,-200,4,3,0,100,0,0
172660,-33.3333333333333,4,3,0,100,0,0
172715,-200,4,3,0,100,0,0
172769,-33.3333333333333,4,3,0,100,0,0
172823,-200,4,3,0,100,0,0
172878,-33.3333333333333,4,3,0,100,0,0
172932,-200,4,3,0,100,0,0
172986,-33.3333333333333,4,3,0,100,0,0
173041,-200,4,3,0,100,0,0
173095,-33.3333333333333,4,3,0,100,0,0
173149,-200,4,3,0,100,0,0
173204,-33.3333333333333,4,3,0,100,0,0
173258,-200,4,3,0,100,0,0
173312,-33.3333333333333,4,3,0,100,0,0
173367,-200,4,3,0,100,0,0
173421,-33.3333333333333,4,3,0,100,0,0
173475,-200,4,3,0,100,0,0
173530,-33.3333333333333,4,3,0,100,0,0
173584,-200,4,3,0,100,0,0
173638,-33.3333333333333,4,3,0,100,0,0
173693,-200,4,3,0,100,0,0
173747,-33.3333333333333,4,3,0,100,0,0
173802,-200,4,3,0,100,0,0
173856,-33.3333333333333,4,3,0,100,0,0
173910,-200,4,3,0,100,0,0
173965,-33.3333333333333,4,3,0,100,0,0
174019,-200,4,3,0,100,0,0
174073,-33.3333333333333,4,3,0,100,0,0
174128,-200,4,3,0,100,0,0
174182,-33.3333333333333,4,3,0,100,0,0
174236,-200,4,3,0,100,0,0
174291,-33.3333333333333,4,3,0,100,0,0
174345,-200,4,3,0,100,0,0
174399,-33.3333333333333,4,3,0,100,0,0
174454,-200,4,3,0,100,0,0
174508,-37.037037037037,4,3,0,100,0,0
174562,-200,4,3,0,100,0,0
174617,-37.037037037037,4,3,0,100,0,0
174671,-200,4,3,0,100,0,0
174725,-37.037037037037,4,3,0,100,0,0
174780,-200,4,3,0,100,0,0
174834,-37.037037037037,4,3,0,100,0,0
174888,-200,4,3,0,100,0,0
174943,-33.3333333333333,4,3,0,100,0,0
174997,-200,4,3,0,100,0,0
175052,-33.3333333333333,4,3,0,100,0,0
175106,-200,4,3,0,100,0,0
175160,-33.3333333333333,4,3,0,100,0,0
175215,-200,4,3,0,100,0,0
175269,-33.3333333333333,4,3,0,100,0,0
175323,-200,4,3,0,100,0,0
175378,-33.3333333333333,4,3,0,100,0,0
175432,-200,4,3,0,100,0,0
175486,-33.3333333333333,4,3,0,100,0,0
175541,-200,4,3,0,100,0,0
175595,-33.3333333333333,4,3,0,100,0,0
175649,-200,4,3,0,100,0,0
175704,-33.3333333333333,4,3,0,100,0,0
175758,-200,4,3,0,100,0,0
175812,-33.3333333333333,4,3,0,100,0,0
175867,-200,4,3,0,100,0,0
175921,-33.3333333333333,4,3,0,100,0,0
175975,-200,4,3,0,100,0,0
176030,-33.3333333333333,4,3,0,100,0,0
176084,-200,4,3,0,100,0,0
176138,-33.3333333333333,4,3,0,100,0,0
176193,-200,4,3,0,100,0,0
176247,-33.3333333333333,4,3,0,100,0,0
176302,-200,4,3,0,100,0,0
176356,-33.3333333333333,4,3,0,100,0,0
176410,-200,4,3,0,100,0,0
176465,-33.3333333333333,4,3,0,100,0,0
176519,-200,4,3,0,100,0,0
176573,-33.3333333333333,4,3,0,100,0,0
176628,-200,4,3,0,100,0,0
176682,-33.3333333333333,4,3,0,100,0,0
176736,-200,4,3,0,100,0,0
176791,-33.3333333333333,4,3,0,100,0,0
176845,-200,4,3,0,100,0,0
176899,-33.3333333333333,4,3,0,100,0,0
176954,-200,4,3,0,100,0,0
177008,-33.3333333333333,4,3,0,100,0,0
177062,-200,4,3,0,100,0,0
177117,-33.3333333333333,4,3,0,100,0,0
177171,-200,4,3,0,100,0,0
177225,-33.3333333333333,4,3,0,100,0,0
177280,-200,4,3,0,100,0,0
177334,-33.3333333333333,4,3,0,100,0,0
177388,-200,4,3,0,100,0,0
177443,-33.3333333333333,4,3,0,100,0,0
177497,-200,4,3,0,100,0,0
177552,-33.3333333333333,4,3,0,100,0,0
177606,-200,4,3,0,100,0,0
177660,-33.3333333333333,4,3,0,100,0,0
177715,-200,4,3,0,100,0,0
177769,-33.3333333333333,4,3,0,100,0,0
177823,-200,4,3,0,100,0,0
177878,-33.3333333333333,4,3,0,100,0,0
177932,-200,4,3,0,100,0,0
177986,-37.037037037037,4,3,0,100,0,0
178041,-200,4,3,0,100,0,0
178095,-37.037037037037,4,3,0,100,0,0
178149,-200,4,3,0,100,0,0
178204,-37.037037037037,4,3,0,100,0,0
178258,-200,4,3,0,100,0,0
178312,-37.037037037037,4,3,0,100,0,0
178367,-200,4,3,0,100,0,0
178421,-1000,4,3,0,100,0,0
178448,-714.285714285714,4,3,0,100,0,0
178475,-500,4,3,0,100,0,0
178503,-416.666666666667,4,3,0,100,0,0
178530,-333.333333333333,4,3,0,100,0,0
178557,-312.5,4,3,0,100,0,0
178584,-263.157894736842,4,3,0,100,0,0
178611,-250,4,3,0,100,0,0
178638,-204.081632653061,4,3,0,100,0,0
178666,-188.679245283019,4,3,0,100,0,0
178693,-166.666666666667,4,3,0,100,0,0
178720,-151.515151515152,4,3,0,100,0,0
178747,-142.857142857143,4,3,0,100,0,0
178774,-125,4,3,0,100,0,0
178802,-112.359550561798,4,3,0,100,0,0
178829,-111.111111111111,4,3,0,100,0,0
178856,-33.3333333333333,4,3,0,100,0,0
178910,-200,4,3,0,100,0,0
178965,-33.3333333333333,4,3,0,100,0,0
179019,-200,4,3,0,100,0,0
179073,-33.3333333333333,4,3,0,100,0,0
179128,-200,4,3,0,100,0,0
179182,-33.3333333333333,4,3,0,100,0,0
179236,-200,4,3,0,100,0,0
179291,-33.3333333333333,4,3,0,100,0,0
179345,-200,4,3,0,100,0,0
179399,-33.3333333333333,4,3,0,100,0,0
179454,-200,4,3,0,100,0,0
179508,-33.3333333333333,4,3,0,100,0,0
179562,-200,4,3,0,100,0,0
179617,-33.3333333333333,4,3,0,100,0,0
179671,-200,4,3,0,100,0,0
179725,-33.3333333333333,4,3,0,100,0,0
179780,-200,4,3,0,100,0,0
179834,-33.3333333333333,4,3,0,100,0,0
179888,-200,4,3,0,100,0,0
179943,-33.3333333333333,4,3,0,100,0,0
179997,-200,4,3,0,100,0,0
180052,-33.3333333333333,4,3,0,100,0,0
180106,-200,4,3,0,100,0,0
180160,-33.3333333333333,4,3,0,100,0,0
180215,-200,4,3,0,100,0,0
180269,-33.3333333333333,4,3,0,100,0,0
180323,-200,4,3,0,100,0,0
180378,-33.3333333333333,4,3,0,100,0,0
180432,-200,4,3,0,100,0,0
180486,-33.3333333333333,4,3,0,100,0,0
180541,-200,4,3,0,100,0,0
180595,-33.3333333333333,4,3,0,100,0,0
180649,-200,4,3,0,100,0,0
180704,-33.3333333333333,4,3,0,100,0,0
180758,-200,4,3,0,100,0,0
180812,-33.3333333333333,4,3,0,100,0,0
180867,-200,4,3,0,100,0,0
180921,-33.3333333333333,4,3,0,100,0,0
180975,-200,4,3,0,100,0,0
181030,-33.3333333333333,4,3,0,100,0,0
181084,-200,4,3,0,100,0,0
181138,-33.3333333333333,4,3,0,100,0,0
181193,-200,4,3,0,100,0,0
181247,-33.3333333333333,4,3,0,100,0,0
181302,-200,4,3,0,100,0,0
181356,-33.3333333333333,4,3,0,100,0,0
181410,-200,4,3,0,100,0,0
181465,-33.3333333333333,4,3,0,100,0,0
181519,-200,4,3,0,100,0,0
181573,-33.3333333333333,4,3,0,100,0,0
181628,-200,4,3,0,100,0,0
181682,-33.3333333333333,4,3,0,100,0,0
181736,-200,4,3,0,100,0,0
181791,-33.3333333333333,4,3,0,100,0,0
181845,-200,4,3,0,100,0,0
181899,-33.3333333333333,4,3,0,100,0,0
181954,-200,4,3,0,100,0,0
182008,-33.3333333333333,4,3,0,100,0,0
182062,-200,4,3,0,100,0,0
182117,-33.3333333333333,4,3,0,100,0,0
182171,-200,4,3,0,100,0,0
182225,-33.3333333333333,4,3,0,100,0,0
182280,-200,4,3,0,100,0,0
182334,-33.3333333333333,4,3,0,100,0,0
182388,-200,4,3,0,100,0,0
182443,-33.3333333333333,4,3,0,100,0,0
182497,-200,4,3,0,100,0,0
182552,-33.3333333333333,4,3,0,100,0,0
182606,-200,4,3,0,100,0,0
182660,-33.3333333333333,4,3,0,100,0,0
182715,-200,4,3,0,100,0,0
182769,-33.3333333333333,4,3,0,100,0,0
182823,-200,4,3,0,100,0,0
182878,-33.3333333333333,4,3,0,100,0,0
182932,-200,4,3,0,100,0,0
182986,-33.3333333333333,4,3,0,100,0,0
183041,-200,4,3,0,100,0,0
183095,-33.3333333333333,4,3,0,100,0,0
183149,-200,4,3,0,100,0,0
183204,-76.9230769230769,4,3,0,100,0,0
233642,348.837209302326,4,3,0,100,1,0
236432,315.789473684211,4,3,0,100,1,0

[HitObjects]
64,192,2500,5,0,0:0:0:0:
448,192,2500,1,0,0:0:0:0:
320,192,2657,1,0,0:0:0:0:
64,192,2815,1,8,0:0:0:0:
192,192,2815,1,8,0:0:0:0:
448,192,2973,1,0,0:0:0:0:
320,192,2973,1,0,0:0:0:0:
64,192,3447,1,10,0:0:0:0:
192,192,3447,1,10,0:0:0:0:
320,192,3447,1,10,0:0:0:0:
448,192,3605,1,0,0:0:0:0:
64,192,3763,1,0,0:0:0:0:
448,192,3921,1,0,0:0:0:0:
192,192,4078,1,8,0:0:0:0:
320,192,4078,1,8,0:0:0:0:
64,192,4236,1,0,0:0:0:0:
448,192,4236,1,0,0:0:0:0:
64,192,4710,1,10,0:0:0:0:
192,192,4710,1,10,0:0:0:0:
448,192,4710,1,10,0:0:0:0:
320,192,4868,1,0,0:0:0:0:
64,192,4868,1,0,0:0:0:0:
192,192,5026,1,0,0:0:0:0:
448,192,5184,1,0,0:0:0:0:
320,192,5342,1,8,0:0:0:0:
64,192,5342,1,8,0:0:0:0:
192,192,5500,1,0,0:0:0:0:
448,192,5500,1,0,0:0:0:0:
320,192,5973,1,10,0:0:0:0:
448,192,5973,1,10,0:0:0:0:
192,192,6131,1,0,0:0:0:0:
320,192,6289,1,0,0:0:0:0:
192,192,6447,1,0,0:0:0:0:
64,192,6447,1,0,0:0:0:0:
448,192,6605,1,8,0:0:0:0:
320,192,6605,1,8,0:0:0:0:
192,192,6763,1,0,0:0:0:0:
448,192,7236,1,10,0:0:0:0:
320,192,7236,1,10,0:0:0:0:
64,192,7552,128,0,7868:0:0:0:0:
448,192,7868,1,10,0:0:0:0:
320,192,7947,1,4,0:0:0:0:
192,192,8026,1,6,0:0:0:0:
448,192,8184,1,0,0:0:0:0:
192,192,8342,1,0,0:0:0:0:
320,192,8342,1,0,0:0:0:0:
64,192,8500,1,14,0:0:0:0:
448,192,8500,1,14,0:0:0:0:
320,192,8500,1,14,0:0:0:0:
192,192,8815,1,0,0:0:0:0:
320,192,8815,1,0,0:0:0:0:
192,192,8973,1,0,0:0:0:0:
448,192,9131,1,0,0:0:0:0:
64,192,9131,1,0,0:0:0:0:
320,192,9131,1,0,0:0:0:0:
192,192,9289,1,0,0:0:0:0:
64,192,9763,1,0,0:0:0:0:
320,192,9763,1,0,0:0:0:0:
448,192,9763,1,0,0:0:0:0:
192,192,10078,1,0,0:0:0:0:
320,192,10078,1,0,0:0:0:0:
448,192,10236,1,0,0:0:0:0:
192,192,10236,1,0,0:0:0:0:
64,192,10394,1,0,0:0:0:0:
448,192,10394,1,0,0:0:0:0:
320,192,10394,1,0,0:0:0:0:
64,192,10552,1,0,0:0:0:0:
192,192,10552,1,0,0:0:0:0:
320,192,11026,1,0,0:0:0:0:
64,192,11026,1,0,0:0:0:0:
448,192,11026,1,0,0:0:0:0:
192,192,11342,1,0,0:0:0:0:
320,192,11342,1,0,0:0:0:0:
192,192,11657,1,0,0:0:0:0:
320,192,11657,1,0,0:0:0:0:
64,192,11973,1,0,0:0:0:0:
448,192,12052,1,0,0:0:0:0:
64,192,12131,1,0,0:0:0:0:
448,192,12210,1,0,0:0:0:0:
64,192,12289,1,0,0:0:0:0:
448,192,12447,1,0,0:0:0:0:
192,192,12447,1,0,0:0:0:0:
64,192,12605,128,0,12921:0:0:0:0:
320,192,12605,1,0,0:0:0:0:
192,192,12763,1,0,0:0:0:0:
448,192,12763,1,0,0:0:0:0:
192,192,12921,1,0,0:0:0:0:
320,192,12921,1,0,0:0:0:0:
448,192,12921,1,0,0:0:0:0:
64,192,13078,1,0,0:0:0:0:
320,192,13078,1,0,0:0:0:0:
192,192,13236,1,0,0:0:0:0:
320,192,13236,1,0,0:0:0:0:
192,192,13394,1,0,0:0:0:0:
448,192,13394,1,0,0:0:0:0:
64,192,13552,1,0,0:0:0:0:
448,192,13552,1,0,0:0:0:0:
320,192,13552,1,0,0:0:0:0:
192,192,13710,1,0,0:0:0:0:
320,192,13710,1,0,0:0:0:0:
320,192,13868,128,0,14184:0:0:0:0:
448,192,13868,1,0,0:0:0:0:
64,192,13868,1,0,0:0:0:0:
192,192,14026,1,0,0:0:0:0:
64,192,14184,1,0,0:0:0:0:
448,192,14184,1,0,0:0:0:0:
192,192,14184,1,0,0:0:0:0:
192,192,14342,1,0,0:0:0:0:
320,192,14342,1,0,0:0:0:0:
64,192,14500,1,0,0:0:0:0:
320,192,14500,1,0,0:0:0:0:
192,192,14657,1,0,0:0:0:0:
320,192,14815,1,0,0:0:0:0:
64,192,14815,1,0,0:0:0:0:
192,192,14815,1,0,0:0:0:0:
192,192,14973,1,0,0:0:0:0:
448,192,14973,1,0,0:0:0:0:
192,192,15131,128,0,15447:0:0:0:0:
448,192,15131,1,0,0:0:0:0:
320,192,15131,1,0,0:0:0:0:
64,192,15289,1,0,0:0:0:0:
448,192,15447,1,0,0:0:0:0:
320,192,15447,1,0,0:0:0:0:
64,192,15447,1,0,0:0:0:0:
192,192,15605,1,0,0:0:0:0:
448,192,15763,1,0,0:0:0:0:
320,192,15763,1,0,0:0:0:0:
192,192,15921,1,0,0:0:0:0:
64,192,16078,1,0,0:0:0:0:
448,192,16078,1,0,0:0:0:0:
320,192,16078,1,0,0:0:0:0:
192,192,16236,1,0,0:0:0:0:
320,192,16236,1,0,0:0:0:0:
448,192,16394,128,0,16710:0:0:0:0:
64,192,16394,1,0,0:0:0:0:
192,192,16394,1,0,0:0:0:0:
320,192,16552,1,0,0:0:0:0:
64,192,16710,1,0,0:0:0:0:
192,192,16710,1,0,0:0:0:0:
320,192,16710,1,0,0:0:0:0:
192,192,16868,1,0,0:0:0:0:
448,192,17026,1,0,0:0:0:0:
320,192,17026,1,0,0:0:0:0:
192,192,17184,1,0,0:0:0:0:
448,192,17342,1,0,0:0:0:0:
320,192,17342,1,0,0:0:0:0:
192,192,17342,1,0,0:0:0:0:
320,192,17500,1,0,0:0:0:0:
64,192,17500,1,0,0:0:0:0:
320,192,17657,128,0,17973:0:0:0:0:
448,192,17657,1,0,0:0:0:0:
64,192,17815,1,0,0:0:0:0:
192,192,17815,1,0,0:0:0:0:
64,192,17973,1,0,0:0:0:0:
192,192,17973,1,0,0:0:0:0:
448,192,17973,1,0,0:0:0:0:
192,192,18131,1,0,0:0:0:0:
448,192,18289,1,0,0:0:0:0:
320,192,18289,1,0,0:0:0:0:
64,192,18447,1,0,0:0:0:0:
320,192,18447,1,0,0:0:0:0:
64,192,18605,1,0,0:0:0:0:
448,192,18605,1,0,0:0:0:0:
192,192,18605,1,0,0:0:0:0:
192,192,18763,1,0,0:0:0:0:
320,192,18763,1,0,0:0:0:0:
192,192,18921,128,0,19236:0:0:0:0:
448,192,18921,1,0,0:0:0:0:
320,192,19078,1,0,0:0:0:0:
64,192,19078,1,0,0:0:0:0:
64,192,19236,1,0,0:0:0:0:
320,192,19236,1,0,0:0:0:0:
448,192,19236,1,0,0:0:0:0:
192,192,19394,1,0,0:0:0:0:
320,192,19394,1,0,0:0:0:0:
64,192,19552,1,0,0:0:0:0:
192,192,19552,1,0,0:0:0:0:
192,192,19710,1,0,0:0:0:0:
448,192,19710,1,0,0:0:0:0:
64,192,19868,1,0,0:0:0:0:
448,192,19868,1,0,0:0:0:0:
320,192,19868,1,0,0:0:0:0:
192,192,20026,1,0,0:0:0:0:
448,192,20026,1,0,0:0:0:0:
320,192,20026,1,0,0:0:0:0:
64,192,20184,128,0,20500:0:0:0:0:
192,192,20184,1,0,0:0:0:0:
448,192,20342,1,0,0:0:0:0:
320,192,20342,1,0,0:0:0:0:
192,192,20500,1,0,0:0:0:0:
448,192,20500,1,0,0:0:0:0:
320,192,20500,1,0,0:0:0:0:
192,192,20657,1,0,0:0:0:0:
320,192,20657,1,0,0:0:0:0:
64,192,20815,1,0,0:0:0:0:
320,192,20815,1,0,0:0:0:0:
192,192,20973,1,0,0:0:0:0:
320,192,20973,1,0,0:0:0:0:
448,192,21131,1,0,0:0:0:0:
64,192,21131,1,0,0:0:0:0:
192,192,21131,1,0,0:0:0:0:
192,192,21289,1,0,0:0:0:0:
320,192,21289,1,0,0:0:0:0:
320,192,21447,128,0,21763:0:0:0:0:
64,192,21447,1,0,0:0:0:0:
192,192,21605,1,0,0:0:0:0:
448,192,21763,1,0,0:0:0:0:
64,192,21763,1,0,0:0:0:0:
192,192,21763,1,0,0:0:0:0:
320,192,21921,1,0,0:0:0:0:
192,192,22078,1,0,0:0:0:0:
448,192,22078,1,0,0:0:0:0:
64,192,22236,1,0,0:0:0:0:
192,192,22236,1,0,0:0:0:0:
64,192,22394,1,0,0:0:0:0:
320,192,22394,1,0,0:0:0:0:
448,192,22394,1,0,0:0:0:0:
192,192,22473,1,0,0:0:0:0:
320,192,22552,1,0,0:0:0:0:
192,192,22631,1,0,0:0:0:0:
64,192,22710,1,0,0:0:0:0:
448,192,22710,1,0,0:0:0:0:
192,192,22730,1,0,0:0:0:0:
64,192,25236,1,0,0:0:0:0:
448,192,25236,1,0,0:0:0:0:
192,192,25256,1,0,0:0:0:0:
320,192,25276,1,0,0:0:0:0:
448,192,27763,1,0,0:0:0:0:
192,192,27763,1,0,0:0:0:0:
64,192,27782,1,0,0:0:0:0:
320,192,27782,1,0,0:0:0:0:
64,192,30289,1,0,0:0:0:0:
448,192,30289,1,0,0:0:0:0:
320,192,30309,1,0,0:0:0:0:
192,192,30328,1,0,0:0:0:0:
64,192,30921,1,0,0:0:0:0:
448,192,31078,1,0,0:0:0:0:
64,192,31236,1,0,0:0:0:0:
448,192,31394,1,0,0:0:0:0:
64,192,31552,1,0,0:0:0:0:
192,192,31578,1,0,0:0:0:0:
320,192,31605,1,0,0:0:0:0:
448,192,31631,1,0,0:0:0:0:
64,192,31710,1,0,0:0:0:0:
192,192,31736,1,0,0:0:0:0:
320,192,31763,1,0,0:0:0:0:
448,192,31789,1,0,0:0:0:0:
64,192,31868,1,0,0:0:0:0:
192,192,31894,1,0,0:0:0:0:
320,192,31921,1,0,0:0:0:0:
448,192,31947,1,0,0:0:0:0:
64,192,32026,1,0,0:0:0:0:
192,192,32052,1,0,0:0:0:0:
320,192,32078,1,0,0:0:0:0:
448,192,32105,1,0,0:0:0:0:
64,192,32184,1,0,0:0:0:0:
192,192,32289,1,0,0:0:0:0:
448,192,32394,1,0,0:0:0:0:
64,192,32500,128,0,32815:0:0:0:0:
320,192,32500,128,0,32815:0:0:0:0:
448,192,32815,1,0,0:0:0:0:
192,192,33289,1,0,0:0:0:0:
64,192,33289,1,0,0:0:0:0:
320,192,33447,1,0,0:0:0:0:
448,192,33447,1,0,0:0:0:0:
64,192,33447,1,0,0:0:0:0:
192,192,33763,1,0,0:0:0:0:
448,192,33763,1,0,0:0:0:0:
64,192,34394,1,0,0:0:0:0:
320,192,34394,1,0,0:0:0:0:
192,192,34710,1,0,0:0:0:0:
320,192,34710,1,0,0:0:0:0:
448,192,34710,1,0,0:0:0:0:
64,192,35026,1,8,0:0:0:0:
192,192,35065,1,0,0:0:0:0:
320,192,35105,1,0,0:0:0:0:
448,192,35144,1,0,0:0:0:0:
64,192,35342,1,0,0:0:0:0:
192,192,35342,1,0,0:0:0:0:
320,192,35815,1,0,0:0:0:0:
448,192,35815,1,0,0:0:0:0:
64,192,35973,1,0,0:0:0:0:
448,192,35973,1,0,0:0:0:0:
192,192,35973,1,0,0:0:0:0:
192,192,36289,1,0,0:0:0:0:
320,192,36289,1,0,0:0:0:0:
320,192,36921,1,0,0:0:0:0:
448,192,36921,1,0,0:0:0:0:
64,192,37236,1,0,0:0:0:0:
448,192,37236,1,0,0:0:0:0:
192,192,37236,1,0,0:0:0:0:
448,192,37552,1,8,0:0:0:0:
320,192,37592,1,0,0:0:0:0:
192,192,37631,1,0,0:0:0:0:
64,192,37671,1,0,0:0:0:0:
448,192,37868,1,0,0:0:0:0:
320,192,37868,1,0,0:0:0:0:
320,192,38342,1,0,0:0:0:0:
448,192,38342,1,0,0:0:0:0:
64,192,38500,1,0,0:0:0:0:
320,192,38500,1,0,0:0:0:0:
192,192,38500,1,0,0:0:0:0:
192,192,38815,1,0,0:0:0:0:
448,192,38815,1,0,0:0:0:0:
320,192,39447,1,0,0:0:0:0:
64,192,39763,1,0,0:0:0:0:
192,192,39763,1,0,0:0:0:0:
448,192,39763,1,0,0:0:0:0:
64,192,40078,1,8,0:0:0:0:
192,192,40118,1,0,0:0:0:0:
448,192,40157,1,0,0:0:0:0:
320,192,40197,1,0,0:0:0:0:
64,192,40394,1,0,0:0:0:0:
192,192,40394,1,0,0:0:0:0:
64,192,40552,1,0,0:0:0:0:
192,192,40552,1,0,0:0:0:0:
320,192,40868,1,0,0:0:0:0:
64,192,41026,1,0,0:0:0:0:
192,192,41026,1,0,0:0:0:0:
448,192,41026,1,0,0:0:0:0:
192,192,41342,1,0,0:0:0:0:
320,192,41342,1,0,0:0:0:0:
64,192,41657,128,0,42921:0:0:0:0:
448,192,41657,1,0,0:0:0:0:
192,192,41973,1,0,0:0:0:0:
448,192,42289,1,0,0:0:0:0:
320,192,42368,1,0,0:0:0:0:
192,192,42447,1,0,0:0:0:0:
448,192,42526,1,0,0:0:0:0:
320,192,42605,1,0,0:0:0:0:
320,192,42763,1,0,0:0:0:0:
448,192,42921,128,0,45447:0:0:0:0:
64,192,45447,128,0,47973:0:0:0:0:
192,192,47973,128,0,50500:0:0:0:0:
448,192,50500,128,0,53026:0:0:0:0:
192,192,53026,128,0,55552:0:0:0:0:
320,192,55552,128,0,58078:0:0:0:0:
64,192,58078,1,0,0:0:0:0:
320,192,58157,1,0,0:0:0:0:
192,192,58236,1,0,0:0:0:0:
320,192,58315,1,0,0:0:0:0:
192,192,58394,1,0,0:0:0:0:
64,192,58394,1,0,0:0:0:0:
448,192,58473,1,0,0:0:0:0:
64,192,58552,1,0,0:0:0:0:
320,192,58631,1,0,0:0:0:0:
64,192,58710,1,0,0:0:0:0:
448,192,58789,1,0,0:0:0:0:
192,192,58868,1,0,0:0:0:0:
448,192,58947,1,0,0:0:0:0:
64,192,59026,1,0,0:0:0:0:
448,192,59105,1,0,0:0:0:0:
64,192,59184,1,0,0:0:0:0:
448,192,59263,1,0,0:0:0:0:
64,192,59342,1,0,0:0:0:0:
192,192,59421,1,0,0:0:0:0:
320,192,59500,1,0,0:0:0:0:
448,192,59578,1,0,0:0:0:0:
64,192,59657,1,0,0:0:0:0:
448,192,59736,1,0,0:0:0:0:
192,192,59815,1,0,0:0:0:0:
448,192,59894,1,0,0:0:0:0:
64,192,59973,1,0,0:0:0:0:
192,192,60052,1,0,0:0:0:0:
448,192,60131,1,0,0:0:0:0:
64,192,60210,1,0,0:0:0:0:
448,192,60289,1,0,0:0:0:0:
192,192,60368,1,0,0:0:0:0:
320,192,60447,1,0,0:0:0:0:
64,192,60526,1,0,0:0:0:0:
448,192,60605,1,0,0:0:0:0:
320,192,60605,1,0,0:0:0:0:
192,192,60684,1,0,0:0:0:0:
64,192,60684,1,0,0:0:0:0:
320,192,60763,1,0,0:0:0:0:
448,192,60763,1,0,0:0:0:0:
192,192,60842,1,0,0:0:0:0:
64,192,60842,1,0,0:0:0:0:
320,192,60921,1,0,0:0:0:0:
448,192,60921,1,0,0:0:0:0:
192,192,61000,1,0,0:0:0:0:
64,192,61000,1,0,0:0:0:0:
320,192,61078,1,0,0:0:0:0:
448,192,61078,1,0,0:0:0:0:
192,192,61157,1,0,0:0:0:0:
64,192,61157,1,0,0:0:0:0:
320,192,61236,1,0,0:0:0:0:
448,192,61236,1,0,0:0:0:0:
192,192,61315,1,0,0:0:0:0:
64,192,61315,1,0,0:0:0:0:
320,192,61394,1,0,0:0:0:0:
448,192,61394,1,0,0:0:0:0:
192,192,61473,1,0,0:0:0:0:
64,192,61473,1,0,0:0:0:0:
448,192,61552,1,0,0:0:0:0:
320,192,61592,1,0,0:0:0:0:
192,192,61631,1,0,0:0:0:0:
64,192,61671,1,0,0:0:0:0:
448,192,61710,1,0,0:0:0:0:
320,192,61750,1,0,0:0:0:0:
192,192,61789,1,0,0:0:0:0:
64,192,61828,1,0,0:0:0:0:
448,192,61868,1,0,0:0:0:0:
320,192,61868,1,0,0:0:0:0:
64,192,63131,128,0,63447:0:0:0:0:
448,192,63447,1,0,0:0:0:0:
320,192,63447,1,0,0:0:0:0:
192,192,63526,1,0,0:0:0:0:
64,192,63605,1,0,0:0:0:0:
320,192,63684,1,0,0:0:0:0:
64,192,63763,1,0,0:0:0:0:
448,192,63763,1,0,0:0:0:0:
320,192,63842,1,0,0:0:0:0:
192,192,63921,1,0,0:0:0:0:
448,192,64000,1,0,0:0:0:0:
192,192,64078,1,0,0:0:0:0:
64,192,64078,1,0,0:0:0:0:
320,192,64157,1,0,0:0:0:0:
192,192,64236,1,0,0:0:0:0:
64,192,64315,1,0,0:0:0:0:
320,192,64394,1,0,0:0:0:0:
448,192,64394,1,0,0:0:0:0:
192,192,64473,1,0,0:0:0:0:
64,192,64552,1,0,0:0:0:0:
192,192,64631,1,0,0:0:0:0:
448,192,64710,1,0,0:0:0:0:
320,192,64710,1,0,0:0:0:0:
192,192,64789,1,0,0:0:0:0:
64,192,64868,1,0,0:0:0:0:
192,192,64947,1,0,0:0:0:0:
320,192,65026,1,0,0:0:0:0:
64,192,65026,1,0,0:0:0:0:
448,192,65105,1,0,0:0:0:0:
192,192,65184,1,0,0:0:0:0:
320,192,65263,1,0,0:0:0:0:
64,192,65342,1,0,0:0:0:0:
192,192,65342,1,0,0:0:0:0:
448,192,65421,1,0,0:0:0:0:
192,192,65500,1,0,0:0:0:0:
320,192,65578,1,0,0:0:0:0:
64,192,65657,1,0,0:0:0:0:
192,192,65657,1,0,0:0:0:0:
320,192,65736,1,0,0:0:0:0:
64,192,65815,1,0,0:0:0:0:
448,192,65894,1,0,0:0:0:0:
192,192,65973,1,0,0:0:0:0:
320,192,65973,1,0,0:0:0:0:
64,192,66052,1,0,0:0:0:0:
448,192,66131,1,0,0:0:0:0:
192,192,66210,1,0,0:0:0:0:
448,192,66289,1,0,0:0:0:0:
320,192,66289,1,0,0:0:0:0:
64,192,66368,1,0,0:0:0:0:
448,192,66447,1,0,0:0:0:0:
192,192,66526,1,0,0:0:0:0:
448,192,66605,1,0,0:0:0:0:
320,192,66605,1,0,0:0:0:0:
192,192,66684,1,0,0:0:0:0:
64,192,66763,1,0,0:0:0:0:
320,192,66842,1,0,0:0:0:0:
64,192,66921,1,0,0:0:0:0:
448,192,66921,1,0,0:0:0:0:
192,192,67000,1,0,0:0:0:0:
448,192,67078,1,0,0:0:0:0:
320,192,67157,1,0,0:0:0:0:
192,192,67236,1,0,0:0:0:0:
64,192,67236,1,0,0:0:0:0:
320,192,67315,1,0,0:0:0:0:
448,192,67394,1,0,0:0:0:0:
64,192,67473,1,0,0:0:0:0:
320,192,67552,1,0,0:0:0:0:
448,192,67552,1,0,0:0:0:0:
192,192,67631,1,0,0:0:0:0:
64,192,67710,1,0,0:0:0:0:
192,192,67789,1,0,0:0:0:0:
448,192,67868,1,0,0:0:0:0:
64,192,67868,1,0,0:0:0:0:
320,192,67947,1,0,0:0:0:0:
192,192,68026,1,0,0:0:0:0:
448,192,68105,1,0,0:0:0:0:
64,192,68184,1,0,0:0:0:0:
192,192,68184,1,0,0:0:0:0:
320,192,68263,1,0,0:0:0:0:
448,192,68342,1,0,0:0:0:0:
192,192,68421,1,0,0:0:0:0:
320,192,68500,1,0,0:0:0:0:
64,192,68500,1,0,0:0:0:0:
448,192,68578,1,0,0:0:0:0:
192,192,68657,1,0,0:0:0:0:
320,192,68736,1,0,0:0:0:0:
64,192,68815,1,0,0:0:0:0:
192,192,68815,1,0,0:0:0:0:
448,192,68894,1,0,0:0:0:0:
192,192,68973,1,0,0:0:0:0:
64,192,69052,1,0,0:0:0:0:
448,192,69131,1,0,0:0:0:0:
320,192,69131,1,0,0:0:0:0:
192,192,69210,1,0,0:0:0:0:
320,192,69289,1,0,0:0:0:0:
192,192,69368,1,0,0:0:0:0:
64,192,69447,1,0,0:0:0:0:
448,192,69447,1,0,0:0:0:0:
192,192,69526,1,0,0:0:0:0:
320,192,69605,1,0,0:0:0:0:
192,192,69684,1,0,0:0:0:0:
448,192,69763,1,0,0:0:0:0:
320,192,69763,1,0,0:0:0:0:
64,192,69842,1,0,0:0:0:0:
320,192,69921,1,0,0:0:0:0:
448,192,70000,1,0,0:0:0:0:
64,192,70078,1,0,0:0:0:0:
320,192,70078,1,0,0:0:0:0:
192,192,70157,1,0,0:0:0:0:
448,192,70236,1,0,0:0:0:0:
192,192,70315,1,0,0:0:0:0:
448,192,70394,1,0,0:0:0:0:
320,192,70394,1,0,0:0:0:0:
64,192,70473,1,0,0:0:0:0:
192,192,70552,1,0,0:0:0:0:
448,192,70631,1,0,0:0:0:0:
64,192,70710,1,0,0:0:0:0:
192,192,70710,1,0,0:0:0:0:
448,192,70789,1,0,0:0:0:0:
192,192,70868,1,0,0:0:0:0:
320,192,70947,1,0,0:0:0:0:
64,192,71026,1,0,0:0:0:0:
192,192,71026,1,0,0:0:0:0:
448,192,71105,1,0,0:0:0:0:
320,192,71184,1,0,0:0:0:0:
192,192,71263,1,0,0:0:0:0:
448,192,71342,1,0,0:0:0:0:
320,192,71342,1,0,0:0:0:0:
64,192,71421,1,0,0:0:0:0:
192,192,71500,1,0,0:0:0:0:
320,192,71578,1,0,0:0:0:0:
64,192,71657,1,0,0:0:0:0:
192,192,71657,1,0,0:0:0:0:
448,192,71815,1,0,0:0:0:0:
192,192,71815,1,0,0:0:0:0:
64,192,71973,128,0,72289:0:0:0:0:
448,192,71973,128,0,72289:0:0:0:0:
192,192,72289,1,0,0:0:0:0:
192,192,72605,1,0,0:0:0:0:
320,192,72605,1,0,0:0:0:0:
64,192,72815,1,0,0:0:0:0:
320,192,72815,1,0,0:0:0:0:
448,192,73026,1,0,0:0:0:0:
64,192,73026,1,0,0:0:0:0:
448,192,73236,1,0,0:0:0:0:
320,192,73236,1,0,0:0:0:0:
192,192,73315,1,0,0:0:0:0:
320,192,73394,1,0,0:0:0:0:
448,192,73473,1,0,0:0:0:0:
64,192,73552,1,0,0:0:0:0:
192,192,73552,1,0,0:0:0:0:
320,192,73631,1,0,0:0:0:0:
192,192,73710,1,0,0:0:0:0:
64,192,73789,1,0,0:0:0:0:
448,192,73868,1,0,0:0:0:0:
320,192,73868,1,0,0:0:0:0:
192,192,73947,1,0,0:0:0:0:
64,192,74026,1,0,0:0:0:0:
448,192,74105,1,0,0:0:0:0:
64,192,74184,1,0,0:0:0:0:
192,192,74184,1,0,0:0:0:0:
320,192,74263,1,0,0:0:0:0:
448,192,74342,1,0,0:0:0:0:
64,192,74421,1,0,0:0:0:0:
448,192,74500,1,0,0:0:0:0:
192,192,74500,1,0,0:0:0:0:
320,192,74578,1,0,0:0:0:0:
64,192,74657,1,0,0:0:0:0:
320,192,74736,1,0,0:0:0:0:
64,192,74815,1,0,0:0:0:0:
192,192,74815,1,0,0:0:0:0:
448,192,74894,1,0,0:0:0:0:
320,192,74973,1,0,0:0:0:0:
192,192,75052,1,0,0:0:0:0:
448,192,75131,1,0,0:0:0:0:
320,192,75131,1,0,0:0:0:0:
64,192,75210,1,0,0:0:0:0:
192,192,75289,1,0,0:0:0:0:
320,192,75368,1,0,0:0:0:0:
64,192,75447,1,0,0:0:0:0:
192,192,75447,1,0,0:0:0:0:
448,192,75526,1,0,0:0:0:0:
64,192,75605,1,0,0:0:0:0:
448,192,75684,1,0,0:0:0:0:
192,192,75763,1,0,0:0:0:0:
320,192,75763,1,0,0:0:0:0:
64,192,75842,1,0,0:0:0:0:
192,192,75921,1,0,0:0:0:0:
320,192,76000,1,0,0:0:0:0:
448,192,76078,1,0,0:0:0:0:
64,192,76078,1,0,0:0:0:0:
192,192,76157,1,0,0:0:0:0:
320,192,76236,1,0,0:0:0:0:
192,192,76315,1,0,0:0:0:0:
64,192,76394,1,0,0:0:0:0:
448,192,76394,1,0,0:0:0:0:
320,192,76473,1,0,0:0:0:0:
192,192,76552,1,0,0:0:0:0:
64,192,76631,1,0,0:0:0:0:
320,192,76710,1,0,0:0:0:0:
448,192,76710,1,0,0:0:0:0:
192,192,76789,1,0,0:0:0:0:
64,192,76868,1,0,0:0:0:0:
320,192,76947,1,0,0:0:0:0:
192,192,77026,1,0,0:0:0:0:
64,192,77026,1,0,0:0:0:0:
448,192,77105,1,0,0:0:0:0:
320,192,77184,1,0,0:0:0:0:
192,192,77263,1,0,0:0:0:0:
64,192,77342,1,0,0:0:0:0:
448,192,77342,1,0,0:0:0:0:
320,192,77421,1,0,0:0:0:0:
192,192,77500,1,0,0:0:0:0:
448,192,77578,1,0,0:0:0:0:
64,192,77657,1,0,0:0:0:0:
192,192,77657,1,0,0:0:0:0:
448,192,77736,1,0,0:0:0:0:
192,192,77815,1,0,0:0:0:0:
320,192,77894,1,0,0:0:0:0:
64,192,77973,1,0,0:0:0:0:
192,192,77973,1,0,0:0:0:0:
320,192,78052,1,0,0:0:0:0:
192,192,78131,1,0,0:0:0:0:
448,192,78210,1,0,0:0:0:0:
64,192,78289,1,0,0:0:0:0:
320,192,78289,1,0,0:0:0:0:
448,192,78368,1,0,0:0:0:0:
192,192,78447,1,0,0:0:0:0:
320,192,78526,1,0,0:0:0:0:
448,192,78605,1,0,0:0:0:0:
192,192,78605,1,0,0:0:0:0:
64,192,78684,1,0,0:0:0:0:
320,192,78763,1,0,0:0:0:0:
192,192,78842,1,0,0:0:0:0:
64,192,78921,1,0,0:0:0:0:
320,192,78921,1,0,0:0:0:0:
192,192,79000,1,0,0:0:0:0:
448,192,79078,1,0,0:0:0:0:
320,192,79157,1,0,0:0:0:0:
192,192,79236,1,0,0:0:0:0:
64,192,79236,1,0,0:0:0:0:
320,192,79315,1,0,0:0:0:0:
64,192,79394,1,0,0:0:0:0:
320,192,79473,1,0,0:0:0:0:
192,192,79552,1,0,0:0:0:0:
448,192,79552,1,0,0:0:0:0:
64,192,79631,1,0,0:0:0:0:
320,192,79710,1,0,0:0:0:0:
192,192,79789,1,0,0:0:0:0:
448,192,79868,1,0,0:0:0:0:
320,192,79868,1,0,0:0:0:0:
192,192,79947,1,0,0:0:0:0:
64,192,80026,1,0,0:0:0:0:
448,192,80105,1,0,0:0:0:0:
64,192,80184,1,0,0:0:0:0:
192,192,80184,1,0,0:0:0:0:
320,192,80263,1,0,0:0:0:0:
192,192,80342,1,0,0:0:0:0:
448,192,80421,1,0,0:0:0:0:
64,192,80500,1,0,0:0:0:0:
320,192,80500,1,0,0:0:0:0:
192,192,80578,1,0,0:0:0:0:
320,192,80657,1,0,0:0:0:0:
64,192,80736,1,0,0:0:0:0:
320,192,80815,1,0,0:0:0:0:
448,192,80815,1,0,0:0:0:0:
192,192,80894,1,0,0:0:0:0:
64,192,80973,1,0,0:0:0:0:
448,192,81052,1,0,0:0:0:0:
64,192,81131,1,0,0:0:0:0:
192,192,81131,1,0,0:0:0:0:
448,192,81210,1,0,0:0:0:0:
64,192,81289,1,0,0:0:0:0:
448,192,81368,1,0,0:0:0:0:
64,192,81447,1,0,0:0:0:0:
192,192,81447,1,0,0:0:0:0:
320,192,81526,1,0,0:0:0:0:
192,192,81605,1,0,0:0:0:0:
320,192,81684,1,0,0:0:0:0:
448,192,81763,1,0,0:0:0:0:
192,192,81763,1,0,0:0:0:0:
64,192,81842,1,0,0:0:0:0:
320,192,81921,1,0,0:0:0:0:
192,192,82000,1,0,0:0:0:0:
448,192,82078,1,0,0:0:0:0:
320,192,82078,1,0,0:0:0:0:
448,192,83342,1,0,0:0:0:0:
64,192,83342,128,0,83973:0:0:0:0:
320,192,83500,1,0,0:0:0:0:
192,192,83657,1,0,0:0:0:0:
448,192,83815,1,0,0:0:0:0:
448,192,83973,1,0,0:0:0:0:
320,192,84052,1,0,0:0:0:0:
192,192,84131,1,0,0:0:0:0:
64,192,84210,1,0,0:0:0:0:
448,192,84289,1,0,0:0:0:0:
320,192,84368,1,0,0:0:0:0:
64,192,84447,1,0,0:0:0:0:
192,192,84526,1,0,0:0:0:0:
448,192,84605,128,0,85236:0:0:0:0:
320,192,84605,1,0,0:0:0:0:
64,192,84605,1,0,0:0:0:0:
192,192,84763,1,0,0:0:0:0:
320,192,84921,1,0,0:0:0:0:
64,192,85078,1,0,0:0:0:0:
192,192,85236,1,0,0:0:0:0:
320,192,85236,1,0,0:0:0:0:
64,192,85315,1,0,0:0:0:0:
448,192,85394,1,0,0:0:0:0:
320,192,85473,1,0,0:0:0:0:
64,192,85552,1,0,0:0:0:0:
192,192,85552,1,0,0:0:0:0:
448,192,85631,1,0,0:0:0:0:
64,192,85710,1,0,0:0:0:0:
448,192,85789,1,0,0:0:0:0:
192,192,85868,128,0,86500:0:0:0:0:
64,192,85868,1,0,0:0:0:0:
320,192,85868,1,0,0:0:0:0:
448,192,86026,1,0,0:0:0:0:
320,192,86184,1,0,0:0:0:0:
64,192,86342,1,0,0:0:0:0:
448,192,86500,1,0,0:0:0:0:
320,192,86578,1,0,0:0:0:0:
64,192,86657,1,0,0:0:0:0:
320,192,86736,1,0,0:0:0:0:
192,192,86815,1,0,0:0:0:0:
448,192,86894,1,0,0:0:0:0:
320,192,86973,1,0,0:0:0:0:
192,192,87052,1,0,0:0:0:0:
320,192,87131,128,0,87763:0:0:0:0:
64,192,87131,1,0,0:0:0:0:
448,192,87289,1,0,0:0:0:0:
64,192,87447,1,0,0:0:0:0:
192,192,87605,1,0,0:0:0:0:
64,192,87763,1,0,0:0:0:0:
192,192,87842,1,0,0:0:0:0:
448,192,87921,1,0,0:0:0:0:
64,192,88000,1,0,0:0:0:0:
320,192,88078,1,0,0:0:0:0:
448,192,88157,1,0,0:0:0:0:
192,192,88236,1,0,0:0:0:0:
320,192,88315,1,0,0:0:0:0:
64,192,88394,128,0,89026:0:0:0:0:
448,192,88394,1,0,0:0:0:0:
448,192,88552,1,0,0:0:0:0:
192,192,88710,1,0,0:0:0:0:
448,192,88789,1,0,0:0:0:0:
192,192,88868,1,0,0:0:0:0:
448,192,88947,1,0,0:0:0:0:
192,192,89026,1,0,0:0:0:0:
320,192,89105,1,0,0:0:0:0:
64,192,89184,1,0,0:0:0:0:
192,192,89263,1,0,0:0:0:0:
448,192,89342,1,0,0:0:0:0:
320,192,89421,1,0,0:0:0:0:
64,192,89500,1,0,0:0:0:0:
448,192,89578,1,0,0:0:0:0:
192,192,89657,128,0,90289:0:0:0:0:
320,192,89657,1,0,0:0:0:0:
320,192,89815,1,0,0:0:0:0:
64,192,89973,1,0,0:0:0:0:
320,192,90052,1,0,0:0:0:0:
64,192,90131,1,0,0:0:0:0:
448,192,90210,1,0,0:0:0:0:
64,192,90289,1,0,0:0:0:0:
448,192,90368,1,0,0:0:0:0:
192,192,90447,1,0,0:0:0:0:
320,192,90526,1,0,0:0:0:0:
64,192,90605,1,0,0:0:0:0:
448,192,90684,1,0,0:0:0:0:
192,192,90763,1,0,0:0:0:0:
448,192,90842,1,0,0:0:0:0:
320,192,90921,128,0,91552:0:0:0:0:
64,192,90921,1,0,0:0:0:0:
64,192,91078,1,0,0:0:0:0:
448,192,91236,1,0,0:0:0:0:
448,192,91394,1,0,0:0:0:0:
192,192,91552,1,0,0:0:0:0:
64,192,91631,1,0,0:0:0:0:
320,192,91710,1,0,0:0:0:0:
192,192,91789,1,0,0:0:0:0:
448,192,91868,1,0,0:0:0:0:
320,192,91947,1,0,0:0:0:0:
64,192,92026,1,0,0:0:0:0:
192,192,92026,1,0,0:0:0:0:
448,192,92105,1,0,0:0:0:0:
64,192,92184,128,0,92815:0:0:0:0:
192,192,92184,128,0,92815:0:0:0:0:
320,192,92184,1,0,0:0:0:0:
320,192,92342,1,0,0:0:0:0:
448,192,92500,1,0,0:0:0:0:
320,192,92578,1,0,0:0:0:0:
448,192,92657,1,0,0:0:0:0:
320,192,92736,1,0,0:0:0:0:
448,192,92815,1,0,0:0:0:0:
320,192,92894,1,0,0:0:0:0:
64,192,92973,1,0,0:0:0:0:
192,192,93052,1,0,0:0:0:0:
448,192,93131,1,0,0:0:0:0:
320,192,93131,1,0,0:0:0:0:
64,192,93447,1,0,0:0:0:0:
192,192,93447,1,0,0:0:0:0:
64,192,93605,1,0,0:0:0:0:
192,192,93605,1,0,0:0:0:0:
448,192,93763,1,0,0:0:0:0:
320,192,93842,1,0,0:0:0:0:
448,192,93921,1,0,0:0:0:0:
192,192,94000,1,0,0:0:0:0:
320,192,94078,1,0,0:0:0:0:
64,192,94157,1,0,0:0:0:0:
192,192,94236,1,0,0:0:0:0:
64,192,94315,1,0,0:0:0:0:
448,192,94394,1,0,0:0:0:0:
320,192,94473,1,0,0:0:0:0:
192,192,94552,1,0,0:0:0:0:
320,192,94631,1,0,0:0:0:0:
448,192,94710,1,0,0:0:0:0:
64,192,94710,1,0,0:0:0:0:
192,192,94789,1,0,0:0:0:0:
320,192,94868,1,0,0:0:0:0:
448,192,94947,1,0,0:0:0:0:
64,192,94947,1,0,0:0:0:0:
192,192,95026,1,0,0:0:0:0:
320,192,95105,1,0,0:0:0:0:
192,192,95184,1,0,0:0:0:0:
64,192,95263,1,0,0:0:0:0:
448,192,95342,1,0,0:0:0:0:
320,192,95421,1,0,0:0:0:0:
64,192,95500,1,0,0:0:0:0:
320,192,95578,1,0,0:0:0:0:
448,192,95657,1,0,0:0:0:0:
64,192,95657,1,0,0:0:0:0:
192,192,95657,1,0,0:0:0:0:
320,192,95736,1,0,0:0:0:0:
64,192,95815,1,0,0:0:0:0:
192,192,95894,1,0,0:0:0:0:
320,192,95973,1,0,0:0:0:0:
64,192,95973,1,0,0:0:0:0:
448,192,95973,1,0,0:0:0:0:
192,192,96052,1,0,0:0:0:0:
448,192,96131,1,0,0:0:0:0:
320,192,96210,1,0,0:0:0:0:
192,192,96289,1,0,0:0:0:0:
320,192,96368,1,0,0:0:0:0:
192,192,96447,1,0,0:0:0:0:
448,192,96526,1,0,0:0:0:0:
320,192,96605,1,0,0:0:0:0:
64,192,96605,1,0,0:0:0:0:
192,192,96605,1,0,0:0:0:0:
448,192,96684,1,0,0:0:0:0:
192,192,96763,1,0,0:0:0:0:
448,192,96842,1,0,0:0:0:0:
64,192,96921,1,0,0:0:0:0:
192,192,96921,1,0,0:0:0:0:
320,192,96921,1,0,0:0:0:0:
448,192,97000,1,0,0:0:0:0:
320,192,97078,1,0,0:0:0:0:
192,192,97157,1,0,0:0:0:0:
320,192,97236,1,0,0:0:0:0:
448,192,97315,1,0,0:0:0:0:
64,192,97315,1,0,0:0:0:0:
192,192,97394,1,0,0:0:0:0:
320,192,97473,1,0,0:0:0:0:
192,192,97552,1,0,0:0:0:0:
64,192,97552,1,0,0:0:0:0:
448,192,97631,1,0,0:0:0:0:
320,192,97710,1,0,0:0:0:0:
192,192,97789,1,0,0:0:0:0:
448,192,97868,1,0,0:0:0:0:
320,192,97868,1,0,0:0:0:0:
64,192,97947,1,0,0:0:0:0:
192,192,98026,1,0,0:0:0:0:
320,192,98105,1,0,0:0:0:0:
64,192,98184,1,0,0:0:0:0:
192,192,98263,1,0,0:0:0:0:
448,192,98342,1,0,0:0:0:0:
320,192,98421,1,0,0:0:0:0:
192,192,98500,1,0,0:0:0:0:
64,192,98500,1,0,0:0:0:0:
320,192,98578,1,0,0:0:0:0:
448,192,98657,1,0,0:0:0:0:
64,192,98657,1,0,0:0:0:0:
192,192,98736,1,0,0:0:0:0:
320,192,98815,1,0,0:0:0:0:
448,192,98815,1,0,0:0:0:0:
192,192,98894,1,0,0:0:0:0:
64,192,98973,1,0,0:0:0:0:
448,192,98973,1,0,0:0:0:0:
320,192,99052,1,0,0:0:0:0:
448,192,99131,1,0,0:0:0:0:
320,192,99210,1,0,0:0:0:0:
64,192,99289,1,0,0:0:0:0:
192,192,99368,1,0,0:0:0:0:
64,192,99447,1,0,0:0:0:0:
192,192,99526,1,0,0:0:0:0:
448,192,99605,1,0,0:0:0:0:
320,192,99605,1,0,0:0:0:0:
192,192,99684,1,0,0:0:0:0:
64,192,99763,1,0,0:0:0:0:
448,192,99842,1,0,0:0:0:0:
320,192,99921,1,0,0:0:0:0:
64,192,100000,1,0,0:0:0:0:
448,192,100000,1,0,0:0:0:0:
192,192,100078,1,0,0:0:0:0:
320,192,100157,1,0,0:0:0:0:
448,192,100157,1,0,0:0:0:0:
192,192,100236,1,0,0:0:0:0:
64,192,100236,1,0,0:0:0:0:
448,192,100315,1,0,0:0:0:0:
320,192,100394,1,0,0:0:0:0:
64,192,100473,1,0,0:0:0:0:
192,192,100473,1,0,0:0:0:0:
320,192,100552,1,0,0:0:0:0:
64,192,100631,1,0,0:0:0:0:
448,192,100631,1,0,0:0:0:0:
192,192,100710,1,0,0:0:0:0:
448,192,100789,1,0,0:0:0:0:
192,192,100868,1,0,0:0:0:0:
64,192,100868,1,0,0:0:0:0:
320,192,100947,1,0,0:0:0:0:
448,192,101026,1,0,0:0:0:0:
64,192,101026,1,0,0:0:0:0:
192,192,101105,1,0,0:0:0:0:
448,192,101184,1,0,0:0:0:0:
64,192,101263,1,0,0:0:0:0:
320,192,101342,1,0,0:0:0:0:
448,192,101342,1,0,0:0:0:0:
192,192,101421,1,0,0:0:0:0:
64,192,101500,1,0,0:0:0:0:
448,192,101578,1,0,0:0:0:0:
64,192,101657,1,0,0:0:0:0:
192,192,101657,1,0,0:0:0:0:
320,192,101736,1,0,0:0:0:0:
448,192,101815,1,0,0:0:0:0:
192,192,101894,1,0,0:0:0:0:
320,192,101973,1,0,0:0:0:0:
64,192,101973,1,0,0:0:0:0:
448,192,102052,1,0,0:0:0:0:
192,192,102131,1,0,0:0:0:0:
320,192,102210,1,0,0:0:0:0:
64,192,102289,1,0,0:0:0:0:
192,192,102289,1,0,0:0:0:0:
448,192,102368,1,0,0:0:0:0:
64,192,102447,1,0,0:0:0:0:
320,192,102526,1,0,0:0:0:0:
64,192,102605,1,0,0:0:0:0:
192,192,102605,1,0,0:0:0:0:
448,192,102684,1,0,0:0:0:0:
192,192,102763,1,0,0:0:0:0:
320,192,102842,1,0,0:0:0:0:
448,192,102921,1,0,0:0:0:0:
192,192,102921,1,0,0:0:0:0:
64,192,103000,1,0,0:0:0:0:
192,192,103078,1,0,0:0:0:0:
448,192,103157,1,0,0:0:0:0:
64,192,103236,1,0,0:0:0:0:
320,192,103236,1,0,0:0:0:0:
192,192,103315,1,0,0:0:0:0:
448,192,103394,1,0,0:0:0:0:
320,192,103473,1,0,0:0:0:0:
192,192,103552,1,0,0:0:0:0:
64,192,103552,1,0,0:0:0:0:
64,192,111131,5,0,0:0:0:0:
448,192,111131,1,0,0:0:0:0:
320,192,111210,1,0,0:0:0:0:
192,192,111210,1,0,0:0:0:0:
64,192,111289,1,0,0:0:0:0:
448,192,111289,1,0,0:0:0:0:
320,192,111368,1,0,0:0:0:0:
192,192,111368,1,0,0:0:0:0:
64,192,111447,1,0,0:0:0:0:
448,192,111447,1,0,0:0:0:0:
192,192,111526,1,0,0:0:0:0:
320,192,111526,1,0,0:0:0:0:
64,192,111605,1,0,0:0:0:0:
448,192,111605,1,0,0:0:0:0:
192,192,111684,1,0,0:0:0:0:
320,192,111684,1,0,0:0:0:0:
448,192,111763,1,0,0:0:0:0:
320,192,111802,1,0,0:0:0:0:
192,192,111842,1,0,0:0:0:0:
64,192,111881,1,0,0:0:0:0:
448,192,111921,1,0,0:0:0:0:
320,192,111960,1,0,0:0:0:0:
192,192,112000,1,0,0:0:0:0:
64,192,112039,1,0,0:0:0:0:
448,192,112078,1,0,0:0:0:0:
320,192,112118,1,0,0:0:0:0:
64,192,112157,1,0,0:0:0:0:
192,192,112197,1,0,0:0:0:0:
448,192,112236,1,0,0:0:0:0:
320,192,112276,1,0,0:0:0:0:
64,192,112315,1,0,0:0:0:0:
192,192,112355,1,0,0:0:0:0:
320,192,112394,1,0,0:0:0:0:
448,192,112394,1,0,0:0:0:0:
192,192,113657,1,0,0:0:0:0:
320,192,113657,1,0,0:0:0:0:
448,192,113657,1,0,0:0:0:0:
64,192,113657,128,0,113973:0:0:0:0:
448,192,113973,1,0,0:0:0:0:
192,192,113973,1,0,0:0:0:0:
320,192,113973,128,0,114289:0:0:0:0:
448,192,114289,1,0,0:0:0:0:
64,192,114289,1,0,0:0:0:0:
192,192,114289,128,0,114605:0:0:0:0:
448,192,114605,128,0,114921:0:0:0:0:
320,192,114605,1,0,0:0:0:0:
64,192,114605,1,0,0:0:0:0:
64,192,114921,128,0,115236:0:0:0:0:
192,192,114921,1,0,0:0:0:0:
320,192,114921,1,0,0:0:0:0:
448,192,115236,1,0,0:0:0:0:
192,192,115236,128,0,115552:0:0:0:0:
320,192,115236,1,0,0:0:0:0:
448,192,115552,1,0,0:0:0:0:
64,192,115552,1,0,0:0:0:0:
320,192,115552,128,0,115868:0:0:0:0:
192,192,115868,1,0,0:0:0:0:
64,192,115868,1,0,0:0:0:0:
448,192,115868,128,0,116184:0:0:0:0:
64,192,116184,1,0,0:0:0:0:
320,192,116184,1,0,0:0:0:0:
192,192,116184,128,0,116500:0:0:0:0:
448,192,116500,1,0,0:0:0:0:
64,192,116500,1,0,0:0:0:0:
320,192,116500,128,0,116815:0:0:0:0:
64,192,116815,128,0,117131:0:0:0:0:
448,192,116815,1,0,0:0:0:0:
192,192,116815,1,0,0:0:0:0:
320,192,117131,128,0,117447:0:0:0:0:
192,192,117131,1,0,0:0:0:0:
448,192,117131,1,0,0:0:0:0:
64,192,117447,128,0,117763:0:0:0:0:
448,192,117447,1,0,0:0:0:0:
192,192,117447,1,0,0:0:0:0:
320,192,117763,1,0,0:0:0:0:
192,192,117763,1,0,0:0:0:0:
448,192,117921,1,0,0:0:0:0:
192,192,117921,1,0,0:0:0:0:
448,192,118078,128,0,118631:0:0:0:0:
320,192,118078,128,0,118631:0:0:0:0:
64,192,118078,128,0,118631:0:0:0:0:
192,192,118710,128,0,119026:0:0:0:0:
320,192,118710,1,0,0:0:0:0:
448,192,118710,1,0,0:0:0:0:
64,192,118710,1,0,0:0:0:0:
448,192,119026,1,0,0:0:0:0:
320,192,119026,1,0,0:0:0:0:
64,192,119026,128,0,119342:0:0:0:0:
192,192,119342,1,0,0:0:0:0:
320,192,119342,1,0,0:0:0:0:
448,192,119342,128,0,119657:0:0:0:0:
64,192,119657,1,0,0:0:0:0:
320,192,119657,1,0,0:0:0:0:
192,192,119657,128,0,119973:0:0:0:0:
64,192,119973,1,0,0:0:0:0:
448,192,119973,1,0,0:0:0:0:
320,192,119973,128,0,120289:0:0:0:0:
448,192,120289,128,0,120605:0:0:0:0:
64,192,120289,1,0,0:0:0:0:
192,192,120289,1,0,0:0:0:0:
192,192,120605,128,0,120921:0:0:0:0:
320,192,120605,1,0,0:0:0:0:
64,192,120605,1,0,0:0:0:0:
448,192,120921,1,0,0:0:0:0:
64,192,120921,1,0,0:0:0:0:
320,192,120921,128,0,121236:0:0:0:0:
64,192,121236,128,0,121552:0:0:0:0:
192,192,121236,1,0,0:0:0:0:
448,192,121236,1,0,0:0:0:0:
448,192,121552,128,0,121868:0:0:0:0:
192,192,121552,1,0,0:0:0:0:
320,192,121552,1,0,0:0:0:0:
192,192,121868,128,0,122184:0:0:0:0:
320,192,121868,1,0,0:0:0:0:
64,192,121868,1,0,0:0:0:0:
320,192,122184,128,0,122500:0:0:0:0:
64,192,122184,1,0,0:0:0:0:
448,192,122184,1,0,0:0:0:0:
64,192,122500,1,0,0:0:0:0:
192,192,122500,1,0,0:0:0:0:
320,192,122657,1,0,0:0:0:0:
448,192,122657,1,0,0:0:0:0:
64,192,122815,1,0,0:0:0:0:
320,192,122815,1,0,0:0:0:0:
192,192,122973,1,0,0:0:0:0:
448,192,122973,1,0,0:0:0:0:
192,192,123131,1,0,0:0:0:0:
320,192,123131,1,0,0:0:0:0:
192,192,123289,1,0,0:0:0:0:
448,192,123289,1,0,0:0:0:0:
64,192,123447,128,0,123763:0:0:0:0:
448,192,123605,128,0,123763:0:0:0:0:
320,192,123763,128,0,124078:0:0:0:0:
192,192,123763,1,0,0:0:0:0:
192,192,124078,1,0,0:0:0:0:
448,192,124078,1,0,0:0:0:0:
64,192,124078,128,0,124394:0:0:0:0:
192,192,124394,1,0,0:0:0:0:
320,192,124394,1,0,0:0:0:0:
448,192,124394,128,0,124710:0:0:0:0:
192,192,124710,1,0,0:0:0:0:
64,192,124710,1,0,0:0:0:0:
320,192,124710,128,0,125026:0:0:0:0:
448,192,125026,1,0,0:0:0:0:
64,192,125026,1,0,0:0:0:0:
192,192,125026,128,0,125342:0:0:0:0:
320,192,125342,1,0,0:0:0:0:
448,192,125342,1,0,0:0:0:0:
64,192,125342,128,0,125657:0:0:0:0:
448,192,125657,1,0,0:0:0:0:
192,192,125657,1,0,0:0:0:0:
320,192,125657,1,0,0:0:0:0:
320,192,125815,1,0,0:0:0:0:
64,192,125815,1,0,0:0:0:0:
64,192,125973,1,0,0:0:0:0:
192,192,126013,1,0,0:0:0:0:
448,192,126052,1,0,0:0:0:0:
320,192,126092,1,0,0:0:0:0:
64,192,126131,1,0,0:0:0:0:
192,192,126171,1,0,0:0:0:0:
320,192,126210,1,0,0:0:0:0:
448,192,126250,1,0,0:0:0:0:
192,192,126289,128,0,126605:0:0:0:0:
64,192,126605,1,0,0:0:0:0:
448,192,126605,1,0,0:0:0:0:
320,192,126605,128,0,126921:0:0:0:0:
448,192,126921,1,0,0:0:0:0:
192,192,126921,1,0,0:0:0:0:
64,192,126921,128,0,127236:0:0:0:0:
320,192,127236,1,0,0:0:0:0:
192,192,127236,1,0,0:0:0:0:
448,192,127236,128,0,127552:0:0:0:0:
320,192,127552,128,0,127868:0:0:0:0:
64,192,127552,1,0,0:0:0:0:
192,192,127552,1,0,0:0:0:0:
64,192,127868,128,0,128184:0:0:0:0:
192,192,127868,1,0,0:0:0:0:
448,192,127868,1,0,0:0:0:0:
448,192,128184,128,0,128500:0:0:0:0:
192,192,128184,1,0,0:0:0:0:
320,192,128184,1,0,0:0:0:0:
192,192,128500,128,0,128815:0:0:0:0:
448,192,128815,128,0,129131:0:0:0:0:
320,192,128815,1,0,0:0:0:0:
64,192,128815,1,0,0:0:0:0:
192,192,129131,128,0,129447:0:0:0:0:
64,192,129131,1,0,0:0:0:0:
320,192,129131,1,0,0:0:0:0:
64,192,129447,128,0,129763:0:0:0:0:
448,192,129447,1,0,0:0:0:0:
320,192,129447,1,0,0:0:0:0:
320,192,129763,128,0,130078:0:0:0:0:
192,192,129763,1,0,0:0:0:0:
448,192,129763,1,0,0:0:0:0:
448,192,130078,128,0,130394:0:0:0:0:
192,192,130078,1,0,0:0:0:0:
64,192,130078,1,0,0:0:0:0:
64,192,130394,128,0,130710:0:0:0:0:
320,192,130394,1,0,0:0:0:0:
192,192,130394,1,0,0:0:0:0:
320,192,130710,128,0,131026:0:0:0:0:
192,192,130710,1,0,0:0:0:0:
448,192,130710,1,0,0:0:0:0:
192,192,131026,1,0,0:0:0:0:
448,192,131026,1,0,0:0:0:0:
64,192,131026,128,0,131342:0:0:0:0:
448,192,131342,1,0,0:0:0:0:
192,192,131342,1,0,0:0:0:0:
320,192,131500,1,0,0:0:0:0:
64,192,131657,1,0,0:0:0:0:
192,192,131815,1,0,0:0:0:0:
448,192,131973,1,0,0:0:0:0:
320,192,132131,1,0,0:0:0:0:
64,192,132289,128,0,132526:0:0:0:0:
192,192,132289,128,0,132526:0:0:0:0:
448,192,132605,1,0,0:0:0:0:
64,192,132605,1,0,0:0:0:0:
192,192,132605,1,0,0:0:0:0:
64,192,167986,5,0,0:0:0:0:
192,192,167986,1,0,0:0:0:0:
320,192,168095,1,0,0:0:0:0:
448,192,168095,1,0,0:0:0:0:
192,192,168204,1,0,0:0:0:0:
64,192,168204,1,0,0:0:0:0:
320,192,168312,1,0,0:0:0:0:
448,192,168312,1,0,0:0:0:0:
192,192,168421,1,0,0:0:0:0:
64,192,168421,1,0,0:0:0:0:
320,192,168530,1,0,0:0:0:0:
448,192,168530,1,0,0:0:0:0:
192,192,168638,1,0,0:0:0:0:
64,192,168638,1,0,0:0:0:0:
320,192,168747,1,0,0:0:0:0:
448,192,168747,1,0,0:0:0:0:
64,192,168856,1,0,0:0:0:0:
192,192,168928,1,0,0:0:0:0:
320,192,169001,1,0,0:0:0:0:
448,192,169073,1,0,0:0:0:0:
64,192,169146,1,0,0:0:0:0:
192,192,169218,1,0,0:0:0:0:
320,192,169291,1,0,0:0:0:0:
448,192,169363,1,0,0:0:0:0:
64,192,169436,1,0,0:0:0:0:
192,192,169508,1,0,0:0:0:0:
448,192,169580,1,0,0:0:0:0:
320,192,169653,1,0,0:0:0:0:
64,192,169725,1,0,0:0:0:0:
192,192,169725,1,0,0:0:0:0:
64,192,170015,1,0,0:0:0:0:
192,192,170015,1,0,0:0:0:0:
64,192,170305,5,0,0:0:0:0:
192,192,170305,1,0,0:0:0:0:
320,192,170595,1,0,0:0:0:0:
448,192,170595,1,0,0:0:0:0:
64,192,170740,1,0,0:0:0:0:
192,192,170885,1,0,0:0:0:0:
320,192,170885,1,0,0:0:0:0:
448,192,171030,1,14,0:0:0:0:
64,192,171030,1,14,0:0:0:0:
64,192,171465,5,0,0:0:0:0:
448,192,171465,1,0,0:0:0:0:
320,192,171573,1,0,0:0:0:0:
192,192,171682,1,0,0:0:0:0:
320,192,171791,1,0,0:0:0:0:
64,192,171899,1,0,0:0:0:0:
448,192,171899,1,0,0:0:0:0:
192,192,172008,1,0,0:0:0:0:
320,192,172117,1,0,0:0:0:0:
192,192,172225,1,0,0:0:0:0:
64,192,172334,1,0,0:0:0:0:
320,192,172334,1,0,0:0:0:0:
448,192,172443,1,0,0:0:0:0:
192,192,172552,1,0,0:0:0:0:
320,192,172660,1,0,0:0:0:0:
64,192,172769,1,0,0:0:0:0:
192,192,172769,1,0,0:0:0:0:
448,192,172878,1,0,0:0:0:0:
320,192,172986,1,0,0:0:0:0:
64,192,173095,1,0,0:0:0:0:
320,192,173204,1,0,0:0:0:0:
448,192,173204,1,0,0:0:0:0:
192,192,173312,1,0,0:0:0:0:
64,192,173421,1,0,0:0:0:0:
448,192,173530,1,0,0:0:0:0:
64,192,173638,1,0,0:0:0:0:
192,192,173638,1,0,0:0:0:0:
448,192,173747,1,0,0:0:0:0:
192,192,173856,1,0,0:0:0:0:
320,192,173965,1,0,0:0:0:0:
64,192,174073,1,0,0:0:0:0:
192,192,174073,1,0,0:0:0:0:
64,192,174182,1,0,0:0:0:0:
192,192,174182,1,0,0:0:0:0:
448,192,174291,1,0,0:0:0:0:
320,192,174291,1,0,0:0:0:0:
320,192,174399,1,0,0:0:0:0:
448,192,174399,1,0,0:0:0:0:
192,192,174508,1,0,0:0:0:0:
64,192,174508,1,0,0:0:0:0:
448,192,174508,128,0,174943:0:0:0:0:
64,192,174943,1,0,0:0:0:0:
192,192,175052,1,0,0:0:0:0:
448,192,175160,1,0,0:0:0:0:
64,192,175269,1,0,0:0:0:0:
448,192,175378,1,0,0:0:0:0:
320,192,175378,1,0,0:0:0:0:
192,192,175486,1,0,0:0:0:0:
64,192,175595,1,0,0:0:0:0:
448,192,175704,1,0,0:0:0:0:
64,192,175812,1,0,0:0:0:0:
192,192,175812,1,0,0:0:0:0:
448,192,175921,1,0,0:0:0:0:
192,192,176030,1,0,0:0:0:0:
320,192,176138,1,0,0:0:0:0:
64,192,176247,1,0,0:0:0:0:
448,192,176247,1,0,0:0:0:0:
320,192,176356,1,0,0:0:0:0:
192,192,176465,1,0,0:0:0:0:
448,192,176573,1,0,0:0:0:0:
64,192,176682,1,0,0:0:0:0:
320,192,176682,1,0,0:0:0:0:
192,192,176791,1,0,0:0:0:0:
448,192,176899,1,0,0:0:0:0:
64,192,177008,1,0,0:0:0:0:
320,192,177117,1,0,0:0:0:0:
448,192,177117,1,0,0:0:0:0:
192,192,177225,1,0,0:0:0:0:
64,192,177334,1,0,0:0:0:0:
448,192,177443,1,0,0:0:0:0:
192,192,177552,1,0,0:0:0:0:
64,192,177552,1,0,0:0:0:0:
320,192,177660,1,0,0:0:0:0:
192,192,177769,1,0,0:0:0:0:
320,192,177878,1,0,0:0:0:0:
64,192,177986,1,0,0:0:0:0:
192,192,177986,128,0,178421:0:0:0:0:
448,192,177986,1,0,0:0:0:0:
448,192,178421,128,0,178856:0:0:0:0:
64,192,178856,1,0,0:0:0:0:
192,192,178856,1,0,0:0:0:0:
320,192,178965,1,0,0:0:0:0:
192,192,179073,1,0,0:0:0:0:
448,192,179182,1,0,0:0:0:0:
64,192,179291,1,0,0:0:0:0:
320,192,179291,1,0,0:0:0:0:
192,192,179399,1,0,0:0:0:0:
448,192,179508,1,0,0:0:0:0:
192,192,179617,1,0,0:0:0:0:
448,192,179725,1,0,0:0:0:0:
320,192,179725,1,0,0:0:0:0:
192,192,179834,1,0,0:0:0:0:
64,192,179943,1,0,0:0:0:0:
448,192,180052,1,0,0:0:0:0:
64,192,180160,1,0,0:0:0:0:
192,192,180160,1,0,0:0:0:0:
448,192,180269,1,0,0:0:0:0:
192,192,180378,1,0,0:0:0:0:
448,192,180486,1,0,0:0:0:0:
64,192,180595,1,0,0:0:0:0:
320,192,180595,1,0,0:0:0:0:
192,192,180704,1,0,0:0:0:0:
448,192,180812,1,0,0:0:0:0:
320,192,180921,1,0,0:0:0:0:
64,192,181030,1,0,0:0:0:0:
192,192,181030,1,0,0:0:0:0:
320,192,181138,1,0,0:0:0:0:
64,192,181247,1,0,0:0:0:0:
448,192,181356,1,0,0:0:0:0:
64,192,181465,1,0,0:0:0:0:
192,192,181465,128,0,181899:0:0:0:0:
320,192,181465,1,0,0:0:0:0:
64,192,181899,1,0,0:0:0:0:
448,192,181899,1,0,0:0:0:0:
320,192,182008,1,0,0:0:0:0:
64,192,182117,1,0,0:0:0:0:
320,192,182225,1,0,0:0:0:0:
64,192,182334,1,0,0:0:0:0:
448,192,182334,1,0,0:0:0:0:
192,192,182443,1,0,0:0:0:0:
448,192,182552,1,0,0:0:0:0:
320,192,182660,1,0,0:0:0:0:
64,192,182769,1,0,0:0:0:0:
192,192,182769,1,0,0:0:0:0:
448,192,182878,1,0,0:0:0:0:
192,192,182986,1,0,0:0:0:0:
448,192,183095,1,0,0:0:0:0:
64,192,183204,1,0,0:0:0:0:
320,192,183204,1,0,0:0:0:0:
192,192,183421,1,0,0:0:0:0:
320,192,183421,1,0,0:0:0:0:
320,192,183638,1,0,0:0:0:0:
448,192,183638,1,0,0:0:0:0:
64,192,183638,1,0,0:0:0:0:
320,192,183783,1,0,0:0:0:0:
320,192,183928,1,0,0:0:0:0:
192,192,184073,1,0,0:0:0:0:
448,192,184073,1,0,0:0:0:0:
64,192,184073,1,0,0:0:0:0:
192,192,184218,1,0,0:0:0:0:
192,192,184363,1,0,0:0:0:0:
448,192,184508,1,0,0:0:0:0:
320,192,184508,1,0,0:0:0:0:
192,192,184508,1,0,0:0:0:0:
64,192,184798,1,0,0:0:0:0:
448,192,184798,1,0,0:0:0:0:
192,192,184798,1,0,0:0:0:0:
192,192,185088,1,0,0:0:0:0:
320,192,185088,1,0,0:0:0:0:
64,192,185088,1,0,0:0:0:0:
448,192,185378,1,0,0:0:0:0:
64,192,185378,1,0,0:0:0:0:
192,192,185486,1,0,0:0:0:0:
320,192,185595,1,0,0:0:0:0:
64,192,185704,1,0,0:0:0:0:
448,192,185812,1,0,0:0:0:0:
320,192,185812,1,0,0:0:0:0:
192,192,185812,1,0,0:0:0:0:
64,192,185921,1,0,0:0:0:0:
192,192,186030,1,0,0:0:0:0:
448,192,186138,1,0,0:0:0:0:
64,192,186247,1,0,0:0:0:0:
320,192,186247,1,0,0:0:0:0:
192,192,186356,1,0,0:0:0:0:
64,192,186465,1,0,0:0:0:0:
320,192,186573,1,0,0:0:0:0:
192,192,186682,1,0,0:0:0:0:
448,192,186682,1,0,0:0:0:0:
64,192,186682,1,0,0:0:0:0:
320,192,186791,1,0,0:0:0:0:
64,192,186899,1,0,0:0:0:0:
192,192,187008,1,0,0:0:0:0:
448,192,187117,1,0,0:0:0:0:
320,192,187117,1,0,0:0:0:0:
64,192,187225,1,0,0:0:0:0:
448,192,187334,1,0,0:0:0:0:
192,192,187443,1,0,0:0:0:0:
320,192,187552,1,0,0:0:0:0:
448,192,187552,1,0,0:0:0:0:
64,192,187552,1,0,0:0:0:0:
192,192,187660,1,0,0:0:0:0:
448,192,187769,1,0,0:0:0:0:
64,192,187878,1,0,0:0:0:0:
192,192,187986,1,0,0:0:0:0:
320,192,187986,1,0,0:0:0:0:
448,192,188095,1,0,0:0:0:0:
64,192,188204,1,0,0:0:0:0:
448,192,188312,1,0,0:0:0:0:
64,192,188421,1,0,0:0:0:0:
192,192,188421,1,0,0:0:0:0:
320,192,188421,1,0,0:0:0:0:
448,192,188530,1,0,0:0:0:0:
192,192,188638,1,0,0:0:0:0:
320,192,188747,1,0,0:0:0:0:
64,192,188856,1,0,0:0:0:0:
448,192,188856,1,0,0:0:0:0:
192,192,188965,1,0,0:0:0:0:
448,192,189073,1,0,0:0:0:0:
320,192,189182,1,0,0:0:0:0:
64,192,189291,1,0,0:0:0:0:
192,192,189291,1,0,0:0:0:0:
448,192,189291,1,0,0:0:0:0:
320,192,189399,1,0,0:0:0:0:
192,192,189508,1,0,0:0:0:0:
448,192,189617,1,0,0:0:0:0:
64,192,189725,1,0,0:0:0:0:
320,192,189725,1,0,0:0:0:0:
192,192,189834,1,0,0:0:0:0:
320,192,189943,1,0,0:0:0:0:
448,192,190052,1,0,0:0:0:0:
64,192,190160,1,0,0:0:0:0:
192,192,190160,1,0,0:0:0:0:
320,192,190160,1,0,0:0:0:0:
448,192,190269,1,0,0:0:0:0:
192,192,190378,1,0,0:0:0:0:
320,192,190486,1,0,0:0:0:0:
64,192,190595,1,0,0:0:0:0:
192,192,190595,1,0,0:0:0:0:
448,192,190704,1,0,0:0:0:0:
320,192,190812,1,0,0:0:0:0:
192,192,190921,1,0,0:0:0:0:
64,192,191030,1,0,0:0:0:0:
448,192,191030,1,0,0:0:0:0:
320,192,191030,1,0,0:0:0:0:
192,192,191138,1,0,0:0:0:0:
320,192,191247,1,0,0:0:0:0:
192,192,191356,1,0,0:0:0:0:
448,192,191465,1,0,0:0:0:0:
320,192,191465,1,0,0:0:0:0:
64,192,191573,1,0,0:0:0:0:
192,192,191682,1,0,0:0:0:0:
448,192,191791,1,0,0:0:0:0:
64,192,191899,1,0,0:0:0:0:
192,192,191899,1,0,0:0:0:0:
320,192,191899,1,0,0:0:0:0:
448,192,192008,1,0,0:0:0:0:
64,192,192117,1,0,0:0:0:0:
320,192,192225,1,0,0:0:0:0:
