osu file format v14

[General]
AudioFilename: audio.mp3
AudioLeadIn: 0
PreviewTime: 37531
Countdown: 0
SampleSet: Normal
StackLeniency: 0.7
Mode: 1
LetterboxInBreaks: 0
WidescreenStoryboard: 1

[Editor]
Bookmarks: 1231,20431,37231,56431,66031,78031,87631,97231,109231
DistanceSpacing: 0.8
BeatDivisor: 1
GridSize: 32
TimelineZoom: 0.7999989

[Metadata]
Title:Sheriruth (Laur Remix)
TitleUnicode:Sheriruth (Laur Remix)
Artist:Laur
ArtistUnicode:Laur
Creator:op45667
Version:Muzukashii
Source:Arcaea
Tags:davidminh0111 electronic instrumental video game team grimoire WACCA Lily R memory archive eternal core psytrance hardcore tano*c lowiro grimoire of darkness tairitsu conflict 対立 m3-2016 tg-005
BeatmapID:3713401
BeatmapSetID:1807631

[Difficulty]
HPDrainRate:6
CircleSize:5
OverallDifficulty:5
ApproachRate:5
SliderMultiplier:1.4
SliderTickRate:1

[Events]
//Background and Video events
0,0,"download (6).jpg",0,70
//Break Periods
//Storyboard Layer 0 (Background)
//Storyboard Layer 1 (Fail)
//Storyboard Layer 2 (Pass)
//Storyboard Layer 3 (Foreground)
//Storyboard Layer 4 (Overlay)
//Storyboard Sound Samples

[TimingPoints]
1232,300,4,1,0,90,1,0
1232,-100,4,1,0,90,0,0
10832,-111.111111111111,4,1,0,90,0,0
15630,-105.26316,4,1,0,90,0,0
15930,-104.23453,4,1,0,90,0,0
16230,-103.22581,4,1,0,90,0,0
16380,-102.72874,4,1,0,90,0,0
16530,-102.23643,4,1,0,90,0,0
16605,-101.992035,4,1,0,90,0,0
16680,-101.7488,4,1,0,90,0,0
16830,-101.26582,4,1,0,90,0,0
17130,-100.313484,4,1,0,90,0,0
17430,-99.37888,4,1,0,90,0,0
17580,-98.91809,4,1,0,90,0,0
17730,-98.46154,4,1,0,90,0,0
17805,-98.23484,4,1,0,90,0,0
17880,-98.009186,4,1,0,90,0,0
18030,-97.560974,4,1,0,90,0,0
18330,-96.67674,4,1,0,90,0,0
18405,-96.458176,4,1,0,90,0,0
18480,-96.2406,4,1,0,90,0,0
18630,-95.80838,4,1,0,90,0,0
18930,-94.95549,4,1,0,90,0,0
19080,-94.53471,4,1,0,90,0,0
19155,-94.32572,4,1,0,90,0,0
19230,-94.117645,4,1,0,90,0,0
19380,-93.70424,4,1,0,90,0,0
19530,-93.294464,4,1,0,90,0,0
19605,-93.09091,4,1,0,90,0,0
19680,-92.888245,4,1,0,90,0,0
19830,-92.48555,4,1,0,90,0,0
19980,-92.086334,4,1,0,90,0,0
20130,-91.690544,4,1,0,90,0,0
20205,-91.49393,4,1,0,90,0,0
20280,-91.29815,4,1,0,90,0,0
20430,-90.90909,4,1,0,90,0,0
20731,-100,4,1,0,90,0,0
28830,-100,4,1,0,90,0,0
28905,-99.68848,4,1,0,90,0,0
28980,-99.37888,4,1,0,90,0,0
29130,-98.76543,4,1,0,90,0,0
29280,-98.159515,4,1,0,90,0,0
29430,-97.560974,4,1,0,90,0,0
29580,-96.969696,4,1,0,90,0,0
29730,-96.38554,4,1,0,90,0,0
29805,-96.0961,4,1,0,90,0,0
29880,-95.80838,4,1,0,90,0,0
30030,-95.2381,4,1,0,90,0,0
34830,-95.2381,4,1,0,90,0,0
34980,-94.95549,4,1,0,90,0,0
35055,-94.81481,4,1,0,90,0,0
35130,-94.67456,4,1,0,90,0,0
35280,-94.39528,4,1,0,90,0,0
35430,-94.117645,4,1,0,90,0,0
35655,-93.70424,4,1,0,90,0,0
35880,-93.294464,4,1,0,90,0,0
36030,-93.023254,4,1,0,90,0,0
36180,-92.753624,4,1,0,90,0,0
36330,-92.48555,4,1,0,90,0,0
36480,-92.21902,4,1,0,90,0,0
36630,-91.954025,4,1,0,90,0,0
36780,-91.690544,4,1,0,90,0,0
36930,-91.42857,4,1,0,90,0,0
37005,-91.29815,4,1,0,90,0,0
37080,-91.1681,4,1,0,90,0,0
37230,-90.90909,4,1,0,90,0,0
37830,-111.111115,4,1,0,90,0,0
37905,-110.345245,4,1,0,90,0,0
37980,-109.589874,4,1,0,90,0,0
38130,-108.10973,4,1,0,90,0,0
38280,-106.66904,4,1,0,90,0,0
38430,-105.266235,4,1,0,90,0,0
38580,-103.89985,4,1,0,90,0,0
38655,-103.22987,4,1,0,90,0,0
38805,-101.91551,4,1,0,90,0,0
38880,-101.27081,4,1,0,90,0,0
39030,-100.005554,4,1,0,90,0,0
39180,-98.77153,4,1,0,90,0,0
39255,-98.16586,4,1,0,90,0,0
39330,-97.56758,4,1,0,90,0,0
39480,-96.39264,4,1,0,90,0,0
39632,-95.2381,4,1,0,90,0,1
46232,-95.2380952380952,4,1,0,90,0,0
46832,-95.2380952380952,4,1,0,90,0,1
49232,-95.2380952380952,4,1,0,90,0,0
50432,-95.2380952380952,4,1,0,90,0,1
54630,-95.2381,4,1,0,90,0,1
54780,-94.786736,4,1,0,90,0,1
54930,-94.33963,4,1,0,90,0,1
55005,-94.117645,4,1,0,90,0,1
55080,-93.896706,4,1,0,90,0,1
55230,-93.45794,4,1,0,90,0,1
55380,-93.023254,4,1,0,90,0,1
55530,-92.59259,4,1,0,90,0,1
55605,-92.37875,4,1,0,90,0,1
55680,-92.16589,4,1,0,90,0,1
55830,-91.74312,4,1,0,90,0,1
55980,-91.324196,4,1,0,90,0,1
56055,-91.11617,4,1,0,90,0,1
56130,-90.90909,4,1,0,90,0,1
56432,-111.111111111111,4,1,0,70,0,0
66031,-105.263157894737,4,1,0,90,0,0
70230,-105.26316,4,1,0,90,0,0
70305,-105.03282,4,1,0,90,0,0
70380,-104.8035,4,1,0,90,0,0
70530,-104.347824,4,1,0,90,0,0
70680,-103.8961,4,1,0,90,0,0
70830,-103.44828,4,1,0,90,0,0
71130,-102.5641,4,1,0,90,0,0
71280,-102.12766,4,1,0,90,0,0
71430,-101.694916,4,1,0,90,0,0
71580,-101.26582,4,1,0,90,0,0
71730,-100.84034,4,1,0,90,0,0
72030,-100,4,1,0,90,0,0
72330,-99.17355,4,1,0,90,0,0
72480,-98.76543,4,1,0,90,0,0
72630,-98.36066,4,1,0,90,0,0
72780,-97.95918,4,1,0,90,0,0
72930,-97.560974,4,1,0,90,0,0
73005,-97.363075,4,1,0,90,0,0
73080,-97.165985,4,1,0,90,0,0
73230,-96.77419,4,1,0,90,0,0
73530,-96,4,1,0,90,0,0
73680,-95.61753,4,1,0,90,0,0
73830,-95.2381,4,1,0,90,0,0
73980,-94.86166,4,1,0,90,0,0
74130,-94.48818,4,1,0,90,0,0
74430,-93.75001,4,1,0,90,0,0
74505,-93.56725,4,1,0,90,0,0
74580,-93.385216,4,1,0,90,0,0
74730,-93.023254,4,1,0,90,0,0
74880,-92.66409,4,1,0,90,0,0
75030,-92.307686,4,1,0,90,0,0
75105,-92.130516,4,1,0,90,0,0
75180,-91.954025,4,1,0,90,0,0
75330,-91.60305,4,1,0,90,0,0
75480,-91.25475,4,1,0,90,0,0
75630,-90.90909,4,1,0,90,0,0
75707,-90.90909,4,1,0,90,0,0
78031,-100,4,1,0,90,0,0
86430,-100,4,1,0,90,0,0
86580,-99.37888,4,1,0,90,0,0
86730,-98.76543,4,1,0,90,0,0
86880,-98.159515,4,1,0,90,0,0
86955,-97.85932,4,1,0,90,0,0
87030,-97.560974,4,1,0,90,0,0
87180,-96.969696,4,1,0,90,0,0
87255,-96.67674,4,1,0,90,0,0
87405,-96.0961,4,1,0,90,0,0
87480,-95.80838,4,1,0,90,0,0
87630,-95.2381,4,1,0,90,0,0
87930,-105.26316,4,1,0,90,0,0
88230,-104.52962,4,1,0,90,0,0
88305,-104.347824,4,1,0,90,0,0
88380,-104.16667,4,1,0,90,0,0
88530,-103.80622,4,1,0,90,0,0
88680,-103.44828,4,1,0,90,0,0
88830,-103.09278,4,1,0,90,0,0
89130,-102.389084,4,1,0,90,0,0
89430,-101.694916,4,1,0,90,0,0
89730,-101.0101,4,1,0,90,0,0
89880,-100.67114,4,1,0,90,0,0
90030,-100.33445,4,1,0,90,0,0
90105,-100.16695,4,1,0,90,0,0
90180,-100,4,1,0,90,0,0
90330,-99.66778,4,1,0,90,0,0
90630,-99.0099,4,1,0,90,0,0
90705,-98.84679,4,1,0,90,0,0
90780,-98.68421,4,1,0,90,0,0
90930,-98.36066,4,1,0,90,0,0
91230,-97.71987,4,1,0,90,0,0
91305,-97.560974,4,1,0,90,0,0
91380,-97.4026,4,1,0,90,0,0
91530,-97.08738,4,1,0,90,0,0
91680,-96.77419,4,1,0,90,0,0
91755,-96.61836,4,1,0,90,0,0
91830,-96.46303,4,1,0,90,0,0
91980,-96.15385,4,1,0,90,0,0
92130,-95.84664,4,1,0,90,0,0
92205,-95.69379,4,1,0,90,0,0
92280,-95.541405,4,1,0,90,0,0
92430,-95.2381,4,1,0,90,0,0
94380,-95.2381,4,1,0,90,0,0
94455,-95.1189,4,1,0,90,0,0
94530,-95,4,1,0,90,0,0
94680,-94.76309,4,1,0,90,0,0
94830,-94.52737,4,1,0,90,0,0
95130,-94.0594,4,1,0,90,0,0
95280,-93.82716,4,1,0,90,0,0
95430,-93.59606,4,1,0,90,0,0
95730,-93.13725,4,1,0,90,0,0
95880,-92.90954,4,1,0,90,0,0
96030,-92.68292,4,1,0,90,0,0
96180,-92.45742,4,1,0,90,0,0
96330,-92.23301,4,1,0,90,0,0
96630,-91.78744,4,1,0,90,0,0
96705,-91.67672,4,1,0,90,0,0
96780,-91.56626,4,1,0,90,0,0
96930,-91.34615,4,1,0,90,0,0
97005,-91.236496,4,1,0,90,0,0
97080,-91.127106,4,1,0,90,0,0
97230,-90.90909,4,1,0,90,0,0
97830,-111.111115,4,1,0,90,0,0
98130,-108.10973,4,1,0,90,0,0
98430,-105.266235,4,1,0,90,0,0
98580,-103.89985,4,1,0,90,0,0
98730,-102.56848,4,1,0,90,0,0
98880,-101.27081,4,1,0,90,0,0
99030,-100.005554,4,1,0,90,0,0
99180,-98.77153,4,1,0,90,0,0
99255,-98.16586,4,1,0,90,0,0
99330,-97.56758,4,1,0,90,0,0
99480,-96.39264,4,1,0,90,0,0
99632,-95.24564,4,1,0,90,0,1
106832,-95.2380952380952,4,1,0,90,0,0
107430,-111.111115,4,1,0,90,0,0
107580,-109.589035,4,1,0,90,0,0
107730,-108.10811,4,1,0,90,0,0
107880,-106.666664,4,1,0,90,0,0
108030,-105.26316,4,1,0,90,0,0
108180,-103.8961,4,1,0,90,0,0
108255,-103.22581,4,1,0,90,0,0
108405,-101.91083,4,1,0,90,0,0
108480,-101.26582,4,1,0,90,0,0
108630,-100,4,1,0,90,0,0
108780,-98.76543,4,1,0,90,0,0
108855,-98.159515,4,1,0,90,0,0
108930,-97.560974,4,1,0,90,0,0
109230,-95.2381,4,1,0,90,0,0
110432,-95.2380952380952,4,1,0,90,0,1
113730,-95.2381,4,1,0,90,0,1
113805,-95.11229,4,1,0,90,0,1
113880,-94.98681,4,1,0,90,0,1
114030,-94.73684,4,1,0,90,0,1
114180,-94.48818,4,1,0,90,0,1
114330,-94.24084,4,1,0,90,0,1
114480,-93.994774,4,1,0,90,0,1
114630,-93.75001,4,1,0,90,0,1
114930,-93.264244,4,1,0,90,0,1
115080,-93.023254,4,1,0,90,0,1
115230,-92.78351,4,1,0,90,0,1
115380,-92.54499,4,1,0,90,0,1
115530,-92.307686,4,1,0,90,0,1
115680,-92.0716,4,1,0,90,0,1
115830,-91.83674,4,1,0,90,0,1
115905,-91.71974,4,1,0,90,0,1
115980,-91.60305,4,1,0,90,0,1
116130,-91.37056,4,1,0,90,0,1
116205,-91.25475,4,1,0,90,0,1
116280,-91.139244,4,1,0,90,0,1
116432,-90.90909,4,1,0,90,0,0
116731,-100,4,1,0,90,0,0
121231,-95.2380952380952,4,1,0,90,0,0

[HitObjects]
238,236,1232,5,12,0:0:0:0:
343,287,1531,1,0,0:0:0:0:
197,188,1681,1,8,0:0:0:0:
197,188,1981,1,0,0:0:0:0:
197,188,2281,1,0,0:0:0:0:
197,188,2431,1,8,0:0:0:0:
185,177,2731,1,0,0:0:0:0:
185,177,2881,1,8,0:0:0:0:
185,177,3181,1,8,0:0:0:0:
185,177,3481,1,0,0:0:0:0:
185,177,3631,1,12,0:0:0:0:
379,217,3781,1,8,0:0:0:0:
234,169,3931,1,0,0:0:0:0:
270,124,4081,1,8,0:0:0:0:
270,124,4381,1,8,0:0:0:0:
423,230,4531,1,0,0:0:0:0:
423,230,4681,1,0,0:0:0:0:
174,126,4831,1,8,0:0:0:0:
330,215,4981,1,0,0:0:0:0:
279,46,5056,1,0,0:0:0:0:
330,215,5131,1,0,0:0:0:0:
190,138,5281,1,8,0:0:0:0:
366,242,5581,1,8,0:0:0:0:
223,202,6031,1,12,0:0:0:0:
297,168,6331,1,0,0:0:0:0:
297,168,6481,1,8,0:0:0:0:
297,168,6781,1,8,0:0:0:0:
297,168,7081,1,0,0:0:0:0:
297,168,7231,1,8,0:0:0:0:
284,89,7531,1,0,0:0:0:0:
284,89,7681,1,8,0:0:0:0:
284,89,7981,1,8,0:0:0:0:
284,89,8281,1,0,0:0:0:0:
185,177,8431,1,12,0:0:0:0:
379,217,8581,1,8,0:0:0:0:
234,169,8731,1,0,0:0:0:0:
270,124,8881,1,8,0:0:0:0:
270,124,9181,1,8,0:0:0:0:
423,230,9331,1,0,0:0:0:0:
423,230,9481,1,8,0:0:0:0:
174,126,9631,1,0,0:0:0:0:
330,215,9781,1,8,0:0:0:0:
330,215,9856,1,8,0:0:0:0:
330,215,9931,1,8,0:0:0:0:
190,138,10081,1,8,0:0:0:0:
366,242,10381,1,8,0:0:0:0:
223,202,10832,1,12,0:0:0:0:
297,168,11131,1,0,0:0:0:0:
297,168,11281,1,8,0:0:0:0:
297,168,11581,1,8,0:0:0:0:
297,168,11881,1,0,0:0:0:0:
297,168,12031,1,8,0:0:0:0:
161,126,12181,1,8,0:0:0:0:
284,89,12331,1,0,0:0:0:0:
284,89,12481,1,8,0:0:0:0:
284,89,12781,1,0,0:0:0:0:
284,89,13081,1,0,0:0:0:0:
326,138,13231,1,8,0:0:0:0:
268,128,13681,1,8,0:0:0:0:
268,128,14131,1,0,0:0:0:0:
372,237,14431,1,8,0:0:0:0:
372,237,14506,1,8,0:0:0:0:
284,140,14581,1,8,0:0:0:0:
372,237,14731,1,0,0:0:0:0:
372,237,14881,1,8,0:0:0:0:
309,151,15031,1,0,0:0:0:0:
309,151,15106,1,0,0:0:0:0:
309,151,15181,1,0,0:0:0:0:
206,88,15331,1,8,0:0:0:0:
215,106,15631,1,4,0:0:0:0:
305,157,15931,1,8,0:0:0:0:
147,71,16231,1,0,0:0:0:0:
147,71,16381,1,8,0:0:0:0:
147,71,16531,1,8,0:0:0:0:
285,61,16606,1,8,0:0:0:0:
285,61,16681,1,8,0:0:0:0:
285,61,16831,1,4,0:0:0:0:
265,100,17131,1,0,0:0:0:0:
265,100,17431,1,8,0:0:0:0:
265,100,17581,1,8,0:0:0:0:
210,46,17731,1,0,0:0:0:0:
265,100,17806,1,0,0:0:0:0:
265,100,17881,1,0,0:0:0:0:
210,46,18031,1,4,0:0:0:0:
214,176,18331,1,8,0:0:0:0:
254,69,18406,1,8,0:0:0:0:
254,69,18481,1,8,0:0:0:0:
214,176,18631,1,4,0:0:0:0:
214,176,18931,1,0,0:0:0:0:
260,129,19081,1,8,0:0:0:0:
272,110,19156,1,8,0:0:0:0:
272,110,19231,1,8,0:0:0:0:
250,96,19381,1,0,0:0:0:0:
383,93,19531,1,8,0:0:0:0:
214,104,19606,1,8,0:0:0:0:
254,53,19681,1,8,0:0:0:0:
254,53,19831,1,0,0:0:0:0:
226,77,19981,1,8,0:0:0:0:
350,66,20131,1,8,0:0:0:0:
192,56,20206,1,8,0:0:0:0:
192,56,20281,1,8,0:0:0:0:
192,56,20431,1,4,0:0:0:0:
346,260,21031,1,8,0:0:0:0:
346,260,21331,1,0,0:0:0:0:
231,214,21481,1,8,0:0:0:0:
231,214,21631,1,0,0:0:0:0:
231,214,21781,1,0,0:0:0:0:
231,214,21931,1,8,0:0:0:0:
340,229,22006,1,8,0:0:0:0:
231,214,22081,1,8,0:0:0:0:
231,214,22231,1,0,0:0:0:0:
231,214,22381,1,8,0:0:0:0:
231,214,22531,1,0,0:0:0:0:
231,214,22681,1,8,0:0:0:0:
231,214,22831,1,0,0:0:0:0:
231,214,23131,1,0,0:0:0:0:
212,79,23206,1,0,0:0:0:0:
212,79,23281,1,0,0:0:0:0:
234,16,23431,1,0,0:0:0:0:
310,89,23581,1,8,0:0:0:0:
310,89,23731,1,0,0:0:0:0:
310,89,24031,1,8,0:0:0:0:
407,309,24181,1,0,0:0:0:0:
407,309,24331,1,8,0:0:0:0:
277,91,24406,1,8,0:0:0:0:
434,291,24481,1,8,0:0:0:0:
434,291,24631,1,0,0:0:0:0:
279,254,24781,1,0,0:0:0:0:
279,254,24931,1,8,0:0:0:0:
279,254,25231,1,0,0:0:0:0:
201,106,25831,1,0,0:0:0:0:
201,106,25981,1,8,0:0:0:0:
201,106,26131,1,8,0:0:0:0:
201,106,26281,1,8,0:0:0:0:
191,93,26431,1,0,0:0:0:0:
191,93,26581,1,8,0:0:0:0:
191,93,26731,1,0,0:0:0:0:
191,93,26806,1,0,0:0:0:0:
191,93,26881,1,0,0:0:0:0:
191,93,27031,1,0,0:0:0:0:
191,93,27181,1,8,0:0:0:0:
191,93,27331,1,0,0:0:0:0:
191,93,27481,1,8,0:0:0:0:
191,93,27631,1,0,0:0:0:0:
191,93,27931,1,0,0:0:0:0:
191,93,28081,1,8,0:0:0:0:
191,93,28231,1,8,0:0:0:0:
191,93,28381,1,8,0:0:0:0:
191,93,28531,1,0,0:0:0:0:
288,73,28831,1,8,0:0:0:0:
257,54,28906,1,8,0:0:0:0:
191,93,28981,1,8,0:0:0:0:
191,93,29131,1,0,0:0:0:0:
191,93,29281,1,8,0:0:0:0:
170,55,29431,1,0,0:0:0:0:
170,55,29581,1,8,0:0:0:0:
170,55,29731,1,8,0:0:0:0:
228,111,29806,1,8,0:0:0:0:
170,55,29881,1,8,0:0:0:0:
377,181,30031,1,4,0:0:0:0:
392,71,30331,1,8,0:0:0:0:
270,67,30406,1,8,0:0:0:0:
266,208,30481,1,8,0:0:0:0:
333,83,30631,1,0,0:0:0:0:
334,83,30931,1,0,0:0:0:0:
206,48,31006,1,0,0:0:0:0:
362,56,31081,1,0,0:0:0:0:
396,113,31231,1,0,0:0:0:0:
396,113,31531,1,8,0:0:0:0:
193,55,31831,1,0,0:0:0:0:
193,55,32131,1,8,0:0:0:0:
411,27,32206,1,8,0:0:0:0:
156,84,32281,1,8,0:0:0:0:
156,84,32431,1,0,0:0:0:0:
361,120,32731,1,0,0:0:0:0:
238,60,32881,1,8,0:0:0:0:
238,60,33031,1,8,0:0:0:0:
398,48,33106,1,8,0:0:0:0:
398,48,33181,1,8,0:0:0:0:
224,34,33331,1,0,0:0:0:0:
272,168,33481,1,8,0:0:0:0:
272,168,33631,1,0,0:0:0:0:
317,104,33781,1,8,0:0:0:0:
317,104,33856,1,8,0:0:0:0:
317,104,33931,1,8,0:0:0:0:
317,104,34081,1,8,0:0:0:0:
317,104,34231,1,0,0:0:0:0:
228,53,34381,1,8,0:0:0:0:
228,53,34531,1,0,0:0:0:0:
228,53,34831,1,8,0:0:0:0:
228,53,34981,1,0,0:0:0:0:
228,53,35056,1,0,0:0:0:0:
231,45,35131,1,0,0:0:0:0:
231,45,35281,1,8,0:0:0:0:
231,45,35431,1,0,0:0:0:0:
235,8,35656,1,0,0:0:0:0:
240,37,35881,1,0,0:0:0:0:
240,37,36031,1,0,0:0:0:0:
310,172,36181,1,8,0:0:0:0:
310,172,36331,1,0,0:0:0:0:
198,68,36481,1,8,0:0:0:0:
198,68,36631,1,8,0:0:0:0:
198,68,36781,1,0,0:0:0:0:
198,68,36931,1,8,0:0:0:0:
198,68,37006,1,8,0:0:0:0:
198,68,37081,1,8,0:0:0:0:
228,87,37231,1,4,0:0:0:0:
329,221,37831,1,8,0:0:0:0:
323,217,37906,1,8,0:0:0:0:
239,69,37981,1,8,0:0:0:0:
347,42,38131,1,0,0:0:0:0:
356,287,38281,1,8,0:0:0:0:
301,238,38431,1,8,0:0:0:0:
301,238,38581,1,0,0:0:0:0:
301,238,38656,1,0,0:0:0:0:
301,238,38806,1,8,0:0:0:0:
301,238,38881,1,8,0:0:0:0:
301,238,39031,1,0,0:0:0:0:
246,178,39181,1,8,0:0:0:0:
228,131,39256,1,8,0:0:0:0:
228,131,39331,1,8,0:0:0:0:
228,131,39481,1,8,0:0:0:0:
228,131,39632,1,4,0:0:0:0:
184,195,39931,1,8,0:0:0:0:
184,195,40231,1,0,0:0:0:0:
422,257,40531,1,8,0:0:0:0:
224,220,40681,1,8,0:0:0:0:
224,220,40831,1,0,0:0:0:0:
250,186,40981,1,8,0:0:0:0:
250,186,41131,1,0,0:0:0:0:
250,186,41281,1,8,0:0:0:0:
319,190,41431,1,8,0:0:0:0:
283,184,41506,1,8,0:0:0:0:
283,184,41581,1,8,0:0:0:0:
292,229,41731,1,0,0:0:0:0:
292,229,41881,1,8,0:0:0:0:
292,229,42031,1,0,0:0:0:0:
365,291,42331,1,8,0:0:0:0:
365,291,42631,1,0,0:0:0:0:
365,291,42931,1,8,0:0:0:0:
365,291,43081,1,0,0:0:0:0:
365,291,43231,1,8,0:0:0:0:
365,291,43381,1,0,0:0:0:0:
365,291,43531,1,8,0:0:0:0:
365,291,43681,1,0,0:0:0:0:
365,291,43831,1,0,0:0:0:0:
365,291,43981,1,8,0:0:0:0:
365,291,44131,1,8,0:0:0:0:
301,238,44206,1,8,0:0:0:0:
247,251,44281,1,8,0:0:0:0:
247,251,44431,1,0,0:0:0:0:
214,201,44731,1,0,0:0:0:0:
214,201,44881,1,8,0:0:0:0:
195,181,45031,1,8,0:0:0:0:
201,182,45331,1,8,0:0:0:0:
301,238,45406,1,8,0:0:0:0:
201,182,45481,1,8,0:0:0:0:
294,283,45631,1,4,0:0:0:0:
294,283,45856,1,4,0:0:0:0:
349,155,46081,1,8,0:0:0:0:
474,325,46232,1,4,0:0:0:0:
347,42,46832,1,4,0:0:0:0:
347,42,47131,1,0,0:0:0:0:
301,238,47431,1,8,0:0:0:0:
301,238,47731,1,0,0:0:0:0:
301,238,47881,1,8,0:0:0:0:
301,238,48031,1,0,0:0:0:0:
233,38,48181,1,8,0:0:0:0:
271,53,48256,1,8,0:0:0:0:
271,53,48406,1,0,0:0:0:0:
271,53,48481,1,0,0:0:0:0:
271,53,48631,1,8,0:0:0:0:
271,53,48781,1,0,0:0:0:0:
232,49,48931,1,0,0:0:0:0:
232,49,49081,1,8,0:0:0:0:
199,269,49232,1,4,0:0:0:0:
199,269,49531,1,4,0:0:0:0:
199,269,49831,1,4,0:0:0:0:
199,269,49981,1,4,0:0:0:0:
301,68,50432,1,4,0:0:0:0:
377,166,50581,1,8,0:0:0:0:
293,169,50731,1,0,0:0:0:0:
293,169,50881,1,8,0:0:0:0:
288,151,51031,1,0,0:0:0:0:
288,151,51181,1,8,0:0:0:0:
315,120,51256,1,8,0:0:0:0:
288,151,51331,1,8,0:0:0:0:
288,151,51481,1,0,0:0:0:0:
199,269,51631,1,4,0:0:0:0:
289,131,51931,1,8,0:0:0:0:
276,76,52231,1,8,0:0:0:0:
237,67,52531,1,8,0:0:0:0:
170,37,52681,1,8,0:0:0:0:
170,37,52831,1,0,0:0:0:0:
208,59,52981,1,8,0:0:0:0:
208,59,53131,1,0,0:0:0:0:
266,58,53281,1,8,0:0:0:0:
208,59,53431,1,8,0:0:0:0:
237,28,53581,1,0,0:0:0:0:
314,140,53731,1,8,0:0:0:0:
314,140,53881,1,0,0:0:0:0:
314,140,53956,1,0,0:0:0:0:
170,54,54031,1,0,0:0:0:0:
230,18,54181,1,8,0:0:0:0:
212,40,54331,1,8,0:0:0:0:
230,18,54631,1,0,0:0:0:0:
202,139,54781,1,8,0:0:0:0:
188,33,54931,1,0,0:0:0:0:
202,139,55006,1,0,0:0:0:0:
202,139,55081,1,0,0:0:0:0:
222,44,55231,1,0,0:0:0:0:
277,68,55381,1,8,0:0:0:0:
263,77,55531,1,0,0:0:0:0:
202,139,55606,1,0,0:0:0:0:
263,77,55681,1,0,0:0:0:0:
329,57,55831,1,8,0:0:0:0:
185,42,55981,1,8,0:0:0:0:
185,42,56056,1,8,0:0:0:0:
329,57,56131,1,8,0:0:0:0:
234,221,56432,1,12,0:0:0:0:
231,212,56731,1,8,0:0:0:0:
447,268,57331,1,8,0:0:0:0:
275,233,57631,1,0,0:0:0:0:
292,272,58231,1,0,0:0:0:0:
292,272,58381,1,0,0:0:0:0:
292,272,58531,1,8,0:0:0:0:
292,272,58681,1,8,0:0:0:0:
292,272,58831,1,8,0:0:0:0:
292,272,59131,1,8,0:0:0:0:
292,272,59281,1,8,0:0:0:0:
489,282,59581,1,8,0:0:0:0:
489,282,59881,1,8,0:0:0:0:
227,55,60331,1,0,0:0:0:0:
227,55,60481,1,0,0:0:0:0:
377,215,60631,1,8,0:0:0:0:
410,273,60706,1,8,0:0:0:0:
410,273,60781,1,8,0:0:0:0:
410,273,60931,1,8,0:0:0:0:
308,120,61081,1,0,0:0:0:0:
334,217,61231,1,8,0:0:0:0:
401,264,61531,1,8,0:0:0:0:
401,264,61681,1,0,0:0:0:0:
423,64,61981,1,8,0:0:0:0:
298,164,62281,1,0,0:0:0:0:
340,44,62431,1,0,0:0:0:0:
375,126,62881,1,8,0:0:0:0:
375,126,63331,1,8,0:0:0:0:
383,188,63631,1,0,0:0:0:0:
377,204,63781,1,0,0:0:0:0:
272,151,63931,1,8,0:0:0:0:
330,120,64081,1,8,0:0:0:0:
375,223,64231,1,0,0:0:0:0:
375,224,64381,1,8,0:0:0:0:
410,289,64831,1,8,0:0:0:0:
256,192,64981,12,0,65731,0:0:0:0:
286,118,66031,5,4,0:0:0:0:
137,197,66331,1,8,0:0:0:0:
137,197,66481,1,0,0:0:0:0:
238,206,66631,1,8,0:0:0:0:
161,171,66931,1,8,0:0:0:0:
161,171,67231,1,0,0:0:0:0:
161,171,67831,1,0,0:0:0:0:
161,171,68131,1,8,0:0:0:0:
161,171,68281,1,0,0:0:0:0:
161,171,68431,1,8,0:0:0:0:
237,152,68731,1,8,0:0:0:0:
238,206,69031,1,0,0:0:0:0:
238,206,69181,1,8,0:0:0:0:
238,206,69331,1,8,0:0:0:0:
238,206,69481,1,8,0:0:0:0:
238,206,69631,1,0,0:0:0:0:
427,280,70231,1,8,0:0:0:0:
427,280,70306,1,8,0:0:0:0:
298,255,70381,1,8,0:0:0:0:
298,255,70531,1,0,0:0:0:0:
298,255,70681,1,8,0:0:0:0:
265,220,70831,1,4,0:0:0:0:
365,235,71131,1,8,0:0:0:0:
389,259,71281,1,0,0:0:0:0:
389,259,71431,1,8,0:0:0:0:
389,259,71581,1,0,0:0:0:0:
389,259,71731,1,8,0:0:0:0:
389,259,72031,1,4,0:0:0:0:
296,117,72331,1,0,0:0:0:0:
296,117,72481,1,8,0:0:0:0:
296,117,72631,1,8,0:0:0:0:
296,117,72781,1,0,0:0:0:0:
296,117,72931,1,8,0:0:0:0:
205,238,73006,1,8,0:0:0:0:
205,238,73081,1,8,0:0:0:0:
168,103,73231,1,4,0:0:0:0:
206,97,73531,1,8,0:0:0:0:
206,97,73681,1,0,0:0:0:0:
167,76,73831,1,0,0:0:0:0:
167,76,73981,1,8,0:0:0:0:
405,236,74131,1,0,0:0:0:0:
405,236,74431,1,8,0:0:0:0:
255,275,74506,1,8,0:0:0:0:
255,275,74581,1,8,0:0:0:0:
368,98,74731,1,8,0:0:0:0:
368,98,74881,1,0,0:0:0:0:
305,246,75031,1,0,0:0:0:0:
305,246,75106,1,0,0:0:0:0:
297,195,75181,1,0,0:0:0:0:
252,112,75331,1,8,0:0:0:0:
214,111,75481,1,0,0:0:0:0:
332,275,75631,1,8,0:0:0:0:
293,273,76231,1,8,0:0:0:0:
293,273,76431,1,8,0:0:0:0:
218,57,76681,1,8,0:0:0:0:
218,57,76831,1,8,0:0:0:0:
256,192,76981,12,8,77881,0:0:0:0:
259,171,78031,5,4,0:0:0:0:
337,187,78631,1,8,0:0:0:0:
281,185,78931,1,8,0:0:0:0:
281,185,79081,1,0,0:0:0:0:
340,217,79231,1,8,0:0:0:0:
340,217,79306,1,8,0:0:0:0:
186,156,79381,1,8,0:0:0:0:
186,156,79531,1,0,0:0:0:0:
182,140,79681,1,8,0:0:0:0:
340,217,79756,1,8,0:0:0:0:
128,128,79831,1,8,0:0:0:0:
348,108,79981,1,0,0:0:0:0:
330,63,80131,1,0,0:0:0:0:
330,63,80431,1,0,0:0:0:0:
292,62,80581,1,8,0:0:0:0:
292,62,80656,1,8,0:0:0:0:
285,98,80731,1,8,0:0:0:0:
276,56,81031,1,8,0:0:0:0:
210,60,81331,1,8,0:0:0:0:
445,110,81631,1,0,0:0:0:0:
286,99,81931,1,8,0:0:0:0:
286,99,82081,1,8,0:0:0:0:
250,56,82156,1,8,0:0:0:0:
250,56,82231,1,8,0:0:0:0:
250,56,82381,1,0,0:0:0:0:
250,56,82531,1,8,0:0:0:0:
286,99,82681,1,8,0:0:0:0:
286,99,82831,1,0,0:0:0:0:
272,118,82981,1,8,0:0:0:0:
272,118,83056,1,8,0:0:0:0:
272,118,83206,1,0,0:0:0:0:
272,118,83281,1,0,0:0:0:0:
241,55,83431,1,8,0:0:0:0:
288,88,84031,1,0,0:0:0:0:
390,260,84181,1,8,0:0:0:0:
390,260,84256,1,8,0:0:0:0:
184,173,84406,1,0,0:0:0:0:
184,173,84481,1,0,0:0:0:0:
184,173,84631,1,8,0:0:0:0:
236,34,84781,1,0,0:0:0:0:
246,91,84931,1,8,0:0:0:0:
192,71,85006,1,8,0:0:0:0:
192,71,85081,1,8,0:0:0:0:
192,71,85231,1,0,0:0:0:0:
357,128,85381,1,0,0:0:0:0:
357,128,85531,1,8,0:0:0:0:
357,128,85681,1,0,0:0:0:0:
357,128,85756,1,0,0:0:0:0:
357,128,85906,1,0,0:0:0:0:
357,128,85981,1,0,0:0:0:0:
365,126,86131,1,8,0:0:0:0:
286,111,86431,1,0,0:0:0:0:
330,76,86581,1,8,0:0:0:0:
330,76,86731,1,8,0:0:0:0:
252,80,86881,1,0,0:0:0:0:
252,80,86956,1,0,0:0:0:0:
252,80,87031,1,0,0:0:0:0:
259,78,87181,1,8,0:0:0:0:
259,78,87256,1,8,0:0:0:0:
262,77,87406,1,8,0:0:0:0:
262,77,87481,1,8,0:0:0:0:
205,178,87631,1,4,0:0:0:0:
208,83,87931,1,8,0:0:0:0:
208,83,88231,1,0,0:0:0:0:
391,202,88306,1,0,0:0:0:0:
141,48,88381,1,0,0:0:0:0:
268,49,88531,1,8,0:0:0:0:
268,49,88681,1,8,0:0:0:0:
268,49,88831,1,0,0:0:0:0:
212,57,89131,1,8,0:0:0:0:
227,54,89431,1,0,0:0:0:0:
227,54,89731,1,0,0:0:0:0:
227,54,89881,1,8,0:0:0:0:
227,54,90031,1,8,0:0:0:0:
227,60,90106,1,8,0:0:0:0:
227,54,90181,1,8,0:0:0:0:
282,75,90331,1,0,0:0:0:0:
227,60,90631,1,8,0:0:0:0:
227,60,90706,1,8,0:0:0:0:
203,73,90781,1,8,0:0:0:0:
203,73,90931,1,0,0:0:0:0:
161,69,91231,1,8,0:0:0:0:
161,69,91306,1,8,0:0:0:0:
171,64,91381,1,8,0:0:0:0:
171,64,91531,1,0,0:0:0:0:
258,51,91681,1,0,0:0:0:0:
309,55,91756,1,0,0:0:0:0:
309,55,91831,1,0,0:0:0:0:
309,55,91981,1,8,0:0:0:0:
233,54,92131,1,8,0:0:0:0:
281,98,92206,1,8,0:0:0:0:
254,69,92281,1,8,0:0:0:0:
301,227,92431,1,4,0:0:0:0:
389,160,92656,1,4,0:0:0:0:
389,160,92881,1,4,0:0:0:0:
389,160,93631,1,4,0:0:0:0:
389,160,93856,1,4,0:0:0:0:
389,160,94081,1,4,0:0:0:0:
223,148,94381,1,8,0:0:0:0:
306,151,94456,1,8,0:0:0:0:
306,151,94531,1,8,0:0:0:0:
306,151,94681,1,8,0:0:0:0:
389,160,94831,1,4,0:0:0:0:
200,109,95131,1,0,0:0:0:0:
200,109,95281,1,8,0:0:0:0:
389,160,95431,1,4,0:0:0:0:
200,109,95731,1,0,0:0:0:0:
235,64,95881,1,8,0:0:0:0:
235,64,96031,1,4,0:0:0:0:
364,75,96181,1,8,0:0:0:0:
364,75,96331,1,4,0:0:0:0:
233,44,96631,1,0,0:0:0:0:
233,44,96706,1,0,0:0:0:0:
233,44,96781,1,0,0:0:0:0:
233,44,96931,1,8,0:0:0:0:
233,44,97006,1,8,0:0:0:0:
233,44,97081,1,8,0:0:0:0:
163,235,97231,1,4,0:0:0:0:
314,210,97831,1,8,0:0:0:0:
314,210,98131,1,8,0:0:0:0:
314,210,98431,1,0,0:0:0:0:
314,210,98581,1,8,0:0:0:0:
314,210,98731,1,0,0:0:0:0:
314,210,98881,1,0,0:0:0:0:
314,210,99031,1,8,0:0:0:0:
314,210,99181,1,8,0:0:0:0:
274,71,99256,1,8,0:0:0:0:
274,71,99331,1,8,0:0:0:0:
278,189,99481,1,0,0:0:0:0:
259,228,99632,1,4,0:0:0:0:
327,146,99931,1,8,0:0:0:0:
336,251,100231,1,0,0:0:0:0:
310,148,100531,1,8,0:0:0:0:
310,148,100681,1,0,0:0:0:0:
310,148,100831,1,0,0:0:0:0:
167,136,100981,1,8,0:0:0:0:
167,136,101056,1,8,0:0:0:0:
181,130,101206,1,8,0:0:0:0:
181,130,101281,1,8,0:0:0:0:
355,266,101431,1,0,0:0:0:0:
355,266,101731,1,8,0:0:0:0:
355,266,101806,1,8,0:0:0:0:
355,266,101881,1,8,0:0:0:0:
355,266,102031,1,0,0:0:0:0:
355,266,102331,1,8,0:0:0:0:
355,266,102631,1,0,0:0:0:0:
355,266,102931,1,8,0:0:0:0:
261,182,103081,1,8,0:0:0:0:
236,177,103231,1,8,0:0:0:0:
236,177,103381,1,0,0:0:0:0:
238,177,103456,1,0,0:0:0:0:
238,177,103606,1,8,0:0:0:0:
238,177,103681,1,8,0:0:0:0:
238,177,103831,1,0,0:0:0:0:
238,177,103981,1,8,0:0:0:0:
238,177,104131,1,8,0:0:0:0:
210,68,104206,1,8,0:0:0:0:
210,68,104281,1,8,0:0:0:0:
238,177,104431,1,0,0:0:0:0:
327,146,104731,1,8,0:0:0:0:
336,251,105031,1,8,0:0:0:0:
310,148,105331,1,8,0:0:0:0:
310,148,105481,1,0,0:0:0:0:
310,148,105631,1,0,0:0:0:0:
167,136,105781,1,0,0:0:0:0:
363,235,105931,1,8,0:0:0:0:
181,130,106081,1,8,0:0:0:0:
355,266,106231,1,0,0:0:0:0:
227,42,106306,1,0,0:0:0:0:
355,266,106381,1,0,0:0:0:0:
355,266,106531,1,8,0:0:0:0:
355,266,106831,1,4,0:0:0:0:
310,98,107431,1,8,0:0:0:0:
504,306,107581,1,8,0:0:0:0:
504,306,107731,1,0,0:0:0:0:
482,291,107881,1,0,0:0:0:0:
504,306,108031,1,8,0:0:0:0:
482,291,108181,1,0,0:0:0:0:
482,291,108256,1,0,0:0:0:0:
346,233,108406,1,8,0:0:0:0:
346,233,108481,1,8,0:0:0:0:
275,228,108631,1,0,0:0:0:0:
275,228,108781,1,8,0:0:0:0:
275,228,108856,1,8,0:0:0:0:
275,228,108931,1,8,0:0:0:0:
321,246,109231,1,4,0:0:0:0:
188,180,109531,1,0,0:0:0:0:
188,180,109831,1,0,0:0:0:0:
361,251,109981,1,8,0:0:0:0:
361,251,110281,1,8,0:0:0:0:
307,191,110431,1,4,0:0:0:0:
307,191,110731,1,8,0:0:0:0:
232,55,110881,1,0,0:0:0:0:
307,191,111031,1,8,0:0:0:0:
247,173,111181,1,0,0:0:0:0:
247,173,111256,1,0,0:0:0:0:
247,173,111406,1,8,0:0:0:0:
301,129,111481,1,8,0:0:0:0:
247,173,111631,1,4,0:0:0:0:
247,173,111931,1,0,0:0:0:0:
330,138,112231,1,0,0:0:0:0:
330,138,112531,1,8,0:0:0:0:
330,138,112681,1,8,0:0:0:0:
330,138,112831,1,4,0:0:0:0:
227,65,112981,1,8,0:0:0:0:
227,65,113056,1,8,0:0:0:0:
227,65,113206,1,0,0:0:0:0:
227,65,113281,1,0,0:0:0:0:
227,65,113431,1,8,0:0:0:0:
192,20,113731,1,8,0:0:0:0:
232,25,113806,1,8,0:0:0:0:
227,65,113881,1,8,0:0:0:0:
227,65,114031,1,4,0:0:0:0:
217,71,114181,1,8,0:0:0:0:
217,71,114331,1,8,0:0:0:0:
217,71,114481,1,8,0:0:0:0:
319,262,114631,1,4,0:0:0:0:
234,208,114931,1,8,0:0:0:0:
234,208,115081,1,8,0:0:0:0:
234,208,115231,1,4,0:0:0:0:
392,262,115381,1,8,0:0:0:0:
392,262,115531,1,8,0:0:0:0:
392,262,115681,1,0,0:0:0:0:
392,262,115831,1,8,0:0:0:0:
165,26,115906,1,8,0:0:0:0:
336,80,115981,1,8,0:0:0:0:
249,33,116131,1,8,0:0:0:0:
392,262,116206,1,8,0:0:0:0:
257,63,116281,1,8,0:0:0:0:
238,236,116432,1,4,0:0:0:0:
343,287,116731,1,0,0:0:0:0:
197,188,116881,1,8,0:0:0:0:
197,188,117181,1,0,0:0:0:0:
197,188,117481,1,0,0:0:0:0:
197,188,117631,1,8,0:0:0:0:
185,177,117931,1,0,0:0:0:0:
185,177,118081,1,8,0:0:0:0:
185,177,118381,1,8,0:0:0:0:
185,177,118681,1,0,0:0:0:0:
185,177,118831,1,12,0:0:0:0:
379,217,118981,1,8,0:0:0:0:
234,169,119131,1,0,0:0:0:0:
270,124,119281,1,8,0:0:0:0:
270,124,119581,1,8,0:0:0:0:
423,230,119731,1,0,0:0:0:0:
423,230,119881,1,0,0:0:0:0:
174,126,120031,1,8,0:0:0:0:
330,215,120181,1,0,0:0:0:0:
279,46,120256,1,0,0:0:0:0:
330,215,120331,1,0,0:0:0:0:
190,138,120481,1,8,0:0:0:0:
366,242,120781,1,8,0:0:0:0:
223,202,121231,1,4,0:0:0:0:
318,241,121381,1,8,0:0:0:0:
283,9,121456,1,8,0:0:0:0:
283,9,121531,1,8,0:0:0:0:
297,168,121681,1,4,0:0:0:0:
