osu file format v14

[General]
AudioFilename: systemerror.ogg
AudioLeadIn: 0
PreviewTime: 240000
Countdown: 0
SampleSet: Soft
StackLeniency: 0.7
Mode: 3
LetterboxInBreaks: 0
SpecialStyle: 0
WidescreenStoryboard: 1

[Editor]
DistanceSpacing: 0.1
BeatDivisor: 4
GridSize: 32
TimelineZoom: 1.3

[Metadata]
Title:SYSTEM ERROR
TitleUnicode:SYSTEM ERROR
Artist:Laur
ArtistUnicode:Laur
Creator:Leeju
Version:Obsession: Nyctophilia
Source:
Tags:mwc mania world cup 7k 2023 semifinals tiebreaker instrumental electronic frenchcore psytrance hitech last labyrinth collapse LLCD-003 M3-2021
BeatmapID:4001513
BeatmapSetID:1931476

[Difficulty]
HPDrainRate:8
CircleSize:7
OverallDifficulty:6.5
ApproachRate:5
SliderMultiplier:1.4
SliderTickRate:1

[Events]
//Background and Video events
0,0,"FmV2SYiakAYNdLR.jpg",0,0
//Break Periods
//Storyboard Layer 0 (Background)
//Storyboard Layer 1 (Fail)
//Storyboard Layer 2 (Pass)
//Storyboard Layer 3 (Foreground)
//Storyboard Layer 4 (Overlay)
//Storyboard Sound Samples

[TimingPoints]
0,300,4,2,1,80,1,0

[HitObjects]
36,192,300,5,0,0:0:0:0:
109,192,318,1,0,0:0:0:0:
182,192,337,1,0,0:0:0:0:
475,192,450,1,0,0:0:0:0:
402,192,468,1,0,0:0:0:0:
329,192,487,1,0,0:0:0:0:
182,192,600,1,0,0:0:0:0:
109,192,618,1,0,0:0:0:0:
36,192,637,1,0,0:0:0:0:
329,192,750,1,0,0:0:0:0:
402,192,768,1,0,0:0:0:0:
475,192,787,1,0,0:0:0:0:
36,192,900,1,0,0:0:0:0:
109,192,918,1,0,0:0:0:0:
182,192,937,1,0,0:0:0:0:
475,192,1050,1,0,0:0:0:0:
402,192,1068,1,0,0:0:0:0:
329,192,1087,1,0,0:0:0:0:
36,192,1200,1,0,0:0:0:0:
109,192,1218,1,0,0:0:0:0:
256,192,1275,1,0,0:0:0:0:
475,192,1350,1,0,0:0:0:0:
402,192,1368,1,0,0:0:0:0:
182,192,1425,1,0,0:0:0:0:
36,192,1500,1,0,0:0:0:0:
109,192,1518,1,0,0:0:0:0:
329,192,1575,1,0,0:0:0:0:
475,192,1650,1,0,0:0:0:0:
402,192,1668,1,0,0:0:0:0:
256,192,1725,1,0,0:0:0:0:
36,192,1800,1,0,0:0:0:0:
109,192,1818,1,0,0:0:0:0:
329,192,1875,1,0,0:0:0:0:
475,192,1950,1,0,0:0:0:0:
402,192,1968,1,0,0:0:0:0:
182,192,2025,1,0,0:0:0:0:
36,192,2100,1,0,0:0:0:0:
109,192,2118,1,0,0:0:0:0:
256,192,2175,1,0,0:0:0:0:
475,192,2250,1,0,0:0:0:0:
402,192,2268,1,0,0:0:0:0:
182,192,2325,1,0,0:0:0:0:
109,192,2400,1,0,0:0:0:0:
329,192,2400,1,0,0:0:0:0:
475,192,2400,1,0,0:0:0:0:
36,192,2400,128,0,3750:0:0:0:0:
182,192,3300,128,0,3375:0:0:0:0:
109,192,3600,128,0,3900:0:0:0:0:
402,192,3675,128,0,3750:0:0:0:0:
256,192,3750,128,0,4350:0:0:0:0:
36,192,4050,128,0,4125:0:0:0:0:
402,192,4200,128,0,4650:0:0:0:0:
475,192,4200,1,0,0:0:0:0:
182,192,4275,128,0,4350:0:0:0:0:
475,192,4500,128,0,5550:0:0:0:0:
109,192,4500,1,0,0:0:0:0:
36,192,4500,1,0,0:0:0:0:
256,192,4500,1,0,0:0:0:0:
329,192,4800,1,0,0:0:0:0:
402,192,4800,1,0,0:0:0:0:
182,192,4800,1,0,0:0:0:0:
36,192,4800,1,0,0:0:0:0:
256,192,5025,128,0,5100:0:0:0:0:
109,192,5250,1,0,0:0:0:0:
36,192,5400,1,0,0:0:0:0:
182,192,5400,128,0,5475:0:0:0:0:
329,192,5550,128,0,6000:0:0:0:0:
256,192,5700,1,0,0:0:0:0:
402,192,5700,1,0,0:0:0:0:
475,192,5700,1,0,0:0:0:0:
36,192,6000,128,0,7050:0:0:0:0:
182,192,6000,1,0,0:0:0:0:
475,192,6000,1,0,0:0:0:0:
109,192,6000,1,0,0:0:0:0:
402,192,6075,1,0,0:0:0:0:
256,192,6150,1,0,0:0:0:0:
402,192,6225,1,0,0:0:0:0:
475,192,6300,1,0,0:0:0:0:
109,192,6300,1,0,0:0:0:0:
182,192,6375,1,0,0:0:0:0:
329,192,6450,1,0,0:0:0:0:
182,192,6525,1,0,0:0:0:0:
402,192,6600,1,0,0:0:0:0:
109,192,6600,1,0,0:0:0:0:
475,192,6600,1,0,0:0:0:0:
329,192,6675,1,0,0:0:0:0:
182,192,6750,1,0,0:0:0:0:
329,192,6825,1,0,0:0:0:0:
402,192,6900,1,0,0:0:0:0:
475,192,6900,1,0,0:0:0:0:
109,192,6900,128,0,7500:0:0:0:0:
182,192,6975,1,0,0:0:0:0:
329,192,7050,1,0,0:0:0:0:
256,192,7125,1,0,0:0:0:0:
475,192,7200,1,0,0:0:0:0:
402,192,7200,1,0,0:0:0:0:
329,192,7275,1,0,0:0:0:0:
182,192,7350,128,0,7800:0:0:0:0:
475,192,7350,1,0,0:0:0:0:
329,192,7425,1,0,0:0:0:0:
475,192,7500,1,0,0:0:0:0:
329,192,7575,1,0,0:0:0:0:
475,192,7650,1,0,0:0:0:0:
109,192,7650,128,0,8100:0:0:0:0:
36,192,7650,1,0,0:0:0:0:
329,192,7725,1,0,0:0:0:0:
475,192,7800,1,0,0:0:0:0:
329,192,7875,1,0,0:0:0:0:
475,192,7950,1,0,0:0:0:0:
329,192,8025,1,0,0:0:0:0:
36,192,8100,128,0,8850:0:0:0:0:
475,192,8100,1,0,0:0:0:0:
402,192,8100,1,0,0:0:0:0:
182,192,8100,1,0,0:0:0:0:
329,192,8175,1,0,0:0:0:0:
475,192,8250,1,0,0:0:0:0:
329,192,8325,1,0,0:0:0:0:
475,192,8400,1,0,0:0:0:0:
256,192,8475,1,0,0:0:0:0:
402,192,8550,1,0,0:0:0:0:
182,192,8625,1,0,0:0:0:0:
329,192,8700,1,0,0:0:0:0:
475,192,8700,1,0,0:0:0:0:
109,192,8775,1,0,0:0:0:0:
256,192,8850,1,0,0:0:0:0:
402,192,8925,1,0,0:0:0:0:
182,192,9000,1,0,0:0:0:0:
329,192,9000,128,0,9600:0:0:0:0:
109,192,9000,1,0,0:0:0:0:
36,192,9075,1,0,0:0:0:0:
182,192,9150,1,0,0:0:0:0:
36,192,9225,1,0,0:0:0:0:
182,192,9300,1,0,0:0:0:0:
402,192,9300,1,0,0:0:0:0:
475,192,9300,1,0,0:0:0:0:
36,192,9375,1,0,0:0:0:0:
182,192,9450,1,0,0:0:0:0:
36,192,9525,1,0,0:0:0:0:
475,192,9600,128,0,11100:0:0:0:0:
256,192,9600,1,0,0:0:0:0:
402,192,9600,1,0,0:0:0:0:
109,192,9675,1,0,0:0:0:0:
256,192,9750,1,0,0:0:0:0:
109,192,9825,1,0,0:0:0:0:
256,192,9900,1,0,0:0:0:0:
109,192,9975,1,0,0:0:0:0:
256,192,10050,1,0,0:0:0:0:
402,192,10050,1,0,0:0:0:0:
109,192,10125,1,0,0:0:0:0:
329,192,10200,1,0,0:0:0:0:
36,192,10200,1,0,0:0:0:0:
182,192,10275,1,0,0:0:0:0:
329,192,10350,1,0,0:0:0:0:
182,192,10425,1,0,0:0:0:0:
329,192,10500,1,0,0:0:0:0:
402,192,10500,1,0,0:0:0:0:
36,192,10500,1,0,0:0:0:0:
182,192,10575,1,0,0:0:0:0:
329,192,10650,1,0,0:0:0:0:
182,192,10725,1,0,0:0:0:0:
402,192,10800,1,0,0:0:0:0:
109,192,10800,1,0,0:0:0:0:
256,192,10875,1,0,0:0:0:0:
402,192,10950,1,0,0:0:0:0:
36,192,10950,128,0,11550:0:0:0:0:
256,192,11025,1,0,0:0:0:0:
402,192,11100,1,0,0:0:0:0:
109,192,11100,1,0,0:0:0:0:
256,192,11175,1,0,0:0:0:0:
402,192,11250,1,0,0:0:0:0:
256,192,11325,1,0,0:0:0:0:
109,192,11400,128,0,11700:0:0:0:0:
475,192,11400,1,0,0:0:0:0:
329,192,11475,1,0,0:0:0:0:
182,192,11550,128,0,12000:0:0:0:0:
402,192,11700,1,0,0:0:0:0:
256,192,11700,1,0,0:0:0:0:
475,192,11700,1,0,0:0:0:0:
36,192,11700,1,0,0:0:0:0:
329,192,11850,1,0,0:0:0:0:
256,192,12000,1,0,0:0:0:0:
402,192,12000,1,0,0:0:0:0:
475,192,12000,1,0,0:0:0:0:
109,192,12000,1,0,0:0:0:0:
36,192,12000,1,0,0:0:0:0:
329,192,12300,1,0,0:0:0:0:
109,192,12300,1,0,0:0:0:0:
475,192,12300,1,0,0:0:0:0:
256,192,12375,1,0,0:0:0:0:
182,192,12450,1,0,0:0:0:0:
402,192,12450,1,0,0:0:0:0:
329,192,12600,1,0,0:0:0:0:
36,192,12600,1,0,0:0:0:0:
475,192,12600,1,0,0:0:0:0:
109,192,12600,128,0,14175:0:0:0:0:
182,192,12825,1,0,0:0:0:0:
402,192,12825,1,0,0:0:0:0:
329,192,12900,1,0,0:0:0:0:
475,192,12900,1,0,0:0:0:0:
256,192,13125,1,0,0:0:0:0:
36,192,13125,1,0,0:0:0:0:
329,192,13200,1,0,0:0:0:0:
182,192,13200,1,0,0:0:0:0:
402,192,13425,1,0,0:0:0:0:
256,192,13425,1,0,0:0:0:0:
329,192,13500,1,0,0:0:0:0:
475,192,13500,1,0,0:0:0:0:
36,192,13500,1,0,0:0:0:0:
182,192,13650,1,0,0:0:0:0:
402,192,13650,1,0,0:0:0:0:
329,192,13725,1,0,0:0:0:0:
256,192,13800,1,0,0:0:0:0:
475,192,13800,1,0,0:0:0:0:
36,192,13800,1,0,0:0:0:0:
256,192,14025,128,0,14550:0:0:0:0:
402,192,14025,1,0,0:0:0:0:
329,192,14100,1,0,0:0:0:0:
36,192,14100,1,0,0:0:0:0:
182,192,14100,1,0,0:0:0:0:
402,192,14200,1,0,0:0:0:0:
475,192,14200,1,0,0:0:0:0:
329,192,14300,1,0,0:0:0:0:
182,192,14300,1,0,0:0:0:0:
109,192,14400,1,0,0:0:0:0:
36,192,14400,1,0,0:0:0:0:
475,192,14400,1,0,0:0:0:0:
402,192,14550,128,0,16200:0:0:0:0:
182,192,14550,1,0,0:0:0:0:
329,192,14700,1,0,0:0:0:0:
36,192,14700,1,0,0:0:0:0:
109,192,14850,1,0,0:0:0:0:
182,192,14868,1,0,0:0:0:0:
256,192,14887,1,0,0:0:0:0:
329,192,15000,1,0,0:0:0:0:
475,192,15000,1,0,0:0:0:0:
109,192,15000,1,0,0:0:0:0:
36,192,15000,1,0,0:0:0:0:
256,192,15225,1,0,0:0:0:0:
109,192,15225,1,0,0:0:0:0:
182,192,15300,1,0,0:0:0:0:
475,192,15300,1,0,0:0:0:0:
329,192,15450,1,0,0:0:0:0:
109,192,15600,1,0,0:0:0:0:
475,192,15600,1,0,0:0:0:0:
36,192,15600,1,0,0:0:0:0:
182,192,15675,1,0,0:0:0:0:
109,192,15750,1,0,0:0:0:0:
182,192,15825,1,0,0:0:0:0:
109,192,15900,1,0,0:0:0:0:
329,192,15900,1,0,0:0:0:0:
475,192,15900,1,0,0:0:0:0:
36,192,16050,128,0,16650:0:0:0:0:
256,192,16050,1,0,0:0:0:0:
182,192,16125,1,0,0:0:0:0:
329,192,16200,1,0,0:0:0:0:
475,192,16200,1,0,0:0:0:0:
109,192,16200,1,0,0:0:0:0:
402,192,16275,1,0,0:0:0:0:
256,192,16350,1,0,0:0:0:0:
109,192,16350,1,0,0:0:0:0:
182,192,16425,1,0,0:0:0:0:
475,192,16500,128,0,18750:0:0:0:0:
402,192,16500,1,0,0:0:0:0:
256,192,16575,1,0,0:0:0:0:
109,192,16650,1,0,0:0:0:0:
329,192,16725,1,0,0:0:0:0:
36,192,16800,1,0,0:0:0:0:
402,192,16800,1,0,0:0:0:0:
182,192,16875,1,0,0:0:0:0:
36,192,16950,1,0,0:0:0:0:
182,192,17025,1,0,0:0:0:0:
36,192,17100,1,0,0:0:0:0:
329,192,17100,1,0,0:0:0:0:
182,192,17175,1,0,0:0:0:0:
36,192,17250,1,0,0:0:0:0:
182,192,17325,1,0,0:0:0:0:
36,192,17400,1,0,0:0:0:0:
329,192,17400,1,0,0:0:0:0:
402,192,17400,1,0,0:0:0:0:
182,192,17475,1,0,0:0:0:0:
36,192,17550,1,0,0:0:0:0:
182,192,17625,1,0,0:0:0:0:
36,192,17700,1,0,0:0:0:0:
402,192,17700,1,0,0:0:0:0:
329,192,17700,1,0,0:0:0:0:
256,192,17775,1,0,0:0:0:0:
109,192,17850,1,0,0:0:0:0:
329,192,17925,1,0,0:0:0:0:
182,192,18000,1,0,0:0:0:0:
36,192,18000,1,0,0:0:0:0:
402,192,18075,1,0,0:0:0:0:
256,192,18150,1,0,0:0:0:0:
109,192,18225,1,0,0:0:0:0:
256,192,18300,1,0,0:0:0:0:
329,192,18300,1,0,0:0:0:0:
109,192,18375,1,0,0:0:0:0:
256,192,18450,1,0,0:0:0:0:
109,192,18525,1,0,0:0:0:0:
329,192,18600,1,0,0:0:0:0:
36,192,18600,128,0,19200:0:0:0:0:
402,192,18600,1,0,0:0:0:0:
182,192,18675,1,0,0:0:0:0:
329,192,18750,1,0,0:0:0:0:
182,192,18825,1,0,0:0:0:0:
329,192,18900,1,0,0:0:0:0:
475,192,18900,1,0,0:0:0:0:
182,192,18975,1,0,0:0:0:0:
402,192,19050,1,0,0:0:0:0:
256,192,19125,1,0,0:0:0:0:
475,192,19200,1,0,0:0:0:0:
109,192,19200,128,0,19425:0:0:0:0:
329,192,19275,1,0,0:0:0:0:
182,192,19275,128,0,19350:0:0:0:0:
36,192,19350,128,0,19500:0:0:0:0:
475,192,19350,1,0,0:0:0:0:
182,192,19425,128,0,19650:0:0:0:0:
329,192,19425,1,0,0:0:0:0:
109,192,19500,128,0,19950:0:0:0:0:
475,192,19500,1,0,0:0:0:0:
36,192,19575,128,0,20700:0:0:0:0:
329,192,19575,1,0,0:0:0:0:
475,192,19650,1,0,0:0:0:0:
329,192,19725,1,0,0:0:0:0:
182,192,19800,1,0,0:0:0:0:
402,192,19875,1,0,0:0:0:0:
256,192,19950,1,0,0:0:0:0:
402,192,20025,1,0,0:0:0:0:
256,192,20100,1,0,0:0:0:0:
402,192,20175,1,0,0:0:0:0:
256,192,20250,1,0,0:0:0:0:
109,192,20325,1,0,0:0:0:0:
329,192,20400,1,0,0:0:0:0:
182,192,20475,1,0,0:0:0:0:
329,192,20550,1,0,0:0:0:0:
182,192,20625,1,0,0:0:0:0:
475,192,20625,128,0,20850:0:0:0:0:
329,192,20700,1,0,0:0:0:0:
182,192,20775,1,0,0:0:0:0:
329,192,20850,1,0,0:0:0:0:
182,192,20925,1,0,0:0:0:0:
329,192,21000,1,0,0:0:0:0:
36,192,21000,128,0,21225:0:0:0:0:
182,192,21075,1,0,0:0:0:0:
329,192,21150,1,0,0:0:0:0:
475,192,21150,128,0,21375:0:0:0:0:
182,192,21225,1,0,0:0:0:0:
329,192,21300,1,0,0:0:0:0:
182,192,21375,1,0,0:0:0:0:
329,192,21450,1,0,0:0:0:0:
182,192,21525,1,0,0:0:0:0:
256,192,21600,1,0,0:0:0:0:
475,192,21600,1,0,0:0:0:0:
109,192,21600,1,0,0:0:0:0:
36,192,21600,1,0,0:0:0:0:
402,192,21600,128,0,22050:0:0:0:0:
182,192,21900,128,0,22050:0:0:0:0:
36,192,21900,1,0,0:0:0:0:
329,192,22050,128,0,22200:0:0:0:0:
475,192,22200,128,0,22650:0:0:0:0:
36,192,22200,1,0,0:0:0:0:
256,192,22425,128,0,22650:0:0:0:0:
36,192,22500,1,0,0:0:0:0:
109,192,22650,128,0,22800:0:0:0:0:
36,192,22800,1,0,0:0:0:0:
329,192,22800,128,0,23250:0:0:0:0:
475,192,22950,128,0,23100:0:0:0:0:
182,192,23100,128,0,23550:0:0:0:0:
36,192,23100,1,0,0:0:0:0:
36,192,23400,1,0,0:0:0:0:
36,192,23700,1,0,0:0:0:0:
36,192,23850,1,0,0:0:0:0:
36,192,24000,1,0,0:0:0:0:
329,192,24000,128,0,24300:0:0:0:0:
182,192,24150,128,0,24300:0:0:0:0:
402,192,24300,128,0,24600:0:0:0:0:
36,192,24300,1,0,0:0:0:0:
256,192,24450,128,0,24600:0:0:0:0:
475,192,24600,128,0,24825:0:0:0:0:
36,192,24600,1,0,0:0:0:0:
475,192,24900,128,0,25800:0:0:0:0:
36,192,24900,1,0,0:0:0:0:
256,192,24900,1,0,0:0:0:0:
256,192,25050,1,0,0:0:0:0:
36,192,25200,1,0,0:0:0:0:
329,192,25200,1,0,0:0:0:0:
182,192,25200,1,0,0:0:0:0:
182,192,25350,1,0,0:0:0:0:
329,192,25350,1,0,0:0:0:0:
36,192,25500,1,0,0:0:0:0:
182,192,25650,1,0,0:0:0:0:
109,192,25650,1,0,0:0:0:0:
109,192,25725,1,0,0:0:0:0:
182,192,25725,1,0,0:0:0:0:
36,192,25800,1,0,0:0:0:0:
256,192,25800,1,0,0:0:0:0:
329,192,25800,1,0,0:0:0:0:
402,192,25800,1,0,0:0:0:0:
36,192,25950,1,0,0:0:0:0:
109,192,25950,1,0,0:0:0:0:
329,192,25950,1,0,0:0:0:0:
402,192,25950,1,0,0:0:0:0:
475,192,25950,1,0,0:0:0:0:
182,192,26100,1,0,0:0:0:0:
109,192,26100,1,0,0:0:0:0:
36,192,26100,1,0,0:0:0:0:
402,192,26100,1,0,0:0:0:0:
475,192,26100,1,0,0:0:0:0:
256,192,26250,1,0,0:0:0:0:
182,192,26250,1,0,0:0:0:0:
109,192,26250,1,0,0:0:0:0:
36,192,26250,1,0,0:0:0:0:
475,192,26250,1,0,0:0:0:0:
329,192,26400,1,0,0:0:0:0:
256,192,26400,1,0,0:0:0:0:
182,192,26400,1,0,0:0:0:0:
36,192,26400,1,0,0:0:0:0:
475,192,26400,1,0,0:0:0:0:
109,192,26400,128,0,26850:0:0:0:0:
402,192,26700,128,0,27000:0:0:0:0:
475,192,26700,1,0,0:0:0:0:
256,192,26850,128,0,27150:0:0:0:0:
109,192,27000,128,0,27300:0:0:0:0:
475,192,27000,1,0,0:0:0:0:
329,192,27300,128,0,27600:0:0:0:0:
475,192,27300,1,0,0:0:0:0:
182,192,27450,128,0,27750:0:0:0:0:
36,192,27600,128,0,27900:0:0:0:0:
475,192,27600,1,0,0:0:0:0:
256,192,27750,128,0,28050:0:0:0:0:
402,192,27900,128,0,28350:0:0:0:0:
475,192,27900,1,0,0:0:0:0:
475,192,28200,1,0,0:0:0:0:
475,192,28500,1,0,0:0:0:0:
475,192,28650,1,0,0:0:0:0:
475,192,28800,1,0,0:0:0:0:
182,192,28800,128,0,29100:0:0:0:0:
329,192,28950,128,0,29100:0:0:0:0:
109,192,29100,128,0,29400:0:0:0:0:
475,192,29100,1,0,0:0:0:0:
256,192,29250,128,0,29400:0:0:0:0:
36,192,29400,128,0,29625:0:0:0:0:
475,192,29400,1,0,0:0:0:0:
36,192,29700,128,0,30600:0:0:0:0:
475,192,29700,1,0,0:0:0:0:
256,192,29700,1,0,0:0:0:0:
256,192,29850,1,0,0:0:0:0:
475,192,30000,1,0,0:0:0:0:
329,192,30000,1,0,0:0:0:0:
182,192,30000,1,0,0:0:0:0:
329,192,30150,1,0,0:0:0:0:
182,192,30150,1,0,0:0:0:0:
475,192,30300,1,0,0:0:0:0:
256,192,30300,1,0,0:0:0:0:
329,192,30450,1,0,0:0:0:0:
402,192,30450,1,0,0:0:0:0:
329,192,30525,1,0,0:0:0:0:
402,192,30525,1,0,0:0:0:0:
475,192,30600,1,0,0:0:0:0:
256,192,30600,1,0,0:0:0:0:
182,192,30600,1,0,0:0:0:0:
109,192,30600,1,0,0:0:0:0:
475,192,30750,1,0,0:0:0:0:
402,192,30750,1,0,0:0:0:0:
182,192,30750,1,0,0:0:0:0:
109,192,30750,1,0,0:0:0:0:
36,192,30750,1,0,0:0:0:0:
329,192,30900,1,0,0:0:0:0:
402,192,30900,1,0,0:0:0:0:
475,192,30900,1,0,0:0:0:0:
109,192,30900,1,0,0:0:0:0:
36,192,30900,1,0,0:0:0:0:
256,192,31050,1,0,0:0:0:0:
329,192,31050,1,0,0:0:0:0:
402,192,31050,1,0,0:0:0:0:
475,192,31050,1,0,0:0:0:0:
36,192,31050,1,0,0:0:0:0:
256,192,31200,128,0,31312:0:0:0:0:
182,192,31200,128,0,31275:0:0:0:0:
329,192,31200,128,0,31275:0:0:0:0:
109,192,31200,1,0,0:0:0:0:
402,192,31200,1,0,0:0:0:0:
36,192,31350,1,0,0:0:0:0:
475,192,31350,1,0,0:0:0:0:
182,192,31425,1,0,0:0:0:0:
329,192,31425,1,0,0:0:0:0:
402,192,31500,1,0,0:0:0:0:
475,192,31500,1,0,0:0:0:0:
109,192,31500,1,0,0:0:0:0:
36,192,31500,1,0,0:0:0:0:
36,192,31650,1,0,0:0:0:0:
256,192,31650,1,0,0:0:0:0:
329,192,31725,1,0,0:0:0:0:
182,192,31800,1,0,0:0:0:0:
402,192,31800,1,0,0:0:0:0:
109,192,31818,1,0,0:0:0:0:
36,192,31837,1,0,0:0:0:0:
256,192,31950,1,0,0:0:0:0:
475,192,31950,1,0,0:0:0:0:
329,192,31950,1,0,0:0:0:0:
182,192,32100,1,0,0:0:0:0:
402,192,32100,1,0,0:0:0:0:
256,192,32100,1,0,0:0:0:0:
329,192,32250,1,0,0:0:0:0:
109,192,32250,1,0,0:0:0:0:
182,192,32250,1,0,0:0:0:0:
36,192,32400,1,0,0:0:0:0:
402,192,32400,1,0,0:0:0:0:
475,192,32400,1,0,0:0:0:0:
109,192,32418,1,0,0:0:0:0:
182,192,32437,1,0,0:0:0:0:
329,192,32475,1,0,0:0:0:0:
256,192,32550,1,0,0:0:0:0:
475,192,32550,1,0,0:0:0:0:
109,192,32625,1,0,0:0:0:0:
329,192,32700,1,0,0:0:0:0:
182,192,32700,1,0,0:0:0:0:
36,192,32700,1,0,0:0:0:0:
402,192,32775,1,0,0:0:0:0:
475,192,32775,1,0,0:0:0:0:
256,192,32850,1,0,0:0:0:0:
109,192,32850,1,0,0:0:0:0:
329,192,32925,1,0,0:0:0:0:
182,192,32925,1,0,0:0:0:0:
256,192,33000,1,0,0:0:0:0:
402,192,33000,1,0,0:0:0:0:
36,192,33000,1,0,0:0:0:0:
329,192,33150,1,0,0:0:0:0:
182,192,33150,1,0,0:0:0:0:
256,192,33300,1,0,0:0:0:0:
109,192,33300,1,0,0:0:0:0:
475,192,33300,1,0,0:0:0:0:
402,192,33300,1,0,0:0:0:0:
182,192,33375,1,0,0:0:0:0:
36,192,33375,1,0,0:0:0:0:
329,192,33450,1,0,0:0:0:0:
402,192,33450,1,0,0:0:0:0:
256,192,33525,1,0,0:0:0:0:
109,192,33525,1,0,0:0:0:0:
402,192,33600,1,0,0:0:0:0:
475,192,33600,1,0,0:0:0:0:
329,192,33600,1,0,0:0:0:0:
36,192,33600,1,0,0:0:0:0:
182,192,33675,1,0,0:0:0:0:
256,192,33750,1,0,0:0:0:0:
109,192,33750,1,0,0:0:0:0:
402,192,33750,1,0,0:0:0:0:
329,192,33825,1,0,0:0:0:0:
475,192,33900,1,0,0:0:0:0:
182,192,33900,1,0,0:0:0:0:
36,192,33900,1,0,0:0:0:0:
256,192,33975,1,0,0:0:0:0:
402,192,34050,1,0,0:0:0:0:
329,192,34068,1,0,0:0:0:0:
109,192,34125,1,0,0:0:0:0:
182,192,34143,1,0,0:0:0:0:
475,192,34200,1,0,0:0:0:0:
36,192,34200,1,0,0:0:0:0:
256,192,34200,1,0,0:0:0:0:
402,192,34200,1,0,0:0:0:0:
182,192,34275,1,0,0:0:0:0:
475,192,34350,1,0,0:0:0:0:
329,192,34350,1,0,0:0:0:0:
109,192,34350,1,0,0:0:0:0:
402,192,34425,1,0,0:0:0:0:
256,192,34425,1,0,0:0:0:0:
182,192,34500,1,0,0:0:0:0:
36,192,34500,1,0,0:0:0:0:
329,192,34500,1,0,0:0:0:0:
475,192,34500,1,0,0:0:0:0:
256,192,34575,1,0,0:0:0:0:
109,192,34650,1,0,0:0:0:0:
402,192,34650,1,0,0:0:0:0:
182,192,34700,1,0,0:0:0:0:
256,192,34750,1,0,0:0:0:0:
329,192,34800,1,0,0:0:0:0:
36,192,34800,1,0,0:0:0:0:
475,192,34800,1,0,0:0:0:0:
182,192,34875,1,0,0:0:0:0:
36,192,34950,1,0,0:0:0:0:
402,192,34950,1,0,0:0:0:0:
109,192,34950,1,0,0:0:0:0:
256,192,35025,1,0,0:0:0:0:
182,192,35100,1,0,0:0:0:0:
402,192,35100,1,0,0:0:0:0:
475,192,35100,1,0,0:0:0:0:
109,192,35100,1,0,0:0:0:0:
36,192,35175,1,0,0:0:0:0:
182,192,35250,1,0,0:0:0:0:
329,192,35250,1,0,0:0:0:0:
402,192,35250,1,0,0:0:0:0:
475,192,35325,1,0,0:0:0:0:
256,192,35400,1,0,0:0:0:0:
109,192,35400,1,0,0:0:0:0:
36,192,35400,1,0,0:0:0:0:
329,192,35400,1,0,0:0:0:0:
402,192,35475,1,0,0:0:0:0:
182,192,35550,1,0,0:0:0:0:
329,192,35550,1,0,0:0:0:0:
109,192,35625,1,0,0:0:0:0:
256,192,35700,1,0,0:0:0:0:
182,192,35700,1,0,0:0:0:0:
475,192,35700,1,0,0:0:0:0:
402,192,35700,1,0,0:0:0:0:
36,192,35775,1,0,0:0:0:0:
329,192,35850,1,0,0:0:0:0:
402,192,35850,1,0,0:0:0:0:
109,192,35850,1,0,0:0:0:0:
182,192,35850,1,0,0:0:0:0:
475,192,35925,1,0,0:0:0:0:
256,192,36000,1,0,0:0:0:0:
109,192,36000,1,0,0:0:0:0:
36,192,36000,1,0,0:0:0:0:
329,192,36000,1,0,0:0:0:0:
182,192,36075,1,0,0:0:0:0:
109,192,36150,1,0,0:0:0:0:
402,192,36150,1,0,0:0:0:0:
329,192,36150,1,0,0:0:0:0:
475,192,36150,1,0,0:0:0:0:
256,192,36225,1,0,0:0:0:0:
182,192,36300,1,0,0:0:0:0:
402,192,36300,1,0,0:0:0:0:
475,192,36300,1,0,0:0:0:0:
36,192,36300,1,0,0:0:0:0:
329,192,36375,1,0,0:0:0:0:
475,192,36450,1,0,0:0:0:0:
402,192,36450,1,0,0:0:0:0:
109,192,36450,1,0,0:0:0:0:
36,192,36450,1,0,0:0:0:0:
256,192,36525,1,0,0:0:0:0:
329,192,36600,1,0,0:0:0:0:
182,192,36600,1,0,0:0:0:0:
36,192,36600,1,0,0:0:0:0:
402,192,36600,1,0,0:0:0:0:
475,192,36675,1,0,0:0:0:0:
109,192,36750,1,0,0:0:0:0:
36,192,36750,1,0,0:0:0:0:
256,192,36750,1,0,0:0:0:0:
329,192,36750,1,0,0:0:0:0:
402,192,36825,1,0,0:0:0:0:
475,192,36900,1,0,0:0:0:0:
182,192,36900,1,0,0:0:0:0:
109,192,36900,1,0,0:0:0:0:
36,192,36900,1,0,0:0:0:0:
256,192,36975,1,0,0:0:0:0:
329,192,37050,1,0,0:0:0:0:
109,192,37050,1,0,0:0:0:0:
36,192,37050,1,0,0:0:0:0:
402,192,37050,1,0,0:0:0:0:
182,192,37125,1,0,0:0:0:0:
256,192,37200,1,0,0:0:0:0:
402,192,37200,1,0,0:0:0:0:
475,192,37200,1,0,0:0:0:0:
36,192,37200,1,0,0:0:0:0:
182,192,37275,1,0,0:0:0:0:
109,192,37350,1,0,0:0:0:0:
329,192,37350,1,0,0:0:0:0:
402,192,37350,1,0,0:0:0:0:
475,192,37350,1,0,0:0:0:0:
256,192,37425,1,0,0:0:0:0:
182,192,37500,1,0,0:0:0:0:
402,192,37500,1,0,0:0:0:0:
475,192,37500,1,0,0:0:0:0:
36,192,37500,1,0,0:0:0:0:
329,192,37575,1,0,0:0:0:0:
109,192,37650,1,0,0:0:0:0:
402,192,37650,1,0,0:0:0:0:
475,192,37650,1,0,0:0:0:0:
36,192,37650,1,0,0:0:0:0:
256,192,37725,1,0,0:0:0:0:
329,192,37800,1,0,0:0:0:0:
182,192,37800,1,0,0:0:0:0:
36,192,37800,1,0,0:0:0:0:
402,192,37800,1,0,0:0:0:0:
475,192,37875,1,0,0:0:0:0:
256,192,37950,1,0,0:0:0:0:
109,192,37950,1,0,0:0:0:0:
36,192,37950,1,0,0:0:0:0:
182,192,37950,1,0,0:0:0:0:
402,192,38025,1,0,0:0:0:0:
329,192,38100,1,0,0:0:0:0:
182,192,38100,1,0,0:0:0:0:
475,192,38100,1,0,0:0:0:0:
109,192,38100,1,0,0:0:0:0:
256,192,38175,1,0,0:0:0:0:
109,192,38250,1,0,0:0:0:0:
36,192,38250,1,0,0:0:0:0:
402,192,38250,1,0,0:0:0:0:
475,192,38250,1,0,0:0:0:0:
256,192,38325,1,0,0:0:0:0:
182,192,38325,1,0,0:0:0:0:
402,192,38400,1,0,0:0:0:0:
475,192,38400,1,0,0:0:0:0:
329,192,38400,1,0,0:0:0:0:
182,192,38475,1,0,0:0:0:0:
109,192,38475,1,0,0:0:0:0:
36,192,38475,1,0,0:0:0:0:
256,192,38550,1,0,0:0:0:0:
402,192,38550,1,0,0:0:0:0:
475,192,38550,1,0,0:0:0:0:
182,192,38625,1,0,0:0:0:0:
109,192,38625,1,0,0:0:0:0:
36,192,38625,1,0,0:0:0:0:
329,192,38700,1,0,0:0:0:0:
402,192,38700,1,0,0:0:0:0:
475,192,38700,1,0,0:0:0:0:
256,192,38775,1,0,0:0:0:0:
109,192,38775,1,0,0:0:0:0:
36,192,38775,1,0,0:0:0:0:
329,192,38850,1,0,0:0:0:0:
475,192,38850,1,0,0:0:0:0:
402,192,38850,1,0,0:0:0:0:
182,192,38925,1,0,0:0:0:0:
109,192,38925,1,0,0:0:0:0:
36,192,38925,1,0,0:0:0:0:
256,192,39000,1,0,0:0:0:0:
329,192,39000,1,0,0:0:0:0:
402,192,39000,1,0,0:0:0:0:
475,192,39000,1,0,0:0:0:0:
182,192,39075,1,0,0:0:0:0:
109,192,39075,1,0,0:0:0:0:
36,192,39075,1,0,0:0:0:0:
329,192,39150,1,0,0:0:0:0:
402,192,39150,1,0,0:0:0:0:
475,192,39150,1,0,0:0:0:0:
256,192,39225,1,0,0:0:0:0:
182,192,39225,1,0,0:0:0:0:
109,192,39225,1,0,0:0:0:0:
329,192,39300,1,0,0:0:0:0:
402,192,39300,1,0,0:0:0:0:
475,192,39300,1,0,0:0:0:0:
36,192,39300,1,0,0:0:0:0:
256,192,39375,1,0,0:0:0:0:
182,192,39375,1,0,0:0:0:0:
402,192,39450,1,0,0:0:0:0:
475,192,39450,1,0,0:0:0:0:
109,192,39450,1,0,0:0:0:0:
329,192,39525,1,0,0:0:0:0:
256,192,39525,1,0,0:0:0:0:
36,192,39600,1,0,0:0:0:0:
475,192,39600,1,0,0:0:0:0:
109,192,39600,1,0,0:0:0:0:
182,192,39600,1,0,0:0:0:0:
402,192,39637,1,0,0:0:0:0:
329,192,39675,1,0,0:0:0:0:
182,192,39750,1,0,0:0:0:0:
475,192,39750,1,0,0:0:0:0:
109,192,39750,1,0,0:0:0:0:
329,192,39825,1,0,0:0:0:0:
256,192,39825,1,0,0:0:0:0:
475,192,39900,1,0,0:0:0:0:
36,192,39900,1,0,0:0:0:0:
402,192,39900,1,0,0:0:0:0:
109,192,39937,1,0,0:0:0:0:
182,192,39975,1,0,0:0:0:0:
329,192,40050,1,0,0:0:0:0:
36,192,40050,1,0,0:0:0:0:
402,192,40050,1,0,0:0:0:0:
182,192,40125,1,0,0:0:0:0:
256,192,40125,1,0,0:0:0:0:
109,192,40200,1,0,0:0:0:0:
36,192,40200,1,0,0:0:0:0:
475,192,40200,1,0,0:0:0:0:
402,192,40237,1,0,0:0:0:0:
329,192,40275,1,0,0:0:0:0:
182,192,40312,1,0,0:0:0:0:
109,192,40350,1,0,0:0:0:0:
36,192,40387,1,0,0:0:0:0:
256,192,40425,1,0,0:0:0:0:
182,192,40462,1,0,0:0:0:0:
109,192,40500,1,0,0:0:0:0:
329,192,40537,1,0,0:0:0:0:
256,192,40575,1,0,0:0:0:0:
182,192,40612,1,0,0:0:0:0:
402,192,40650,1,0,0:0:0:0:
329,192,40687,1,0,0:0:0:0:
256,192,40725,1,0,0:0:0:0:
182,192,40762,1,0,0:0:0:0:
109,192,40800,1,0,0:0:0:0:
475,192,45600,5,0,0:0:0:0:
402,192,45600,1,0,0:0:0:0:
256,192,45600,1,0,0:0:0:0:
36,192,45600,1,0,0:0:0:0:
182,192,45675,1,0,0:0:0:0:
109,192,45675,1,0,0:0:0:0:
329,192,45750,1,0,0:0:0:0:
402,192,45750,1,0,0:0:0:0:
256,192,45825,1,0,0:0:0:0:
36,192,45825,1,0,0:0:0:0:
402,192,45900,1,0,0:0:0:0:
475,192,45900,1,0,0:0:0:0:
329,192,45900,1,0,0:0:0:0:
182,192,45900,1,0,0:0:0:0:
109,192,45975,1,0,0:0:0:0:
36,192,45975,1,0,0:0:0:0:
402,192,46050,1,0,0:0:0:0:
256,192,46050,1,0,0:0:0:0:
36,192,46125,1,0,0:0:0:0:
109,192,46125,1,0,0:0:0:0:
329,192,46200,1,0,0:0:0:0:
182,192,46200,1,0,0:0:0:0:
475,192,46200,1,0,0:0:0:0:
256,192,46200,1,0,0:0:0:0:
402,192,46275,1,0,0:0:0:0:
109,192,46275,1,0,0:0:0:0:
256,192,46350,1,0,0:0:0:0:
36,192,46350,1,0,0:0:0:0:
182,192,46425,1,0,0:0:0:0:
329,192,46425,1,0,0:0:0:0:
402,192,46500,1,0,0:0:0:0:
475,192,46500,1,0,0:0:0:0:
109,192,46500,1,0,0:0:0:0:
36,192,46500,1,0,0:0:0:0:
182,192,46575,1,0,0:0:0:0:
329,192,46575,1,0,0:0:0:0:
256,192,46650,1,0,0:0:0:0:
475,192,46650,1,0,0:0:0:0:
36,192,46725,1,0,0:0:0:0:
109,192,46725,1,0,0:0:0:0:
182,192,46800,1,0,0:0:0:0:
329,192,46800,1,0,0:0:0:0:
402,192,46800,1,0,0:0:0:0:
475,192,46800,1,0,0:0:0:0:
256,192,46875,1,0,0:0:0:0:
36,192,46875,1,0,0:0:0:0:
402,192,46950,1,0,0:0:0:0:
182,192,46950,1,0,0:0:0:0:
329,192,47025,1,0,0:0:0:0:
109,192,47025,1,0,0:0:0:0:
256,192,47100,1,0,0:0:0:0:
36,192,47100,1,0,0:0:0:0:
475,192,47100,1,0,0:0:0:0:
402,192,47100,1,0,0:0:0:0:
109,192,47175,1,0,0:0:0:0:
182,192,47175,1,0,0:0:0:0:
329,192,47250,1,0,0:0:0:0:
402,192,47250,1,0,0:0:0:0:
256,192,47325,1,0,0:0:0:0:
182,192,47325,1,0,0:0:0:0:
402,192,47400,1,0,0:0:0:0:
475,192,47400,1,0,0:0:0:0:
109,192,47400,1,0,0:0:0:0:
36,192,47400,1,0,0:0:0:0:
182,192,47475,1,0,0:0:0:0:
329,192,47475,1,0,0:0:0:0:
109,192,47550,1,0,0:0:0:0:
402,192,47550,1,0,0:0:0:0:
475,192,47625,1,0,0:0:0:0:
256,192,47625,1,0,0:0:0:0:
329,192,47700,1,0,0:0:0:0:
182,192,47700,1,0,0:0:0:0:
109,192,47700,1,0,0:0:0:0:
36,192,47700,1,0,0:0:0:0:
402,192,47775,1,0,0:0:0:0:
475,192,47775,1,0,0:0:0:0:
256,192,47850,1,0,0:0:0:0:
182,192,47850,1,0,0:0:0:0:
329,192,47925,1,0,0:0:0:0:
402,192,47925,1,0,0:0:0:0:
109,192,48000,1,0,0:0:0:0:
36,192,48000,1,0,0:0:0:0:
256,192,48000,1,0,0:0:0:0:
475,192,48000,1,0,0:0:0:0:
402,192,48075,1,0,0:0:0:0:
182,192,48075,1,0,0:0:0:0:
329,192,48150,1,0,0:0:0:0:
109,192,48150,1,0,0:0:0:0:
256,192,48225,1,0,0:0:0:0:
36,192,48225,1,0,0:0:0:0:
329,192,48300,1,0,0:0:0:0:
182,192,48300,1,0,0:0:0:0:
402,192,48300,1,0,0:0:0:0:
475,192,48300,1,0,0:0:0:0:
109,192,48375,1,0,0:0:0:0:
36,192,48375,1,0,0:0:0:0:
256,192,48450,1,0,0:0:0:0:
402,192,48450,1,0,0:0:0:0:
182,192,48525,1,0,0:0:0:0:
109,192,48525,1,0,0:0:0:0:
329,192,48600,1,0,0:0:0:0:
402,192,48600,1,0,0:0:0:0:
475,192,48600,1,0,0:0:0:0:
36,192,48600,1,0,0:0:0:0:
182,192,48675,1,0,0:0:0:0:
256,192,48675,1,0,0:0:0:0:
402,192,48750,1,0,0:0:0:0:
109,192,48750,1,0,0:0:0:0:
182,192,48825,1,0,0:0:0:0:
329,192,48825,1,0,0:0:0:0:
256,192,48900,1,0,0:0:0:0:
475,192,48900,1,0,0:0:0:0:
36,192,48900,1,0,0:0:0:0:
109,192,48900,1,0,0:0:0:0:
329,192,48975,1,0,0:0:0:0:
402,192,48975,1,0,0:0:0:0:
182,192,49050,1,0,0:0:0:0:
109,192,49050,1,0,0:0:0:0:
256,192,49125,1,0,0:0:0:0:
329,192,49125,1,0,0:0:0:0:
475,192,49200,1,0,0:0:0:0:
109,192,49200,1,0,0:0:0:0:
36,192,49200,1,0,0:0:0:0:
182,192,49200,1,0,0:0:0:0:
329,192,49275,1,0,0:0:0:0:
402,192,49275,1,0,0:0:0:0:
256,192,49350,1,0,0:0:0:0:
109,192,49350,1,0,0:0:0:0:
182,192,49425,1,0,0:0:0:0:
329,192,49425,1,0,0:0:0:0:
256,192,49500,1,0,0:0:0:0:
402,192,49500,1,0,0:0:0:0:
475,192,49500,1,0,0:0:0:0:
36,192,49500,1,0,0:0:0:0:
109,192,49575,1,0,0:0:0:0:
329,192,49575,1,0,0:0:0:0:
402,192,49650,1,0,0:0:0:0:
475,192,49650,1,0,0:0:0:0:
256,192,49725,1,0,0:0:0:0:
36,192,49725,1,0,0:0:0:0:
182,192,49800,1,0,0:0:0:0:
329,192,49800,1,0,0:0:0:0:
402,192,49800,1,0,0:0:0:0:
475,192,49800,1,0,0:0:0:0:
109,192,49875,1,0,0:0:0:0:
36,192,49875,1,0,0:0:0:0:
256,192,49950,1,0,0:0:0:0:
329,192,49950,1,0,0:0:0:0:
182,192,50025,1,0,0:0:0:0:
109,192,50025,1,0,0:0:0:0:
329,192,50100,1,0,0:0:0:0:
402,192,50100,1,0,0:0:0:0:
475,192,50100,1,0,0:0:0:0:
256,192,50100,1,0,0:0:0:0:
36,192,50175,1,0,0:0:0:0:
109,192,50175,1,0,0:0:0:0:
182,192,50250,1,0,0:0:0:0:
329,192,50250,1,0,0:0:0:0:
402,192,50325,1,0,0:0:0:0:
475,192,50325,1,0,0:0:0:0:
36,192,50400,1,0,0:0:0:0:
109,192,50400,1,0,0:0:0:0:
256,192,50400,1,0,0:0:0:0:
182,192,50400,1,0,0:0:0:0:
329,192,50475,1,0,0:0:0:0:
256,192,50550,1,0,0:0:0:0:
475,192,50550,1,0,0:0:0:0:
402,192,50575,1,0,0:0:0:0:
109,192,50625,1,0,0:0:0:0:
36,192,50650,1,0,0:0:0:0:
182,192,50700,1,0,0:0:0:0:
329,192,50700,1,0,0:0:0:0:
475,192,50775,1,0,0:0:0:0:
256,192,50775,1,0,0:0:0:0:
402,192,50800,1,0,0:0:0:0:
109,192,50850,1,0,0:0:0:0:
36,192,50875,1,0,0:0:0:0:
329,192,50925,1,0,0:0:0:0:
182,192,50962,1,0,0:0:0:0:
475,192,51000,1,0,0:0:0:0:
402,192,51000,1,0,0:0:0:0:
36,192,51075,1,0,0:0:0:0:
109,192,51075,1,0,0:0:0:0:
475,192,51150,1,0,0:0:0:0:
256,192,51168,1,0,0:0:0:0:
402,192,51175,1,0,0:0:0:0:
36,192,51225,1,0,0:0:0:0:
109,192,51225,1,0,0:0:0:0:
402,192,51300,1,0,0:0:0:0:
182,192,51318,1,0,0:0:0:0:
329,192,51325,1,0,0:0:0:0:
36,192,51375,1,0,0:0:0:0:
329,192,51450,1,0,0:0:0:0:
109,192,51468,1,0,0:0:0:0:
256,192,51475,1,0,0:0:0:0:
182,192,51600,1,0,0:0:0:0:
36,192,51600,1,0,0:0:0:0:
402,192,51600,1,0,0:0:0:0:
475,192,51600,1,0,0:0:0:0:
256,192,51675,1,0,0:0:0:0:
109,192,51675,1,0,0:0:0:0:
36,192,51750,1,0,0:0:0:0:
329,192,51750,1,0,0:0:0:0:
182,192,51750,1,0,0:0:0:0:
402,192,51825,1,0,0:0:0:0:
475,192,51825,1,0,0:0:0:0:
329,192,51900,1,0,0:0:0:0:
109,192,51900,1,0,0:0:0:0:
36,192,51900,1,0,0:0:0:0:
256,192,51960,1,0,0:0:0:0:
475,192,51960,1,0,0:0:0:0:
182,192,52020,1,0,0:0:0:0:
402,192,52080,1,0,0:0:0:0:
329,192,52140,1,0,0:0:0:0:
109,192,52140,1,0,0:0:0:0:
256,192,52200,1,0,0:0:0:0:
475,192,52200,1,0,0:0:0:0:
36,192,52200,1,0,0:0:0:0:
109,192,52275,1,0,0:0:0:0:
182,192,52293,1,0,0:0:0:0:
402,192,52350,1,0,0:0:0:0:
329,192,52368,1,0,0:0:0:0:
109,192,52425,1,0,0:0:0:0:
182,192,52443,1,0,0:0:0:0:
256,192,52500,1,0,0:0:0:0:
475,192,52500,1,0,0:0:0:0:
36,192,52500,1,0,0:0:0:0:
402,192,52550,1,0,0:0:0:0:
109,192,52575,1,0,0:0:0:0:
329,192,52600,1,0,0:0:0:0:
256,192,52650,1,0,0:0:0:0:
182,192,52700,1,0,0:0:0:0:
402,192,52725,1,0,0:0:0:0:
109,192,52750,1,0,0:0:0:0:
36,192,52800,1,0,0:0:0:0:
475,192,52800,1,0,0:0:0:0:
256,192,52800,1,0,0:0:0:0:
329,192,52875,1,0,0:0:0:0:
402,192,52875,1,0,0:0:0:0:
109,192,52950,1,0,0:0:0:0:
182,192,52987,1,0,0:0:0:0:
402,192,53025,1,0,0:0:0:0:
329,192,53050,1,0,0:0:0:0:
109,192,53100,1,0,0:0:0:0:
36,192,53100,1,0,0:0:0:0:
475,192,53100,1,0,0:0:0:0:
256,192,53100,1,0,0:0:0:0:
402,192,53175,1,0,0:0:0:0:
182,192,53250,1,0,0:0:0:0:
36,192,53250,1,0,0:0:0:0:
36,192,53325,1,0,0:0:0:0:
182,192,53325,1,0,0:0:0:0:
256,192,53400,1,0,0:0:0:0:
109,192,53400,1,0,0:0:0:0:
402,192,53400,1,0,0:0:0:0:
329,192,53475,1,0,0:0:0:0:
475,192,53475,1,0,0:0:0:0:
475,192,53550,1,0,0:0:0:0:
329,192,53550,1,0,0:0:0:0:
256,192,53625,1,0,0:0:0:0:
182,192,53662,1,0,0:0:0:0:
36,192,53662,1,0,0:0:0:0:
475,192,53700,1,0,0:0:0:0:
402,192,53700,1,0,0:0:0:0:
329,192,53700,1,0,0:0:0:0:
256,192,53775,1,0,0:0:0:0:
109,192,53775,1,0,0:0:0:0:
329,192,53850,1,0,0:0:0:0:
402,192,53850,1,0,0:0:0:0:
182,192,53925,1,0,0:0:0:0:
36,192,53925,1,0,0:0:0:0:
256,192,54000,1,0,0:0:0:0:
402,192,54000,1,0,0:0:0:0:
475,192,54000,1,0,0:0:0:0:
109,192,54060,128,0,54180:0:0:0:0:
329,192,54112,1,0,0:0:0:0:
182,192,54120,128,0,54180:0:0:0:0:
36,192,54180,128,0,54300:0:0:0:0:
256,192,54225,1,0,0:0:0:0:
109,192,54240,128,0,54300:0:0:0:0:
402,192,54300,128,0,54420:0:0:0:0:
182,192,54337,1,0,0:0:0:0:
329,192,54360,128,0,54420:0:0:0:0:
475,192,54420,128,0,54540:0:0:0:0:
36,192,54450,1,0,0:0:0:0:
256,192,54450,1,0,0:0:0:0:
402,192,54480,128,0,54540:0:0:0:0:
109,192,54540,128,0,54660:0:0:0:0:
329,192,54562,1,0,0:0:0:0:
182,192,54600,128,0,54660:0:0:0:0:
36,192,54660,128,0,54780:0:0:0:0:
256,192,54675,1,0,0:0:0:0:
109,192,54720,128,0,54780:0:0:0:0:
402,192,54780,128,0,54900:0:0:0:0:
182,192,54787,1,0,0:0:0:0:
329,192,54840,128,0,54900:0:0:0:0:
256,192,54900,128,0,55200:0:0:0:0:
475,192,54900,128,0,55020:0:0:0:0:
402,192,54960,128,0,55020:0:0:0:0:
109,192,54960,128,0,55080:0:0:0:0:
329,192,55012,1,0,0:0:0:0:
182,192,55020,128,0,55080:0:0:0:0:
36,192,55080,1,0,0:0:0:0:
475,192,55200,5,0,0:0:0:0:
402,192,55200,1,0,0:0:0:0:
36,192,55200,128,0,55312:0:0:0:0:
329,192,55275,1,0,0:0:0:0:
109,192,55275,128,0,55387:0:0:0:0:
475,192,55350,1,0,0:0:0:0:
182,192,55350,128,0,55462:0:0:0:0:
256,192,55425,128,0,55537:0:0:0:0:
36,192,55500,1,0,0:0:0:0:
109,192,55500,1,0,0:0:0:0:
329,192,55500,128,0,55612:0:0:0:0:
182,192,55575,1,0,0:0:0:0:
402,192,55575,128,0,55687:0:0:0:0:
36,192,55650,1,0,0:0:0:0:
475,192,55650,128,0,55762:0:0:0:0:
182,192,55725,1,0,0:0:0:0:
402,192,55725,128,0,55837:0:0:0:0:
109,192,55800,1,0,0:0:0:0:
36,192,55800,1,0,0:0:0:0:
329,192,55800,128,0,55912:0:0:0:0:
256,192,55875,128,0,55987:0:0:0:0:
475,192,55950,1,0,0:0:0:0:
182,192,55950,128,0,56062:0:0:0:0:
329,192,56025,1,0,0:0:0:0:
109,192,56025,128,0,56137:0:0:0:0:
402,192,56100,1,0,0:0:0:0:
475,192,56100,1,0,0:0:0:0:
36,192,56100,128,0,56212:0:0:0:0:
329,192,56175,1,0,0:0:0:0:
109,192,56175,128,0,56287:0:0:0:0:
475,192,56250,1,0,0:0:0:0:
182,192,56250,128,0,56362:0:0:0:0:
256,192,56325,128,0,56437:0:0:0:0:
109,192,56400,1,0,0:0:0:0:
36,192,56400,1,0,0:0:0:0:
329,192,56400,128,0,56512:0:0:0:0:
182,192,56475,1,0,0:0:0:0:
402,192,56475,128,0,56587:0:0:0:0:
36,192,56550,1,0,0:0:0:0:
475,192,56550,128,0,56662:0:0:0:0:
182,192,56625,1,0,0:0:0:0:
402,192,56625,128,0,56737:0:0:0:0:
109,192,56700,1,0,0:0:0:0:
36,192,56700,1,0,0:0:0:0:
329,192,56700,128,0,56812:0:0:0:0:
256,192,56775,128,0,56887:0:0:0:0:
182,192,56850,128,0,56962:0:0:0:0:
475,192,56850,1,0,0:0:0:0:
109,192,56925,128,0,57037:0:0:0:0:
329,192,56925,1,0,0:0:0:0:
36,192,57000,128,0,57112:0:0:0:0:
475,192,57000,1,0,0:0:0:0:
402,192,57000,1,0,0:0:0:0:
256,192,57075,1,0,0:0:0:0:
109,192,57075,128,0,57187:0:0:0:0:
475,192,57150,1,0,0:0:0:0:
182,192,57150,128,0,57262:0:0:0:0:
402,192,57150,1,0,0:0:0:0:
256,192,57225,128,0,57337:0:0:0:0:
329,192,57300,128,0,57412:0:0:0:0:
109,192,57300,1,0,0:0:0:0:
36,192,57300,1,0,0:0:0:0:
402,192,57375,128,0,57487:0:0:0:0:
182,192,57375,1,0,0:0:0:0:
475,192,57450,128,0,57562:0:0:0:0:
36,192,57450,128,0,57562:0:0:0:0:
256,192,57450,1,0,0:0:0:0:
109,192,57525,128,0,57637:0:0:0:0:
329,192,57525,1,0,0:0:0:0:
182,192,57600,128,0,57712:0:0:0:0:
402,192,57600,1,0,0:0:0:0:
475,192,57600,1,0,0:0:0:0:
256,192,57675,128,0,57787:0:0:0:0:
329,192,57750,128,0,57862:0:0:0:0:
36,192,57750,1,0,0:0:0:0:
402,192,57825,128,0,57937:0:0:0:0:
182,192,57825,1,0,0:0:0:0:
475,192,57900,128,0,58012:0:0:0:0:
36,192,57900,1,0,0:0:0:0:
109,192,57900,1,0,0:0:0:0:
402,192,57975,128,0,58087:0:0:0:0:
256,192,57975,1,0,0:0:0:0:
329,192,58050,128,0,58162:0:0:0:0:
182,192,58050,1,0,0:0:0:0:
256,192,58125,128,0,58237:0:0:0:0:
182,192,58200,128,0,58312:0:0:0:0:
402,192,58200,1,0,0:0:0:0:
475,192,58200,1,0,0:0:0:0:
109,192,58275,128,0,58387:0:0:0:0:
329,192,58275,1,0,0:0:0:0:
36,192,58350,128,0,58462:0:0:0:0:
475,192,58350,1,0,0:0:0:0:
182,192,58425,128,0,58537:0:0:0:0:
329,192,58425,1,0,0:0:0:0:
109,192,58500,128,0,58612:0:0:0:0:
402,192,58500,1,0,0:0:0:0:
475,192,58500,1,0,0:0:0:0:
256,192,58575,128,0,58687:0:0:0:0:
182,192,58650,128,0,58762:0:0:0:0:
36,192,58650,1,0,0:0:0:0:
329,192,58725,128,0,58837:0:0:0:0:
256,192,58800,128,0,58912:0:0:0:0:
109,192,58800,1,0,0:0:0:0:
475,192,58800,1,0,0:0:0:0:
402,192,58875,128,0,58987:0:0:0:0:
109,192,58950,128,0,59062:0:0:0:0:
329,192,58950,1,0,0:0:0:0:
36,192,58950,1,0,0:0:0:0:
182,192,59025,128,0,59137:0:0:0:0:
256,192,59100,128,0,59212:0:0:0:0:
402,192,59100,1,0,0:0:0:0:
475,192,59100,1,0,0:0:0:0:
329,192,59175,128,0,59287:0:0:0:0:
36,192,59250,128,0,59362:0:0:0:0:
475,192,59250,1,0,0:0:0:0:
182,192,59250,1,0,0:0:0:0:
109,192,59325,128,0,59437:0:0:0:0:
256,192,59325,1,0,0:0:0:0:
182,192,59400,128,0,59512:0:0:0:0:
329,192,59400,1,0,0:0:0:0:
402,192,59400,1,0,0:0:0:0:
256,192,59475,128,0,59587:0:0:0:0:
475,192,59550,128,0,59662:0:0:0:0:
36,192,59550,1,0,0:0:0:0:
402,192,59625,128,0,59737:0:0:0:0:
182,192,59625,1,0,0:0:0:0:
329,192,59700,128,0,59812:0:0:0:0:
109,192,59700,1,0,0:0:0:0:
36,192,59700,1,0,0:0:0:0:
256,192,59775,128,0,59887:0:0:0:0:
182,192,59850,128,0,59962:0:0:0:0:
475,192,59850,1,0,0:0:0:0:
36,192,59887,1,0,0:0:0:0:
329,192,59925,1,0,0:0:0:0:
402,192,60000,1,0,0:0:0:0:
475,192,60000,1,0,0:0:0:0:
109,192,60000,128,0,60125:0:0:0:0:
182,192,60050,128,0,60175:0:0:0:0:
256,192,60100,128,0,60225:0:0:0:0:
402,192,60150,1,0,0:0:0:0:
329,192,60150,128,0,60275:0:0:0:0:
36,192,60150,128,0,60275:0:0:0:0:
109,192,60200,128,0,60325:0:0:0:0:
182,192,60250,128,0,60375:0:0:0:0:
475,192,60300,1,0,0:0:0:0:
402,192,60300,128,0,60425:0:0:0:0:
329,192,60350,128,0,60475:0:0:0:0:
256,192,60400,128,0,60525:0:0:0:0:
109,192,60450,1,0,0:0:0:0:
182,192,60450,128,0,60575:0:0:0:0:
475,192,60450,128,0,60575:0:0:0:0:
402,192,60500,128,0,60625:0:0:0:0:
329,192,60550,128,0,60675:0:0:0:0:
36,192,60600,1,0,0:0:0:0:
109,192,60600,128,0,60725:0:0:0:0:
182,192,60650,128,0,60775:0:0:0:0:
256,192,60700,128,0,60825:0:0:0:0:
402,192,60750,1,0,0:0:0:0:
329,192,60750,128,0,60875:0:0:0:0:
36,192,60750,128,0,60875:0:0:0:0:
109,192,60800,128,0,60925:0:0:0:0:
182,192,60850,128,0,60975:0:0:0:0:
475,192,60900,1,0,0:0:0:0:
402,192,60900,128,0,61025:0:0:0:0:
329,192,60950,128,0,61075:0:0:0:0:
256,192,61000,128,0,61125:0:0:0:0:
109,192,61050,1,0,0:0:0:0:
182,192,61050,128,0,61175:0:0:0:0:
475,192,61050,128,0,61175:0:0:0:0:
402,192,61100,128,0,61225:0:0:0:0:
329,192,61150,128,0,61275:0:0:0:0:
36,192,61200,1,0,0:0:0:0:
109,192,61200,128,0,61325:0:0:0:0:
182,192,61250,128,0,61375:0:0:0:0:
256,192,61300,128,0,61425:0:0:0:0:
402,192,61350,1,0,0:0:0:0:
329,192,61350,128,0,61475:0:0:0:0:
36,192,61350,128,0,61475:0:0:0:0:
109,192,61400,128,0,61525:0:0:0:0:
182,192,61450,128,0,61575:0:0:0:0:
475,192,61500,1,0,0:0:0:0:
402,192,61500,128,0,61625:0:0:0:0:
329,192,61550,128,0,61675:0:0:0:0:
256,192,61600,128,0,61725:0:0:0:0:
109,192,61650,1,0,0:0:0:0:
182,192,61650,128,0,61775:0:0:0:0:
475,192,61650,128,0,61800:0:0:0:0:
402,192,61700,128,0,61800:0:0:0:0:
329,192,61750,128,0,61800:0:0:0:0:
256,192,61800,1,0,0:0:0:0:
36,192,61800,1,0,0:0:0:0:
109,192,61800,128,0,61850:0:0:0:0:
329,192,61875,1,0,0:0:0:0:
182,192,61875,128,0,61925:0:0:0:0:
402,192,61950,1,0,0:0:0:0:
109,192,61950,1,0,0:0:0:0:
256,192,61950,128,0,62000:0:0:0:0:
182,192,62025,1,0,0:0:0:0:
329,192,62025,128,0,62075:0:0:0:0:
475,192,62100,1,0,0:0:0:0:
402,192,62100,128,0,62150:0:0:0:0:
36,192,62100,128,0,62150:0:0:0:0:
109,192,62150,128,0,62200:0:0:0:0:
329,192,62175,128,0,62225:0:0:0:0:
182,192,62200,128,0,62250:0:0:0:0:
256,192,62250,128,0,62300:0:0:0:0:
329,192,62300,128,0,62350:0:0:0:0:
182,192,62325,128,0,62375:0:0:0:0:
402,192,62350,128,0,62400:0:0:0:0:
36,192,62400,1,0,0:0:0:0:
109,192,62400,1,0,0:0:0:0:
475,192,62400,128,0,62450:0:0:0:0:
256,192,62450,1,0,0:0:0:0:
402,192,62500,1,0,0:0:0:0:
182,192,62550,1,0,0:0:0:0:
109,192,62550,1,0,0:0:0:0:
329,192,62600,1,0,0:0:0:0:
475,192,62650,1,0,0:0:0:0:
109,192,62700,1,0,0:0:0:0:
36,192,62700,1,0,0:0:0:0:
256,192,62700,1,0,0:0:0:0:
402,192,62750,1,0,0:0:0:0:
182,192,62800,1,0,0:0:0:0:
329,192,62850,1,0,0:0:0:0:
475,192,62850,1,0,0:0:0:0:
109,192,62900,1,0,0:0:0:0:
256,192,62950,1,0,0:0:0:0:
402,192,63000,1,0,0:0:0:0:
475,192,63000,1,0,0:0:0:0:
36,192,63000,1,0,0:0:0:0:
182,192,63050,1,0,0:0:0:0:
329,192,63100,1,0,0:0:0:0:
109,192,63150,1,0,0:0:0:0:
36,192,63150,1,0,0:0:0:0:
402,192,63200,1,0,0:0:0:0:
256,192,63250,1,0,0:0:0:0:
109,192,63300,1,0,0:0:0:0:
475,192,63300,1,0,0:0:0:0:
36,192,63300,1,0,0:0:0:0:
329,192,63350,1,0,0:0:0:0:
182,192,63400,1,0,0:0:0:0:
402,192,63450,1,0,0:0:0:0:
475,192,63450,1,0,0:0:0:0:
109,192,63500,1,0,0:0:0:0:
256,192,63550,1,0,0:0:0:0:
402,192,63600,1,0,0:0:0:0:
182,192,63600,1,0,0:0:0:0:
36,192,63600,1,0,0:0:0:0:
475,192,63600,1,0,0:0:0:0:
329,192,63675,1,0,0:0:0:0:
402,192,63750,1,0,0:0:0:0:
475,192,63750,1,0,0:0:0:0:
109,192,63750,1,0,0:0:0:0:
36,192,63750,1,0,0:0:0:0:
182,192,63825,1,0,0:0:0:0:
329,192,63825,1,0,0:0:0:0:
109,192,63900,1,0,0:0:0:0:
36,192,63900,1,0,0:0:0:0:
475,192,63900,1,0,0:0:0:0:
402,192,63900,1,0,0:0:0:0:
182,192,63975,1,0,0:0:0:0:
256,192,63975,1,0,0:0:0:0:
329,192,63975,1,0,0:0:0:0:
475,192,64050,1,0,0:0:0:0:
36,192,64050,1,0,0:0:0:0:
109,192,64050,1,0,0:0:0:0:
402,192,64050,1,0,0:0:0:0:
329,192,64125,1,0,0:0:0:0:
182,192,64125,1,0,0:0:0:0:
256,192,64125,1,0,0:0:0:0:
402,192,64200,1,0,0:0:0:0:
475,192,64200,1,0,0:0:0:0:
36,192,64200,1,0,0:0:0:0:
109,192,64200,1,0,0:0:0:0:
182,192,64350,1,0,0:0:0:0:
329,192,64350,1,0,0:0:0:0:
182,192,64425,1,0,0:0:0:0:
329,192,64425,1,0,0:0:0:0:
256,192,64500,1,0,0:0:0:0:
109,192,64500,1,0,0:0:0:0:
36,192,64500,1,0,0:0:0:0:
402,192,64500,1,0,0:0:0:0:
475,192,64500,1,0,0:0:0:0:
256,192,64650,1,0,0:0:0:0:
109,192,64650,1,0,0:0:0:0:
402,192,64650,1,0,0:0:0:0:
475,192,64800,1,0,0:0:0:0:
256,192,64800,1,0,0:0:0:0:
36,192,64800,1,0,0:0:0:0:
109,192,64800,1,0,0:0:0:0:
402,192,64875,1,0,0:0:0:0:
329,192,64875,1,0,0:0:0:0:
182,192,64950,1,0,0:0:0:0:
109,192,64950,1,0,0:0:0:0:
329,192,65025,1,0,0:0:0:0:
402,192,65025,1,0,0:0:0:0:
475,192,65100,1,0,0:0:0:0:
36,192,65100,1,0,0:0:0:0:
256,192,65100,1,0,0:0:0:0:
182,192,65175,1,0,0:0:0:0:
402,192,65250,1,0,0:0:0:0:
109,192,65250,1,0,0:0:0:0:
329,192,65325,1,0,0:0:0:0:
36,192,65400,1,0,0:0:0:0:
256,192,65400,1,0,0:0:0:0:
109,192,65418,1,0,0:0:0:0:
475,192,65475,1,0,0:0:0:0:
402,192,65493,1,0,0:0:0:0:
109,192,65550,1,0,0:0:0:0:
182,192,65568,1,0,0:0:0:0:
475,192,65625,1,0,0:0:0:0:
402,192,65643,1,0,0:0:0:0:
36,192,65700,1,0,0:0:0:0:
182,192,65700,1,0,0:0:0:0:
329,192,65700,1,0,0:0:0:0:
256,192,65775,1,0,0:0:0:0:
475,192,65775,1,0,0:0:0:0:
329,192,65850,1,0,0:0:0:0:
36,192,65850,1,0,0:0:0:0:
109,192,65900,1,0,0:0:0:0:
402,192,65925,1,0,0:0:0:0:
182,192,65950,1,0,0:0:0:0:
256,192,66000,1,0,0:0:0:0:
475,192,66000,1,0,0:0:0:0:
36,192,66000,1,0,0:0:0:0:
329,192,66075,1,0,0:0:0:0:
402,192,66100,1,0,0:0:0:0:
182,192,66150,1,0,0:0:0:0:
256,192,66175,1,0,0:0:0:0:
36,192,66225,1,0,0:0:0:0:
109,192,66250,1,0,0:0:0:0:
402,192,66300,1,0,0:0:0:0:
475,192,66300,1,0,0:0:0:0:
256,192,66300,1,0,0:0:0:0:
329,192,66375,1,0,0:0:0:0:
182,192,66375,1,0,0:0:0:0:
109,192,66450,1,0,0:0:0:0:
475,192,66450,1,0,0:0:0:0:
256,192,66500,1,0,0:0:0:0:
402,192,66550,1,0,0:0:0:0:
36,192,66600,1,0,0:0:0:0:
109,192,66600,1,0,0:0:0:0:
329,192,66600,1,0,0:0:0:0:
182,192,66625,1,0,0:0:0:0:
475,192,66675,1,0,0:0:0:0:
402,192,66700,1,0,0:0:0:0:
36,192,66750,1,0,0:0:0:0:
256,192,66750,1,0,0:0:0:0:
402,192,66825,1,0,0:0:0:0:
475,192,66850,1,0,0:0:0:0:
329,192,66900,1,0,0:0:0:0:
36,192,66900,1,0,0:0:0:0:
109,192,66900,1,0,0:0:0:0:
256,192,66925,1,0,0:0:0:0:
475,192,66975,1,0,0:0:0:0:
402,192,67000,1,0,0:0:0:0:
182,192,67050,1,0,0:0:0:0:
256,192,67075,1,0,0:0:0:0:
36,192,67125,1,0,0:0:0:0:
109,192,67150,1,0,0:0:0:0:
475,192,67200,1,0,0:0:0:0:
402,192,67200,1,0,0:0:0:0:
256,192,67200,1,0,0:0:0:0:
109,192,67275,1,0,0:0:0:0:
182,192,67275,1,0,0:0:0:0:
329,192,67350,1,0,0:0:0:0:
402,192,67350,1,0,0:0:0:0:
182,192,67425,1,0,0:0:0:0:
109,192,67425,1,0,0:0:0:0:
329,192,67500,1,0,0:0:0:0:
475,192,67500,1,0,0:0:0:0:
36,192,67500,1,0,0:0:0:0:
256,192,67525,1,0,0:0:0:0:
109,192,67575,1,0,0:0:0:0:
182,192,67600,1,0,0:0:0:0:
402,192,67650,1,0,0:0:0:0:
329,192,67675,1,0,0:0:0:0:
36,192,67725,1,0,0:0:0:0:
109,192,67743,1,0,0:0:0:0:
475,192,67800,1,0,0:0:0:0:
256,192,67800,1,0,0:0:0:0:
402,192,67818,1,0,0:0:0:0:
329,192,67837,1,0,0:0:0:0:
36,192,67875,1,0,0:0:0:0:
109,192,67875,1,0,0:0:0:0:
182,192,67950,1,0,0:0:0:0:
256,192,67968,1,0,0:0:0:0:
329,192,67987,1,0,0:0:0:0:
109,192,68025,1,0,0:0:0:0:
36,192,68025,1,0,0:0:0:0:
402,192,68100,1,0,0:0:0:0:
475,192,68100,1,0,0:0:0:0:
256,192,68100,1,0,0:0:0:0:
182,192,68175,1,0,0:0:0:0:
109,192,68175,1,0,0:0:0:0:
402,192,68250,1,0,0:0:0:0:
329,192,68250,1,0,0:0:0:0:
109,192,68325,1,0,0:0:0:0:
182,192,68325,1,0,0:0:0:0:
475,192,68400,1,0,0:0:0:0:
36,192,68400,1,0,0:0:0:0:
402,192,68418,1,0,0:0:0:0:
329,192,68437,1,0,0:0:0:0:
109,192,68475,1,0,0:0:0:0:
182,192,68493,1,0,0:0:0:0:
402,192,68550,1,0,0:0:0:0:
329,192,68568,1,0,0:0:0:0:
36,192,68625,1,0,0:0:0:0:
109,192,68643,1,0,0:0:0:0:
475,192,68700,1,0,0:0:0:0:
256,192,68700,1,0,0:0:0:0:
402,192,68718,1,0,0:0:0:0:
182,192,68775,1,0,0:0:0:0:
109,192,68793,1,0,0:0:0:0:
329,192,68850,1,0,0:0:0:0:
402,192,68868,1,0,0:0:0:0:
109,192,68925,1,0,0:0:0:0:
36,192,68943,1,0,0:0:0:0:
475,192,69000,1,0,0:0:0:0:
402,192,69000,1,0,0:0:0:0:
256,192,69000,1,0,0:0:0:0:
329,192,69075,1,0,0:0:0:0:
329,192,69150,1,0,0:0:0:0:
182,192,69150,1,0,0:0:0:0:
182,192,69225,1,0,0:0:0:0:
256,192,69300,1,0,0:0:0:0:
475,192,69300,1,0,0:0:0:0:
36,192,69300,128,0,69400:0:0:0:0:
402,192,69375,1,0,0:0:0:0:
109,192,69400,128,0,69500:0:0:0:0:
329,192,69450,1,0,0:0:0:0:
182,192,69500,128,0,69600:0:0:0:0:
402,192,69525,1,0,0:0:0:0:
36,192,69600,1,0,0:0:0:0:
256,192,69600,1,0,0:0:0:0:
475,192,69600,128,0,69700:0:0:0:0:
109,192,69675,1,0,0:0:0:0:
402,192,69700,128,0,69800:0:0:0:0:
182,192,69750,1,0,0:0:0:0:
329,192,69800,128,0,69900:0:0:0:0:
109,192,69825,1,0,0:0:0:0:
36,192,69900,128,0,70000:0:0:0:0:
402,192,69900,128,0,69950:0:0:0:0:
475,192,69900,128,0,69950:0:0:0:0:
329,192,69975,128,0,70025:0:0:0:0:
109,192,70000,128,0,70100:0:0:0:0:
402,192,70050,128,0,70100:0:0:0:0:
475,192,70050,128,0,70100:0:0:0:0:
182,192,70100,128,0,70200:0:0:0:0:
329,192,70125,128,0,70175:0:0:0:0:
475,192,70200,1,0,0:0:0:0:
256,192,70200,1,0,0:0:0:0:
109,192,70200,128,0,70250:0:0:0:0:
36,192,70200,128,0,70250:0:0:0:0:
182,192,70275,128,0,70325:0:0:0:0:
109,192,70350,128,0,70400:0:0:0:0:
36,192,70350,128,0,70400:0:0:0:0:
329,192,70350,1,0,0:0:0:0:
182,192,70425,128,0,70475:0:0:0:0:
109,192,70500,128,0,70550:0:0:0:0:
36,192,70500,128,0,70550:0:0:0:0:
475,192,70500,1,0,0:0:0:0:
402,192,70500,1,0,0:0:0:0:
256,192,70575,1,0,0:0:0:0:
329,192,70575,1,0,0:0:0:0:
402,192,70650,1,0,0:0:0:0:
109,192,70650,1,0,0:0:0:0:
182,192,70725,1,0,0:0:0:0:
256,192,70725,1,0,0:0:0:0:
402,192,70800,1,0,0:0:0:0:
475,192,70800,1,0,0:0:0:0:
36,192,70800,128,0,70875:0:0:0:0:
329,192,70875,1,0,0:0:0:0:
182,192,70875,128,0,70950:0:0:0:0:
256,192,70950,1,0,0:0:0:0:
36,192,70950,128,0,71025:0:0:0:0:
402,192,71025,1,0,0:0:0:0:
182,192,71025,128,0,71100:0:0:0:0:
36,192,71100,1,0,0:0:0:0:
475,192,71100,128,0,71175:0:0:0:0:
109,192,71137,1,0,0:0:0:0:
182,192,71175,1,0,0:0:0:0:
329,192,71175,128,0,71250:0:0:0:0:
402,192,71212,1,0,0:0:0:0:
36,192,71250,128,0,71325:0:0:0:0:
475,192,71250,1,0,0:0:0:0:
109,192,71287,1,0,0:0:0:0:
182,192,71325,128,0,71400:0:0:0:0:
329,192,71325,1,0,0:0:0:0:
402,192,71362,1,0,0:0:0:0:
36,192,71400,1,0,0:0:0:0:
475,192,71400,128,0,71475:0:0:0:0:
256,192,71400,1,0,0:0:0:0:
329,192,71475,128,0,71550:0:0:0:0:
109,192,71520,128,0,71640:0:0:0:0:
475,192,71550,1,0,0:0:0:0:
182,192,71580,128,0,71700:0:0:0:0:
256,192,71640,128,0,71760:0:0:0:0:
329,192,71700,128,0,71820:0:0:0:0:
109,192,71700,1,0,0:0:0:0:
36,192,71700,1,0,0:0:0:0:
402,192,71760,128,0,71880:0:0:0:0:
182,192,71820,128,0,71940:0:0:0:0:
329,192,71880,128,0,72000:0:0:0:0:
109,192,71940,128,0,72060:0:0:0:0:
256,192,72000,128,0,72120:0:0:0:0:
475,192,72000,1,0,0:0:0:0:
36,192,72000,1,0,0:0:0:0:
402,192,72060,128,0,72180:0:0:0:0:
182,192,72120,128,0,72240:0:0:0:0:
329,192,72180,128,0,72300:0:0:0:0:
109,192,72240,128,0,72360:0:0:0:0:
256,192,72300,128,0,72400:0:0:0:0:
36,192,72300,1,0,0:0:0:0:
475,192,72300,1,0,0:0:0:0:
402,192,72350,128,0,72450:0:0:0:0:
182,192,72400,128,0,72500:0:0:0:0:
329,192,72450,128,0,72550:0:0:0:0:
109,192,72500,128,0,72600:0:0:0:0:
256,192,72550,128,0,72650:0:0:0:0:
402,192,72600,128,0,72700:0:0:0:0:
475,192,72600,1,0,0:0:0:0:
36,192,72650,128,0,72750:0:0:0:0:
182,192,72700,128,0,72800:0:0:0:0:
329,192,72750,128,0,72850:0:0:0:0:
475,192,72800,128,0,72900:0:0:0:0:
109,192,72850,128,0,72950:0:0:0:0:
36,192,72900,1,0,0:0:0:0:
256,192,72900,128,0,72975:0:0:0:0:
402,192,72937,128,0,73012:0:0:0:0:
182,192,72975,128,0,73050:0:0:0:0:
329,192,73012,128,0,73087:0:0:0:0:
109,192,73050,128,0,73125:0:0:0:0:
256,192,73087,128,0,73162:0:0:0:0:
402,192,73125,128,0,73200:0:0:0:0:
182,192,73162,128,0,73237:0:0:0:0:
36,192,73200,1,0,0:0:0:0:
329,192,73200,128,0,73275:0:0:0:0:
475,192,73237,128,0,73312:0:0:0:0:
256,192,73275,128,0,73350:0:0:0:0:
109,192,73312,128,0,73387:0:0:0:0:
402,192,73350,128,0,73425:0:0:0:0:
182,192,73387,128,0,73462:0:0:0:0:
329,192,73425,128,0,73500:0:0:0:0:
475,192,73500,1,0,0:0:0:0:
402,192,73500,1,0,0:0:0:0:
36,192,73500,128,0,73650:0:0:0:0:
109,192,73525,128,0,73625:0:0:0:0:
182,192,73550,128,0,73600:0:0:0:0:
256,192,73575,1,0,0:0:0:0:
475,192,73650,128,0,73800:0:0:0:0:
402,192,73675,128,0,73775:0:0:0:0:
329,192,73700,128,0,73750:0:0:0:0:
256,192,73725,1,0,0:0:0:0:
36,192,73800,1,0,0:0:0:0:
182,192,73800,128,0,73900:0:0:0:0:
109,192,73875,1,0,0:0:0:0:
256,192,73875,128,0,73975:0:0:0:0:
182,192,73950,1,0,0:0:0:0:
329,192,73950,128,0,74050:0:0:0:0:
256,192,74025,1,0,0:0:0:0:
402,192,74025,128,0,74125:0:0:0:0:
329,192,74100,1,0,0:0:0:0:
475,192,74100,1,0,0:0:0:0:
109,192,74100,1,0,0:0:0:0:
36,192,74100,1,0,0:0:0:0:
256,192,74175,1,0,0:0:0:0:
402,192,74250,1,0,0:0:0:0:
475,192,74250,1,0,0:0:0:0:
182,192,74250,1,0,0:0:0:0:
256,192,74325,1,0,0:0:0:0:
329,192,74400,1,0,0:0:0:0:
182,192,74400,1,0,0:0:0:0:
36,192,74400,1,0,0:0:0:0:
109,192,74400,1,0,0:0:0:0:
402,192,74475,1,0,0:0:0:0:
475,192,74475,1,0,0:0:0:0:
256,192,74550,1,0,0:0:0:0:
109,192,74550,1,0,0:0:0:0:
402,192,74625,1,0,0:0:0:0:
475,192,74625,1,0,0:0:0:0:
182,192,74700,1,0,0:0:0:0:
109,192,74700,1,0,0:0:0:0:
36,192,74700,1,0,0:0:0:0:
256,192,74700,1,0,0:0:0:0:
329,192,74775,1,0,0:0:0:0:
402,192,74775,1,0,0:0:0:0:
182,192,74850,1,0,0:0:0:0:
36,192,74850,1,0,0:0:0:0:
256,192,74925,1,0,0:0:0:0:
475,192,74925,1,0,0:0:0:0:
329,192,75000,1,0,0:0:0:0:
109,192,75000,1,0,0:0:0:0:
36,192,75000,1,0,0:0:0:0:
182,192,75075,1,0,0:0:0:0:
402,192,75075,1,0,0:0:0:0:
109,192,75150,1,0,0:0:0:0:
36,192,75150,1,0,0:0:0:0:
256,192,75225,1,0,0:0:0:0:
475,192,75225,1,0,0:0:0:0:
182,192,75300,1,0,0:0:0:0:
109,192,75300,1,0,0:0:0:0:
329,192,75300,1,0,0:0:0:0:
402,192,75300,1,0,0:0:0:0:
256,192,75375,1,0,0:0:0:0:
36,192,75375,1,0,0:0:0:0:
402,192,75450,1,0,0:0:0:0:
475,192,75450,1,0,0:0:0:0:
329,192,75525,1,0,0:0:0:0:
182,192,75525,1,0,0:0:0:0:
109,192,75600,1,0,0:0:0:0:
36,192,75600,1,0,0:0:0:0:
402,192,75600,1,0,0:0:0:0:
475,192,75600,1,0,0:0:0:0:
256,192,75675,1,0,0:0:0:0:
329,192,75675,1,0,0:0:0:0:
182,192,75750,1,0,0:0:0:0:
109,192,75750,1,0,0:0:0:0:
329,192,75825,1,0,0:0:0:0:
402,192,75825,1,0,0:0:0:0:
256,192,75900,1,0,0:0:0:0:
109,192,75900,1,0,0:0:0:0:
36,192,75900,1,0,0:0:0:0:
182,192,75900,1,0,0:0:0:0:
402,192,75975,1,0,0:0:0:0:
475,192,75975,1,0,0:0:0:0:
182,192,76050,1,0,0:0:0:0:
329,192,76050,1,0,0:0:0:0:
36,192,76125,1,0,0:0:0:0:
109,192,76125,1,0,0:0:0:0:
256,192,76200,1,0,0:0:0:0:
329,192,76200,1,0,0:0:0:0:
402,192,76200,1,0,0:0:0:0:
475,192,76200,1,0,0:0:0:0:
182,192,76275,1,0,0:0:0:0:
36,192,76275,1,0,0:0:0:0:
329,192,76350,1,0,0:0:0:0:
475,192,76350,1,0,0:0:0:0:
182,192,76425,1,0,0:0:0:0:
36,192,76425,1,0,0:0:0:0:
402,192,76500,1,0,0:0:0:0:
475,192,76500,1,0,0:0:0:0:
329,192,76550,1,0,0:0:0:0:
182,192,76600,1,0,0:0:0:0:
109,192,76650,1,0,0:0:0:0:
36,192,76650,1,0,0:0:0:0:
402,192,76700,1,0,0:0:0:0:
256,192,76750,1,0,0:0:0:0:
36,192,76800,1,0,0:0:0:0:
109,192,76800,1,0,0:0:0:0:
475,192,76800,128,0,76900:0:0:0:0:
182,192,76875,1,0,0:0:0:0:
402,192,76900,128,0,77000:0:0:0:0:
109,192,76950,1,0,0:0:0:0:
329,192,77000,128,0,77100:0:0:0:0:
182,192,77025,1,0,0:0:0:0:
475,192,77100,1,0,0:0:0:0:
402,192,77100,1,0,0:0:0:0:
36,192,77100,128,0,77250:0:0:0:0:
329,192,77175,1,0,0:0:0:0:
109,192,77175,128,0,77325:0:0:0:0:
402,192,77250,1,0,0:0:0:0:
182,192,77250,128,0,77400:0:0:0:0:
329,192,77325,128,0,77475:0:0:0:0:
109,192,77400,1,0,0:0:0:0:
36,192,77400,1,0,0:0:0:0:
256,192,77400,1,0,0:0:0:0:
402,192,77400,128,0,77550:0:0:0:0:
182,192,77475,1,0,0:0:0:0:
475,192,77475,128,0,77625:0:0:0:0:
329,192,77550,1,0,0:0:0:0:
109,192,77550,128,0,77662:0:0:0:0:
402,192,77625,1,0,0:0:0:0:
182,192,77625,128,0,77737:0:0:0:0:
475,192,77700,1,0,0:0:0:0:
36,192,77700,1,0,0:0:0:0:
256,192,77700,128,0,77812:0:0:0:0:
182,192,77775,1,0,0:0:0:0:
329,192,77775,128,0,77887:0:0:0:0:
109,192,77850,1,0,0:0:0:0:
402,192,77850,128,0,77962:0:0:0:0:
182,192,77925,1,0,0:0:0:0:
475,192,77925,128,0,78037:0:0:0:0:
256,192,78000,1,0,0:0:0:0:
329,192,78000,1,0,0:0:0:0:
36,192,78000,128,0,78120:0:0:0:0:
109,192,78060,128,0,78180:0:0:0:0:
402,192,78075,1,0,0:0:0:0:
182,192,78120,128,0,78240:0:0:0:0:
475,192,78150,1,0,0:0:0:0:
256,192,78180,128,0,78300:0:0:0:0:
329,192,78240,128,0,78360:0:0:0:0:
182,192,78300,1,0,0:0:0:0:
109,192,78300,1,0,0:0:0:0:
475,192,78300,128,0,78420:0:0:0:0:
402,192,78360,128,0,78480:0:0:0:0:
36,192,78375,1,0,0:0:0:0:
329,192,78420,128,0,78540:0:0:0:0:
256,192,78480,128,0,78600:0:0:0:0:
475,192,78525,1,0,0:0:0:0:
182,192,78540,128,0,78660:0:0:0:0:
402,192,78600,1,0,0:0:0:0:
329,192,78600,1,0,0:0:0:0:
36,192,78600,128,0,78750:0:0:0:0:
256,192,78675,128,0,78825:0:0:0:0:
475,192,78750,1,0,0:0:0:0:
109,192,78750,128,0,78900:0:0:0:0:
329,192,78825,128,0,78975:0:0:0:0:
36,192,78900,1,0,0:0:0:0:
182,192,78900,128,0,79050:0:0:0:0:
402,192,78975,128,0,79125:0:0:0:0:
109,192,79050,1,0,0:0:0:0:
256,192,79050,128,0,79200:0:0:0:0:
475,192,79125,128,0,79200:0:0:0:0:
109,192,79200,1,0,0:0:0:0:
402,192,79200,1,0,0:0:0:0:
36,192,79200,1,0,0:0:0:0:
329,192,79275,128,0,79350:0:0:0:0:
182,192,79312,128,0,79368:0:0:0:0:
36,192,79350,128,0,79425:0:0:0:0:
329,192,79387,128,0,79462:0:0:0:0:
182,192,79425,128,0,79481:0:0:0:0:
36,192,79462,128,0,79537:0:0:0:0:
475,192,79500,1,0,0:0:0:0:
109,192,79500,1,0,0:0:0:0:
402,192,79575,128,0,79650:0:0:0:0:
256,192,79612,128,0,79668:0:0:0:0:
109,192,79650,128,0,79725:0:0:0:0:
402,192,79687,128,0,79762:0:0:0:0:
256,192,79725,128,0,79781:0:0:0:0:
109,192,79762,128,0,79837:0:0:0:0:
36,192,79800,1,0,0:0:0:0:
402,192,79800,1,0,0:0:0:0:
182,192,79875,128,0,79950:0:0:0:0:
329,192,79912,128,0,79968:0:0:0:0:
475,192,79950,128,0,80025:0:0:0:0:
182,192,79987,128,0,80062:0:0:0:0:
329,192,80025,128,0,80081:0:0:0:0:
475,192,80062,128,0,80137:0:0:0:0:
109,192,80100,1,0,0:0:0:0:
36,192,80100,1,0,0:0:0:0:
256,192,80175,1,0,0:0:0:0:
402,192,80175,1,0,0:0:0:0:
182,192,80250,1,0,0:0:0:0:
109,192,80250,1,0,0:0:0:0:
329,192,80325,1,0,0:0:0:0:
475,192,80325,1,0,0:0:0:0:
256,192,80400,1,0,0:0:0:0:
109,192,80400,1,0,0:0:0:0:
36,192,80400,1,0,0:0:0:0:
182,192,80400,1,0,0:0:0:0:
329,192,80550,1,0,0:0:0:0:
256,192,80550,1,0,0:0:0:0:
182,192,80550,1,0,0:0:0:0:
109,192,80550,1,0,0:0:0:0:
402,192,80700,1,0,0:0:0:0:
329,192,80700,1,0,0:0:0:0:
256,192,80700,1,0,0:0:0:0:
182,192,80700,1,0,0:0:0:0:
256,192,80850,1,0,0:0:0:0:
329,192,80850,1,0,0:0:0:0:
402,192,80850,1,0,0:0:0:0:
475,192,80850,1,0,0:0:0:0:
182,192,81000,1,0,0:0:0:0:
256,192,81000,1,0,0:0:0:0:
329,192,81000,1,0,0:0:0:0:
109,192,81150,1,0,0:0:0:0:
182,192,81150,1,0,0:0:0:0:
256,192,81150,1,0,0:0:0:0:
402,192,81225,1,0,0:0:0:0:
182,192,81300,1,0,0:0:0:0:
36,192,81300,1,0,0:0:0:0:
109,192,81300,1,0,0:0:0:0:
475,192,81375,1,0,0:0:0:0:
182,192,81450,1,0,0:0:0:0:
329,192,81450,1,0,0:0:0:0:
256,192,81450,1,0,0:0:0:0:
36,192,81525,1,0,0:0:0:0:
402,192,81600,1,0,0:0:0:0:
329,192,81600,1,0,0:0:0:0:
182,192,81600,1,0,0:0:0:0:
109,192,81600,1,0,0:0:0:0:
256,192,81675,1,0,0:0:0:0:
182,192,81750,1,0,0:0:0:0:
109,192,81750,1,0,0:0:0:0:
329,192,81750,1,0,0:0:0:0:
402,192,81750,1,0,0:0:0:0:
256,192,81825,1,0,0:0:0:0:
36,192,81900,1,0,0:0:0:0:
475,192,81900,1,0,0:0:0:0:
109,192,81937,1,0,0:0:0:0:
402,192,81937,1,0,0:0:0:0:
182,192,81975,1,0,0:0:0:0:
329,192,81975,1,0,0:0:0:0:
256,192,82012,1,0,0:0:0:0:
36,192,82050,1,0,0:0:0:0:
475,192,82050,1,0,0:0:0:0:
109,192,82100,1,0,0:0:0:0:
402,192,82100,1,0,0:0:0:0:
182,192,82150,1,0,0:0:0:0:
329,192,82150,1,0,0:0:0:0:
402,192,82200,1,0,0:0:0:0:
475,192,82200,1,0,0:0:0:0:
109,192,82200,1,0,0:0:0:0:
36,192,82200,1,0,0:0:0:0:
329,192,82275,1,0,0:0:0:0:
256,192,82275,1,0,0:0:0:0:
402,192,82350,1,0,0:0:0:0:
475,192,82350,1,0,0:0:0:0:
36,192,82350,1,0,0:0:0:0:
109,192,82350,1,0,0:0:0:0:
182,192,82425,1,0,0:0:0:0:
256,192,82425,1,0,0:0:0:0:
475,192,82500,1,0,0:0:0:0:
402,192,82525,1,0,0:0:0:0:
329,192,82550,1,0,0:0:0:0:
256,192,82575,1,0,0:0:0:0:
182,192,82600,1,0,0:0:0:0:
109,192,82625,1,0,0:0:0:0:
475,192,82650,1,0,0:0:0:0:
36,192,82650,1,0,0:0:0:0:
402,192,82675,1,0,0:0:0:0:
329,192,82700,1,0,0:0:0:0:
256,192,82725,1,0,0:0:0:0:
182,192,82750,1,0,0:0:0:0:
109,192,82775,1,0,0:0:0:0:
36,192,82800,1,0,0:0:0:0:
475,192,82800,1,0,0:0:0:0:
402,192,82837,1,0,0:0:0:0:
329,192,82875,1,0,0:0:0:0:
256,192,82912,1,0,0:0:0:0:
182,192,82950,1,0,0:0:0:0:
402,192,82971,1,0,0:0:0:0:
329,192,83014,1,0,0:0:0:0:
256,192,83057,1,0,0:0:0:0:
182,192,83100,1,0,0:0:0:0:
109,192,83142,1,0,0:0:0:0:
329,192,83150,1,0,0:0:0:0:
256,192,83200,1,0,0:0:0:0:
182,192,83250,1,0,0:0:0:0:
109,192,83300,1,0,0:0:0:0:
36,192,83350,1,0,0:0:0:0:
256,192,83400,1,0,0:0:0:0:
402,192,83400,1,0,0:0:0:0:
475,192,83400,1,0,0:0:0:0:
182,192,83475,1,0,0:0:0:0:
109,192,83475,1,0,0:0:0:0:
329,192,83550,1,0,0:0:0:0:
36,192,83550,1,0,0:0:0:0:
402,192,83625,1,0,0:0:0:0:
475,192,83625,1,0,0:0:0:0:
256,192,83625,1,0,0:0:0:0:
402,192,83700,1,0,0:0:0:0:
475,192,83700,1,0,0:0:0:0:
182,192,83700,1,0,0:0:0:0:
329,192,83800,1,0,0:0:0:0:
109,192,83800,1,0,0:0:0:0:
36,192,83800,1,0,0:0:0:0:
329,192,84000,1,0,0:0:0:0:
402,192,84000,1,0,0:0:0:0:
475,192,84000,1,0,0:0:0:0:
256,192,84000,1,0,0:0:0:0:
402,192,84600,1,0,0:0:0:0:
329,192,84600,1,0,0:0:0:0:
475,192,84600,1,0,0:0:0:0:
256,192,84600,1,0,0:0:0:0:
329,192,85200,1,0,0:0:0:0:
402,192,85200,1,0,0:0:0:0:
475,192,85200,1,0,0:0:0:0:
256,192,85200,1,0,0:0:0:0:
329,192,85500,1,0,0:0:0:0:
475,192,85500,1,0,0:0:0:0:
402,192,85500,1,0,0:0:0:0:
256,192,85500,1,0,0:0:0:0:
475,192,85800,1,0,0:0:0:0:
402,192,85818,1,0,0:0:0:0:
329,192,85837,1,0,0:0:0:0:
475,192,85950,1,0,0:0:0:0:
402,192,85968,1,0,0:0:0:0:
329,192,85987,1,0,0:0:0:0:
182,192,86025,1,0,0:0:0:0:
109,192,86043,1,0,0:0:0:0:
36,192,86062,1,0,0:0:0:0:
329,192,86100,1,0,0:0:0:0:
402,192,86118,1,0,0:0:0:0:
475,192,86137,1,0,0:0:0:0:
36,192,86175,1,0,0:0:0:0:
109,192,86193,1,0,0:0:0:0:
182,192,86212,1,0,0:0:0:0:
475,192,86250,1,0,0:0:0:0:
402,192,86268,1,0,0:0:0:0:
329,192,86287,1,0,0:0:0:0:
256,192,86325,1,0,0:0:0:0:
182,192,86362,1,0,0:0:0:0:
109,192,86400,1,0,0:0:0:0:
36,192,86400,1,0,0:0:0:0:
402,192,86400,1,0,0:0:0:0:
475,192,86400,1,0,0:0:0:0:
329,192,86475,1,0,0:0:0:0:
256,192,86475,1,0,0:0:0:0:
182,192,86550,1,0,0:0:0:0:
109,192,86550,1,0,0:0:0:0:
329,192,86625,1,0,0:0:0:0:
402,192,86625,1,0,0:0:0:0:
256,192,86700,1,0,0:0:0:0:
109,192,86700,1,0,0:0:0:0:
36,192,86700,1,0,0:0:0:0:
475,192,86700,1,0,0:0:0:0:
329,192,86775,1,0,0:0:0:0:
402,192,86775,1,0,0:0:0:0:
109,192,86850,1,0,0:0:0:0:
182,192,86850,1,0,0:0:0:0:
256,192,86925,1,0,0:0:0:0:
329,192,86925,1,0,0:0:0:0:
402,192,87000,1,0,0:0:0:0:
475,192,87000,1,0,0:0:0:0:
109,192,87000,1,0,0:0:0:0:
36,192,87000,1,0,0:0:0:0:
182,192,87075,1,0,0:0:0:0:
329,192,87075,1,0,0:0:0:0:
256,192,87150,1,0,0:0:0:0:
475,192,87150,1,0,0:0:0:0:
182,192,87225,1,0,0:0:0:0:
402,192,87225,1,0,0:0:0:0:
329,192,87300,1,0,0:0:0:0:
109,192,87300,1,0,0:0:0:0:
36,192,87300,1,0,0:0:0:0:
475,192,87300,1,0,0:0:0:0:
256,192,87375,1,0,0:0:0:0:
182,192,87375,1,0,0:0:0:0:
109,192,87450,1,0,0:0:0:0:
36,192,87450,1,0,0:0:0:0:
256,192,87525,1,0,0:0:0:0:
329,192,87525,1,0,0:0:0:0:
182,192,87600,1,0,0:0:0:0:
109,192,87600,1,0,0:0:0:0:
402,192,87600,1,0,0:0:0:0:
475,192,87600,1,0,0:0:0:0:
256,192,87675,1,0,0:0:0:0:
36,192,87675,1,0,0:0:0:0:
109,192,87750,1,0,0:0:0:0:
329,192,87750,1,0,0:0:0:0:
182,192,87825,1,0,0:0:0:0:
402,192,87825,1,0,0:0:0:0:
256,192,87900,1,0,0:0:0:0:
329,192,87900,1,0,0:0:0:0:
36,192,87900,1,0,0:0:0:0:
475,192,87900,1,0,0:0:0:0:
182,192,87975,1,0,0:0:0:0:
109,192,87975,1,0,0:0:0:0:
475,192,88050,1,0,0:0:0:0:
402,192,88050,1,0,0:0:0:0:
256,192,88125,1,0,0:0:0:0:
329,192,88125,1,0,0:0:0:0:
182,192,88200,1,0,0:0:0:0:
109,192,88200,1,0,0:0:0:0:
36,192,88200,1,0,0:0:0:0:
402,192,88200,1,0,0:0:0:0:
256,192,88275,1,0,0:0:0:0:
475,192,88275,1,0,0:0:0:0:
109,192,88350,1,0,0:0:0:0:
36,192,88350,1,0,0:0:0:0:
182,192,88425,1,0,0:0:0:0:
329,192,88425,1,0,0:0:0:0:
402,192,88500,1,0,0:0:0:0:
475,192,88500,1,0,0:0:0:0:
256,192,88500,1,0,0:0:0:0:
36,192,88500,1,0,0:0:0:0:
182,192,88575,1,0,0:0:0:0:
109,192,88575,1,0,0:0:0:0:
329,192,88650,1,0,0:0:0:0:
402,192,88650,1,0,0:0:0:0:
182,192,88725,1,0,0:0:0:0:
109,192,88725,1,0,0:0:0:0:
256,192,88800,1,0,0:0:0:0:
475,192,88800,1,0,0:0:0:0:
36,192,88800,1,0,0:0:0:0:
402,192,88800,1,0,0:0:0:0:
329,192,88875,1,0,0:0:0:0:
109,192,88875,1,0,0:0:0:0:
182,192,88950,1,0,0:0:0:0:
402,192,88950,1,0,0:0:0:0:
109,192,89025,1,0,0:0:0:0:
36,192,89025,1,0,0:0:0:0:
256,192,89100,1,0,0:0:0:0:
329,192,89100,1,0,0:0:0:0:
475,192,89100,1,0,0:0:0:0:
402,192,89100,1,0,0:0:0:0:
182,192,89175,1,0,0:0:0:0:
109,192,89175,1,0,0:0:0:0:
329,192,89250,1,0,0:0:0:0:
402,192,89250,1,0,0:0:0:0:
182,192,89325,1,0,0:0:0:0:
256,192,89325,1,0,0:0:0:0:
329,192,89400,1,0,0:0:0:0:
402,192,89400,1,0,0:0:0:0:
475,192,89400,1,0,0:0:0:0:
109,192,89400,1,0,0:0:0:0:
256,192,89475,1,0,0:0:0:0:
36,192,89475,1,0,0:0:0:0:
182,192,89550,1,0,0:0:0:0:
402,192,89550,1,0,0:0:0:0:
329,192,89625,1,0,0:0:0:0:
109,192,89625,1,0,0:0:0:0:
256,192,89700,1,0,0:0:0:0:
36,192,89700,1,0,0:0:0:0:
475,192,89700,1,0,0:0:0:0:
402,192,89700,1,0,0:0:0:0:
182,192,89775,1,0,0:0:0:0:
109,192,89775,1,0,0:0:0:0:
329,192,89850,1,0,0:0:0:0:
402,192,89850,1,0,0:0:0:0:
256,192,89925,1,0,0:0:0:0:
182,192,89925,1,0,0:0:0:0:
109,192,90000,1,0,0:0:0:0:
36,192,90000,1,0,0:0:0:0:
329,192,90000,1,0,0:0:0:0:
475,192,90000,1,0,0:0:0:0:
256,192,90075,1,0,0:0:0:0:
402,192,90075,1,0,0:0:0:0:
109,192,90150,1,0,0:0:0:0:
182,192,90150,1,0,0:0:0:0:
329,192,90225,1,0,0:0:0:0:
475,192,90225,1,0,0:0:0:0:
256,192,90300,1,0,0:0:0:0:
182,192,90300,1,0,0:0:0:0:
402,192,90300,1,0,0:0:0:0:
109,192,90300,1,0,0:0:0:0:
329,192,90375,1,0,0:0:0:0:
36,192,90375,1,0,0:0:0:0:
402,192,90450,1,0,0:0:0:0:
475,192,90450,1,0,0:0:0:0:
182,192,90525,1,0,0:0:0:0:
109,192,90525,1,0,0:0:0:0:
256,192,90600,1,0,0:0:0:0:
329,192,90600,1,0,0:0:0:0:
402,192,90600,1,0,0:0:0:0:
475,192,90600,1,0,0:0:0:0:
109,192,90675,1,0,0:0:0:0:
36,192,90675,1,0,0:0:0:0:
182,192,90750,1,0,0:0:0:0:
329,192,90750,1,0,0:0:0:0:
402,192,90825,1,0,0:0:0:0:
475,192,90825,1,0,0:0:0:0:
256,192,90900,1,0,0:0:0:0:
109,192,90900,1,0,0:0:0:0:
36,192,90900,1,0,0:0:0:0:
182,192,90900,1,0,0:0:0:0:
329,192,90975,1,0,0:0:0:0:
402,192,90975,1,0,0:0:0:0:
256,192,91050,1,0,0:0:0:0:
182,192,91050,1,0,0:0:0:0:
402,192,91125,1,0,0:0:0:0:
475,192,91125,1,0,0:0:0:0:
329,192,91200,1,0,0:0:0:0:
182,192,91200,1,0,0:0:0:0:
109,192,91200,1,0,0:0:0:0:
36,192,91200,1,0,0:0:0:0:
256,192,91275,1,0,0:0:0:0:
402,192,91275,1,0,0:0:0:0:
329,192,91350,1,0,0:0:0:0:
475,192,91350,1,0,0:0:0:0:
109,192,91425,1,0,0:0:0:0:
36,192,91425,1,0,0:0:0:0:
182,192,91500,1,0,0:0:0:0:
329,192,91500,1,0,0:0:0:0:
475,192,91500,1,0,0:0:0:0:
402,192,91500,1,0,0:0:0:0:
256,192,91575,1,0,0:0:0:0:
109,192,91575,1,0,0:0:0:0:
182,192,91650,1,0,0:0:0:0:
36,192,91650,1,0,0:0:0:0:
402,192,91725,1,0,0:0:0:0:
475,192,91725,1,0,0:0:0:0:
329,192,91800,1,0,0:0:0:0:
182,192,91800,1,0,0:0:0:0:
36,192,91800,1,0,0:0:0:0:
109,192,91800,1,0,0:0:0:0:
256,192,91875,1,0,0:0:0:0:
402,192,91875,1,0,0:0:0:0:
329,192,91950,1,0,0:0:0:0:
475,192,91950,1,0,0:0:0:0:
109,192,92025,1,0,0:0:0:0:
36,192,92025,1,0,0:0:0:0:
182,192,92100,1,0,0:0:0:0:
329,192,92100,1,0,0:0:0:0:
475,192,92100,1,0,0:0:0:0:
402,192,92100,1,0,0:0:0:0:
256,192,92175,1,0,0:0:0:0:
109,192,92175,1,0,0:0:0:0:
182,192,92250,1,0,0:0:0:0:
36,192,92250,1,0,0:0:0:0:
402,192,92325,1,0,0:0:0:0:
475,192,92325,1,0,0:0:0:0:
329,192,92400,1,0,0:0:0:0:
182,192,92400,1,0,0:0:0:0:
36,192,92400,128,0,93000:0:0:0:0:
256,192,92400,1,0,0:0:0:0:
402,192,92475,1,0,0:0:0:0:
475,192,92475,1,0,0:0:0:0:
182,192,92550,1,0,0:0:0:0:
109,192,92550,1,0,0:0:0:0:
329,192,92625,1,0,0:0:0:0:
402,192,92625,1,0,0:0:0:0:
475,192,92700,1,0,0:0:0:0:
109,192,92700,1,0,0:0:0:0:
182,192,92700,1,0,0:0:0:0:
256,192,92700,1,0,0:0:0:0:
329,192,92775,1,0,0:0:0:0:
402,192,92775,1,0,0:0:0:0:
182,192,92850,1,0,0:0:0:0:
109,192,92850,1,0,0:0:0:0:
475,192,92925,1,0,0:0:0:0:
402,192,92925,1,0,0:0:0:0:
256,192,93000,1,0,0:0:0:0:
182,192,93000,1,0,0:0:0:0:
109,192,93000,1,0,0:0:0:0:
329,192,93000,1,0,0:0:0:0:
475,192,93075,1,0,0:0:0:0:
256,192,93150,1,0,0:0:0:0:
182,192,93150,1,0,0:0:0:0:
402,192,93225,1,0,0:0:0:0:
182,192,93300,1,0,0:0:0:0:
36,192,93300,1,0,0:0:0:0:
475,192,93300,128,0,93600:0:0:0:0:
109,192,93300,1,0,0:0:0:0:
329,192,93375,1,0,0:0:0:0:
109,192,93450,1,0,0:0:0:0:
36,192,93450,1,0,0:0:0:0:
256,192,93525,1,0,0:0:0:0:
109,192,93600,1,0,0:0:0:0:
36,192,93600,1,0,0:0:0:0:
329,192,93600,128,0,93900:0:0:0:0:
402,192,93600,1,0,0:0:0:0:
182,192,93675,1,0,0:0:0:0:
109,192,93750,1,0,0:0:0:0:
36,192,93750,1,0,0:0:0:0:
256,192,93825,1,0,0:0:0:0:
109,192,93900,1,0,0:0:0:0:
36,192,93900,1,0,0:0:0:0:
182,192,93900,128,0,94050:0:0:0:0:
402,192,93900,1,0,0:0:0:0:
329,192,93975,1,0,0:0:0:0:
475,192,94050,1,0,0:0:0:0:
256,192,94050,128,0,94200:0:0:0:0:
182,192,94125,1,0,0:0:0:0:
402,192,94200,1,0,0:0:0:0:
475,192,94200,1,0,0:0:0:0:
36,192,94200,1,0,0:0:0:0:
109,192,94200,1,0,0:0:0:0:
182,192,94275,1,0,0:0:0:0:
329,192,94275,1,0,0:0:0:0:
109,192,94350,1,0,0:0:0:0:
256,192,94350,1,0,0:0:0:0:
402,192,94425,1,0,0:0:0:0:
475,192,94425,1,0,0:0:0:0:
256,192,94500,1,0,0:0:0:0:
109,192,94500,1,0,0:0:0:0:
36,192,94500,1,0,0:0:0:0:
182,192,94500,1,0,0:0:0:0:
329,192,94575,1,0,0:0:0:0:
402,192,94575,1,0,0:0:0:0:
182,192,94650,1,0,0:0:0:0:
109,192,94650,1,0,0:0:0:0:
256,192,94725,1,0,0:0:0:0:
329,192,94725,1,0,0:0:0:0:
109,192,94800,1,0,0:0:0:0:
36,192,94800,1,0,0:0:0:0:
475,192,94800,1,0,0:0:0:0:
402,192,94800,1,0,0:0:0:0:
182,192,94875,1,0,0:0:0:0:
329,192,94875,1,0,0:0:0:0:
256,192,94950,1,0,0:0:0:0:
36,192,94950,1,0,0:0:0:0:
329,192,95025,1,0,0:0:0:0:
475,192,95025,1,0,0:0:0:0:
182,192,95100,1,0,0:0:0:0:
109,192,95100,1,0,0:0:0:0:
36,192,95100,1,0,0:0:0:0:
256,192,95100,1,0,0:0:0:0:
402,192,95175,1,0,0:0:0:0:
475,192,95175,1,0,0:0:0:0:
109,192,95250,1,0,0:0:0:0:
36,192,95250,1,0,0:0:0:0:
182,192,95325,1,0,0:0:0:0:
329,192,95325,1,0,0:0:0:0:
475,192,95400,1,0,0:0:0:0:
109,192,95400,1,0,0:0:0:0:
36,192,95400,1,0,0:0:0:0:
402,192,95400,1,0,0:0:0:0:
329,192,95475,1,0,0:0:0:0:
182,192,95475,1,0,0:0:0:0:
402,192,95550,1,0,0:0:0:0:
475,192,95550,1,0,0:0:0:0:
109,192,95625,1,0,0:0:0:0:
36,192,95625,1,0,0:0:0:0:
256,192,95700,1,0,0:0:0:0:
402,192,95700,1,0,0:0:0:0:
475,192,95700,1,0,0:0:0:0:
329,192,95700,1,0,0:0:0:0:
182,192,95775,1,0,0:0:0:0:
329,192,95850,1,0,0:0:0:0:
182,192,95925,1,0,0:0:0:0:
256,192,96000,1,0,0:0:0:0:
36,192,96000,1,0,0:0:0:0:
475,192,96000,1,0,0:0:0:0:
329,192,96075,1,0,0:0:0:0:
402,192,96075,1,0,0:0:0:0:
109,192,96150,1,0,0:0:0:0:
36,192,96150,1,0,0:0:0:0:
402,192,96225,1,0,0:0:0:0:
475,192,96225,1,0,0:0:0:0:
329,192,96300,1,0,0:0:0:0:
182,192,96300,1,0,0:0:0:0:
36,192,96300,1,0,0:0:0:0:
256,192,96300,1,0,0:0:0:0:
402,192,96375,1,0,0:0:0:0:
475,192,96375,1,0,0:0:0:0:
256,192,96450,1,0,0:0:0:0:
109,192,96450,1,0,0:0:0:0:
329,192,96525,1,0,0:0:0:0:
402,192,96525,1,0,0:0:0:0:
182,192,96600,1,0,0:0:0:0:
36,192,96600,1,0,0:0:0:0:
475,192,96600,1,0,0:0:0:0:
256,192,96675,1,0,0:0:0:0:
329,192,96675,1,0,0:0:0:0:
182,192,96750,1,0,0:0:0:0:
109,192,96750,1,0,0:0:0:0:
329,192,96825,1,0,0:0:0:0:
402,192,96825,1,0,0:0:0:0:
256,192,96900,1,0,0:0:0:0:
36,192,96900,1,0,0:0:0:0:
109,192,96900,1,0,0:0:0:0:
182,192,96900,1,0,0:0:0:0:
402,192,96975,1,0,0:0:0:0:
475,192,96975,1,0,0:0:0:0:
329,192,97050,1,0,0:0:0:0:
182,192,97050,1,0,0:0:0:0:
109,192,97125,1,0,0:0:0:0:
36,192,97125,1,0,0:0:0:0:
475,192,97200,1,0,0:0:0:0:
329,192,97200,1,0,0:0:0:0:
402,192,97200,1,0,0:0:0:0:
256,192,97275,1,0,0:0:0:0:
182,192,97275,1,0,0:0:0:0:
109,192,97350,1,0,0:0:0:0:
402,192,97350,1,0,0:0:0:0:
329,192,97425,1,0,0:0:0:0:
256,192,97425,1,0,0:0:0:0:
475,192,97500,1,0,0:0:0:0:
182,192,97500,1,0,0:0:0:0:
36,192,97500,1,0,0:0:0:0:
109,192,97500,1,0,0:0:0:0:
329,192,97575,1,0,0:0:0:0:
402,192,97575,1,0,0:0:0:0:
256,192,97650,1,0,0:0:0:0:
109,192,97650,1,0,0:0:0:0:
402,192,97725,1,0,0:0:0:0:
475,192,97725,1,0,0:0:0:0:
329,192,97800,1,0,0:0:0:0:
182,192,97800,1,0,0:0:0:0:
36,192,97800,1,0,0:0:0:0:
402,192,97875,1,0,0:0:0:0:
475,192,97875,1,0,0:0:0:0:
256,192,97950,1,0,0:0:0:0:
109,192,97950,1,0,0:0:0:0:
329,192,98025,1,0,0:0:0:0:
402,192,98025,1,0,0:0:0:0:
475,192,98100,1,0,0:0:0:0:
182,192,98100,1,0,0:0:0:0:
36,192,98100,1,0,0:0:0:0:
109,192,98100,1,0,0:0:0:0:
329,192,98175,1,0,0:0:0:0:
256,192,98175,1,0,0:0:0:0:
475,192,98250,1,0,0:0:0:0:
402,192,98250,1,0,0:0:0:0:
182,192,98325,1,0,0:0:0:0:
256,192,98325,1,0,0:0:0:0:
329,192,98400,1,0,0:0:0:0:
109,192,98400,1,0,0:0:0:0:
36,192,98400,1,0,0:0:0:0:
402,192,98475,1,0,0:0:0:0:
475,192,98475,1,0,0:0:0:0:
182,192,98512,1,0,0:0:0:0:
256,192,98550,1,0,0:0:0:0:
329,192,98587,1,0,0:0:0:0:
475,192,98625,1,0,0:0:0:0:
109,192,98662,1,0,0:0:0:0:
182,192,98700,1,0,0:0:0:0:
402,192,98700,1,0,0:0:0:0:
256,192,98737,1,0,0:0:0:0:
36,192,98775,1,0,0:0:0:0:
475,192,98775,1,0,0:0:0:0:
109,192,98812,1,0,0:0:0:0:
182,192,98850,1,0,0:0:0:0:
329,192,98887,1,0,0:0:0:0:
475,192,98925,1,0,0:0:0:0:
109,192,98962,1,0,0:0:0:0:
182,192,99000,1,0,0:0:0:0:
402,192,99000,1,0,0:0:0:0:
256,192,99037,1,0,0:0:0:0:
36,192,99075,1,0,0:0:0:0:
182,192,99112,1,0,0:0:0:0:
256,192,99150,1,0,0:0:0:0:
329,192,99187,1,0,0:0:0:0:
475,192,99225,1,0,0:0:0:0:
109,192,99300,1,0,0:0:0:0:
36,192,99300,1,0,0:0:0:0:
256,192,99300,1,0,0:0:0:0:
182,192,99300,1,0,0:0:0:0:
402,192,99375,1,0,0:0:0:0:
475,192,99375,1,0,0:0:0:0:
329,192,99450,1,0,0:0:0:0:
182,192,99450,1,0,0:0:0:0:
109,192,99525,1,0,0:0:0:0:
36,192,99525,1,0,0:0:0:0:
256,192,99600,1,0,0:0:0:0:
402,192,99600,1,0,0:0:0:0:
475,192,99600,1,0,0:0:0:0:
182,192,99675,1,0,0:0:0:0:
109,192,99675,1,0,0:0:0:0:
329,192,99750,1,0,0:0:0:0:
402,192,99750,1,0,0:0:0:0:
256,192,99825,1,0,0:0:0:0:
36,192,99825,1,0,0:0:0:0:
182,192,99900,1,0,0:0:0:0:
475,192,99900,1,0,0:0:0:0:
329,192,99900,1,0,0:0:0:0:
402,192,99900,1,0,0:0:0:0:
109,192,99975,1,0,0:0:0:0:
36,192,99975,1,0,0:0:0:0:
256,192,100050,1,0,0:0:0:0:
402,192,100050,1,0,0:0:0:0:
182,192,100125,1,0,0:0:0:0:
109,192,100125,1,0,0:0:0:0:
36,192,100200,1,0,0:0:0:0:
475,192,100200,1,0,0:0:0:0:
256,192,100200,1,0,0:0:0:0:
329,192,100275,1,0,0:0:0:0:
182,192,100275,1,0,0:0:0:0:
402,192,100350,1,0,0:0:0:0:
475,192,100350,1,0,0:0:0:0:
256,192,100425,1,0,0:0:0:0:
109,192,100425,1,0,0:0:0:0:
329,192,100500,1,0,0:0:0:0:
402,192,100500,1,0,0:0:0:0:
475,192,100500,1,0,0:0:0:0:
36,192,100500,1,0,0:0:0:0:
182,192,100575,1,0,0:0:0:0:
109,192,100650,1,0,0:0:0:0:
329,192,100650,1,0,0:0:0:0:
402,192,100650,1,0,0:0:0:0:
475,192,100650,1,0,0:0:0:0:
256,192,100725,1,0,0:0:0:0:
475,192,100800,1,0,0:0:0:0:
36,192,100800,1,0,0:0:0:0:
402,192,100800,1,0,0:0:0:0:
109,192,100800,1,0,0:0:0:0:
182,192,100875,1,0,0:0:0:0:
329,192,100875,1,0,0:0:0:0:
109,192,100950,1,0,0:0:0:0:
36,192,100950,1,0,0:0:0:0:
182,192,101025,1,0,0:0:0:0:
256,192,101025,1,0,0:0:0:0:
36,192,101100,1,0,0:0:0:0:
475,192,101100,1,0,0:0:0:0:
402,192,101100,1,0,0:0:0:0:
329,192,101175,1,0,0:0:0:0:
182,192,101175,1,0,0:0:0:0:
402,192,101250,1,0,0:0:0:0:
475,192,101250,1,0,0:0:0:0:
329,192,101325,1,0,0:0:0:0:
109,192,101325,1,0,0:0:0:0:
475,192,101400,1,0,0:0:0:0:
36,192,101400,1,0,0:0:0:0:
256,192,101400,1,0,0:0:0:0:
109,192,101475,1,0,0:0:0:0:
402,192,101475,1,0,0:0:0:0:
329,192,101550,1,0,0:0:0:0:
182,192,101550,1,0,0:0:0:0:
256,192,101625,1,0,0:0:0:0:
36,192,101625,1,0,0:0:0:0:
475,192,101625,1,0,0:0:0:0:
182,192,101700,1,0,0:0:0:0:
329,192,101700,1,0,0:0:0:0:
402,192,101775,1,0,0:0:0:0:
109,192,101775,1,0,0:0:0:0:
475,192,101850,1,0,0:0:0:0:
36,192,101850,1,0,0:0:0:0:
256,192,101850,1,0,0:0:0:0:
402,192,101925,1,0,0:0:0:0:
109,192,101925,1,0,0:0:0:0:
329,192,102000,1,0,0:0:0:0:
182,192,102000,1,0,0:0:0:0:
256,192,102075,1,0,0:0:0:0:
36,192,102075,1,0,0:0:0:0:
475,192,102075,1,0,0:0:0:0:
182,192,102150,1,0,0:0:0:0:
402,192,102150,1,0,0:0:0:0:
109,192,102225,1,0,0:0:0:0:
329,192,102225,1,0,0:0:0:0:
256,192,102300,1,0,0:0:0:0:
36,192,102300,1,0,0:0:0:0:
475,192,102300,1,0,0:0:0:0:
329,192,102375,1,0,0:0:0:0:
182,192,102375,1,0,0:0:0:0:
256,192,102450,1,0,0:0:0:0:
36,192,102450,1,0,0:0:0:0:
475,192,102450,1,0,0:0:0:0:
109,192,102525,1,0,0:0:0:0:
402,192,102525,1,0,0:0:0:0:
329,192,102600,1,0,0:0:0:0:
182,192,102600,1,0,0:0:0:0:
475,192,102600,1,0,0:0:0:0:
109,192,102675,1,0,0:0:0:0:
36,192,102675,1,0,0:0:0:0:
256,192,102750,1,0,0:0:0:0:
402,192,102750,1,0,0:0:0:0:
182,192,102825,1,0,0:0:0:0:
109,192,102825,1,0,0:0:0:0:
329,192,102900,1,0,0:0:0:0:
402,192,102900,1,0,0:0:0:0:
475,192,102900,1,0,0:0:0:0:
36,192,102900,1,0,0:0:0:0:
256,192,102975,1,0,0:0:0:0:
182,192,102975,1,0,0:0:0:0:
329,192,103050,1,0,0:0:0:0:
475,192,103050,1,0,0:0:0:0:
36,192,103050,1,0,0:0:0:0:
109,192,103125,1,0,0:0:0:0:
182,192,103125,1,0,0:0:0:0:
475,192,103200,1,0,0:0:0:0:
256,192,103200,1,0,0:0:0:0:
36,192,103200,1,0,0:0:0:0:
402,192,103200,1,0,0:0:0:0:
182,192,103275,1,0,0:0:0:0:
109,192,103350,1,0,0:0:0:0:
329,192,103350,1,0,0:0:0:0:
402,192,103350,1,0,0:0:0:0:
256,192,103425,1,0,0:0:0:0:
182,192,103500,1,0,0:0:0:0:
36,192,103500,1,0,0:0:0:0:
402,192,103500,1,0,0:0:0:0:
475,192,103500,1,0,0:0:0:0:
329,192,103575,1,0,0:0:0:0:
256,192,103650,1,0,0:0:0:0:
475,192,103650,1,0,0:0:0:0:
109,192,103650,1,0,0:0:0:0:
402,192,103725,1,0,0:0:0:0:
36,192,103800,1,0,0:0:0:0:
109,192,103818,1,0,0:0:0:0:
182,192,103837,1,0,0:0:0:0:
256,192,103856,1,0,0:0:0:0:
329,192,103875,1,0,0:0:0:0:
402,192,103893,1,0,0:0:0:0:
475,192,103912,1,0,0:0:0:0:
36,192,103925,1,0,0:0:0:0:
109,192,103950,1,0,0:0:0:0:
182,192,103975,1,0,0:0:0:0:
256,192,104000,1,0,0:0:0:0:
329,192,104025,1,0,0:0:0:0:
402,192,104050,1,0,0:0:0:0:
475,192,104075,1,0,0:0:0:0:
36,192,104100,1,0,0:0:0:0:
109,192,104137,1,0,0:0:0:0:
182,192,104175,1,0,0:0:0:0:
402,192,104200,1,0,0:0:0:0:
329,192,104250,1,0,0:0:0:0:
256,192,104300,1,0,0:0:0:0:
182,192,104350,1,0,0:0:0:0:
109,192,104400,1,0,0:0:0:0:
36,192,104400,1,0,0:0:0:0:
402,192,104400,1,0,0:0:0:0:
475,192,104400,1,0,0:0:0:0:
329,192,104400,1,0,0:0:0:0:
182,192,105000,1,0,0:0:0:0:
329,192,105050,1,0,0:0:0:0:
182,192,105100,1,0,0:0:0:0:
329,192,105150,1,0,0:0:0:0:
182,192,105200,1,0,0:0:0:0:
329,192,105250,1,0,0:0:0:0:
109,192,105300,128,0,105550:0:0:0:0:
182,192,105350,128,0,105550:0:0:0:0:
256,192,105400,128,0,105550:0:0:0:0:
329,192,105450,128,0,105550:0:0:0:0:
402,192,105500,128,0,105550:0:0:0:0:
256,192,105600,1,0,0:0:0:0:
475,192,105600,1,0,0:0:0:0:
36,192,105600,1,0,0:0:0:0:
402,192,105600,128,0,106050:0:0:0:0:
182,192,105675,1,0,0:0:0:0:
109,192,105750,1,0,0:0:0:0:
329,192,105750,1,0,0:0:0:0:
256,192,105825,1,0,0:0:0:0:
182,192,105900,128,0,106050:0:0:0:0:
475,192,105900,1,0,0:0:0:0:
36,192,105900,1,0,0:0:0:0:
256,192,105975,1,0,0:0:0:0:
329,192,106050,128,0,106200:0:0:0:0:
109,192,106050,1,0,0:0:0:0:
182,192,106125,1,0,0:0:0:0:
475,192,106200,128,0,106650:0:0:0:0:
36,192,106200,1,0,0:0:0:0:
256,192,106200,1,0,0:0:0:0:
182,192,106275,1,0,0:0:0:0:
109,192,106350,1,0,0:0:0:0:
256,192,106425,128,0,106650:0:0:0:0:
36,192,106500,1,0,0:0:0:0:
402,192,106500,1,0,0:0:0:0:
329,192,106575,1,0,0:0:0:0:
182,192,106650,128,0,106800:0:0:0:0:
109,192,106650,1,0,0:0:0:0:
256,192,106725,1,0,0:0:0:0:
36,192,106800,1,0,0:0:0:0:
329,192,106800,128,0,107250:0:0:0:0:
402,192,106875,1,0,0:0:0:0:
475,192,106950,128,0,107100:0:0:0:0:
256,192,106950,1,0,0:0:0:0:
109,192,107025,1,0,0:0:0:0:
182,192,107100,128,0,107550:0:0:0:0:
402,192,107100,1,0,0:0:0:0:
256,192,107175,1,0,0:0:0:0:
475,192,107250,1,0,0:0:0:0:
109,192,107250,1,0,0:0:0:0:
402,192,107325,1,0,0:0:0:0:
36,192,107400,1,0,0:0:0:0:
329,192,107400,1,0,0:0:0:0:
402,192,107475,1,0,0:0:0:0:
475,192,107550,1,0,0:0:0:0:
256,192,107550,1,0,0:0:0:0:
329,192,107625,1,0,0:0:0:0:
36,192,107700,1,0,0:0:0:0:
402,192,107700,1,0,0:0:0:0:
109,192,107700,1,0,0:0:0:0:
182,192,107775,1,0,0:0:0:0:
256,192,107850,1,0,0:0:0:0:
475,192,107850,1,0,0:0:0:0:
182,192,107925,1,0,0:0:0:0:
36,192,108000,1,0,0:0:0:0:
329,192,108000,128,0,108300:0:0:0:0:
109,192,108000,1,0,0:0:0:0:
256,192,108075,1,0,0:0:0:0:
182,192,108150,128,0,108300:0:0:0:0:
475,192,108150,1,0,0:0:0:0:
256,192,108225,1,0,0:0:0:0:
402,192,108300,128,0,108600:0:0:0:0:
109,192,108300,1,0,0:0:0:0:
36,192,108300,1,0,0:0:0:0:
182,192,108375,1,0,0:0:0:0:
256,192,108450,128,0,108600:0:0:0:0:
329,192,108450,1,0,0:0:0:0:
182,192,108525,1,0,0:0:0:0:
475,192,108600,128,0,108825:0:0:0:0:
36,192,108600,1,0,0:0:0:0:
109,192,108600,1,0,0:0:0:0:
329,192,108675,1,0,0:0:0:0:
182,192,108750,1,0,0:0:0:0:
329,192,108825,1,0,0:0:0:0:
475,192,108900,128,0,109800:0:0:0:0:
36,192,108900,1,0,0:0:0:0:
256,192,108900,1,0,0:0:0:0:
182,192,108975,1,0,0:0:0:0:
402,192,109050,1,0,0:0:0:0:
256,192,109125,1,0,0:0:0:0:
36,192,109200,1,0,0:0:0:0:
329,192,109200,1,0,0:0:0:0:
109,192,109200,1,0,0:0:0:0:
182,192,109275,1,0,0:0:0:0:
256,192,109350,1,0,0:0:0:0:
402,192,109350,1,0,0:0:0:0:
109,192,109425,1,0,0:0:0:0:
329,192,109500,1,0,0:0:0:0:
402,192,109500,1,0,0:0:0:0:
182,192,109500,1,0,0:0:0:0:
36,192,109575,1,0,0:0:0:0:
109,192,109650,1,0,0:0:0:0:
256,192,109650,1,0,0:0:0:0:
329,192,109725,1,0,0:0:0:0:
36,192,109800,1,0,0:0:0:0:
402,192,109800,1,0,0:0:0:0:
182,192,109800,1,0,0:0:0:0:
256,192,109875,1,0,0:0:0:0:
329,192,109950,1,0,0:0:0:0:
109,192,109950,1,0,0:0:0:0:
256,192,110025,1,0,0:0:0:0:
182,192,110100,1,0,0:0:0:0:
402,192,110100,1,0,0:0:0:0:
475,192,110100,1,0,0:0:0:0:
329,192,110175,1,0,0:0:0:0:
256,192,110250,1,0,0:0:0:0:
36,192,110250,1,0,0:0:0:0:
109,192,110250,1,0,0:0:0:0:
182,192,110325,1,0,0:0:0:0:
329,192,110325,1,0,0:0:0:0:
402,192,110325,1,0,0:0:0:0:
109,192,110400,128,0,110850:0:0:0:0:
475,192,110400,128,0,110450:0:0:0:0:
36,192,110400,1,0,0:0:0:0:
256,192,110450,128,0,110500:0:0:0:0:
402,192,110500,128,0,110550:0:0:0:0:
182,192,110550,128,0,110600:0:0:0:0:
329,192,110600,128,0,110650:0:0:0:0:
36,192,110650,128,0,110700:0:0:0:0:
402,192,110700,128,0,111000:0:0:0:0:
256,192,110700,128,0,110750:0:0:0:0:
475,192,110750,128,0,110800:0:0:0:0:
36,192,110800,128,0,110850:0:0:0:0:
256,192,110850,128,0,111150:0:0:0:0:
475,192,110900,128,0,110950:0:0:0:0:
329,192,110950,128,0,111000:0:0:0:0:
109,192,111000,128,0,111300:0:0:0:0:
36,192,111000,128,0,111050:0:0:0:0:
182,192,111050,128,0,111100:0:0:0:0:
329,192,111100,128,0,111150:0:0:0:0:
475,192,111150,128,0,111200:0:0:0:0:
256,192,111200,128,0,111250:0:0:0:0:
36,192,111250,128,0,111300:0:0:0:0:
329,192,111300,128,0,111600:0:0:0:0:
475,192,111300,128,0,111350:0:0:0:0:
109,192,111350,128,0,111400:0:0:0:0:
402,192,111400,128,0,111450:0:0:0:0:
182,192,111450,128,0,111750:0:0:0:0:
109,192,111500,128,0,111550:0:0:0:0:
402,192,111550,128,0,111600:0:0:0:0:
36,192,111600,128,0,111900:0:0:0:0:
256,192,111600,128,0,111650:0:0:0:0:
475,192,111650,128,0,111700:0:0:0:0:
109,192,111700,128,0,111750:0:0:0:0:
256,192,111750,128,0,112050:0:0:0:0:
475,192,111800,128,0,111850:0:0:0:0:
182,192,111850,128,0,111900:0:0:0:0:
402,192,111900,128,0,112350:0:0:0:0:
109,192,111950,128,0,112000:0:0:0:0:
329,192,112000,128,0,112050:0:0:0:0:
36,192,112050,128,0,112100:0:0:0:0:
256,192,112100,128,0,112150:0:0:0:0:
475,192,112150,128,0,112200:0:0:0:0:
182,192,112200,128,0,112250:0:0:0:0:
329,192,112250,128,0,112300:0:0:0:0:
109,192,112300,128,0,112350:0:0:0:0:
256,192,112350,128,0,112400:0:0:0:0:
36,192,112400,128,0,112450:0:0:0:0:
182,192,112450,128,0,112500:0:0:0:0:
329,192,112500,128,0,112550:0:0:0:0:
109,192,112550,128,0,112600:0:0:0:0:
256,192,112600,128,0,112650:0:0:0:0:
402,192,112650,128,0,112700:0:0:0:0:
329,192,112700,128,0,112750:0:0:0:0:
256,192,112750,128,0,112800:0:0:0:0:
182,192,112800,128,0,113100:0:0:0:0:
109,192,112800,1,0,0:0:0:0:
402,192,112850,128,0,112900:0:0:0:0:
36,192,112900,128,0,112950:0:0:0:0:
329,192,112950,128,0,113100:0:0:0:0:
475,192,113000,128,0,113050:0:0:0:0:
256,192,113050,128,0,113100:0:0:0:0:
109,192,113100,128,0,113400:0:0:0:0:
402,192,113100,128,0,113150:0:0:0:0:
182,192,113150,128,0,113200:0:0:0:0:
329,192,113200,128,0,113250:0:0:0:0:
475,192,113250,128,0,113400:0:0:0:0:
256,192,113300,128,0,113350:0:0:0:0:
402,192,113350,128,0,113400:0:0:0:0:
36,192,113400,128,0,113625:0:0:0:0:
182,192,113400,128,0,113450:0:0:0:0:
329,192,113450,128,0,113500:0:0:0:0:
109,192,113500,128,0,113550:0:0:0:0:
402,192,113550,128,0,113600:0:0:0:0:
256,192,113600,128,0,113650:0:0:0:0:
475,192,113650,128,0,113700:0:0:0:0:
36,192,113700,128,0,114600:0:0:0:0:
329,192,113700,128,0,113750:0:0:0:0:
402,192,113750,128,0,113800:0:0:0:0:
475,192,113800,128,0,113850:0:0:0:0:
256,192,113850,128,0,113900:0:0:0:0:
109,192,113900,128,0,113950:0:0:0:0:
329,192,113950,128,0,114000:0:0:0:0:
182,192,114000,128,0,114050:0:0:0:0:
402,192,114050,128,0,114100:0:0:0:0:
256,192,114100,128,0,114150:0:0:0:0:
475,192,114150,128,0,114200:0:0:0:0:
329,192,114200,128,0,114250:0:0:0:0:
109,192,114250,128,0,114300:0:0:0:0:
256,192,114300,128,0,114350:0:0:0:0:
402,192,114350,128,0,114400:0:0:0:0:
182,192,114400,128,0,114450:0:0:0:0:
329,192,114450,128,0,114500:0:0:0:0:
109,192,114500,128,0,114550:0:0:0:0:
256,192,114525,128,0,114575:0:0:0:0:
475,192,114600,1,0,0:0:0:0:
182,192,114600,1,0,0:0:0:0:
402,192,114618,1,0,0:0:0:0:
329,192,114637,1,0,0:0:0:0:
475,192,114750,1,0,0:0:0:0:
402,192,114768,1,0,0:0:0:0:
329,192,114787,1,0,0:0:0:0:
182,192,114825,1,0,0:0:0:0:
109,192,114843,1,0,0:0:0:0:
36,192,114862,1,0,0:0:0:0:
329,192,114900,1,0,0:0:0:0:
402,192,114918,1,0,0:0:0:0:
475,192,114937,1,0,0:0:0:0:
36,192,114975,1,0,0:0:0:0:
109,192,114993,1,0,0:0:0:0:
182,192,115012,1,0,0:0:0:0:
475,192,115050,1,0,0:0:0:0:
402,192,115068,1,0,0:0:0:0:
329,192,115087,1,0,0:0:0:0:
256,192,115125,1,0,0:0:0:0:
182,192,115162,1,0,0:0:0:0:
402,192,115200,128,0,115350:0:0:0:0:
475,192,115200,128,0,115387:0:0:0:0:
109,192,115200,128,0,115425:0:0:0:0:
36,192,115200,128,0,115425:0:0:0:0:
329,192,115275,128,0,115312:0:0:0:0:
182,192,115350,128,0,115612:0:0:0:0:
256,192,115387,128,0,115575:0:0:0:0:
329,192,115425,128,0,115537:0:0:0:0:
402,192,115462,128,0,115500:0:0:0:0:
475,192,115500,128,0,115725:0:0:0:0:
109,192,115500,128,0,115650:0:0:0:0:
36,192,115500,128,0,115687:0:0:0:0:
329,192,115650,128,0,115912:0:0:0:0:
256,192,115687,128,0,115875:0:0:0:0:
182,192,115725,128,0,115837:0:0:0:0:
109,192,115762,128,0,115800:0:0:0:0:
402,192,115800,128,0,115950:0:0:0:0:
475,192,115800,128,0,115987:0:0:0:0:
36,192,115800,128,0,116025:0:0:0:0:
182,192,115950,128,0,116287:0:0:0:0:
256,192,115987,128,0,116250:0:0:0:0:
329,192,116025,128,0,116212:0:0:0:0:
402,192,116062,128,0,116175:0:0:0:0:
475,192,116100,128,0,116137:0:0:0:0:
109,192,116100,128,0,116325:0:0:0:0:
36,192,116100,128,0,116325:0:0:0:0:
475,192,116250,128,0,116325:0:0:0:0:
402,192,116287,128,0,116400:0:0:0:0:
329,192,116325,128,0,116437:0:0:0:0:
256,192,116362,128,0,116475:0:0:0:0:
475,192,116400,128,0,116587:0:0:0:0:
182,192,116400,128,0,116475:0:0:0:0:
109,192,116400,128,0,116625:0:0:0:0:
36,192,116400,128,0,116625:0:0:0:0:
402,192,116475,128,0,116550:0:0:0:0:
182,192,116550,128,0,116700:0:0:0:0:
256,192,116587,128,0,116700:0:0:0:0:
329,192,116625,128,0,116700:0:0:0:0:
402,192,116662,128,0,116700:0:0:0:0:
475,192,116700,1,0,0:0:0:0:
109,192,116700,128,0,116756:0:0:0:0:
36,192,116700,128,0,116756:0:0:0:0:
182,192,116775,128,0,116831:0:0:0:0:
329,192,116775,128,0,116831:0:0:0:0:
109,192,116850,128,0,116906:0:0:0:0:
36,192,116850,128,0,116906:0:0:0:0:
475,192,116850,128,0,116906:0:0:0:0:
402,192,116887,128,0,116943:0:0:0:0:
182,192,116925,128,0,116981:0:0:0:0:
329,192,116925,128,0,116981:0:0:0:0:
109,192,117000,1,0,0:0:0:0:
36,192,117000,1,0,0:0:0:0:
402,192,117000,1,0,0:0:0:0:
475,192,117000,1,0,0:0:0:0:
256,192,117000,128,0,117375:0:0:0:0:
329,192,117150,1,0,0:0:0:0:
182,192,117150,1,0,0:0:0:0:
182,192,117300,128,0,117525:0:0:0:0:
109,192,117300,1,0,0:0:0:0:
475,192,117300,1,0,0:0:0:0:
402,192,117300,1,0,0:0:0:0:
109,192,117450,128,0,117675:0:0:0:0:
36,192,117450,1,0,0:0:0:0:
329,192,117450,1,0,0:0:0:0:
36,192,117600,128,0,117825:0:0:0:0:
329,192,117600,128,0,117656:0:0:0:0:
475,192,117600,128,0,117825:0:0:0:0:
182,192,117675,128,0,117731:0:0:0:0:
402,192,117750,128,0,117862:0:0:0:0:
329,192,117787,128,0,117900:0:0:0:0:
256,192,117825,128,0,117937:0:0:0:0:
182,192,117862,128,0,117975:0:0:0:0:
475,192,117900,128,0,118125:0:0:0:0:
36,192,117900,128,0,118125:0:0:0:0:
329,192,117975,128,0,118068:0:0:0:0:
402,192,118050,128,0,118125:0:0:0:0:
109,192,118050,128,0,118162:0:0:0:0:
182,192,118087,128,0,118200:0:0:0:0:
256,192,118125,128,0,118237:0:0:0:0:
329,192,118162,128,0,118275:0:0:0:0:
475,192,118200,128,0,118425:0:0:0:0:
36,192,118200,128,0,118425:0:0:0:0:
182,192,118275,128,0,118368:0:0:0:0:
109,192,118350,128,0,118425:0:0:0:0:
402,192,118350,128,0,118462:0:0:0:0:
329,192,118387,128,0,118500:0:0:0:0:
256,192,118425,128,0,118537:0:0:0:0:
182,192,118462,128,0,118575:0:0:0:0:
109,192,118500,128,0,118687:0:0:0:0:
36,192,118500,128,0,118725:0:0:0:0:
475,192,118500,128,0,118725:0:0:0:0:
402,192,118575,128,0,118650:0:0:0:0:
182,192,118650,128,0,118743:0:0:0:0:
256,192,118687,128,0,118762:0:0:0:0:
329,192,118725,128,0,118781:0:0:0:0:
402,192,118762,128,0,118800:0:0:0:0:
475,192,118800,1,0,0:0:0:0:
36,192,118800,1,0,0:0:0:0:
109,192,118800,128,0,118875:0:0:0:0:
182,192,118818,128,0,118856:0:0:0:0:
402,192,118875,128,0,118950:0:0:0:0:
329,192,118893,128,0,118931:0:0:0:0:
36,192,118950,128,0,119025:0:0:0:0:
109,192,118968,128,0,119006:0:0:0:0:
475,192,119025,128,0,119100:0:0:0:0:
402,192,119043,128,0,119081:0:0:0:0:
256,192,119100,1,0,0:0:0:0:
109,192,119100,128,0,119212:0:0:0:0:
36,192,119100,128,0,119212:0:0:0:0:
329,192,119175,1,0,0:0:0:0:
182,192,119175,128,0,119287:0:0:0:0:
402,192,119250,1,0,0:0:0:0:
475,192,119250,1,0,0:0:0:0:
256,192,119250,128,0,119362:0:0:0:0:
109,192,119287,1,0,0:0:0:0:
329,192,119325,128,0,119437:0:0:0:0:
182,192,119362,1,0,0:0:0:0:
402,192,119400,128,0,119512:0:0:0:0:
475,192,119400,128,0,119512:0:0:0:0:
36,192,119400,128,0,119550:0:0:0:0:
109,192,119475,128,0,119550:0:0:0:0:
329,192,119550,128,0,119662:0:0:0:0:
256,192,119587,128,0,119700:0:0:0:0:
182,192,119625,128,0,119737:0:0:0:0:
109,192,119662,128,0,119775:0:0:0:0:
36,192,119700,128,0,119925:0:0:0:0:
475,192,119700,128,0,119775:0:0:0:0:
402,192,119700,128,0,119737:0:0:0:0:
109,192,119850,128,0,119925:0:0:0:0:
182,192,119850,128,0,120075:0:0:0:0:
402,192,119850,128,0,119925:0:0:0:0:
329,192,119850,128,0,119887:0:0:0:0:
109,192,120000,128,0,120075:0:0:0:0:
36,192,120000,128,0,120075:0:0:0:0:
475,192,120000,128,0,120075:0:0:0:0:
402,192,120000,128,0,120037:0:0:0:0:
402,192,120150,128,0,120225:0:0:0:0:
329,192,120150,128,0,120187:0:0:0:0:
182,192,120150,128,0,120187:0:0:0:0:
109,192,120150,128,0,120225:0:0:0:0:
329,192,120300,128,0,120375:0:0:0:0:
256,192,120300,128,0,120337:0:0:0:0:
182,192,120300,128,0,120375:0:0:0:0:
36,192,120300,128,0,120525:0:0:0:0:
475,192,120300,128,0,120525:0:0:0:0:
402,192,120450,128,0,120562:0:0:0:0:
329,192,120487,128,0,120600:0:0:0:0:
256,192,120525,128,0,120637:0:0:0:0:
182,192,120562,128,0,120675:0:0:0:0:
475,192,120600,128,0,120825:0:0:0:0:
36,192,120600,128,0,120825:0:0:0:0:
329,192,120675,1,0,0:0:0:0:
402,192,120750,1,0,0:0:0:0:
109,192,120750,128,0,120862:0:0:0:0:
182,192,120787,128,0,120900:0:0:0:0:
256,192,120825,128,0,120937:0:0:0:0:
329,192,120862,128,0,120975:0:0:0:0:
475,192,120900,128,0,121125:0:0:0:0:
36,192,120900,128,0,121125:0:0:0:0:
402,192,120900,128,0,120975:0:0:0:0:
182,192,120975,1,0,0:0:0:0:
109,192,121050,1,0,0:0:0:0:
402,192,121050,128,0,121162:0:0:0:0:
329,192,121087,128,0,121200:0:0:0:0:
256,192,121125,128,0,121237:0:0:0:0:
182,192,121162,128,0,121275:0:0:0:0:
475,192,121200,1,0,0:0:0:0:
109,192,121200,128,0,121275:0:0:0:0:
36,192,121200,128,0,121275:0:0:0:0:
402,192,121250,1,0,0:0:0:0:
329,192,121300,1,0,0:0:0:0:
256,192,121350,1,0,0:0:0:0:
182,192,121400,1,0,0:0:0:0:
109,192,121450,1,0,0:0:0:0:
36,192,121500,1,0,0:0:0:0:
329,192,121500,1,0,0:0:0:0:
402,192,121500,128,0,121537:0:0:0:0:
475,192,121500,128,0,121575:0:0:0:0:
109,192,121550,1,0,0:0:0:0:
182,192,121600,1,0,0:0:0:0:
256,192,121650,1,0,0:0:0:0:
329,192,121700,1,0,0:0:0:0:
402,192,121750,1,0,0:0:0:0:
475,192,121800,1,0,0:0:0:0:
182,192,121800,1,0,0:0:0:0:
109,192,121800,128,0,121837:0:0:0:0:
36,192,121800,128,0,121875:0:0:0:0:
402,192,121850,1,0,0:0:0:0:
329,192,121900,1,0,0:0:0:0:
256,192,121950,1,0,0:0:0:0:
182,192,122000,1,0,0:0:0:0:
109,192,122050,1,0,0:0:0:0:
36,192,122100,1,0,0:0:0:0:
475,192,122100,1,0,0:0:0:0:
402,192,122100,1,0,0:0:0:0:
329,192,122150,1,0,0:0:0:0:
182,192,122200,1,0,0:0:0:0:
36,192,122250,1,0,0:0:0:0:
475,192,122250,1,0,0:0:0:0:
109,192,122250,1,0,0:0:0:0:
402,192,122250,1,0,0:0:0:0:
329,192,122300,1,0,0:0:0:0:
182,192,122350,1,0,0:0:0:0:
36,192,122400,1,0,0:0:0:0:
475,192,122400,1,0,0:0:0:0:
109,192,122400,1,0,0:0:0:0:
402,192,122400,1,0,0:0:0:0:
475,192,122550,1,0,0:0:0:0:
109,192,122550,1,0,0:0:0:0:
36,192,122550,1,0,0:0:0:0:
256,192,122550,1,0,0:0:0:0:
182,192,122625,1,0,0:0:0:0:
329,192,122625,1,0,0:0:0:0:
402,192,122700,1,0,0:0:0:0:
256,192,122700,1,0,0:0:0:0:
36,192,122700,128,0,122925:0:0:0:0:
475,192,122700,128,0,122925:0:0:0:0:
182,192,122850,128,0,122962:0:0:0:0:
256,192,122887,128,0,123000:0:0:0:0:
329,192,122925,128,0,123037:0:0:0:0:
402,192,122962,128,0,123075:0:0:0:0:
475,192,123000,128,0,123112:0:0:0:0:
109,192,123000,128,0,123150:0:0:0:0:
36,192,123000,128,0,123150:0:0:0:0:
182,192,123075,1,0,0:0:0:0:
329,192,123150,128,0,123225:0:0:0:0:
256,192,123187,128,0,123262:0:0:0:0:
182,192,123225,128,0,123300:0:0:0:0:
109,192,123262,128,0,123337:0:0:0:0:
402,192,123300,1,0,0:0:0:0:
475,192,123300,1,0,0:0:0:0:
36,192,123300,128,0,123375:0:0:0:0:
182,192,123375,1,0,0:0:0:0:
329,192,123375,1,0,0:0:0:0:
109,192,123450,1,0,0:0:0:0:
36,192,123450,1,0,0:0:0:0:
402,192,123450,1,0,0:0:0:0:
475,192,123450,1,0,0:0:0:0:
329,192,123525,1,0,0:0:0:0:
182,192,123525,1,0,0:0:0:0:
109,192,123600,1,0,0:0:0:0:
36,192,123600,1,0,0:0:0:0:
475,192,123600,1,0,0:0:0:0:
402,192,123600,128,0,123900:0:0:0:0:
256,192,123600,1,0,0:0:0:0:
256,192,123750,128,0,123900:0:0:0:0:
475,192,123900,128,0,124200:0:0:0:0:
109,192,123900,1,0,0:0:0:0:
36,192,123900,1,0,0:0:0:0:
182,192,123975,1,0,0:0:0:0:
329,192,124050,128,0,124200:0:0:0:0:
109,192,124050,1,0,0:0:0:0:
36,192,124050,1,0,0:0:0:0:
256,192,124125,1,0,0:0:0:0:
36,192,124200,128,0,124462:0:0:0:0:
109,192,124237,1,0,0:0:0:0:
182,192,124275,1,0,0:0:0:0:
256,192,124312,1,0,0:0:0:0:
329,192,124350,1,0,0:0:0:0:
402,192,124387,1,0,0:0:0:0:
475,192,124425,1,0,0:0:0:0:
36,192,124500,128,0,124800:0:0:0:0:
256,192,124500,1,0,0:0:0:0:
182,192,124518,1,0,0:0:0:0:
109,192,124537,1,0,0:0:0:0:
475,192,124650,1,0,0:0:0:0:
256,192,124650,1,0,0:0:0:0:
402,192,124668,1,0,0:0:0:0:
329,192,124687,1,0,0:0:0:0:
475,192,124800,1,0,0:0:0:0:
402,192,124800,1,0,0:0:0:0:
182,192,124800,1,0,0:0:0:0:
109,192,124800,1,0,0:0:0:0:
109,192,125999,128,0,126299:0:0:0:0:
182,192,126042,128,0,126342:0:0:0:0:
329,192,126085,128,0,126385:0:0:0:0:
402,192,126128,128,0,126428:0:0:0:0:
256,192,126300,128,0,126900:0:0:0:0:
475,192,126675,128,0,126900:0:0:0:0:
36,192,127200,128,0,128025:0:0:0:0:
256,192,127200,1,0,0:0:0:0:
475,192,127200,1,0,0:0:0:0:
109,192,127500,128,0,128625:0:0:0:0:
182,192,127800,128,0,128175:0:0:0:0:
36,192,128100,128,0,128325:0:0:0:0:
182,192,128250,128,0,128925:0:0:0:0:
36,192,128400,128,0,129000:0:0:0:0:
109,192,128700,128,0,129300:0:0:0:0:
182,192,129000,128,0,129600:0:0:0:0:
402,192,129600,128,0,131025:0:0:0:0:
475,192,129900,128,0,130425:0:0:0:0:
329,192,130200,128,0,130575:0:0:0:0:
475,192,130500,128,0,130725:0:0:0:0:
329,192,130650,128,0,131325:0:0:0:0:
475,192,130800,128,0,131400:0:0:0:0:
402,192,131100,128,0,131700:0:0:0:0:
329,192,131400,128,0,132000:0:0:0:0:
109,192,131850,1,0,0:0:0:0:
182,192,131925,1,0,0:0:0:0:
36,192,132000,128,0,132825:0:0:0:0:
402,192,132000,1,0,0:0:0:0:
256,192,132075,1,0,0:0:0:0:
475,192,132150,1,0,0:0:0:0:
329,192,132225,1,0,0:0:0:0:
109,192,132300,128,0,133425:0:0:0:0:
182,192,132300,1,0,0:0:0:0:
402,192,132375,1,0,0:0:0:0:
256,192,132450,1,0,0:0:0:0:
475,192,132525,1,0,0:0:0:0:
182,192,132600,128,0,132975:0:0:0:0:
329,192,132600,1,0,0:0:0:0:
475,192,132675,1,0,0:0:0:0:
256,192,132750,1,0,0:0:0:0:
402,192,132825,1,0,0:0:0:0:
36,192,132900,128,0,133125:0:0:0:0:
256,192,132900,1,0,0:0:0:0:
182,192,133050,128,0,133725:0:0:0:0:
475,192,133050,1,0,0:0:0:0:
36,192,133200,128,0,133800:0:0:0:0:
475,192,133200,1,0,0:0:0:0:
329,192,133350,1,0,0:0:0:0:
475,192,133425,1,0,0:0:0:0:
109,192,133500,128,0,134100:0:0:0:0:
329,192,133500,1,0,0:0:0:0:
182,192,133800,128,0,134400:0:0:0:0:
475,192,133800,1,0,0:0:0:0:
475,192,133950,1,0,0:0:0:0:
475,192,134100,1,0,0:0:0:0:
475,192,134250,1,0,0:0:0:0:
402,192,134400,128,0,135825:0:0:0:0:
36,192,134400,1,0,0:0:0:0:
475,192,134700,128,0,135225:0:0:0:0:
182,192,134850,1,0,0:0:0:0:
36,192,134925,1,0,0:0:0:0:
329,192,135000,128,0,135375:0:0:0:0:
182,192,135000,1,0,0:0:0:0:
475,192,135300,128,0,135525:0:0:0:0:
36,192,135300,1,0,0:0:0:0:
182,192,135375,1,0,0:0:0:0:
329,192,135450,128,0,136125:0:0:0:0:
36,192,135450,1,0,0:0:0:0:
109,192,135450,128,0,136800:0:0:0:0:
475,192,135600,128,0,136200:0:0:0:0:
36,192,135600,1,0,0:0:0:0:
36,192,135825,1,0,0:0:0:0:
402,192,135900,128,0,136500:0:0:0:0:
182,192,135900,1,0,0:0:0:0:
329,192,136200,128,0,136800:0:0:0:0:
36,192,136800,128,0,137625:0:0:0:0:
256,192,136800,1,0,0:0:0:0:
475,192,136800,1,0,0:0:0:0:
329,192,137025,1,0,0:0:0:0:
109,192,137100,128,0,138225:0:0:0:0:
256,192,137100,1,0,0:0:0:0:
402,192,137100,1,0,0:0:0:0:
475,192,137100,1,0,0:0:0:0:
402,192,137250,1,0,0:0:0:0:
182,192,137400,128,0,137775:0:0:0:0:
256,192,137400,1,0,0:0:0:0:
475,192,137400,1,0,0:0:0:0:
475,192,137550,1,0,0:0:0:0:
36,192,137700,128,0,137925:0:0:0:0:
256,192,137700,1,0,0:0:0:0:
402,192,137700,1,0,0:0:0:0:
182,192,137850,128,0,138525:0:0:0:0:
402,192,137850,1,0,0:0:0:0:
36,192,138000,128,0,138600:0:0:0:0:
256,192,138000,1,0,0:0:0:0:
475,192,138000,1,0,0:0:0:0:
256,192,138150,1,0,0:0:0:0:
109,192,138300,128,0,138900:0:0:0:0:
329,192,138300,1,0,0:0:0:0:
475,192,138300,1,0,0:0:0:0:
329,192,138450,1,0,0:0:0:0:
475,192,138525,1,0,0:0:0:0:
182,192,138600,128,0,139200:0:0:0:0:
329,192,138600,1,0,0:0:0:0:
256,192,138600,1,0,0:0:0:0:
475,192,138675,1,0,0:0:0:0:
256,192,138750,1,0,0:0:0:0:
402,192,138825,1,0,0:0:0:0:
256,192,138900,1,0,0:0:0:0:
475,192,138975,1,0,0:0:0:0:
329,192,139050,1,0,0:0:0:0:
475,192,139125,1,0,0:0:0:0:
402,192,139200,128,0,140625:0:0:0:0:
256,192,139200,1,0,0:0:0:0:
36,192,139200,1,0,0:0:0:0:
182,192,139275,1,0,0:0:0:0:
36,192,139350,1,0,0:0:0:0:
256,192,139425,1,0,0:0:0:0:
475,192,139500,128,0,140025:0:0:0:0:
109,192,139500,1,0,0:0:0:0:
329,192,139575,1,0,0:0:0:0:
36,192,139650,1,0,0:0:0:0:
182,192,139650,1,0,0:0:0:0:
256,192,139725,1,0,0:0:0:0:
329,192,139800,128,0,140175:0:0:0:0:
109,192,139800,1,0,0:0:0:0:
36,192,139800,1,0,0:0:0:0:
256,192,139875,1,0,0:0:0:0:
36,192,139950,1,0,0:0:0:0:
182,192,140025,1,0,0:0:0:0:
475,192,140100,128,0,140325:0:0:0:0:
36,192,140100,1,0,0:0:0:0:
109,192,140100,1,0,0:0:0:0:
256,192,140175,1,0,0:0:0:0:
329,192,140250,128,0,140925:0:0:0:0:
109,192,140250,1,0,0:0:0:0:
256,192,140325,1,0,0:0:0:0:
475,192,140400,128,0,141000:0:0:0:0:
182,192,140400,1,0,0:0:0:0:
36,192,140400,1,0,0:0:0:0:
256,192,140475,1,0,0:0:0:0:
36,192,140550,1,0,0:0:0:0:
182,192,140625,1,0,0:0:0:0:
402,192,140700,128,0,141300:0:0:0:0:
36,192,140700,1,0,0:0:0:0:
109,192,140700,1,0,0:0:0:0:
256,192,140775,1,0,0:0:0:0:
109,192,140850,1,0,0:0:0:0:
256,192,140925,1,0,0:0:0:0:
329,192,141000,128,0,141600:0:0:0:0:
36,192,141000,1,0,0:0:0:0:
182,192,141000,1,0,0:0:0:0:
109,192,141075,1,0,0:0:0:0:
36,192,141150,1,0,0:0:0:0:
256,192,141150,1,0,0:0:0:0:
182,192,141225,1,0,0:0:0:0:
109,192,141300,1,0,0:0:0:0:
36,192,141300,1,0,0:0:0:0:
475,192,141300,1,0,0:0:0:0:
256,192,141375,1,0,0:0:0:0:
182,192,141450,1,0,0:0:0:0:
109,192,141450,1,0,0:0:0:0:
402,192,141450,1,0,0:0:0:0:
256,192,141525,1,0,0:0:0:0:
36,192,141600,128,0,142425:0:0:0:0:
475,192,141600,1,0,0:0:0:0:
109,192,141600,1,0,0:0:0:0:
402,192,141600,1,0,0:0:0:0:
109,192,141900,128,0,143025:0:0:0:0:
256,192,141900,1,0,0:0:0:0:
475,192,141900,1,0,0:0:0:0:
402,192,141975,1,0,0:0:0:0:
329,192,142050,1,0,0:0:0:0:
182,192,142200,128,0,142575:0:0:0:0:
402,192,142200,1,0,0:0:0:0:
475,192,142200,1,0,0:0:0:0:
256,192,142200,1,0,0:0:0:0:
329,192,142425,1,0,0:0:0:0:
36,192,142500,128,0,142725:0:0:0:0:
256,192,142500,1,0,0:0:0:0:
402,192,142500,1,0,0:0:0:0:
475,192,142500,1,0,0:0:0:0:
182,192,142650,128,0,143325:0:0:0:0:
329,192,142650,1,0,0:0:0:0:
402,192,142650,1,0,0:0:0:0:
36,192,142800,128,0,143400:0:0:0:0:
329,192,142800,1,0,0:0:0:0:
475,192,142800,1,0,0:0:0:0:
402,192,142950,1,0,0:0:0:0:
256,192,142950,1,0,0:0:0:0:
109,192,143100,128,0,143700:0:0:0:0:
329,192,143100,1,0,0:0:0:0:
475,192,143100,1,0,0:0:0:0:
256,192,143100,1,0,0:0:0:0:
329,192,143250,1,0,0:0:0:0:
475,192,143250,1,0,0:0:0:0:
182,192,143400,128,0,144000:0:0:0:0:
256,192,143400,1,0,0:0:0:0:
475,192,143400,1,0,0:0:0:0:
402,192,143400,1,0,0:0:0:0:
329,192,143550,1,0,0:0:0:0:
256,192,143625,1,0,0:0:0:0:
402,192,143700,1,0,0:0:0:0:
475,192,143700,1,0,0:0:0:0:
36,192,143700,1,0,0:0:0:0:
329,192,143775,1,0,0:0:0:0:
256,192,143850,1,0,0:0:0:0:
109,192,143850,1,0,0:0:0:0:
329,192,143925,1,0,0:0:0:0:
402,192,144000,128,0,145200:0:0:0:0:
36,192,144000,1,0,0:0:0:0:
475,192,144000,1,0,0:0:0:0:
109,192,144050,1,0,0:0:0:0:
182,192,144100,1,0,0:0:0:0:
256,192,144150,1,0,0:0:0:0:
329,192,144200,1,0,0:0:0:0:
256,192,144250,1,0,0:0:0:0:
475,192,144300,128,0,144825:0:0:0:0:
182,192,144300,1,0,0:0:0:0:
109,192,144350,1,0,0:0:0:0:
36,192,144400,1,0,0:0:0:0:
109,192,144450,1,0,0:0:0:0:
182,192,144500,1,0,0:0:0:0:
256,192,144550,1,0,0:0:0:0:
329,192,144600,128,0,144975:0:0:0:0:
109,192,144600,1,0,0:0:0:0:
36,192,144600,1,0,0:0:0:0:
182,192,144675,1,0,0:0:0:0:
109,192,144750,1,0,0:0:0:0:
36,192,144750,1,0,0:0:0:0:
182,192,144825,1,0,0:0:0:0:
475,192,144900,128,0,145200:0:0:0:0:
36,192,144900,1,0,0:0:0:0:
256,192,144900,1,0,0:0:0:0:
182,192,144975,1,0,0:0:0:0:
329,192,145050,128,0,145200:0:0:0:0:
36,192,145050,1,0,0:0:0:0:
182,192,145125,1,0,0:0:0:0:
36,192,145200,128,0,145425:0:0:0:0:
256,192,145200,1,0,0:0:0:0:
256,192,145350,1,0,0:0:0:0:
36,192,145500,128,0,145725:0:0:0:0:
256,192,145500,1,0,0:0:0:0:
256,192,145650,1,0,0:0:0:0:
475,192,145800,1,0,0:0:0:0:
36,192,145800,128,0,146250:0:0:0:0:
329,192,145800,1,0,0:0:0:0:
402,192,145800,1,0,0:0:0:0:
256,192,145800,1,0,0:0:0:0:
402,192,145950,1,0,0:0:0:0:
182,192,145950,1,0,0:0:0:0:
329,192,145950,1,0,0:0:0:0:
256,192,145950,1,0,0:0:0:0:
182,192,146100,1,0,0:0:0:0:
329,192,146100,1,0,0:0:0:0:
109,192,146100,1,0,0:0:0:0:
256,192,146100,1,0,0:0:0:0:
109,192,146250,1,0,0:0:0:0:
182,192,146250,1,0,0:0:0:0:
256,192,146250,1,0,0:0:0:0:
36,192,146400,1,0,0:0:0:0:
109,192,146410,1,0,0:0:0:0:
182,192,146418,1,0,0:0:0:0:
475,192,146475,1,0,0:0:0:0:
402,192,146484,1,0,0:0:0:0:
329,192,146493,1,0,0:0:0:0:
182,192,146550,1,0,0:0:0:0:
109,192,146559,1,0,0:0:0:0:
36,192,146568,1,0,0:0:0:0:
256,192,146625,1,0,0:0:0:0:
329,192,146634,1,0,0:0:0:0:
402,192,146643,1,0,0:0:0:0:
36,192,146700,1,0,0:0:0:0:
109,192,146709,1,0,0:0:0:0:
182,192,146718,1,0,0:0:0:0:
475,192,146775,1,0,0:0:0:0:
402,192,146784,1,0,0:0:0:0:
329,192,146793,1,0,0:0:0:0:
256,192,146850,1,0,0:0:0:0:
182,192,146859,1,0,0:0:0:0:
109,192,146868,1,0,0:0:0:0:
329,192,146925,1,0,0:0:0:0:
402,192,146934,1,0,0:0:0:0:
475,192,146943,1,0,0:0:0:0:
36,192,147000,1,0,0:0:0:0:
109,192,147009,1,0,0:0:0:0:
182,192,147018,1,0,0:0:0:0:
402,192,147075,1,0,0:0:0:0:
329,192,147084,1,0,0:0:0:0:
256,192,147093,1,0,0:0:0:0:
182,192,147150,1,0,0:0:0:0:
109,192,147159,1,0,0:0:0:0:
36,192,147168,1,0,0:0:0:0:
329,192,147225,1,0,0:0:0:0:
402,192,147234,1,0,0:0:0:0:
475,192,147243,1,0,0:0:0:0:
109,192,147300,1,0,0:0:0:0:
182,192,147309,1,0,0:0:0:0:
256,192,147318,1,0,0:0:0:0:
475,192,147375,1,0,0:0:0:0:
402,192,147384,1,0,0:0:0:0:
329,192,147393,1,0,0:0:0:0:
182,192,147450,1,0,0:0:0:0:
109,192,147458,1,0,0:0:0:0:
36,192,147468,1,0,0:0:0:0:
329,192,147525,1,0,0:0:0:0:
402,192,147534,1,0,0:0:0:0:
475,192,147543,1,0,0:0:0:0:
36,192,147600,1,0,0:0:0:0:
109,192,147609,1,0,0:0:0:0:
182,192,147618,1,0,0:0:0:0:
402,192,147675,1,0,0:0:0:0:
329,192,147684,1,0,0:0:0:0:
256,192,147693,1,0,0:0:0:0:
475,192,147750,1,0,0:0:0:0:
36,192,147750,1,0,0:0:0:0:
109,192,147761,1,0,0:0:0:0:
329,192,147825,1,0,0:0:0:0:
256,192,147834,1,0,0:0:0:0:
182,192,147843,1,0,0:0:0:0:
402,192,147900,1,0,0:0:0:0:
36,192,147900,1,0,0:0:0:0:
475,192,147909,1,0,0:0:0:0:
256,192,147975,1,0,0:0:0:0:
182,192,147984,1,0,0:0:0:0:
109,192,147993,1,0,0:0:0:0:
329,192,148050,1,0,0:0:0:0:
402,192,148061,1,0,0:0:0:0:
475,192,148068,1,0,0:0:0:0:
182,192,148125,1,0,0:0:0:0:
109,192,148133,1,0,0:0:0:0:
36,192,148143,1,0,0:0:0:0:
475,192,148200,128,0,148500:0:0:0:0:
329,192,148200,128,0,148350:0:0:0:0:
402,192,148200,128,0,148425:0:0:0:0:
256,192,148200,128,0,148275:0:0:0:0:
36,192,148500,128,0,148800:0:0:0:0:
182,192,148500,128,0,148650:0:0:0:0:
256,192,148500,128,0,148575:0:0:0:0:
109,192,148500,128,0,148725:0:0:0:0:
475,192,148800,1,0,0:0:0:0:
402,192,148810,1,0,0:0:0:0:
329,192,148818,1,0,0:0:0:0:
36,192,148875,1,0,0:0:0:0:
109,192,148884,1,0,0:0:0:0:
182,192,148893,1,0,0:0:0:0:
329,192,148950,1,0,0:0:0:0:
402,192,148959,1,0,0:0:0:0:
475,192,148968,1,0,0:0:0:0:
256,192,149025,1,0,0:0:0:0:
182,192,149034,1,0,0:0:0:0:
109,192,149043,1,0,0:0:0:0:
475,192,149100,1,0,0:0:0:0:
402,192,149109,1,0,0:0:0:0:
329,192,149118,1,0,0:0:0:0:
36,192,149175,1,0,0:0:0:0:
109,192,149184,1,0,0:0:0:0:
182,192,149193,1,0,0:0:0:0:
256,192,149250,1,0,0:0:0:0:
329,192,149259,1,0,0:0:0:0:
402,192,149268,1,0,0:0:0:0:
182,192,149325,1,0,0:0:0:0:
109,192,149334,1,0,0:0:0:0:
36,192,149343,1,0,0:0:0:0:
475,192,149400,1,0,0:0:0:0:
402,192,149409,1,0,0:0:0:0:
329,192,149418,1,0,0:0:0:0:
109,192,149475,1,0,0:0:0:0:
182,192,149484,1,0,0:0:0:0:
256,192,149493,1,0,0:0:0:0:
329,192,149550,1,0,0:0:0:0:
402,192,149559,1,0,0:0:0:0:
475,192,149568,1,0,0:0:0:0:
182,192,149625,1,0,0:0:0:0:
109,192,149634,1,0,0:0:0:0:
36,192,149643,1,0,0:0:0:0:
402,192,149700,1,0,0:0:0:0:
329,192,149709,1,0,0:0:0:0:
256,192,149718,1,0,0:0:0:0:
36,192,149775,1,0,0:0:0:0:
109,192,149784,1,0,0:0:0:0:
182,192,149793,1,0,0:0:0:0:
329,192,149850,1,0,0:0:0:0:
402,192,149858,1,0,0:0:0:0:
475,192,149868,1,0,0:0:0:0:
182,192,149925,1,0,0:0:0:0:
109,192,149934,1,0,0:0:0:0:
36,192,149943,1,0,0:0:0:0:
475,192,150000,1,0,0:0:0:0:
402,192,150009,1,0,0:0:0:0:
329,192,150018,1,0,0:0:0:0:
109,192,150075,1,0,0:0:0:0:
182,192,150084,1,0,0:0:0:0:
256,192,150093,1,0,0:0:0:0:
36,192,150150,1,0,0:0:0:0:
475,192,150150,1,0,0:0:0:0:
402,192,150161,1,0,0:0:0:0:
182,192,150225,1,0,0:0:0:0:
256,192,150234,1,0,0:0:0:0:
329,192,150243,1,0,0:0:0:0:
109,192,150300,1,0,0:0:0:0:
475,192,150300,1,0,0:0:0:0:
36,192,150309,1,0,0:0:0:0:
256,192,150375,1,0,0:0:0:0:
329,192,150384,1,0,0:0:0:0:
402,192,150393,1,0,0:0:0:0:
182,192,150450,1,0,0:0:0:0:
109,192,150461,1,0,0:0:0:0:
36,192,150468,1,0,0:0:0:0:
329,192,150525,1,0,0:0:0:0:
402,192,150533,1,0,0:0:0:0:
475,192,150543,1,0,0:0:0:0:
36,192,150600,1,0,0:0:0:0:
256,192,150600,128,0,150720:0:0:0:0:
182,192,150660,128,0,150780:0:0:0:0:
329,192,150660,128,0,150780:0:0:0:0:
402,192,150780,128,0,150900:0:0:0:0:
109,192,150780,128,0,150900:0:0:0:0:
256,192,150840,128,0,150900:0:0:0:0:
475,192,150900,1,0,0:0:0:0:
36,192,150900,1,0,0:0:0:0:
109,192,150950,1,0,0:0:0:0:
402,192,150975,1,0,0:0:0:0:
182,192,151000,1,0,0:0:0:0:
256,192,151050,1,0,0:0:0:0:
329,192,151100,1,0,0:0:0:0:
109,192,151125,1,0,0:0:0:0:
402,192,151150,1,0,0:0:0:0:
475,192,151200,1,0,0:0:0:0:
36,192,151200,1,0,0:0:0:0:
182,192,151275,1,0,0:0:0:0:
256,192,151284,1,0,0:0:0:0:
329,192,151293,1,0,0:0:0:0:
109,192,151350,1,0,0:0:0:0:
475,192,151350,1,0,0:0:0:0:
36,192,151359,1,0,0:0:0:0:
256,192,151425,1,0,0:0:0:0:
329,192,151433,1,0,0:0:0:0:
402,192,151443,1,0,0:0:0:0:
36,192,151500,1,0,0:0:0:0:
109,192,151510,1,0,0:0:0:0:
182,192,151518,1,0,0:0:0:0:
475,192,151575,1,0,0:0:0:0:
402,192,151583,1,0,0:0:0:0:
329,192,151593,1,0,0:0:0:0:
109,192,151650,1,0,0:0:0:0:
182,192,151658,1,0,0:0:0:0:
256,192,151668,1,0,0:0:0:0:
36,192,151725,1,0,0:0:0:0:
402,192,151725,1,0,0:0:0:0:
475,192,151736,1,0,0:0:0:0:
329,192,151800,1,0,0:0:0:0:
256,192,151809,1,0,0:0:0:0:
182,192,151818,1,0,0:0:0:0:
109,192,151875,1,0,0:0:0:0:
36,192,151900,1,0,0:0:0:0:
402,192,151925,1,0,0:0:0:0:
475,192,151950,1,0,0:0:0:0:
182,192,151975,1,0,0:0:0:0:
109,192,152000,1,0,0:0:0:0:
329,192,152025,1,0,0:0:0:0:
402,192,152050,1,0,0:0:0:0:
36,192,152100,128,0,152200:0:0:0:0:
256,192,152100,128,0,152150:0:0:0:0:
109,192,152175,128,0,152275:0:0:0:0:
329,192,152175,128,0,152225:0:0:0:0:
182,192,152250,128,0,152350:0:0:0:0:
402,192,152250,128,0,152300:0:0:0:0:
256,192,152325,128,0,152425:0:0:0:0:
475,192,152325,128,0,152375:0:0:0:0:
36,192,152400,1,0,0:0:0:0:
329,192,152400,1,0,0:0:0:0:
182,192,152437,1,0,0:0:0:0:
402,192,152475,1,0,0:0:0:0:
109,192,152512,1,0,0:0:0:0:
256,192,152550,1,0,0:0:0:0:
475,192,152587,1,0,0:0:0:0:
36,192,152625,1,0,0:0:0:0:
182,192,152662,1,0,0:0:0:0:
329,192,152700,1,0,0:0:0:0:
402,192,152700,1,0,0:0:0:0:
109,192,152737,1,0,0:0:0:0:
256,192,152775,1,0,0:0:0:0:
36,192,152812,1,0,0:0:0:0:
182,192,152850,1,0,0:0:0:0:
329,192,152887,1,0,0:0:0:0:
475,192,152925,1,0,0:0:0:0:
256,192,152962,1,0,0:0:0:0:
109,192,153000,1,0,0:0:0:0:
36,192,153000,128,0,153300:0:0:0:0:
402,192,153000,1,0,0:0:0:0:
475,192,153300,128,0,153600:0:0:0:0:
182,192,153300,1,0,0:0:0:0:
256,192,153337,1,0,0:0:0:0:
329,192,153375,1,0,0:0:0:0:
109,192,153412,1,0,0:0:0:0:
182,192,153450,1,0,0:0:0:0:
256,192,153487,1,0,0:0:0:0:
36,192,153525,1,0,0:0:0:0:
109,192,153562,1,0,0:0:0:0:
402,192,153600,1,0,0:0:0:0:
329,192,153600,128,0,153693:0:0:0:0:
182,192,153600,128,0,153675:0:0:0:0:
256,192,153675,128,0,153768:0:0:0:0:
36,192,153675,128,0,153768:0:0:0:0:
182,192,153750,128,0,153843:0:0:0:0:
402,192,153750,128,0,153806:0:0:0:0:
475,192,153750,128,0,153787:0:0:0:0:
109,192,153825,128,0,153918:0:0:0:0:
329,192,153825,128,0,153881:0:0:0:0:
36,192,153900,128,0,153993:0:0:0:0:
402,192,153900,128,0,153956:0:0:0:0:
475,192,153900,128,0,153937:0:0:0:0:
256,192,153900,128,0,153956:0:0:0:0:
182,192,153975,128,0,154068:0:0:0:0:
109,192,153975,128,0,154050:0:0:0:0:
329,192,154050,128,0,154143:0:0:0:0:
402,192,154050,128,0,154125:0:0:0:0:
256,192,154125,128,0,154218:0:0:0:0:
182,192,154125,128,0,154200:0:0:0:0:
329,192,154200,128,0,154293:0:0:0:0:
402,192,154200,128,0,154275:0:0:0:0:
475,192,154200,128,0,154256:0:0:0:0:
109,192,154200,128,0,154256:0:0:0:0:
36,192,154275,128,0,154331:0:0:0:0:
256,192,154275,128,0,154331:0:0:0:0:
182,192,154350,128,0,154443:0:0:0:0:
109,192,154350,128,0,154425:0:0:0:0:
402,192,154425,128,0,154481:0:0:0:0:
475,192,154425,128,0,154462:0:0:0:0:
329,192,154500,128,0,154593:0:0:0:0:
182,192,154500,128,0,154593:0:0:0:0:
109,192,154500,128,0,154575:0:0:0:0:
36,192,154500,128,0,154556:0:0:0:0:
402,192,154575,128,0,154612:0:0:0:0:
475,192,154575,128,0,154631:0:0:0:0:
109,192,154650,128,0,154725:0:0:0:0:
256,192,154650,128,0,154743:0:0:0:0:
329,192,154725,128,0,154762:0:0:0:0:
402,192,154725,128,0,154781:0:0:0:0:
182,192,154800,128,0,154893:0:0:0:0:
109,192,154800,128,0,154875:0:0:0:0:
36,192,154800,128,0,154856:0:0:0:0:
475,192,154800,128,0,154856:0:0:0:0:
256,192,154875,128,0,154912:0:0:0:0:
329,192,154875,128,0,154931:0:0:0:0:
402,192,154950,128,0,155006:0:0:0:0:
109,192,154950,128,0,155006:0:0:0:0:
36,192,154950,128,0,154987:0:0:0:0:
182,192,155025,128,0,155062:0:0:0:0:
256,192,155025,128,0,155081:0:0:0:0:
109,192,155100,128,0,155156:0:0:0:0:
36,192,155100,128,0,155137:0:0:0:0:
402,192,155100,128,0,155175:0:0:0:0:
475,192,155100,128,0,155156:0:0:0:0:
329,192,155175,128,0,155212:0:0:0:0:
256,192,155175,128,0,155231:0:0:0:0:
475,192,155250,128,0,155287:0:0:0:0:
182,192,155250,128,0,155306:0:0:0:0:
402,192,155250,128,0,155306:0:0:0:0:
329,192,155325,128,0,155381:0:0:0:0:
475,192,155400,128,0,155475:0:0:0:0:
109,192,155400,128,0,155450:0:0:0:0:
36,192,155400,128,0,155450:0:0:0:0:
402,192,155450,128,0,155525:0:0:0:0:
182,192,155475,128,0,155525:0:0:0:0:
329,192,155500,128,0,155575:0:0:0:0:
256,192,155550,128,0,155625:0:0:0:0:
182,192,155600,128,0,155675:0:0:0:0:
329,192,155625,128,0,155675:0:0:0:0:
109,192,155650,1,0,0:0:0:0:
36,192,155700,128,0,155775:0:0:0:0:
402,192,155700,128,0,155750:0:0:0:0:
475,192,155700,128,0,155750:0:0:0:0:
109,192,155750,128,0,155825:0:0:0:0:
329,192,155775,128,0,155825:0:0:0:0:
182,192,155800,128,0,155875:0:0:0:0:
256,192,155850,128,0,155925:0:0:0:0:
329,192,155900,128,0,155975:0:0:0:0:
182,192,155925,128,0,155975:0:0:0:0:
402,192,155950,1,0,0:0:0:0:
475,192,156000,1,0,0:0:0:0:
109,192,156000,1,0,0:0:0:0:
36,192,156000,1,0,0:0:0:0:
109,192,156300,1,0,0:0:0:0:
36,192,156300,1,0,0:0:0:0:
109,192,156600,1,0,0:0:0:0:
36,192,156600,1,0,0:0:0:0:
109,192,156900,1,0,0:0:0:0:
36,192,156900,1,0,0:0:0:0:
109,192,157050,1,0,0:0:0:0:
36,192,157050,1,0,0:0:0:0:
109,192,157200,1,0,0:0:0:0:
36,192,157200,1,0,0:0:0:0:
402,192,157350,1,0,0:0:0:0:
475,192,157350,1,0,0:0:0:0:
109,192,157500,1,0,0:0:0:0:
36,192,157500,1,0,0:0:0:0:
109,192,157800,1,0,0:0:0:0:
182,192,157800,1,0,0:0:0:0:
182,192,158100,1,0,0:0:0:0:
256,192,158100,1,0,0:0:0:0:
402,192,158400,1,0,0:0:0:0:
475,192,158400,1,0,0:0:0:0:
256,192,158400,1,0,0:0:0:0:
182,192,158400,1,0,0:0:0:0:
109,192,158400,1,0,0:0:0:0:
36,192,158400,1,0,0:0:0:0:
256,192,158550,1,0,0:0:0:0:
402,192,158700,1,0,0:0:0:0:
475,192,158700,1,0,0:0:0:0:
256,192,158700,1,0,0:0:0:0:
182,192,158700,1,0,0:0:0:0:
109,192,158700,1,0,0:0:0:0:
36,192,158700,1,0,0:0:0:0:
256,192,158850,1,0,0:0:0:0:
402,192,159000,1,0,0:0:0:0:
475,192,159000,1,0,0:0:0:0:
256,192,159000,1,0,0:0:0:0:
182,192,159000,1,0,0:0:0:0:
109,192,159000,1,0,0:0:0:0:
36,192,159000,1,0,0:0:0:0:
256,192,159150,1,0,0:0:0:0:
402,192,159300,1,0,0:0:0:0:
475,192,159300,1,0,0:0:0:0:
256,192,159300,1,0,0:0:0:0:
182,192,159300,1,0,0:0:0:0:
109,192,159300,1,0,0:0:0:0:
36,192,159300,1,0,0:0:0:0:
402,192,159450,1,0,0:0:0:0:
475,192,159450,1,0,0:0:0:0:
256,192,159450,1,0,0:0:0:0:
182,192,159450,1,0,0:0:0:0:
109,192,159450,1,0,0:0:0:0:
36,192,159450,1,0,0:0:0:0:
329,192,159600,1,0,0:0:0:0:
475,192,159600,1,0,0:0:0:0:
402,192,159618,1,0,0:0:0:0:
36,192,159675,1,0,0:0:0:0:
182,192,159675,1,0,0:0:0:0:
109,192,159693,1,0,0:0:0:0:
402,192,159750,1,0,0:0:0:0:
256,192,159750,1,0,0:0:0:0:
329,192,159768,1,0,0:0:0:0:
36,192,159900,1,0,0:0:0:0:
182,192,159900,1,0,0:0:0:0:
256,192,159900,1,0,0:0:0:0:
109,192,159918,1,0,0:0:0:0:
109,192,160050,1,0,0:0:0:0:
256,192,160050,1,0,0:0:0:0:
329,192,160050,1,0,0:0:0:0:
182,192,160068,1,0,0:0:0:0:
475,192,160200,128,0,160425:0:0:0:0:
36,192,160200,128,0,160425:0:0:0:0:
256,192,160425,1,0,0:0:0:0:
109,192,160500,1,0,0:0:0:0:
36,192,160500,1,0,0:0:0:0:
402,192,160500,1,0,0:0:0:0:
475,192,160500,1,0,0:0:0:0:
256,192,160575,1,0,0:0:0:0:
182,192,160575,1,0,0:0:0:0:
329,192,160575,1,0,0:0:0:0:
36,192,160650,1,0,0:0:0:0:
402,192,160650,1,0,0:0:0:0:
475,192,160650,1,0,0:0:0:0:
109,192,160668,1,0,0:0:0:0:
182,192,160687,1,0,0:0:0:0:
329,192,160800,128,0,160875:0:0:0:0:
182,192,160800,128,0,160950:0:0:0:0:
109,192,160800,128,0,160987:0:0:0:0:
36,192,160800,128,0,161025:0:0:0:0:
402,192,160800,128,0,161043:0:0:0:0:
475,192,160800,128,0,161043:0:0:0:0:
329,192,160950,128,0,161025:0:0:0:0:
256,192,161000,128,0,161075:0:0:0:0:
182,192,161050,128,0,161125:0:0:0:0:
109,192,161100,128,0,161193:0:0:0:0:
329,192,161100,128,0,161200:0:0:0:0:
402,192,161100,128,0,161200:0:0:0:0:
475,192,161100,128,0,161200:0:0:0:0:
36,192,161100,128,0,161193:0:0:0:0:
402,192,161250,128,0,161325:0:0:0:0:
109,192,161250,128,0,161325:0:0:0:0:
329,192,161300,128,0,161375:0:0:0:0:
182,192,161300,128,0,161375:0:0:0:0:
256,192,161350,128,0,161425:0:0:0:0:
36,192,161400,128,0,161525:0:0:0:0:
109,192,161400,128,0,161525:0:0:0:0:
402,192,161400,128,0,161512:0:0:0:0:
475,192,161400,128,0,161512:0:0:0:0:
182,192,161550,128,0,161600:0:0:0:0:
329,192,161550,128,0,161625:0:0:0:0:
109,192,161600,128,0,161650:0:0:0:0:
402,192,161600,128,0,161675:0:0:0:0:
36,192,161650,128,0,161700:0:0:0:0:
475,192,161650,128,0,161725:0:0:0:0:
182,192,161700,128,0,161800:0:0:0:0:
256,192,161700,128,0,161800:0:0:0:0:
329,192,161700,128,0,161800:0:0:0:0:
256,192,161850,128,0,161900:0:0:0:0:
36,192,161850,128,0,161925:0:0:0:0:
329,192,161900,128,0,161950:0:0:0:0:
109,192,161900,128,0,161975:0:0:0:0:
402,192,161950,128,0,162000:0:0:0:0:
182,192,161950,128,0,162025:0:0:0:0:
36,192,162000,128,0,162206:0:0:0:0:
256,192,162000,128,0,162100:0:0:0:0:
475,192,162000,128,0,162100:0:0:0:0:
109,192,162150,128,0,162225:0:0:0:0:
182,192,162150,128,0,162375:0:0:0:0:
475,192,162150,128,0,162206:0:0:0:0:
402,192,162187,128,0,162243:0:0:0:0:
329,192,162225,128,0,162281:0:0:0:0:
256,192,162262,128,0,162318:0:0:0:0:
109,192,162300,128,0,162412:0:0:0:0:
36,192,162300,128,0,162450:0:0:0:0:
402,192,162300,128,0,162375:0:0:0:0:
475,192,162300,128,0,162375:0:0:0:0:
182,192,162450,128,0,162525:0:0:0:0:
402,192,162450,128,0,162500:0:0:0:0:
109,192,162500,128,0,162575:0:0:0:0:
329,192,162500,128,0,162550:0:0:0:0:
36,192,162550,128,0,162625:0:0:0:0:
256,192,162550,128,0,162600:0:0:0:0:
182,192,162600,128,0,162712:0:0:0:0:
329,192,162600,128,0,162712:0:0:0:0:
402,192,162600,128,0,162750:0:0:0:0:
475,192,162600,128,0,162806:0:0:0:0:
256,192,162750,128,0,162825:0:0:0:0:
36,192,162750,128,0,162800:0:0:0:0:
109,192,162800,128,0,162850:0:0:0:0:
329,192,162800,128,0,162875:0:0:0:0:
182,192,162850,128,0,162900:0:0:0:0:
402,192,162850,128,0,162925:0:0:0:0:
256,192,162900,128,0,163000:0:0:0:0:
475,192,162900,128,0,163000:0:0:0:0:
109,192,162900,128,0,162993:0:0:0:0:
36,192,162900,128,0,162993:0:0:0:0:
402,192,163050,128,0,163125:0:0:0:0:
109,192,163050,128,0,163125:0:0:0:0:
182,192,163100,128,0,163175:0:0:0:0:
329,192,163100,128,0,163175:0:0:0:0:
256,192,163150,128,0,163225:0:0:0:0:
402,192,163200,128,0,163293:0:0:0:0:
475,192,163200,128,0,163293:0:0:0:0:
109,192,163200,128,0,163300:0:0:0:0:
36,192,163200,128,0,163300:0:0:0:0:
182,192,163350,128,0,163425:0:0:0:0:
329,192,163350,128,0,163425:0:0:0:0:
109,192,163400,128,0,163475:0:0:0:0:
402,192,163400,128,0,163475:0:0:0:0:
36,192,163450,128,0,163525:0:0:0:0:
475,192,163450,128,0,163525:0:0:0:0:
182,192,163500,128,0,163600:0:0:0:0:
256,192,163500,128,0,163600:0:0:0:0:
329,192,163500,128,0,163600:0:0:0:0:
109,192,163650,128,0,163725:0:0:0:0:
182,192,163700,128,0,163775:0:0:0:0:
256,192,163750,128,0,163825:0:0:0:0:
329,192,163800,128,0,163856:0:0:0:0:
402,192,163800,128,0,163893:0:0:0:0:
475,192,163800,128,0,163893:0:0:0:0:
109,192,163800,128,0,163893:0:0:0:0:
36,192,163800,128,0,163893:0:0:0:0:
182,192,163950,128,0,164025:0:0:0:0:
329,192,163950,128,0,164025:0:0:0:0:
402,192,164000,128,0,164075:0:0:0:0:
109,192,164000,128,0,164075:0:0:0:0:
475,192,164050,128,0,164125:0:0:0:0:
36,192,164050,128,0,164125:0:0:0:0:
329,192,164100,128,0,164225:0:0:0:0:
182,192,164100,128,0,164225:0:0:0:0:
256,192,164100,128,0,164225:0:0:0:0:
475,192,164250,128,0,164306:0:0:0:0:
36,192,164250,128,0,164306:0:0:0:0:
402,192,164287,128,0,164343:0:0:0:0:
109,192,164287,128,0,164343:0:0:0:0:
329,192,164325,128,0,164381:0:0:0:0:
182,192,164325,128,0,164381:0:0:0:0:
256,192,164362,128,0,164418:0:0:0:0:
475,192,164400,1,0,0:0:0:0:
36,192,164400,1,0,0:0:0:0:
402,192,164407,1,0,0:0:0:0:
109,192,164407,1,0,0:0:0:0:
329,192,164475,1,0,0:0:0:0:
182,192,164475,1,0,0:0:0:0:
402,192,164544,1,0,0:0:0:0:
109,192,164545,1,0,0:0:0:0:
475,192,164550,1,0,0:0:0:0:
36,192,164550,1,0,0:0:0:0:
256,192,164625,1,0,0:0:0:0:
36,192,164700,128,0,164812:0:0:0:0:
109,192,164700,128,0,164793:0:0:0:0:
182,192,164700,128,0,164775:0:0:0:0:
329,192,164700,128,0,164775:0:0:0:0:
402,192,164700,128,0,164793:0:0:0:0:
475,192,164700,128,0,164812:0:0:0:0:
109,192,164850,128,0,164962:0:0:0:0:
182,192,164850,128,0,164943:0:0:0:0:
256,192,164850,128,0,164925:0:0:0:0:
475,192,165000,1,0,0:0:0:0:
182,192,165000,128,0,165112:0:0:0:0:
256,192,165000,128,0,165093:0:0:0:0:
329,192,165000,128,0,165075:0:0:0:0:
402,192,165000,1,0,0:0:0:0:
109,192,165075,1,0,0:0:0:0:
36,192,165075,1,0,0:0:0:0:
402,192,165150,1,0,0:0:0:0:
475,192,165150,1,0,0:0:0:0:
329,192,165225,1,0,0:0:0:0:
182,192,165225,1,0,0:0:0:0:
109,192,165300,1,0,0:0:0:0:
36,192,165300,1,0,0:0:0:0:
256,192,165300,1,0,0:0:0:0:
402,192,165300,1,0,0:0:0:0:
475,192,165300,1,0,0:0:0:0:
109,192,165450,1,0,0:0:0:0:
182,192,165450,1,0,0:0:0:0:
329,192,165450,1,0,0:0:0:0:
402,192,165450,1,0,0:0:0:0:
475,192,165450,1,0,0:0:0:0:
182,192,165600,128,0,165693:0:0:0:0:
256,192,165600,128,0,165675:0:0:0:0:
329,192,165600,128,0,165731:0:0:0:0:
402,192,165600,128,0,165712:0:0:0:0:
475,192,165600,128,0,165693:0:0:0:0:
182,192,165750,128,0,165800:0:0:0:0:
475,192,165750,128,0,165825:0:0:0:0:
109,192,165800,128,0,165850:0:0:0:0:
402,192,165800,128,0,165875:0:0:0:0:
36,192,165850,128,0,165900:0:0:0:0:
329,192,165850,128,0,165950:0:0:0:0:
182,192,165900,128,0,165993:0:0:0:0:
256,192,165900,128,0,165975:0:0:0:0:
475,192,165900,128,0,166012:0:0:0:0:
109,192,165900,128,0,166012:0:0:0:0:
256,192,166050,128,0,166100:0:0:0:0:
36,192,166050,128,0,166125:0:0:0:0:
329,192,166100,128,0,166150:0:0:0:0:
109,192,166100,128,0,166175:0:0:0:0:
402,192,166150,128,0,166200:0:0:0:0:
182,192,166150,128,0,166225:0:0:0:0:
256,192,166200,128,0,166325:0:0:0:0:
475,192,166200,128,0,166312:0:0:0:0:
36,192,166200,128,0,166312:0:0:0:0:
402,192,166350,128,0,166425:0:0:0:0:
182,192,166350,128,0,166425:0:0:0:0:
109,192,166400,128,0,166450:0:0:0:0:
329,192,166400,128,0,166450:0:0:0:0:
36,192,166450,128,0,166525:0:0:0:0:
256,192,166450,128,0,166525:0:0:0:0:
182,192,166500,128,0,166612:0:0:0:0:
109,192,166500,128,0,166593:0:0:0:0:
329,192,166500,128,0,166706:0:0:0:0:
402,192,166500,128,0,166593:0:0:0:0:
402,192,166650,128,0,166725:0:0:0:0:
475,192,166650,128,0,166856:0:0:0:0:
36,192,166650,128,0,166706:0:0:0:0:
109,192,166687,128,0,166743:0:0:0:0:
182,192,166725,128,0,166781:0:0:0:0:
256,192,166762,128,0,166818:0:0:0:0:
402,192,166800,128,0,166875:0:0:0:0:
329,192,166800,128,0,167006:0:0:0:0:
36,192,166800,128,0,166931:0:0:0:0:
182,192,166875,128,0,166931:0:0:0:0:
402,192,166950,128,0,167025:0:0:0:0:
475,192,166950,128,0,167156:0:0:0:0:
109,192,166950,128,0,167081:0:0:0:0:
256,192,167025,128,0,167081:0:0:0:0:
402,192,167100,128,0,167175:0:0:0:0:
329,192,167100,128,0,167175:0:0:0:0:
36,192,167100,128,0,167225:0:0:0:0:
182,192,167100,128,0,167175:0:0:0:0:
256,192,167250,128,0,167300:0:0:0:0:
475,192,167250,128,0,167325:0:0:0:0:
182,192,167300,128,0,167350:0:0:0:0:
402,192,167300,128,0,167375:0:0:0:0:
109,192,167350,128,0,167400:0:0:0:0:
329,192,167350,128,0,167425:0:0:0:0:
182,192,167400,128,0,167500:0:0:0:0:
36,192,167400,128,0,167500:0:0:0:0:
256,192,167400,128,0,167500:0:0:0:0:
475,192,167400,128,0,167493:0:0:0:0:
182,192,167550,128,0,167625:0:0:0:0:
329,192,167550,128,0,167625:0:0:0:0:
402,192,167600,128,0,167675:0:0:0:0:
109,192,167600,128,0,167675:0:0:0:0:
475,192,167650,128,0,167725:0:0:0:0:
36,192,167650,128,0,167725:0:0:0:0:
256,192,167700,128,0,167825:0:0:0:0:
182,192,167700,128,0,167825:0:0:0:0:
329,192,167700,128,0,167825:0:0:0:0:
402,192,167850,1,0,0:0:0:0:
475,192,167850,1,0,0:0:0:0:
109,192,167850,1,0,0:0:0:0:
36,192,167850,1,0,0:0:0:0:
182,192,167925,1,0,0:0:0:0:
329,192,167925,1,0,0:0:0:0:
256,192,168000,128,0,168112:0:0:0:0:
109,192,168000,128,0,168093:0:0:0:0:
36,192,168000,128,0,168075:0:0:0:0:
402,192,168000,1,0,0:0:0:0:
475,192,168000,1,0,0:0:0:0:
109,192,168150,128,0,168225:0:0:0:0:
182,192,168150,128,0,168243:0:0:0:0:
329,192,168150,128,0,168262:0:0:0:0:
475,192,168300,1,0,0:0:0:0:
36,192,168300,1,0,0:0:0:0:
182,192,168300,128,0,168375:0:0:0:0:
256,192,168300,128,0,168393:0:0:0:0:
402,192,168300,128,0,168412:0:0:0:0:
109,192,168450,128,0,168525:0:0:0:0:
329,192,168450,128,0,168525:0:0:0:0:
402,192,168500,128,0,168550:0:0:0:0:
182,192,168500,128,0,168550:0:0:0:0:
475,192,168550,128,0,168625:0:0:0:0:
256,192,168550,128,0,168625:0:0:0:0:
329,192,168600,128,0,168675:0:0:0:0:
182,192,168600,128,0,168675:0:0:0:0:
109,192,168600,128,0,168693:0:0:0:0:
36,192,168600,128,0,168712:0:0:0:0:
109,192,168750,1,0,0:0:0:0:
402,192,168750,1,0,0:0:0:0:
475,192,168750,1,0,0:0:0:0:
36,192,168750,1,0,0:0:0:0:
256,192,168825,1,0,0:0:0:0:
182,192,168825,1,0,0:0:0:0:
329,192,168825,1,0,0:0:0:0:
109,192,168900,1,0,0:0:0:0:
402,192,168900,1,0,0:0:0:0:
475,192,168900,1,0,0:0:0:0:
36,192,168900,1,0,0:0:0:0:
109,192,169050,1,0,0:0:0:0:
36,192,169050,1,0,0:0:0:0:
402,192,169050,1,0,0:0:0:0:
475,192,169050,1,0,0:0:0:0:
256,192,169200,1,0,0:0:0:0:
475,192,169200,1,0,0:0:0:0:
36,192,169200,1,0,0:0:0:0:
402,192,169237,1,0,0:0:0:0:
109,192,169237,1,0,0:0:0:0:
182,192,169275,1,0,0:0:0:0:
329,192,169275,1,0,0:0:0:0:
475,192,169350,1,0,0:0:0:0:
36,192,169350,1,0,0:0:0:0:
256,192,169462,1,0,0:0:0:0:
182,192,169481,1,0,0:0:0:0:
329,192,169481,1,0,0:0:0:0:
402,192,169500,1,0,0:0:0:0:
475,192,169500,1,0,0:0:0:0:
182,192,169612,1,0,0:0:0:0:
256,192,169631,1,0,0:0:0:0:
109,192,169631,1,0,0:0:0:0:
329,192,169650,1,0,0:0:0:0:
402,192,169650,1,0,0:0:0:0:
475,192,169800,1,0,0:0:0:0:
36,192,169800,1,0,0:0:0:0:
109,192,169850,1,0,0:0:0:0:
182,192,169900,1,0,0:0:0:0:
256,192,169950,1,0,0:0:0:0:
329,192,170000,1,0,0:0:0:0:
402,192,170050,1,0,0:0:0:0:
475,192,170100,1,0,0:0:0:0:
109,192,170100,1,0,0:0:0:0:
36,192,170100,1,0,0:0:0:0:
402,192,170150,1,0,0:0:0:0:
182,192,170175,1,0,0:0:0:0:
329,192,170200,1,0,0:0:0:0:
36,192,170250,1,0,0:0:0:0:
109,192,170250,1,0,0:0:0:0:
256,192,170250,1,0,0:0:0:0:
402,192,170300,1,0,0:0:0:0:
182,192,170350,1,0,0:0:0:0:
329,192,170400,128,0,170550:0:0:0:0:
475,192,170400,128,0,170550:0:0:0:0:
109,192,170400,128,0,170475:0:0:0:0:
36,192,170400,128,0,170550:0:0:0:0:
402,192,170550,1,0,0:0:0:0:
109,192,170550,1,0,0:0:0:0:
182,192,170550,1,0,0:0:0:0:
475,192,170700,128,0,170850:0:0:0:0:
329,192,170700,128,0,170850:0:0:0:0:
182,192,170700,128,0,170775:0:0:0:0:
256,192,170700,128,0,170775:0:0:0:0:
36,192,170700,128,0,170850:0:0:0:0:
402,192,170850,1,0,0:0:0:0:
182,192,170850,1,0,0:0:0:0:
109,192,170850,1,0,0:0:0:0:
329,192,171000,128,0,171150:0:0:0:0:
475,192,171000,128,0,171150:0:0:0:0:
109,192,171000,128,0,171075:0:0:0:0:
36,192,171000,128,0,171150:0:0:0:0:
256,192,171000,128,0,171075:0:0:0:0:
402,192,171150,1,0,0:0:0:0:
109,192,171150,1,0,0:0:0:0:
182,192,171150,1,0,0:0:0:0:
329,192,171300,128,0,171450:0:0:0:0:
475,192,171300,128,0,171450:0:0:0:0:
182,192,171300,128,0,171375:0:0:0:0:
256,192,171300,128,0,171375:0:0:0:0:
36,192,171300,128,0,171450:0:0:0:0:
402,192,171450,1,0,0:0:0:0:
182,192,171450,128,0,171525:0:0:0:0:
256,192,171450,128,0,171525:0:0:0:0:
182,192,171600,128,0,171750:0:0:0:0:
36,192,171600,128,0,171750:0:0:0:0:
475,192,171600,128,0,171750:0:0:0:0:
256,192,171600,128,0,171675:0:0:0:0:
402,192,171600,128,0,171675:0:0:0:0:
329,192,171750,1,0,0:0:0:0:
402,192,171750,1,0,0:0:0:0:
109,192,171750,1,0,0:0:0:0:
36,192,171900,128,0,172050:0:0:0:0:
182,192,171900,128,0,172050:0:0:0:0:
475,192,171900,128,0,172050:0:0:0:0:
329,192,171900,128,0,171975:0:0:0:0:
256,192,171900,128,0,171975:0:0:0:0:
329,192,172050,1,0,0:0:0:0:
402,192,172050,1,0,0:0:0:0:
109,192,172050,1,0,0:0:0:0:
36,192,172200,128,0,172350:0:0:0:0:
182,192,172200,128,0,172350:0:0:0:0:
475,192,172200,128,0,172350:0:0:0:0:
256,192,172200,128,0,172275:0:0:0:0:
402,192,172200,128,0,172275:0:0:0:0:
329,192,172350,1,0,0:0:0:0:
402,192,172350,1,0,0:0:0:0:
109,192,172350,1,0,0:0:0:0:
402,192,172500,128,0,172743:0:0:0:0:
475,192,172500,128,0,172743:0:0:0:0:
256,192,172500,128,0,172743:0:0:0:0:
109,192,172500,128,0,172600:0:0:0:0:
329,192,172500,128,0,172600:0:0:0:0:
182,192,172650,128,0,172743:0:0:0:0:
36,192,172650,128,0,172743:0:0:0:0:
329,192,172800,128,0,172950:0:0:0:0:
475,192,172800,128,0,172950:0:0:0:0:
256,192,172800,128,0,172875:0:0:0:0:
109,192,172800,128,0,172875:0:0:0:0:
36,192,172800,128,0,172950:0:0:0:0:
109,192,172950,1,0,0:0:0:0:
182,192,172950,1,0,0:0:0:0:
402,192,172950,1,0,0:0:0:0:
329,192,173100,128,0,173250:0:0:0:0:
475,192,173100,128,0,173250:0:0:0:0:
256,192,173100,128,0,173175:0:0:0:0:
182,192,173100,128,0,173175:0:0:0:0:
36,192,173100,128,0,173250:0:0:0:0:
182,192,173250,1,0,0:0:0:0:
109,192,173250,1,0,0:0:0:0:
402,192,173250,1,0,0:0:0:0:
329,192,173400,128,0,173550:0:0:0:0:
475,192,173400,128,0,173550:0:0:0:0:
256,192,173400,128,0,173475:0:0:0:0:
109,192,173400,128,0,173475:0:0:0:0:
36,192,173400,128,0,173550:0:0:0:0:
109,192,173550,1,0,0:0:0:0:
182,192,173550,1,0,0:0:0:0:
402,192,173550,1,0,0:0:0:0:
329,192,173700,128,0,173850:0:0:0:0:
475,192,173700,128,0,173850:0:0:0:0:
256,192,173700,128,0,173775:0:0:0:0:
182,192,173700,128,0,173775:0:0:0:0:
36,192,173700,128,0,173850:0:0:0:0:
182,192,173850,1,0,0:0:0:0:
109,192,173850,1,0,0:0:0:0:
402,192,173850,1,0,0:0:0:0:
182,192,174000,128,0,174150:0:0:0:0:
36,192,174000,128,0,174150:0:0:0:0:
475,192,174000,128,0,174150:0:0:0:0:
256,192,174000,128,0,174075:0:0:0:0:
402,192,174075,1,0,0:0:0:0:
329,192,174150,1,0,0:0:0:0:
256,192,174150,1,0,0:0:0:0:
109,192,174150,1,0,0:0:0:0:
182,192,174300,128,0,174450:0:0:0:0:
36,192,174300,128,0,174450:0:0:0:0:
402,192,174300,128,0,174375:0:0:0:0:
475,192,174300,128,0,174375:0:0:0:0:
329,192,174375,128,0,174450:0:0:0:0:
256,192,174375,128,0,174450:0:0:0:0:
402,192,174450,128,0,174543:0:0:0:0:
475,192,174450,128,0,174543:0:0:0:0:
109,192,174450,1,0,0:0:0:0:
182,192,174600,128,0,174750:0:0:0:0:
36,192,174600,128,0,174750:0:0:0:0:
475,192,174600,128,0,174750:0:0:0:0:
256,192,174600,128,0,174675:0:0:0:0:
329,192,174600,128,0,174675:0:0:0:0:
329,192,174750,1,0,0:0:0:0:
402,192,174750,1,0,0:0:0:0:
109,192,174750,1,0,0:0:0:0:
182,192,174900,128,0,174975:0:0:0:0:
256,192,174900,128,0,174975:0:0:0:0:
475,192,174900,128,0,174975:0:0:0:0:
402,192,174900,128,0,174975:0:0:0:0:
36,192,175050,128,0,175125:0:0:0:0:
256,192,175050,128,0,175125:0:0:0:0:
109,192,175050,128,0,175125:0:0:0:0:
329,192,175050,128,0,175125:0:0:0:0:
402,192,175200,128,0,175443:0:0:0:0:
475,192,175200,128,0,175443:0:0:0:0:
36,192,175200,128,0,175443:0:0:0:0:
256,192,175200,128,0,175275:0:0:0:0:
182,192,175200,128,0,175275:0:0:0:0:
182,192,175350,1,0,0:0:0:0:
109,192,175350,1,0,0:0:0:0:
329,192,175350,1,0,0:0:0:0:
402,192,175500,128,0,175743:0:0:0:0:
475,192,175500,128,0,175743:0:0:0:0:
36,192,175500,128,0,175743:0:0:0:0:
182,192,175500,128,0,175575:0:0:0:0:
256,192,175500,128,0,175575:0:0:0:0:
256,192,175650,1,0,0:0:0:0:
329,192,175650,1,0,0:0:0:0:
109,192,175650,1,0,0:0:0:0:
402,192,175800,128,0,176043:0:0:0:0:
475,192,175800,128,0,176043:0:0:0:0:
329,192,175800,128,0,175875:0:0:0:0:
182,192,175800,128,0,175875:0:0:0:0:
36,192,175800,128,0,176043:0:0:0:0:
256,192,175950,1,0,0:0:0:0:
329,192,175950,1,0,0:0:0:0:
182,192,175950,1,0,0:0:0:0:
402,192,176100,128,0,176343:0:0:0:0:
475,192,176100,128,0,176343:0:0:0:0:
36,192,176100,128,0,176343:0:0:0:0:
256,192,176100,128,0,176175:0:0:0:0:
109,192,176100,128,0,176175:0:0:0:0:
182,192,176250,1,0,0:0:0:0:
256,192,176250,128,0,176343:0:0:0:0:
109,192,176250,128,0,176343:0:0:0:0:
109,192,176400,128,0,176643:0:0:0:0:
36,192,176400,128,0,176643:0:0:0:0:
475,192,176400,128,0,176643:0:0:0:0:
329,192,176400,128,0,176475:0:0:0:0:
256,192,176400,128,0,176475:0:0:0:0:
182,192,176550,1,0,0:0:0:0:
329,192,176550,1,0,0:0:0:0:
402,192,176550,1,0,0:0:0:0:
109,192,176700,128,0,176943:0:0:0:0:
36,192,176700,128,0,176943:0:0:0:0:
475,192,176700,128,0,176943:0:0:0:0:
402,192,176700,128,0,176775:0:0:0:0:
256,192,176700,128,0,176775:0:0:0:0:
182,192,176850,1,0,0:0:0:0:
256,192,176850,1,0,0:0:0:0:
402,192,176850,1,0,0:0:0:0:
109,192,177000,128,0,177243:0:0:0:0:
36,192,177000,128,0,177243:0:0:0:0:
475,192,177000,128,0,177243:0:0:0:0:
182,192,177000,128,0,177075:0:0:0:0:
329,192,177000,128,0,177075:0:0:0:0:
182,192,177150,1,0,0:0:0:0:
329,192,177150,1,0,0:0:0:0:
402,192,177150,1,0,0:0:0:0:
109,192,177300,128,0,177525:0:0:0:0:
36,192,177300,128,0,177525:0:0:0:0:
475,192,177300,128,0,177525:0:0:0:0:
182,192,177300,128,0,177375:0:0:0:0:
256,192,177300,128,0,177375:0:0:0:0:
329,192,177375,128,0,177450:0:0:0:0:
402,192,177375,128,0,177450:0:0:0:0:
256,192,177450,128,0,177525:0:0:0:0:
182,192,177450,128,0,177525:0:0:0:0:
329,192,177525,128,0,177600:0:0:0:0:
402,192,177525,128,0,177600:0:0:0:0:
256,192,177600,1,0,0:0:0:0:
109,192,177600,1,0,0:0:0:0:
36,192,177600,1,0,0:0:0:0:
182,192,177600,1,0,0:0:0:0:
475,192,177600,1,0,0:0:0:0:
475,192,177750,1,0,0:0:0:0:
256,192,177750,1,0,0:0:0:0:
36,192,177750,1,0,0:0:0:0:
109,192,177750,1,0,0:0:0:0:
256,192,177900,1,0,0:0:0:0:
329,192,177900,1,0,0:0:0:0:
475,192,177900,1,0,0:0:0:0:
402,192,177900,1,0,0:0:0:0:
36,192,177900,1,0,0:0:0:0:
256,192,178050,1,0,0:0:0:0:
402,192,178050,1,0,0:0:0:0:
475,192,178050,1,0,0:0:0:0:
36,192,178050,1,0,0:0:0:0:
182,192,178200,1,0,0:0:0:0:
109,192,178200,1,0,0:0:0:0:
36,192,178200,1,0,0:0:0:0:
329,192,178200,1,0,0:0:0:0:
475,192,178200,1,0,0:0:0:0:
109,192,178350,1,0,0:0:0:0:
182,192,178350,1,0,0:0:0:0:
256,192,178350,1,0,0:0:0:0:
402,192,178350,1,0,0:0:0:0:
182,192,178500,1,0,0:0:0:0:
256,192,178500,1,0,0:0:0:0:
329,192,178500,1,0,0:0:0:0:
475,192,178500,1,0,0:0:0:0:
36,192,178500,1,0,0:0:0:0:
256,192,178650,1,0,0:0:0:0:
329,192,178650,1,0,0:0:0:0:
402,192,178650,1,0,0:0:0:0:
109,192,178650,1,0,0:0:0:0:
329,192,178800,1,0,0:0:0:0:
402,192,178800,1,0,0:0:0:0:
475,192,178800,1,0,0:0:0:0:
256,192,178800,1,0,0:0:0:0:
182,192,178837,1,0,0:0:0:0:
109,192,178875,1,0,0:0:0:0:
36,192,178912,1,0,0:0:0:0:
256,192,179100,1,0,0:0:0:0:
475,192,179100,1,0,0:0:0:0:
402,192,179100,1,0,0:0:0:0:
329,192,179118,1,0,0:0:0:0:
402,192,179250,1,0,0:0:0:0:
329,192,179250,1,0,0:0:0:0:
182,192,179250,1,0,0:0:0:0:
256,192,179268,1,0,0:0:0:0:
109,192,179400,128,0,179625:0:0:0:0:
402,192,179400,128,0,179625:0:0:0:0:
36,192,179400,128,0,179475:0:0:0:0:
475,192,179400,128,0,179475:0:0:0:0:
256,192,179400,128,0,179550:0:0:0:0:
329,192,179550,128,0,179700:0:0:0:0:
182,192,179550,128,0,179700:0:0:0:0:
475,192,179700,1,0,0:0:0:0:
36,192,179700,1,0,0:0:0:0:
109,192,179700,1,0,0:0:0:0:
402,192,179750,1,0,0:0:0:0:
182,192,179775,1,0,0:0:0:0:
329,192,179800,1,0,0:0:0:0:
256,192,179850,1,0,0:0:0:0:
182,192,179900,1,0,0:0:0:0:
329,192,179925,1,0,0:0:0:0:
109,192,179950,1,0,0:0:0:0:
402,192,180000,128,0,180150:0:0:0:0:
475,192,180000,128,0,180150:0:0:0:0:
36,192,180000,128,0,180150:0:0:0:0:
182,192,180150,1,0,0:0:0:0:
329,192,180150,1,0,0:0:0:0:
475,192,180300,1,0,0:0:0:0:
36,192,180300,128,0,180375:0:0:0:0:
109,192,180318,128,0,180356:0:0:0:0:
182,192,180337,1,0,0:0:0:0:
329,192,180375,1,0,0:0:0:0:
402,192,180450,1,0,0:0:0:0:
36,192,180450,128,0,180525:0:0:0:0:
109,192,180468,128,0,180506:0:0:0:0:
182,192,180487,1,0,0:0:0:0:
329,192,180525,1,0,0:0:0:0:
475,192,180600,1,0,0:0:0:0:
36,192,180600,128,0,180675:0:0:0:0:
109,192,180618,128,0,180656:0:0:0:0:
182,192,180637,1,0,0:0:0:0:
329,192,180675,1,0,0:0:0:0:
402,192,180750,1,0,0:0:0:0:
182,192,180750,128,0,180825:0:0:0:0:
109,192,180768,128,0,180806:0:0:0:0:
36,192,180787,1,0,0:0:0:0:
475,192,180825,1,0,0:0:0:0:
329,192,180900,1,0,0:0:0:0:
36,192,180900,128,0,180975:0:0:0:0:
109,192,180918,128,0,180956:0:0:0:0:
182,192,180937,1,0,0:0:0:0:
475,192,180975,1,0,0:0:0:0:
402,192,181050,1,0,0:0:0:0:
182,192,181050,128,0,181125:0:0:0:0:
109,192,181068,128,0,181106:0:0:0:0:
36,192,181087,1,0,0:0:0:0:
329,192,181125,1,0,0:0:0:0:
402,192,181200,1,0,0:0:0:0:
475,192,181200,1,0,0:0:0:0:
256,192,181200,1,0,0:0:0:0:
36,192,181275,128,0,181331:0:0:0:0:
109,192,181300,1,0,0:0:0:0:
256,192,181350,1,0,0:0:0:0:
402,192,181350,1,0,0:0:0:0:
109,192,181425,128,0,181481:0:0:0:0:
182,192,181450,1,0,0:0:0:0:
329,192,181500,1,0,0:0:0:0:
475,192,181500,1,0,0:0:0:0:
36,192,181500,1,0,0:0:0:0:
182,192,181575,128,0,181631:0:0:0:0:
256,192,181600,1,0,0:0:0:0:
109,192,181650,1,0,0:0:0:0:
402,192,181650,1,0,0:0:0:0:
256,192,181725,128,0,181781:0:0:0:0:
329,192,181750,1,0,0:0:0:0:
182,192,181800,1,0,0:0:0:0:
36,192,181800,1,0,0:0:0:0:
475,192,181800,1,0,0:0:0:0:
329,192,181875,128,0,181931:0:0:0:0:
402,192,181900,1,0,0:0:0:0:
109,192,181950,1,0,0:0:0:0:
256,192,181950,1,0,0:0:0:0:
402,192,182025,128,0,182081:0:0:0:0:
475,192,182050,1,0,0:0:0:0:
36,192,182100,1,0,0:0:0:0:
182,192,182100,1,0,0:0:0:0:
329,192,182175,128,0,182231:0:0:0:0:
402,192,182200,1,0,0:0:0:0:
109,192,182250,1,0,0:0:0:0:
475,192,182250,1,0,0:0:0:0:
256,192,182325,128,0,182381:0:0:0:0:
329,192,182350,1,0,0:0:0:0:
402,192,182400,128,0,182568:0:0:0:0:
475,192,182400,128,0,182568:0:0:0:0:
109,192,182400,128,0,182531:0:0:0:0:
36,192,182400,128,0,182531:0:0:0:0:
182,192,182531,1,0,0:0:0:0:
256,192,182550,1,0,0:0:0:0:
329,192,182568,1,0,0:0:0:0:
36,192,182700,1,0,0:0:0:0:
475,192,182700,128,0,182775:0:0:0:0:
402,192,182718,128,0,182756:0:0:0:0:
329,192,182737,1,0,0:0:0:0:
182,192,182775,1,0,0:0:0:0:
109,192,182850,1,0,0:0:0:0:
475,192,182850,128,0,182925:0:0:0:0:
402,192,182868,128,0,182906:0:0:0:0:
329,192,182887,1,0,0:0:0:0:
182,192,182925,1,0,0:0:0:0:
36,192,183000,1,0,0:0:0:0:
475,192,183000,128,0,183075:0:0:0:0:
402,192,183018,128,0,183056:0:0:0:0:
329,192,183037,1,0,0:0:0:0:
182,192,183075,1,0,0:0:0:0:
109,192,183150,1,0,0:0:0:0:
329,192,183150,128,0,183225:0:0:0:0:
402,192,183168,128,0,183206:0:0:0:0:
475,192,183187,1,0,0:0:0:0:
36,192,183225,1,0,0:0:0:0:
182,192,183300,1,0,0:0:0:0:
475,192,183300,128,0,183375:0:0:0:0:
402,192,183318,128,0,183356:0:0:0:0:
329,192,183337,1,0,0:0:0:0:
36,192,183375,1,0,0:0:0:0:
109,192,183450,1,0,0:0:0:0:
329,192,183450,128,0,183525:0:0:0:0:
402,192,183468,128,0,183506:0:0:0:0:
475,192,183487,1,0,0:0:0:0:
182,192,183525,1,0,0:0:0:0:
109,192,183600,1,0,0:0:0:0:
36,192,183600,1,0,0:0:0:0:
256,192,183600,1,0,0:0:0:0:
402,192,183675,1,0,0:0:0:0:
475,192,183675,1,0,0:0:0:0:
109,192,183750,1,0,0:0:0:0:
36,192,183750,128,0,184012:0:0:0:0:
256,192,183750,1,0,0:0:0:0:
329,192,183825,1,0,0:0:0:0:
402,192,183825,1,0,0:0:0:0:
182,192,183900,1,0,0:0:0:0:
475,192,183900,1,0,0:0:0:0:
109,192,183900,1,0,0:0:0:0:
402,192,183975,1,0,0:0:0:0:
329,192,183975,1,0,0:0:0:0:
36,192,184050,128,0,184275:0:0:0:0:
182,192,184050,1,0,0:0:0:0:
256,192,184050,1,0,0:0:0:0:
475,192,184125,1,0,0:0:0:0:
402,192,184125,1,0,0:0:0:0:
109,192,184200,1,0,0:0:0:0:
182,192,184200,1,0,0:0:0:0:
329,192,184200,1,0,0:0:0:0:
402,192,184275,1,0,0:0:0:0:
475,192,184275,1,0,0:0:0:0:
109,192,184350,1,0,0:0:0:0:
36,192,184350,1,0,0:0:0:0:
329,192,184350,1,0,0:0:0:0:
109,192,184425,1,0,0:0:0:0:
36,192,184425,1,0,0:0:0:0:
256,192,184425,1,0,0:0:0:0:
402,192,184500,1,0,0:0:0:0:
475,192,184500,1,0,0:0:0:0:
182,192,184500,1,0,0:0:0:0:
329,192,184575,1,0,0:0:0:0:
109,192,184575,1,0,0:0:0:0:
36,192,184575,1,0,0:0:0:0:
256,192,184650,1,0,0:0:0:0:
402,192,184650,1,0,0:0:0:0:
475,192,184650,1,0,0:0:0:0:
329,192,184725,1,0,0:0:0:0:
182,192,184725,1,0,0:0:0:0:
36,192,184800,128,0,184968:0:0:0:0:
109,192,184800,128,0,184968:0:0:0:0:
402,192,184800,128,0,184931:0:0:0:0:
475,192,184800,128,0,184931:0:0:0:0:
329,192,184931,1,0,0:0:0:0:
256,192,184950,1,0,0:0:0:0:
182,192,184968,1,0,0:0:0:0:
36,192,185100,1,0,0:0:0:0:
475,192,185100,128,0,185175:0:0:0:0:
402,192,185118,128,0,185156:0:0:0:0:
329,192,185137,1,0,0:0:0:0:
182,192,185175,1,0,0:0:0:0:
109,192,185250,1,0,0:0:0:0:
475,192,185250,128,0,185325:0:0:0:0:
402,192,185268,128,0,185306:0:0:0:0:
329,192,185287,1,0,0:0:0:0:
182,192,185325,1,0,0:0:0:0:
36,192,185400,1,0,0:0:0:0:
475,192,185400,128,0,185475:0:0:0:0:
402,192,185418,128,0,185456:0:0:0:0:
329,192,185437,1,0,0:0:0:0:
182,192,185475,1,0,0:0:0:0:
109,192,185550,1,0,0:0:0:0:
329,192,185550,128,0,185625:0:0:0:0:
402,192,185568,128,0,185606:0:0:0:0:
475,192,185587,1,0,0:0:0:0:
182,192,185625,1,0,0:0:0:0:
109,192,185700,1,0,0:0:0:0:
475,192,185700,128,0,185775:0:0:0:0:
402,192,185718,128,0,185756:0:0:0:0:
329,192,185737,1,0,0:0:0:0:
36,192,185775,1,0,0:0:0:0:
109,192,185850,1,0,0:0:0:0:
329,192,185850,128,0,185925:0:0:0:0:
402,192,185868,128,0,185906:0:0:0:0:
475,192,185887,1,0,0:0:0:0:
182,192,185925,1,0,0:0:0:0:
109,192,186000,1,0,0:0:0:0:
36,192,186000,1,0,0:0:0:0:
256,192,186000,1,0,0:0:0:0:
475,192,186075,128,0,186131:0:0:0:0:
402,192,186100,1,0,0:0:0:0:
109,192,186150,1,0,0:0:0:0:
402,192,186225,128,0,186281:0:0:0:0:
329,192,186250,1,0,0:0:0:0:
182,192,186300,1,0,0:0:0:0:
36,192,186300,1,0,0:0:0:0:
475,192,186300,1,0,0:0:0:0:
329,192,186375,128,0,186431:0:0:0:0:
256,192,186400,1,0,0:0:0:0:
109,192,186450,1,0,0:0:0:0:
402,192,186450,1,0,0:0:0:0:
256,192,186525,128,0,186581:0:0:0:0:
182,192,186550,1,0,0:0:0:0:
36,192,186600,1,0,0:0:0:0:
329,192,186600,1,0,0:0:0:0:
475,192,186600,1,0,0:0:0:0:
182,192,186675,128,0,186731:0:0:0:0:
109,192,186700,1,0,0:0:0:0:
402,192,186750,1,0,0:0:0:0:
256,192,186750,1,0,0:0:0:0:
109,192,186825,128,0,186881:0:0:0:0:
36,192,186850,1,0,0:0:0:0:
475,192,186900,1,0,0:0:0:0:
256,192,186900,1,0,0:0:0:0:
402,192,186975,1,0,0:0:0:0:
182,192,186975,128,0,187031:0:0:0:0:
109,192,187000,1,0,0:0:0:0:
475,192,187050,1,0,0:0:0:0:
36,192,187050,1,0,0:0:0:0:
329,192,187050,1,0,0:0:0:0:
402,192,187125,1,0,0:0:0:0:
256,192,187125,128,0,187181:0:0:0:0:
182,192,187150,1,0,0:0:0:0:
109,192,187200,1,0,0:0:0:0:
475,192,187200,128,0,187443:0:0:0:0:
329,192,187200,128,0,187443:0:0:0:0:
36,192,187200,128,0,187443:0:0:0:0:
109,192,187350,1,0,0:0:0:0:
182,192,187350,1,0,0:0:0:0:
402,192,187350,1,0,0:0:0:0:
256,192,187500,1,0,0:0:0:0:
329,192,187500,1,0,0:0:0:0:
182,192,187500,128,0,187743:0:0:0:0:
475,192,187500,128,0,187743:0:0:0:0:
36,192,187500,128,0,187743:0:0:0:0:
256,192,187650,1,0,0:0:0:0:
329,192,187650,1,0,0:0:0:0:
109,192,187650,1,0,0:0:0:0:
402,192,187800,1,0,0:0:0:0:
475,192,187800,128,0,188043:0:0:0:0:
182,192,187800,128,0,188043:0:0:0:0:
36,192,187800,128,0,188043:0:0:0:0:
329,192,187950,1,0,0:0:0:0:
109,192,187950,1,0,0:0:0:0:
256,192,187950,1,0,0:0:0:0:
182,192,188100,1,0,0:0:0:0:
475,192,188100,1,0,0:0:0:0:
256,192,188100,128,0,188250:0:0:0:0:
36,192,188100,128,0,188250:0:0:0:0:
402,192,188100,128,0,188250:0:0:0:0:
182,192,188250,1,0,0:0:0:0:
109,192,188250,1,0,0:0:0:0:
329,192,188250,1,0,0:0:0:0:
256,192,188325,1,0,0:0:0:0:
36,192,188325,1,0,0:0:0:0:
475,192,188325,1,0,0:0:0:0:
329,192,188400,1,0,0:0:0:0:
182,192,188400,1,0,0:0:0:0:
402,192,188400,128,0,188625:0:0:0:0:
109,192,188400,128,0,188700:0:0:0:0:
256,192,188550,1,0,0:0:0:0:
329,192,188550,128,0,188775:0:0:0:0:
182,192,188700,1,0,0:0:0:0:
36,192,188700,1,0,0:0:0:0:
402,192,188700,1,0,0:0:0:0:
256,192,188700,128,0,188925:0:0:0:0:
475,192,188700,128,0,188925:0:0:0:0:
182,192,188850,1,0,0:0:0:0:
109,192,188850,1,0,0:0:0:0:
329,192,188850,1,0,0:0:0:0:
182,192,188925,1,0,0:0:0:0:
109,192,188925,1,0,0:0:0:0:
256,192,189000,1,0,0:0:0:0:
402,192,189000,1,0,0:0:0:0:
475,192,189000,1,0,0:0:0:0:
36,192,189000,128,0,189225:0:0:0:0:
329,192,189075,1,0,0:0:0:0:
182,192,189150,1,0,0:0:0:0:
329,192,189225,1,0,0:0:0:0:
256,192,189300,1,0,0:0:0:0:
402,192,189300,1,0,0:0:0:0:
36,192,189300,1,0,0:0:0:0:
109,192,189300,1,0,0:0:0:0:
475,192,189300,128,0,189525:0:0:0:0:
182,192,189375,1,0,0:0:0:0:
329,192,189450,1,0,0:0:0:0:
182,192,189525,1,0,0:0:0:0:
36,192,189600,128,0,189750:0:0:0:0:
256,192,189600,128,0,189750:0:0:0:0:
402,192,189600,128,0,189750:0:0:0:0:
475,192,189600,128,0,189750:0:0:0:0:
109,192,189600,128,0,189750:0:0:0:0:
475,192,189900,1,0,0:0:0:0:
36,192,189900,128,0,189975:0:0:0:0:
109,192,189918,128,0,189956:0:0:0:0:
182,192,189937,1,0,0:0:0:0:
329,192,189975,1,0,0:0:0:0:
402,192,190050,1,0,0:0:0:0:
36,192,190050,128,0,190125:0:0:0:0:
109,192,190068,128,0,190106:0:0:0:0:
182,192,190087,1,0,0:0:0:0:
256,192,190125,1,0,0:0:0:0:
109,192,190200,1,0,0:0:0:0:
475,192,190200,128,0,190275:0:0:0:0:
402,192,190218,128,0,190256:0:0:0:0:
329,192,190237,1,0,0:0:0:0:
182,192,190275,1,0,0:0:0:0:
36,192,190350,1,0,0:0:0:0:
329,192,190350,128,0,190425:0:0:0:0:
402,192,190368,128,0,190406:0:0:0:0:
475,192,190387,1,0,0:0:0:0:
256,192,190425,1,0,0:0:0:0:
109,192,190500,1,0,0:0:0:0:
475,192,190500,128,0,190575:0:0:0:0:
402,192,190518,128,0,190556:0:0:0:0:
329,192,190537,1,0,0:0:0:0:
182,192,190575,1,0,0:0:0:0:
36,192,190650,1,0,0:0:0:0:
329,192,190650,128,0,190725:0:0:0:0:
402,192,190668,128,0,190706:0:0:0:0:
475,192,190687,1,0,0:0:0:0:
256,192,190725,1,0,0:0:0:0:
402,192,190800,1,0,0:0:0:0:
329,192,190800,1,0,0:0:0:0:
36,192,190800,128,0,190856:0:0:0:0:
109,192,190818,128,0,190875:0:0:0:0:
182,192,190837,128,0,190893:0:0:0:0:
475,192,190950,1,0,0:0:0:0:
402,192,190950,1,0,0:0:0:0:
109,192,190950,128,0,191006:0:0:0:0:
182,192,190968,128,0,191025:0:0:0:0:
256,192,190987,128,0,191043:0:0:0:0:
36,192,191100,1,0,0:0:0:0:
475,192,191100,1,0,0:0:0:0:
182,192,191100,128,0,191156:0:0:0:0:
256,192,191118,128,0,191175:0:0:0:0:
329,192,191137,128,0,191193:0:0:0:0:
109,192,191250,1,0,0:0:0:0:
36,192,191250,1,0,0:0:0:0:
256,192,191250,128,0,191306:0:0:0:0:
329,192,191268,128,0,191325:0:0:0:0:
402,192,191287,128,0,191343:0:0:0:0:
182,192,191400,1,0,0:0:0:0:
109,192,191400,1,0,0:0:0:0:
475,192,191400,128,0,191456:0:0:0:0:
402,192,191418,128,0,191475:0:0:0:0:
329,192,191437,128,0,191493:0:0:0:0:
36,192,191550,1,0,0:0:0:0:
109,192,191550,1,0,0:0:0:0:
402,192,191550,128,0,191606:0:0:0:0:
329,192,191568,128,0,191625:0:0:0:0:
256,192,191587,128,0,191643:0:0:0:0:
475,192,191700,1,0,0:0:0:0:
36,192,191700,1,0,0:0:0:0:
329,192,191700,128,0,191756:0:0:0:0:
256,192,191718,128,0,191775:0:0:0:0:
182,192,191737,128,0,191793:0:0:0:0:
402,192,191850,1,0,0:0:0:0:
475,192,191850,1,0,0:0:0:0:
256,192,191850,128,0,191906:0:0:0:0:
182,192,191868,128,0,191925:0:0:0:0:
109,192,191887,128,0,191943:0:0:0:0:
36,192,192000,128,0,192168:0:0:0:0:
109,192,192000,128,0,192168:0:0:0:0:
402,192,192000,128,0,192131:0:0:0:0:
475,192,192000,128,0,192131:0:0:0:0:
329,192,192131,1,0,0:0:0:0:
256,192,192150,1,0,0:0:0:0:
182,192,192168,1,0,0:0:0:0:
36,192,192300,1,0,0:0:0:0:
475,192,192300,128,0,192375:0:0:0:0:
402,192,192318,128,0,192356:0:0:0:0:
329,192,192337,1,0,0:0:0:0:
182,192,192375,1,0,0:0:0:0:
109,192,192450,1,0,0:0:0:0:
475,192,192450,128,0,192525:0:0:0:0:
402,192,192468,128,0,192506:0:0:0:0:
329,192,192487,1,0,0:0:0:0:
256,192,192525,1,0,0:0:0:0:
475,192,192600,1,0,0:0:0:0:
36,192,192600,128,0,192675:0:0:0:0:
109,192,192618,128,0,192656:0:0:0:0:
182,192,192637,1,0,0:0:0:0:
329,192,192675,1,0,0:0:0:0:
402,192,192750,1,0,0:0:0:0:
182,192,192750,128,0,192825:0:0:0:0:
109,192,192768,128,0,192806:0:0:0:0:
36,192,192787,1,0,0:0:0:0:
256,192,192825,1,0,0:0:0:0:
475,192,192900,1,0,0:0:0:0:
36,192,192900,128,0,192975:0:0:0:0:
109,192,192918,128,0,192956:0:0:0:0:
182,192,192937,1,0,0:0:0:0:
329,192,192975,1,0,0:0:0:0:
402,192,193050,1,0,0:0:0:0:
182,192,193050,128,0,193125:0:0:0:0:
109,192,193068,128,0,193106:0:0:0:0:
36,192,193087,1,0,0:0:0:0:
256,192,193125,1,0,0:0:0:0:
109,192,193200,1,0,0:0:0:0:
182,192,193200,1,0,0:0:0:0:
475,192,193200,128,0,193256:0:0:0:0:
402,192,193218,128,0,193275:0:0:0:0:
329,192,193237,128,0,193293:0:0:0:0:
36,192,193350,1,0,0:0:0:0:
109,192,193350,1,0,0:0:0:0:
402,192,193350,128,0,193406:0:0:0:0:
329,192,193368,128,0,193425:0:0:0:0:
256,192,193387,128,0,193443:0:0:0:0:
475,192,193500,1,0,0:0:0:0:
36,192,193500,1,0,0:0:0:0:
329,192,193500,128,0,193556:0:0:0:0:
256,192,193518,128,0,193575:0:0:0:0:
182,192,193537,128,0,193593:0:0:0:0:
402,192,193650,1,0,0:0:0:0:
475,192,193650,1,0,0:0:0:0:
256,192,193650,128,0,193706:0:0:0:0:
182,192,193668,128,0,193725:0:0:0:0:
109,192,193687,128,0,193743:0:0:0:0:
329,192,193800,1,0,0:0:0:0:
402,192,193800,1,0,0:0:0:0:
36,192,193800,128,0,193856:0:0:0:0:
109,192,193818,128,0,193875:0:0:0:0:
182,192,193837,128,0,193893:0:0:0:0:
475,192,193950,1,0,0:0:0:0:
402,192,193950,1,0,0:0:0:0:
109,192,193950,128,0,194006:0:0:0:0:
182,192,193968,128,0,194025:0:0:0:0:
256,192,193987,128,0,194043:0:0:0:0:
36,192,194100,1,0,0:0:0:0:
475,192,194100,1,0,0:0:0:0:
182,192,194100,128,0,194156:0:0:0:0:
256,192,194118,128,0,194175:0:0:0:0:
329,192,194137,128,0,194193:0:0:0:0:
109,192,194250,1,0,0:0:0:0:
36,192,194250,1,0,0:0:0:0:
256,192,194250,128,0,194306:0:0:0:0:
329,192,194268,128,0,194325:0:0:0:0:
402,192,194287,128,0,194343:0:0:0:0:
109,192,194400,128,0,194531:0:0:0:0:
36,192,194400,128,0,194531:0:0:0:0:
402,192,194400,128,0,194568:0:0:0:0:
475,192,194400,128,0,194568:0:0:0:0:
182,192,194531,1,0,0:0:0:0:
256,192,194550,1,0,0:0:0:0:
329,192,194568,1,0,0:0:0:0:
475,192,194700,1,0,0:0:0:0:
36,192,194700,128,0,194775:0:0:0:0:
109,192,194718,128,0,194756:0:0:0:0:
182,192,194737,1,0,0:0:0:0:
329,192,194775,1,0,0:0:0:0:
402,192,194850,1,0,0:0:0:0:
36,192,194850,128,0,194925:0:0:0:0:
109,192,194868,128,0,194906:0:0:0:0:
182,192,194887,1,0,0:0:0:0:
256,192,194925,1,0,0:0:0:0:
109,192,195000,1,0,0:0:0:0:
475,192,195000,128,0,195075:0:0:0:0:
402,192,195018,128,0,195056:0:0:0:0:
329,192,195037,1,0,0:0:0:0:
182,192,195075,1,0,0:0:0:0:
36,192,195150,1,0,0:0:0:0:
329,192,195150,128,0,195225:0:0:0:0:
402,192,195168,128,0,195206:0:0:0:0:
475,192,195187,1,0,0:0:0:0:
256,192,195225,1,0,0:0:0:0:
109,192,195300,1,0,0:0:0:0:
475,192,195300,128,0,195375:0:0:0:0:
402,192,195318,128,0,195356:0:0:0:0:
329,192,195337,1,0,0:0:0:0:
182,192,195375,1,0,0:0:0:0:
36,192,195450,1,0,0:0:0:0:
329,192,195450,128,0,195525:0:0:0:0:
402,192,195468,128,0,195506:0:0:0:0:
475,192,195487,1,0,0:0:0:0:
109,192,195525,1,0,0:0:0:0:
36,192,195600,1,0,0:0:0:0:
475,192,195600,1,0,0:0:0:0:
182,192,195600,128,0,195656:0:0:0:0:
256,192,195618,128,0,195675:0:0:0:0:
329,192,195637,128,0,195693:0:0:0:0:
109,192,195750,1,0,0:0:0:0:
36,192,195750,1,0,0:0:0:0:
256,192,195750,128,0,195806:0:0:0:0:
329,192,195768,128,0,195825:0:0:0:0:
402,192,195787,128,0,195843:0:0:0:0:
182,192,195900,1,0,0:0:0:0:
109,192,195900,1,0,0:0:0:0:
475,192,195900,128,0,195956:0:0:0:0:
402,192,195918,128,0,195975:0:0:0:0:
329,192,195937,128,0,195993:0:0:0:0:
36,192,196050,1,0,0:0:0:0:
109,192,196050,1,0,0:0:0:0:
402,192,196050,128,0,196106:0:0:0:0:
329,192,196068,128,0,196125:0:0:0:0:
256,192,196087,128,0,196143:0:0:0:0:
475,192,196200,1,0,0:0:0:0:
36,192,196200,1,0,0:0:0:0:
329,192,196200,128,0,196256:0:0:0:0:
256,192,196218,128,0,196275:0:0:0:0:
182,192,196237,128,0,196293:0:0:0:0:
402,192,196350,1,0,0:0:0:0:
475,192,196350,1,0,0:0:0:0:
256,192,196350,128,0,196406:0:0:0:0:
182,192,196368,128,0,196425:0:0:0:0:
109,192,196387,128,0,196443:0:0:0:0:
329,192,196500,1,0,0:0:0:0:
475,192,196500,1,0,0:0:0:0:
109,192,196500,1,0,0:0:0:0:
36,192,196500,1,0,0:0:0:0:
402,192,196575,1,0,0:0:0:0:
256,192,196575,1,0,0:0:0:0:
329,192,196650,1,0,0:0:0:0:
182,192,196650,1,0,0:0:0:0:
256,192,196725,1,0,0:0:0:0:
109,192,196725,1,0,0:0:0:0:
36,192,196800,128,0,197043:0:0:0:0:
182,192,196800,128,0,197043:0:0:0:0:
475,192,196800,128,0,197043:0:0:0:0:
402,192,196800,1,0,0:0:0:0:
402,192,196950,1,0,0:0:0:0:
329,192,196950,1,0,0:0:0:0:
109,192,196950,1,0,0:0:0:0:
256,192,197100,1,0,0:0:0:0:
182,192,197100,1,0,0:0:0:0:
329,192,197100,128,0,197343:0:0:0:0:
36,192,197100,128,0,197343:0:0:0:0:
475,192,197100,128,0,197343:0:0:0:0:
256,192,197250,1,0,0:0:0:0:
182,192,197250,1,0,0:0:0:0:
402,192,197250,1,0,0:0:0:0:
109,192,197400,1,0,0:0:0:0:
36,192,197400,128,0,197643:0:0:0:0:
329,192,197400,128,0,197643:0:0:0:0:
475,192,197400,128,0,197643:0:0:0:0:
182,192,197550,1,0,0:0:0:0:
402,192,197550,1,0,0:0:0:0:
256,192,197550,1,0,0:0:0:0:
109,192,197700,128,0,197775:0:0:0:0:
36,192,197700,128,0,197775:0:0:0:0:
256,192,197700,128,0,197775:0:0:0:0:
329,192,197700,128,0,197775:0:0:0:0:
475,192,197700,128,0,197775:0:0:0:0:
256,192,197850,128,0,197925:0:0:0:0:
182,192,197850,128,0,197925:0:0:0:0:
36,192,197850,128,0,197925:0:0:0:0:
475,192,197850,128,0,197925:0:0:0:0:
402,192,197850,128,0,197925:0:0:0:0:
182,192,198000,1,0,0:0:0:0:
329,192,198000,1,0,0:0:0:0:
109,192,198000,128,0,198225:0:0:0:0:
402,192,198000,128,0,198300:0:0:0:0:
256,192,198150,1,0,0:0:0:0:
182,192,198150,128,0,198375:0:0:0:0:
329,192,198300,1,0,0:0:0:0:
475,192,198300,1,0,0:0:0:0:
109,192,198300,1,0,0:0:0:0:
256,192,198300,128,0,198525:0:0:0:0:
36,192,198300,128,0,198525:0:0:0:0:
329,192,198450,1,0,0:0:0:0:
402,192,198450,1,0,0:0:0:0:
182,192,198450,1,0,0:0:0:0:
329,192,198525,1,0,0:0:0:0:
402,192,198525,1,0,0:0:0:0:
256,192,198600,1,0,0:0:0:0:
109,192,198600,1,0,0:0:0:0:
36,192,198600,1,0,0:0:0:0:
475,192,198600,128,0,198825:0:0:0:0:
182,192,198675,1,0,0:0:0:0:
329,192,198750,1,0,0:0:0:0:
182,192,198825,1,0,0:0:0:0:
256,192,198900,1,0,0:0:0:0:
109,192,198900,1,0,0:0:0:0:
475,192,198900,1,0,0:0:0:0:
402,192,198900,1,0,0:0:0:0:
36,192,198900,128,0,199125:0:0:0:0:
329,192,198975,1,0,0:0:0:0:
182,192,199050,1,0,0:0:0:0:
329,192,199125,1,0,0:0:0:0:
256,192,199200,1,0,0:0:0:0:
475,192,199200,1,0,0:0:0:0:
109,192,199237,1,0,0:0:0:0:
329,192,199275,1,0,0:0:0:0:
182,192,199312,1,0,0:0:0:0:
402,192,199350,1,0,0:0:0:0:
329,192,199400,1,0,0:0:0:0:
256,192,199450,1,0,0:0:0:0:
475,192,199500,1,0,0:0:0:0:
182,192,199500,1,0,0:0:0:0:
109,192,199500,1,0,0:0:0:0:
36,192,199500,1,0,0:0:0:0:
402,192,199575,1,0,0:0:0:0:
329,192,199575,1,0,0:0:0:0:
182,192,199650,1,0,0:0:0:0:
109,192,199650,1,0,0:0:0:0:
36,192,199650,1,0,0:0:0:0:
256,192,199725,1,0,0:0:0:0:
329,192,199725,1,0,0:0:0:0:
475,192,199800,1,0,0:0:0:0:
109,192,199800,1,0,0:0:0:0:
36,192,199800,1,0,0:0:0:0:
402,192,199837,1,0,0:0:0:0:
329,192,199875,1,0,0:0:0:0:
182,192,199875,1,0,0:0:0:0:
256,192,199950,1,0,0:0:0:0:
475,192,199950,1,0,0:0:0:0:
182,192,199987,1,0,0:0:0:0:
109,192,200025,1,0,0:0:0:0:
402,192,200025,1,0,0:0:0:0:
36,192,200100,1,0,0:0:0:0:
329,192,200100,1,0,0:0:0:0:
475,192,200100,1,0,0:0:0:0:
256,192,200137,1,0,0:0:0:0:
182,192,200175,1,0,0:0:0:0:
402,192,200250,1,0,0:0:0:0:
109,192,200250,1,0,0:0:0:0:
329,192,200287,1,0,0:0:0:0:
256,192,200325,1,0,0:0:0:0:
475,192,200400,1,0,0:0:0:0:
182,192,200400,1,0,0:0:0:0:
36,192,200400,1,0,0:0:0:0:
402,192,200400,1,0,0:0:0:0:
329,192,200475,1,0,0:0:0:0:
109,192,200500,1,0,0:0:0:0:
402,192,200550,1,0,0:0:0:0:
475,192,200550,1,0,0:0:0:0:
256,192,200575,1,0,0:0:0:0:
182,192,200625,1,0,0:0:0:0:
329,192,200650,1,0,0:0:0:0:
109,192,200700,1,0,0:0:0:0:
36,192,200700,1,0,0:0:0:0:
475,192,200700,1,0,0:0:0:0:
256,192,200775,1,0,0:0:0:0:
402,192,200800,1,0,0:0:0:0:
182,192,200850,1,0,0:0:0:0:
109,192,200850,1,0,0:0:0:0:
329,192,200900,1,0,0:0:0:0:
36,192,200925,1,0,0:0:0:0:
402,192,201000,1,0,0:0:0:0:
475,192,201000,1,0,0:0:0:0:
256,192,201000,1,0,0:0:0:0:
109,192,201050,1,0,0:0:0:0:
329,192,201075,1,0,0:0:0:0:
182,192,201125,1,0,0:0:0:0:
402,192,201150,1,0,0:0:0:0:
475,192,201150,1,0,0:0:0:0:
256,192,201200,1,0,0:0:0:0:
109,192,201225,1,0,0:0:0:0:
36,192,201225,1,0,0:0:0:0:
329,192,201275,1,0,0:0:0:0:
402,192,201300,1,0,0:0:0:0:
475,192,201300,1,0,0:0:0:0:
182,192,201300,1,0,0:0:0:0:
256,192,201375,1,0,0:0:0:0:
109,192,201375,1,0,0:0:0:0:
36,192,201375,1,0,0:0:0:0:
182,192,201450,1,0,0:0:0:0:
329,192,201450,1,0,0:0:0:0:
402,192,201450,1,0,0:0:0:0:
475,192,201525,1,0,0:0:0:0:
256,192,201525,1,0,0:0:0:0:
36,192,201525,1,0,0:0:0:0:
402,192,201600,128,0,201731:0:0:0:0:
329,192,201600,128,0,201750:0:0:0:0:
182,192,201600,128,0,201768:0:0:0:0:
109,192,201600,128,0,201787:0:0:0:0:
475,192,201900,1,0,0:0:0:0:
36,192,201900,128,0,201975:0:0:0:0:
109,192,201918,128,0,201956:0:0:0:0:
182,192,201937,1,0,0:0:0:0:
402,192,201975,1,0,0:0:0:0:
329,192,202050,1,0,0:0:0:0:
36,192,202050,128,0,202125:0:0:0:0:
109,192,202068,128,0,202106:0:0:0:0:
182,192,202087,1,0,0:0:0:0:
256,192,202125,1,0,0:0:0:0:
182,192,202200,1,0,0:0:0:0:
475,192,202200,128,0,202275:0:0:0:0:
402,192,202218,128,0,202256:0:0:0:0:
329,192,202237,1,0,0:0:0:0:
109,192,202275,1,0,0:0:0:0:
36,192,202350,1,0,0:0:0:0:
329,192,202350,128,0,202425:0:0:0:0:
402,192,202368,128,0,202406:0:0:0:0:
475,192,202387,1,0,0:0:0:0:
256,192,202425,1,0,0:0:0:0:
36,192,202500,1,0,0:0:0:0:
109,192,202500,1,0,0:0:0:0:
475,192,202500,128,0,202575:0:0:0:0:
402,192,202537,128,0,202575:0:0:0:0:
329,192,202575,1,0,0:0:0:0:
182,192,202575,1,0,0:0:0:0:
475,192,202650,1,0,0:0:0:0:
402,192,202650,1,0,0:0:0:0:
36,192,202650,128,0,202725:0:0:0:0:
109,192,202687,128,0,202725:0:0:0:0:
182,192,202725,1,0,0:0:0:0:
329,192,202725,1,0,0:0:0:0:
109,192,202800,1,0,0:0:0:0:
36,192,202800,1,0,0:0:0:0:
475,192,202800,1,0,0:0:0:0:
402,192,202800,1,0,0:0:0:0:
256,192,202875,1,0,0:0:0:0:
402,192,202950,1,0,0:0:0:0:
475,192,202950,1,0,0:0:0:0:
109,192,202950,1,0,0:0:0:0:
329,192,203025,1,0,0:0:0:0:
182,192,203025,1,0,0:0:0:0:
256,192,203100,1,0,0:0:0:0:
109,192,203100,1,0,0:0:0:0:
36,192,203100,1,0,0:0:0:0:
475,192,203100,1,0,0:0:0:0:
402,192,203175,1,0,0:0:0:0:
329,192,203250,1,0,0:0:0:0:
182,192,203250,1,0,0:0:0:0:
109,192,203250,1,0,0:0:0:0:
256,192,203325,1,0,0:0:0:0:
475,192,203325,1,0,0:0:0:0:
329,192,203400,1,0,0:0:0:0:
36,192,203400,1,0,0:0:0:0:
182,192,203400,1,0,0:0:0:0:
402,192,203400,1,0,0:0:0:0:
256,192,203475,1,0,0:0:0:0:
109,192,203550,1,0,0:0:0:0:
402,192,203550,1,0,0:0:0:0:
36,192,203550,1,0,0:0:0:0:
329,192,203625,1,0,0:0:0:0:
182,192,203625,1,0,0:0:0:0:
256,192,203700,1,0,0:0:0:0:
109,192,203700,1,0,0:0:0:0:
36,192,203700,1,0,0:0:0:0:
475,192,203700,1,0,0:0:0:0:
182,192,203775,1,0,0:0:0:0:
329,192,203775,1,0,0:0:0:0:
402,192,203775,1,0,0:0:0:0:
256,192,203850,1,0,0:0:0:0:
36,192,203850,1,0,0:0:0:0:
475,192,203850,1,0,0:0:0:0:
109,192,203925,1,0,0:0:0:0:
329,192,203925,1,0,0:0:0:0:
36,192,204000,1,0,0:0:0:0:
475,192,204000,1,0,0:0:0:0:
182,192,204000,1,0,0:0:0:0:
402,192,204025,1,0,0:0:0:0:
329,192,204050,1,0,0:0:0:0:
402,192,204150,1,0,0:0:0:0:
109,192,204150,1,0,0:0:0:0:
329,192,204175,1,0,0:0:0:0:
256,192,204200,1,0,0:0:0:0:
329,192,204300,1,0,0:0:0:0:
36,192,204300,1,0,0:0:0:0:
256,192,204325,1,0,0:0:0:0:
182,192,204350,1,0,0:0:0:0:
256,192,204450,1,0,0:0:0:0:
475,192,204450,1,0,0:0:0:0:
182,192,204475,1,0,0:0:0:0:
109,192,204500,1,0,0:0:0:0:
402,192,204600,1,0,0:0:0:0:
36,192,204600,1,0,0:0:0:0:
329,192,204625,1,0,0:0:0:0:
256,192,204650,1,0,0:0:0:0:
475,192,204750,1,0,0:0:0:0:
182,192,204750,1,0,0:0:0:0:
402,192,204775,1,0,0:0:0:0:
329,192,204800,1,0,0:0:0:0:
109,192,204900,1,0,0:0:0:0:
36,192,204900,1,0,0:0:0:0:
182,192,204900,1,0,0:0:0:0:
256,192,204900,1,0,0:0:0:0:
36,192,205050,1,0,0:0:0:0:
109,192,205075,1,0,0:0:0:0:
182,192,205100,1,0,0:0:0:0:
329,192,205125,1,0,0:0:0:0:
402,192,205150,1,0,0:0:0:0:
475,192,205175,1,0,0:0:0:0:
36,192,205200,1,0,0:0:0:0:
256,192,205200,1,0,0:0:0:0:
109,192,205225,1,0,0:0:0:0:
182,192,205250,1,0,0:0:0:0:
109,192,205350,1,0,0:0:0:0:
402,192,205350,1,0,0:0:0:0:
182,192,205375,1,0,0:0:0:0:
256,192,205400,1,0,0:0:0:0:
182,192,205500,1,0,0:0:0:0:
475,192,205500,1,0,0:0:0:0:
256,192,205525,1,0,0:0:0:0:
329,192,205550,1,0,0:0:0:0:
256,192,205650,1,0,0:0:0:0:
109,192,205650,1,0,0:0:0:0:
329,192,205675,1,0,0:0:0:0:
402,192,205700,1,0,0:0:0:0:
109,192,205800,1,0,0:0:0:0:
475,192,205800,1,0,0:0:0:0:
182,192,205825,1,0,0:0:0:0:
256,192,205850,1,0,0:0:0:0:
36,192,205950,1,0,0:0:0:0:
402,192,205950,1,0,0:0:0:0:
109,192,205975,1,0,0:0:0:0:
182,192,206000,1,0,0:0:0:0:
402,192,206100,1,0,0:0:0:0:
329,192,206100,1,0,0:0:0:0:
256,192,206100,1,0,0:0:0:0:
475,192,206100,1,0,0:0:0:0:
36,192,206100,1,0,0:0:0:0:
109,192,206150,1,0,0:0:0:0:
182,192,206200,1,0,0:0:0:0:
256,192,206250,1,0,0:0:0:0:
329,192,206300,1,0,0:0:0:0:
402,192,206350,1,0,0:0:0:0:
475,192,206400,1,0,0:0:0:0:
182,192,206400,1,0,0:0:0:0:
109,192,206400,1,0,0:0:0:0:
36,192,206400,1,0,0:0:0:0:
256,192,206400,1,0,0:0:0:0:
329,192,206475,1,0,0:0:0:0:
402,192,206475,1,0,0:0:0:0:
182,192,206550,1,0,0:0:0:0:
36,192,206550,1,0,0:0:0:0:
109,192,206550,1,0,0:0:0:0:
475,192,206550,1,0,0:0:0:0:
256,192,206625,1,0,0:0:0:0:
329,192,206625,1,0,0:0:0:0:
402,192,206700,1,0,0:0:0:0:
475,192,206700,1,0,0:0:0:0:
109,192,206700,1,0,0:0:0:0:
36,192,206700,1,0,0:0:0:0:
182,192,206775,1,0,0:0:0:0:
329,192,206775,1,0,0:0:0:0:
109,192,206850,1,0,0:0:0:0:
36,192,206850,1,0,0:0:0:0:
402,192,206850,1,0,0:0:0:0:
475,192,206850,1,0,0:0:0:0:
256,192,206925,1,0,0:0:0:0:
329,192,206925,1,0,0:0:0:0:
182,192,207000,1,0,0:0:0:0:
109,192,207000,1,0,0:0:0:0:
36,192,207000,1,0,0:0:0:0:
475,192,207000,1,0,0:0:0:0:
402,192,207075,1,0,0:0:0:0:
329,192,207075,1,0,0:0:0:0:
475,192,207150,1,0,0:0:0:0:
36,192,207150,1,0,0:0:0:0:
109,192,207150,1,0,0:0:0:0:
182,192,207150,1,0,0:0:0:0:
256,192,207225,1,0,0:0:0:0:
329,192,207225,1,0,0:0:0:0:
402,192,207300,1,0,0:0:0:0:
475,192,207300,1,0,0:0:0:0:
109,192,207300,1,0,0:0:0:0:
36,192,207300,1,0,0:0:0:0:
182,192,207375,1,0,0:0:0:0:
256,192,207375,1,0,0:0:0:0:
402,192,207450,1,0,0:0:0:0:
475,192,207450,1,0,0:0:0:0:
36,192,207450,1,0,0:0:0:0:
109,192,207450,1,0,0:0:0:0:
329,192,207525,1,0,0:0:0:0:
256,192,207525,1,0,0:0:0:0:
402,192,207600,1,0,0:0:0:0:
475,192,207600,1,0,0:0:0:0:
36,192,207600,1,0,0:0:0:0:
109,192,207618,1,0,0:0:0:0:
182,192,207637,1,0,0:0:0:0:
256,192,207675,1,0,0:0:0:0:
329,192,207731,1,0,0:0:0:0:
402,192,207806,1,0,0:0:0:0:
475,192,207900,1,0,0:0:0:0:
36,192,207900,1,0,0:0:0:0:
109,192,207918,1,0,0:0:0:0:
182,192,207937,1,0,0:0:0:0:
256,192,207956,1,0,0:0:0:0:
329,192,207975,1,0,0:0:0:0:
402,192,208050,1,0,0:0:0:0:
475,192,208050,1,0,0:0:0:0:
109,192,208050,1,0,0:0:0:0:
36,192,208050,1,0,0:0:0:0:
182,192,208125,1,0,0:0:0:0:
329,192,208125,1,0,0:0:0:0:
402,192,208200,1,0,0:0:0:0:
109,192,208200,1,0,0:0:0:0:
475,192,208200,1,0,0:0:0:0:
36,192,208200,1,0,0:0:0:0:
256,192,208275,1,0,0:0:0:0:
182,192,208350,1,0,0:0:0:0:
36,192,208350,1,0,0:0:0:0:
329,192,208350,1,0,0:0:0:0:
475,192,208350,1,0,0:0:0:0:
256,192,208425,1,0,0:0:0:0:
109,192,208500,1,0,0:0:0:0:
36,192,208500,1,0,0:0:0:0:
475,192,208500,1,0,0:0:0:0:
402,192,208500,1,0,0:0:0:0:
182,192,208575,1,0,0:0:0:0:
329,192,208575,1,0,0:0:0:0:
109,192,208650,1,0,0:0:0:0:
36,192,208650,1,0,0:0:0:0:
475,192,208650,1,0,0:0:0:0:
256,192,208650,1,0,0:0:0:0:
402,192,208650,1,0,0:0:0:0:
256,192,208800,1,0,0:0:0:0:
475,192,208800,1,0,0:0:0:0:
109,192,208800,1,0,0:0:0:0:
36,192,208800,1,0,0:0:0:0:
402,192,208800,128,0,209250:0:0:0:0:
182,192,208800,1,0,0:0:0:0:
329,192,208800,1,0,0:0:0:0:
182,192,209100,128,0,209250:0:0:0:0:
36,192,209100,1,0,0:0:0:0:
329,192,209250,128,0,209400:0:0:0:0:
475,192,209400,128,0,209850:0:0:0:0:
36,192,209400,1,0,0:0:0:0:
256,192,209625,128,0,209850:0:0:0:0:
36,192,209700,1,0,0:0:0:0:
109,192,209850,128,0,210000:0:0:0:0:
36,192,210000,1,0,0:0:0:0:
329,192,210000,128,0,210450:0:0:0:0:
475,192,210150,128,0,210300:0:0:0:0:
182,192,210300,128,0,210750:0:0:0:0:
36,192,210300,1,0,0:0:0:0:
36,192,210600,1,0,0:0:0:0:
36,192,210900,1,0,0:0:0:0:
36,192,211050,1,0,0:0:0:0:
36,192,211200,1,0,0:0:0:0:
329,192,211200,128,0,211500:0:0:0:0:
182,192,211350,128,0,211500:0:0:0:0:
402,192,211500,128,0,211800:0:0:0:0:
36,192,211500,1,0,0:0:0:0:
256,192,211650,128,0,211800:0:0:0:0:
475,192,211800,128,0,212025:0:0:0:0:
36,192,211800,1,0,0:0:0:0:
475,192,212100,128,0,213000:0:0:0:0:
36,192,212100,1,0,0:0:0:0:
256,192,212100,1,0,0:0:0:0:
256,192,212250,1,0,0:0:0:0:
36,192,212400,1,0,0:0:0:0:
329,192,212400,1,0,0:0:0:0:
182,192,212400,1,0,0:0:0:0:
182,192,212550,1,0,0:0:0:0:
329,192,212550,1,0,0:0:0:0:
36,192,212700,1,0,0:0:0:0:
182,192,212850,1,0,0:0:0:0:
109,192,212850,1,0,0:0:0:0:
109,192,212925,1,0,0:0:0:0:
182,192,212925,1,0,0:0:0:0:
36,192,213000,1,0,0:0:0:0:
256,192,213000,1,0,0:0:0:0:
329,192,213000,1,0,0:0:0:0:
402,192,213000,1,0,0:0:0:0:
36,192,213150,1,0,0:0:0:0:
109,192,213150,1,0,0:0:0:0:
329,192,213150,1,0,0:0:0:0:
402,192,213150,1,0,0:0:0:0:
475,192,213150,1,0,0:0:0:0:
182,192,213300,1,0,0:0:0:0:
109,192,213300,1,0,0:0:0:0:
36,192,213300,1,0,0:0:0:0:
402,192,213300,1,0,0:0:0:0:
475,192,213300,1,0,0:0:0:0:
256,192,213450,1,0,0:0:0:0:
182,192,213450,1,0,0:0:0:0:
109,192,213450,1,0,0:0:0:0:
36,192,213450,1,0,0:0:0:0:
475,192,213450,1,0,0:0:0:0:
329,192,213600,1,0,0:0:0:0:
256,192,213600,1,0,0:0:0:0:
182,192,213600,1,0,0:0:0:0:
36,192,213600,1,0,0:0:0:0:
475,192,213600,1,0,0:0:0:0:
109,192,213600,128,0,214050:0:0:0:0:
402,192,213900,128,0,214200:0:0:0:0:
475,192,213900,1,0,0:0:0:0:
256,192,214050,128,0,214350:0:0:0:0:
109,192,214200,128,0,214500:0:0:0:0:
475,192,214200,1,0,0:0:0:0:
329,192,214500,128,0,214800:0:0:0:0:
475,192,214500,1,0,0:0:0:0:
182,192,214650,128,0,214950:0:0:0:0:
36,192,214800,128,0,215100:0:0:0:0:
475,192,214800,1,0,0:0:0:0:
256,192,214950,128,0,215250:0:0:0:0:
402,192,215100,128,0,215550:0:0:0:0:
475,192,215100,1,0,0:0:0:0:
475,192,215400,1,0,0:0:0:0:
475,192,215700,1,0,0:0:0:0:
475,192,215850,1,0,0:0:0:0:
475,192,216000,1,0,0:0:0:0:
182,192,216000,128,0,216300:0:0:0:0:
329,192,216150,128,0,216300:0:0:0:0:
109,192,216300,128,0,216600:0:0:0:0:
475,192,216300,1,0,0:0:0:0:
256,192,216450,128,0,216600:0:0:0:0:
36,192,216600,128,0,216825:0:0:0:0:
475,192,216600,1,0,0:0:0:0:
36,192,216900,128,0,217800:0:0:0:0:
475,192,216900,1,0,0:0:0:0:
256,192,216900,1,0,0:0:0:0:
256,192,217050,1,0,0:0:0:0:
475,192,217200,1,0,0:0:0:0:
329,192,217200,1,0,0:0:0:0:
182,192,217200,1,0,0:0:0:0:
329,192,217350,1,0,0:0:0:0:
182,192,217350,1,0,0:0:0:0:
475,192,217500,1,0,0:0:0:0:
256,192,217500,1,0,0:0:0:0:
329,192,217650,1,0,0:0:0:0:
402,192,217650,1,0,0:0:0:0:
329,192,217725,1,0,0:0:0:0:
402,192,217725,1,0,0:0:0:0:
475,192,217800,1,0,0:0:0:0:
256,192,217800,1,0,0:0:0:0:
182,192,217800,1,0,0:0:0:0:
109,192,217800,1,0,0:0:0:0:
475,192,217950,1,0,0:0:0:0:
402,192,217950,1,0,0:0:0:0:
182,192,217950,1,0,0:0:0:0:
109,192,217950,1,0,0:0:0:0:
36,192,217950,1,0,0:0:0:0:
329,192,218100,1,0,0:0:0:0:
402,192,218100,1,0,0:0:0:0:
475,192,218100,1,0,0:0:0:0:
109,192,218100,1,0,0:0:0:0:
36,192,218100,1,0,0:0:0:0:
256,192,218250,1,0,0:0:0:0:
329,192,218250,1,0,0:0:0:0:
402,192,218250,1,0,0:0:0:0:
475,192,218250,1,0,0:0:0:0:
36,192,218250,1,0,0:0:0:0:
182,192,218400,1,0,0:0:0:0:
329,192,218400,1,0,0:0:0:0:
402,192,218400,1,0,0:0:0:0:
475,192,218400,1,0,0:0:0:0:
256,192,218400,1,0,0:0:0:0:
182,192,222000,5,0,0:0:0:0:
475,192,222000,1,0,0:0:0:0:
36,192,222000,1,0,0:0:0:0:
182,192,222075,1,0,0:0:0:0:
329,192,222150,1,0,0:0:0:0:
329,192,222225,1,0,0:0:0:0:
109,192,222300,1,0,0:0:0:0:
256,192,222375,1,0,0:0:0:0:
402,192,222450,1,0,0:0:0:0:
182,192,222525,1,0,0:0:0:0:
329,192,222600,1,0,0:0:0:0:
329,192,222675,1,0,0:0:0:0:
182,192,222750,1,0,0:0:0:0:
182,192,222825,1,0,0:0:0:0:
402,192,222900,1,0,0:0:0:0:
256,192,222975,1,0,0:0:0:0:
109,192,223050,1,0,0:0:0:0:
329,192,223125,1,0,0:0:0:0:
182,192,223200,1,0,0:0:0:0:
475,192,223200,1,0,0:0:0:0:
182,192,223275,1,0,0:0:0:0:
329,192,223350,1,0,0:0:0:0:
329,192,223425,1,0,0:0:0:0:
109,192,223500,1,0,0:0:0:0:
256,192,223575,1,0,0:0:0:0:
402,192,223650,1,0,0:0:0:0:
182,192,223725,1,0,0:0:0:0:
329,192,223800,1,0,0:0:0:0:
329,192,223875,1,0,0:0:0:0:
182,192,223950,1,0,0:0:0:0:
182,192,224025,1,0,0:0:0:0:
402,192,224100,1,0,0:0:0:0:
256,192,224175,1,0,0:0:0:0:
109,192,224250,1,0,0:0:0:0:
329,192,224325,1,0,0:0:0:0:
182,192,224400,1,0,0:0:0:0:
475,192,224400,1,0,0:0:0:0:
182,192,224475,1,0,0:0:0:0:
329,192,224550,1,0,0:0:0:0:
329,192,224625,1,0,0:0:0:0:
36,192,224700,1,0,0:0:0:0:
256,192,224775,1,0,0:0:0:0:
475,192,224850,1,0,0:0:0:0:
109,192,224925,1,0,0:0:0:0:
402,192,225000,1,0,0:0:0:0:
402,192,225075,1,0,0:0:0:0:
109,192,225150,1,0,0:0:0:0:
109,192,225225,1,0,0:0:0:0:
475,192,225300,1,0,0:0:0:0:
256,192,225375,1,0,0:0:0:0:
36,192,225450,1,0,0:0:0:0:
402,192,225525,1,0,0:0:0:0:
109,192,225600,1,0,0:0:0:0:
475,192,225600,1,0,0:0:0:0:
109,192,225675,1,0,0:0:0:0:
402,192,225750,1,0,0:0:0:0:
402,192,225825,1,0,0:0:0:0:
36,192,225900,1,0,0:0:0:0:
256,192,225975,1,0,0:0:0:0:
475,192,226050,1,0,0:0:0:0:
109,192,226125,1,0,0:0:0:0:
402,192,226200,1,0,0:0:0:0:
402,192,226275,1,0,0:0:0:0:
109,192,226350,1,0,0:0:0:0:
109,192,226425,1,0,0:0:0:0:
475,192,226500,1,0,0:0:0:0:
256,192,226575,1,0,0:0:0:0:
36,192,226650,1,0,0:0:0:0:
329,192,226725,1,0,0:0:0:0:
182,192,226800,1,0,0:0:0:0:
475,192,226800,1,0,0:0:0:0:
182,192,226875,1,0,0:0:0:0:
329,192,226950,1,0,0:0:0:0:
329,192,227025,1,0,0:0:0:0:
109,192,227100,1,0,0:0:0:0:
475,192,227100,1,0,0:0:0:0:
256,192,227175,1,0,0:0:0:0:
402,192,227250,1,0,0:0:0:0:
182,192,227325,1,0,0:0:0:0:
329,192,227400,1,0,0:0:0:0:
36,192,227400,1,0,0:0:0:0:
329,192,227475,1,0,0:0:0:0:
182,192,227550,1,0,0:0:0:0:
182,192,227625,1,0,0:0:0:0:
402,192,227700,1,0,0:0:0:0:
36,192,227700,1,0,0:0:0:0:
256,192,227775,1,0,0:0:0:0:
109,192,227850,1,0,0:0:0:0:
329,192,227925,1,0,0:0:0:0:
182,192,228000,1,0,0:0:0:0:
475,192,228000,1,0,0:0:0:0:
182,192,228075,1,0,0:0:0:0:
329,192,228150,1,0,0:0:0:0:
329,192,228225,1,0,0:0:0:0:
109,192,228300,1,0,0:0:0:0:
475,192,228300,1,0,0:0:0:0:
256,192,228375,1,0,0:0:0:0:
402,192,228450,1,0,0:0:0:0:
182,192,228525,1,0,0:0:0:0:
329,192,228600,1,0,0:0:0:0:
36,192,228600,1,0,0:0:0:0:
329,192,228675,1,0,0:0:0:0:
182,192,228750,1,0,0:0:0:0:
182,192,228825,1,0,0:0:0:0:
36,192,228900,1,0,0:0:0:0:
475,192,228900,1,0,0:0:0:0:
329,192,228975,1,0,0:0:0:0:
109,192,229050,1,0,0:0:0:0:
256,192,229125,1,0,0:0:0:0:
402,192,229200,1,0,0:0:0:0:
36,192,229200,1,0,0:0:0:0:
402,192,229275,1,0,0:0:0:0:
109,192,229350,1,0,0:0:0:0:
109,192,229425,1,0,0:0:0:0:
475,192,229500,1,0,0:0:0:0:
36,192,229500,1,0,0:0:0:0:
256,192,229575,1,0,0:0:0:0:
109,192,229650,1,0,0:0:0:0:
329,192,229725,1,0,0:0:0:0:
475,192,229800,1,0,0:0:0:0:
182,192,229800,1,0,0:0:0:0:
475,192,229875,1,0,0:0:0:0:
36,192,229950,1,0,0:0:0:0:
36,192,230025,1,0,0:0:0:0:
402,192,230100,1,0,0:0:0:0:
475,192,230100,1,0,0:0:0:0:
256,192,230175,1,0,0:0:0:0:
109,192,230250,1,0,0:0:0:0:
329,192,230325,1,0,0:0:0:0:
182,192,230400,1,0,0:0:0:0:
475,192,230400,1,0,0:0:0:0:
182,192,230475,1,0,0:0:0:0:
329,192,230550,1,0,0:0:0:0:
329,192,230625,1,0,0:0:0:0:
109,192,230700,1,0,0:0:0:0:
475,192,230700,1,0,0:0:0:0:
109,192,230775,1,0,0:0:0:0:
402,192,230850,1,0,0:0:0:0:
402,192,230925,1,0,0:0:0:0:
182,192,231000,128,0,231037:0:0:0:0:
109,192,231000,128,0,231075:0:0:0:0:
36,192,231000,128,0,231112:0:0:0:0:
182,192,231112,128,0,231187:0:0:0:0:
109,192,231150,128,0,231225:0:0:0:0:
36,192,231187,128,0,231262:0:0:0:0:
329,192,231262,128,0,231337:0:0:0:0:
402,192,231300,128,0,231375:0:0:0:0:
475,192,231337,128,0,231412:0:0:0:0:
36,192,231412,128,0,231450:0:0:0:0:
109,192,231412,128,0,231543:0:0:0:0:
329,192,231412,128,0,231506:0:0:0:0:
402,192,231450,128,0,231525:0:0:0:0:
475,192,231487,128,0,231543:0:0:0:0:
36,192,231525,128,0,231637:0:0:0:0:
109,192,231600,128,0,231637:0:0:0:0:
256,192,231600,128,0,233400:0:0:0:0:
329,192,231600,1,0,0:0:0:0:
329,192,231675,128,0,231750:0:0:0:0:
182,192,231750,1,0,0:0:0:0:
182,192,231825,128,0,231900:0:0:0:0:
402,192,231900,1,0,0:0:0:0:
402,192,231975,128,0,232050:0:0:0:0:
109,192,232050,1,0,0:0:0:0:
109,192,232125,128,0,232200:0:0:0:0:
475,192,232200,1,0,0:0:0:0:
475,192,232275,128,0,232350:0:0:0:0:
36,192,232350,1,0,0:0:0:0:
36,192,232425,128,0,232500:0:0:0:0:
402,192,232500,1,0,0:0:0:0:
402,192,232575,128,0,232650:0:0:0:0:
109,192,232650,1,0,0:0:0:0:
109,192,232725,128,0,232800:0:0:0:0:
329,192,232800,1,0,0:0:0:0:
329,192,232875,128,0,232950:0:0:0:0:
182,192,232950,1,0,0:0:0:0:
182,192,233025,128,0,233100:0:0:0:0:
402,192,233100,1,0,0:0:0:0:
402,192,233175,128,0,233250:0:0:0:0:
109,192,233250,1,0,0:0:0:0:
109,192,233325,128,0,233400:0:0:0:0:
475,192,233400,1,0,0:0:0:0:
329,192,233400,1,0,0:0:0:0:
36,192,233400,128,0,233550:0:0:0:0:
109,192,233500,128,0,233675:0:0:0:0:
256,192,233550,1,0,0:0:0:0:
475,192,233600,1,0,0:0:0:0:
36,192,233625,128,0,233800:0:0:0:0:
402,192,233633,1,0,0:0:0:0:
329,192,233666,1,0,0:0:0:0:
256,192,233700,1,0,0:0:0:0:
182,192,233733,1,0,0:0:0:0:
402,192,233766,1,0,0:0:0:0:
329,192,233800,1,0,0:0:0:0:
256,192,233833,1,0,0:0:0:0:
182,192,233866,1,0,0:0:0:0:
109,192,233900,1,0,0:0:0:0:
402,192,233933,1,0,0:0:0:0:
329,192,233966,1,0,0:0:0:0:
36,192,234000,1,0,0:0:0:0:
256,192,234000,128,0,235800:0:0:0:0:
36,192,234075,128,0,234150:0:0:0:0:
475,192,234150,1,0,0:0:0:0:
475,192,234225,128,0,234300:0:0:0:0:
109,192,234300,1,0,0:0:0:0:
109,192,234375,128,0,234450:0:0:0:0:
402,192,234450,1,0,0:0:0:0:
402,192,234525,128,0,234600:0:0:0:0:
182,192,234600,1,0,0:0:0:0:
182,192,234675,128,0,234750:0:0:0:0:
329,192,234750,1,0,0:0:0:0:
329,192,234825,128,0,234900:0:0:0:0:
109,192,234900,1,0,0:0:0:0:
109,192,234975,128,0,235050:0:0:0:0:
402,192,235050,1,0,0:0:0:0:
402,192,235125,128,0,235200:0:0:0:0:
36,192,235200,1,0,0:0:0:0:
36,192,235275,128,0,235350:0:0:0:0:
475,192,235350,1,0,0:0:0:0:
475,192,235425,128,0,235500:0:0:0:0:
182,192,235500,1,0,0:0:0:0:
182,192,235575,128,0,235650:0:0:0:0:
329,192,235650,1,0,0:0:0:0:
329,192,235725,128,0,235800:0:0:0:0:
36,192,235800,1,0,0:0:0:0:
402,192,235800,1,0,0:0:0:0:
475,192,235800,1,0,0:0:0:0:
182,192,235900,1,0,0:0:0:0:
256,192,235933,1,0,0:0:0:0:
329,192,235966,1,0,0:0:0:0:
109,192,236000,1,0,0:0:0:0:
182,192,236033,1,0,0:0:0:0:
256,192,236066,1,0,0:0:0:0:
329,192,236100,1,0,0:0:0:0:
402,192,236133,1,0,0:0:0:0:
182,192,236166,1,0,0:0:0:0:
329,192,236200,1,0,0:0:0:0:
109,192,236233,1,0,0:0:0:0:
256,192,236266,1,0,0:0:0:0:
36,192,236300,1,0,0:0:0:0:
109,192,236333,1,0,0:0:0:0:
182,192,236366,1,0,0:0:0:0:
402,192,236400,1,0,0:0:0:0:
256,192,236400,128,0,236950:0:0:0:0:
475,192,236400,1,0,0:0:0:0:
402,192,236475,128,0,236550:0:0:0:0:
109,192,236550,1,0,0:0:0:0:
109,192,236625,128,0,236700:0:0:0:0:
329,192,236700,1,0,0:0:0:0:
329,192,236775,128,0,236850:0:0:0:0:
182,192,236850,1,0,0:0:0:0:
182,192,236925,128,0,237000:0:0:0:0:
256,192,237000,128,0,237550:0:0:0:0:
475,192,237000,1,0,0:0:0:0:
475,192,237075,128,0,237150:0:0:0:0:
36,192,237150,1,0,0:0:0:0:
36,192,237225,128,0,237300:0:0:0:0:
329,192,237300,1,0,0:0:0:0:
329,192,237375,128,0,237450:0:0:0:0:
182,192,237450,1,0,0:0:0:0:
182,192,237525,128,0,237600:0:0:0:0:
256,192,237600,128,0,237850:0:0:0:0:
402,192,237600,1,0,0:0:0:0:
402,192,237675,128,0,237750:0:0:0:0:
109,192,237750,1,0,0:0:0:0:
109,192,237825,128,0,237900:0:0:0:0:
256,192,237900,128,0,238150:0:0:0:0:
475,192,237900,1,0,0:0:0:0:
475,192,237975,128,0,238050:0:0:0:0:
36,192,238050,1,0,0:0:0:0:
36,192,238125,128,0,238200:0:0:0:0:
256,192,238200,128,0,238450:0:0:0:0:
402,192,238200,1,0,0:0:0:0:
402,192,238275,128,0,238350:0:0:0:0:
109,192,238350,1,0,0:0:0:0:
109,192,238425,128,0,238500:0:0:0:0:
256,192,238500,128,0,238600:0:0:0:0:
475,192,238500,128,0,238575:0:0:0:0:
36,192,238500,128,0,238575:0:0:0:0:
329,192,238575,128,0,238650:0:0:0:0:
182,192,238575,128,0,238650:0:0:0:0:
256,192,238650,1,0,0:0:0:0:
256,192,238725,1,0,0:0:0:0:
475,192,238800,1,0,0:0:0:0:
36,192,238800,1,0,0:0:0:0:
402,192,238800,128,0,238856:0:0:0:0:
109,192,238800,128,0,238875:0:0:0:0:
329,192,238875,128,0,238931:0:0:0:0:
182,192,238875,128,0,238950:0:0:0:0:
36,192,238950,1,0,0:0:0:0:
475,192,238950,1,0,0:0:0:0:
109,192,238950,128,0,239025:0:0:0:0:
402,192,238950,128,0,239006:0:0:0:0:
329,192,239025,128,0,239081:0:0:0:0:
182,192,239025,128,0,239100:0:0:0:0:
36,192,239100,1,0,0:0:0:0:
256,192,239100,128,0,239156:0:0:0:0:
109,192,239100,128,0,239175:0:0:0:0:
475,192,239100,128,0,239268:0:0:0:0:
402,192,239175,128,0,239343:0:0:0:0:
182,192,239175,128,0,239231:0:0:0:0:
329,192,239250,128,0,239418:0:0:0:0:
109,192,239250,128,0,239306:0:0:0:0:
256,192,239325,128,0,239493:0:0:0:0:
36,192,239325,128,0,239381:0:0:0:0:
475,192,239400,1,0,0:0:0:0:
182,192,239400,128,0,239568:0:0:0:0:
402,192,239400,128,0,239456:0:0:0:0:
109,192,239475,128,0,239568:0:0:0:0:
329,192,239475,128,0,239531:0:0:0:0:
36,192,239475,1,0,0:0:0:0:
475,192,239550,1,0,0:0:0:0:
256,192,239550,128,0,239606:0:0:0:0:
402,192,239550,128,0,239606:0:0:0:0:
36,192,239625,1,0,0:0:0:0:
182,192,239625,128,0,239700:0:0:0:0:
109,192,239625,128,0,239681:0:0:0:0:
475,192,239700,1,0,0:0:0:0:
402,192,239700,128,0,239756:0:0:0:0:
329,192,239700,128,0,239775:0:0:0:0:
256,192,239775,128,0,239850:0:0:0:0:
182,192,239775,128,0,239831:0:0:0:0:
475,192,239850,1,0,0:0:0:0:
402,192,239850,128,0,239925:0:0:0:0:
109,192,239850,128,0,239925:0:0:0:0:
182,192,239925,128,0,240000:0:0:0:0:
329,192,239925,128,0,240000:0:0:0:0:
256,192,240000,128,0,242400:0:0:0:0:
36,192,240000,128,0,240225:0:0:0:0:
109,192,240225,128,0,240375:0:0:0:0:
402,192,240375,128,0,240750:0:0:0:0:
109,192,240750,128,0,241050:0:0:0:0:
402,192,241050,128,0,241350:0:0:0:0:
36,192,241350,1,0,0:0:0:0:
109,192,241400,1,0,0:0:0:0:
182,192,241450,1,0,0:0:0:0:
329,192,241500,1,0,0:0:0:0:
402,192,241550,1,0,0:0:0:0:
475,192,241600,1,0,0:0:0:0:
36,192,241650,1,0,0:0:0:0:
109,192,241700,1,0,0:0:0:0:
182,192,241750,1,0,0:0:0:0:
329,192,241800,1,0,0:0:0:0:
402,192,241850,1,0,0:0:0:0:
475,192,241900,1,0,0:0:0:0:
36,192,241950,1,0,0:0:0:0:
109,192,242000,1,0,0:0:0:0:
182,192,242050,1,0,0:0:0:0:
329,192,242100,1,0,0:0:0:0:
402,192,242150,1,0,0:0:0:0:
475,192,242200,1,0,0:0:0:0:
36,192,242250,1,0,0:0:0:0:
109,192,242300,1,0,0:0:0:0:
182,192,242350,1,0,0:0:0:0:
329,192,242400,1,0,0:0:0:0:
402,192,242437,1,0,0:0:0:0:
475,192,242475,1,0,0:0:0:0:
36,192,242512,1,0,0:0:0:0:
109,192,242550,1,0,0:0:0:0:
182,192,242575,1,0,0:0:0:0:
256,192,242600,1,0,0:0:0:0:
329,192,242625,1,0,0:0:0:0:
402,192,242650,1,0,0:0:0:0:
475,192,242675,1,0,0:0:0:0:
36,192,242700,1,0,0:0:0:0:
109,192,242718,1,0,0:0:0:0:
182,192,242737,1,0,0:0:0:0:
256,192,242756,1,0,0:0:0:0:
329,192,242775,1,0,0:0:0:0:
402,192,242793,1,0,0:0:0:0:
475,192,242812,1,0,0:0:0:0:
36,192,242831,1,0,0:0:0:0:
109,192,242850,1,0,0:0:0:0:
182,192,242868,1,0,0:0:0:0:
256,192,242887,1,0,0:0:0:0:
329,192,242906,1,0,0:0:0:0:
402,192,242925,1,0,0:0:0:0:
475,192,242943,1,0,0:0:0:0:
36,192,242962,1,0,0:0:0:0:
109,192,242981,1,0,0:0:0:0:
182,192,243000,1,0,0:0:0:0:
256,192,243000,1,0,0:0:0:0:
329,192,243000,1,0,0:0:0:0:
182,192,243150,1,0,0:0:0:0:
329,192,243150,1,0,0:0:0:0:
329,192,243225,1,0,0:0:0:0:
182,192,243225,1,0,0:0:0:0:
256,192,243300,128,0,243412:0:0:0:0:
109,192,243300,1,0,0:0:0:0:
402,192,243300,1,0,0:0:0:0:
256,192,243450,128,0,243487:0:0:0:0:
256,192,243525,128,0,243600:0:0:0:0:
402,192,243600,128,0,243731:0:0:0:0:
475,192,243600,128,0,243712:0:0:0:0:
109,192,243600,128,0,243693:0:0:0:0:
36,192,243600,128,0,243675:0:0:0:0:
329,192,243675,128,0,243750:0:0:0:0:
182,192,243675,128,0,243843:0:0:0:0:
109,192,243750,128,0,243825:0:0:0:0:
36,192,243750,128,0,243806:0:0:0:0:
256,192,243825,128,0,243975:0:0:0:0:
402,192,243825,128,0,243900:0:0:0:0:
182,192,243900,128,0,243993:0:0:0:0:
109,192,243900,128,0,243975:0:0:0:0:
36,192,243900,128,0,243956:0:0:0:0:
475,192,243900,128,0,244068:0:0:0:0:
329,192,243975,128,0,244106:0:0:0:0:
402,192,243975,128,0,244087:0:0:0:0:
256,192,244050,128,0,244125:0:0:0:0:
182,192,244050,128,0,244181:0:0:0:0:
109,192,244125,128,0,244200:0:0:0:0:
36,192,244125,128,0,244218:0:0:0:0:
256,192,244200,128,0,244331:0:0:0:0:
329,192,244200,128,0,244293:0:0:0:0:
402,192,244200,128,0,244275:0:0:0:0:
475,192,244200,128,0,244256:0:0:0:0:
182,192,244275,128,0,244350:0:0:0:0:
109,192,244275,128,0,244368:0:0:0:0:
329,192,244350,128,0,244481:0:0:0:0:
402,192,244350,128,0,244406:0:0:0:0:
256,192,244425,128,0,244500:0:0:0:0:
182,192,244425,128,0,244518:0:0:0:0:
402,192,244500,128,0,244631:0:0:0:0:
109,192,244500,128,0,244631:0:0:0:0:
36,192,244500,128,0,244575:0:0:0:0:
475,192,244500,128,0,244575:0:0:0:0:
329,192,244575,128,0,244706:0:0:0:0:
182,192,244575,128,0,244650:0:0:0:0:
256,192,244650,128,0,244781:0:0:0:0:
36,192,244650,128,0,244706:0:0:0:0:
182,192,244725,128,0,244837:0:0:0:0:
402,192,244725,128,0,244781:0:0:0:0:
329,192,244800,128,0,244856:0:0:0:0:
475,192,244800,128,0,244875:0:0:0:0:
109,192,244800,128,0,244856:0:0:0:0:
36,192,244800,128,0,244875:0:0:0:0:
402,192,244875,128,0,244950:0:0:0:0:
256,192,244875,128,0,244931:0:0:0:0:
329,192,244950,128,0,245025:0:0:0:0:
182,192,244950,128,0,245006:0:0:0:0:
109,192,244950,128,0,245006:0:0:0:0:
256,192,245025,128,0,245100:0:0:0:0:
36,192,245025,128,0,245081:0:0:0:0:
182,192,245100,128,0,245231:0:0:0:0:
329,192,245100,128,0,245193:0:0:0:0:
475,192,245100,128,0,245156:0:0:0:0:
402,192,245100,128,0,245175:0:0:0:0:
109,192,245175,128,0,245250:0:0:0:0:
36,192,245175,128,0,245268:0:0:0:0:
402,192,245250,128,0,245325:0:0:0:0:
256,192,245250,128,0,245381:0:0:0:0:
182,192,245325,128,0,245400:0:0:0:0:
109,192,245325,128,0,245418:0:0:0:0:
475,192,245400,128,0,245606:0:0:0:0:
329,192,245400,128,0,245531:0:0:0:0:
36,192,245400,128,0,245456:0:0:0:0:
402,192,245400,128,0,245456:0:0:0:0:
256,192,245475,128,0,245550:0:0:0:0:
182,192,245475,128,0,245568:0:0:0:0:
402,192,245550,128,0,245625:0:0:0:0:
109,192,245550,128,0,245606:0:0:0:0:
256,192,245625,128,0,245718:0:0:0:0:
329,192,245625,128,0,245700:0:0:0:0:
402,192,245700,128,0,245793:0:0:0:0:
475,192,245700,128,0,245775:0:0:0:0:
182,192,245700,128,0,245756:0:0:0:0:
36,192,245700,128,0,245793:0:0:0:0:
256,192,245775,128,0,245831:0:0:0:0:
109,192,245775,128,0,245868:0:0:0:0:
329,192,245850,128,0,245906:0:0:0:0:
182,192,245850,128,0,245943:0:0:0:0:
402,192,245850,128,0,245962:0:0:0:0:
475,192,245925,128,0,245981:0:0:0:0:
256,192,245925,128,0,246018:0:0:0:0:
329,192,246000,128,0,246075:0:0:0:0:
182,192,246000,128,0,246056:0:0:0:0:
109,192,246000,128,0,246093:0:0:0:0:
36,192,246000,128,0,246112:0:0:0:0:
402,192,246075,128,0,246206:0:0:0:0:
475,192,246075,128,0,246150:0:0:0:0:
329,192,246150,128,0,246225:0:0:0:0:
182,192,246150,128,0,246281:0:0:0:0:
109,192,246225,128,0,246300:0:0:0:0:
36,192,246225,128,0,246318:0:0:0:0:
256,192,246300,128,0,246431:0:0:0:0:
329,192,246300,128,0,246393:0:0:0:0:
402,192,246300,128,0,246375:0:0:0:0:
475,192,246300,128,0,246356:0:0:0:0:
182,192,246375,128,0,246450:0:0:0:0:
109,192,246375,128,0,246468:0:0:0:0:
329,192,246450,128,0,246581:0:0:0:0:
402,192,246450,128,0,246525:0:0:0:0:
256,192,246525,128,0,246600:0:0:0:0:
182,192,246525,128,0,246618:0:0:0:0:
402,192,246600,128,0,246731:0:0:0:0:
109,192,246600,128,0,246656:0:0:0:0:
36,192,246600,128,0,246675:0:0:0:0:
475,192,246600,128,0,246675:0:0:0:0:
329,192,246675,128,0,246750:0:0:0:0:
256,192,246675,128,0,246768:0:0:0:0:
182,192,246750,128,0,246881:0:0:0:0:
36,192,246750,128,0,246806:0:0:0:0:
329,192,246825,128,0,246881:0:0:0:0:
402,192,246825,128,0,246900:0:0:0:0:
256,192,246900,128,0,247031:0:0:0:0:
109,192,246900,128,0,246975:0:0:0:0:
36,192,246900,128,0,246956:0:0:0:0:
475,192,246900,128,0,246956:0:0:0:0:
329,192,246975,128,0,247050:0:0:0:0:
402,192,246975,128,0,247068:0:0:0:0:
182,192,247050,128,0,247181:0:0:0:0:
109,192,247050,128,0,247125:0:0:0:0:
329,192,247125,128,0,247218:0:0:0:0:
256,192,247125,128,0,247200:0:0:0:0:
402,192,247200,128,0,247256:0:0:0:0:
475,192,247200,128,0,247275:0:0:0:0:
109,192,247200,128,0,247256:0:0:0:0:
36,192,247200,128,0,247275:0:0:0:0:
182,192,247275,128,0,247406:0:0:0:0:
256,192,247275,128,0,247331:0:0:0:0:
475,192,247350,128,0,247406:0:0:0:0:
109,192,247350,128,0,247425:0:0:0:0:
36,192,247350,128,0,247443:0:0:0:0:
256,192,247425,128,0,247556:0:0:0:0:
329,192,247425,128,0,247481:0:0:0:0:
109,192,247500,128,0,247593:0:0:0:0:
182,192,247500,128,0,247575:0:0:0:0:
475,192,247500,128,0,247556:0:0:0:0:
402,192,247500,128,0,247575:0:0:0:0:
36,192,247575,128,0,247631:0:0:0:0:
329,192,247575,128,0,247706:0:0:0:0:
256,192,247650,128,0,247725:0:0:0:0:
182,192,247650,128,0,247743:0:0:0:0:
402,192,247725,128,0,247800:0:0:0:0:
475,192,247725,128,0,247781:0:0:0:0:
329,192,247800,128,0,247931:0:0:0:0:
109,192,247800,128,0,247968:0:0:0:0:
256,192,247800,128,0,247856:0:0:0:0:
36,192,247800,128,0,247893:0:0:0:0:
402,192,247875,128,0,248006:0:0:0:0:
182,192,247875,128,0,248043:0:0:0:0:
475,192,247950,128,0,248006:0:0:0:0:
256,192,247950,128,0,248118:0:0:0:0:
109,192,248025,128,0,248137:0:0:0:0:
36,192,248025,128,0,248081:0:0:0:0:
182,192,248100,128,0,248156:0:0:0:0:
329,192,248100,128,0,248231:0:0:0:0:
475,192,248100,128,0,248156:0:0:0:0:
402,192,248100,128,0,248175:0:0:0:0:
36,192,248175,128,0,248231:0:0:0:0:
256,192,248175,128,0,248306:0:0:0:0:
182,192,248250,128,0,248362:0:0:0:0:
402,192,248250,128,0,248325:0:0:0:0:
475,192,248250,128,0,248306:0:0:0:0:
109,192,248325,128,0,248381:0:0:0:0:
36,192,248325,128,0,248400:0:0:0:0:
256,192,248400,128,0,248531:0:0:0:0:
329,192,248400,128,0,248493:0:0:0:0:
402,192,248400,128,0,248475:0:0:0:0:
475,192,248400,128,0,248456:0:0:0:0:
182,192,248475,128,0,248550:0:0:0:0:
109,192,248475,128,0,248568:0:0:0:0:
36,192,248550,128,0,248625:0:0:0:0:
329,192,248550,128,0,248606:0:0:0:0:
256,192,248625,128,0,248700:0:0:0:0:
182,192,248625,128,0,248756:0:0:0:0:
109,192,248700,128,0,248775:0:0:0:0:
36,192,248700,128,0,248793:0:0:0:0:
329,192,248700,128,0,248831:0:0:0:0:
402,192,248700,128,0,248756:0:0:0:0:
256,192,248775,128,0,248906:0:0:0:0:
475,192,248775,128,0,248868:0:0:0:0:
182,192,248850,128,0,248981:0:0:0:0:
402,192,248850,128,0,248925:0:0:0:0:
109,192,248925,128,0,248981:0:0:0:0:
329,192,248925,128,0,249018:0:0:0:0:
256,192,249000,128,0,249056:0:0:0:0:
36,192,249000,128,0,249131:0:0:0:0:
402,192,249000,128,0,249075:0:0:0:0:
475,192,249000,128,0,249093:0:0:0:0:
109,192,249075,128,0,249150:0:0:0:0:
182,192,249075,128,0,249168:0:0:0:0:
329,192,249150,128,0,249281:0:0:0:0:
402,192,249150,128,0,249225:0:0:0:0:
256,192,249225,128,0,249300:0:0:0:0:
182,192,249225,128,0,249318:0:0:0:0:
402,192,249300,128,0,249431:0:0:0:0:
109,192,249300,128,0,249356:0:0:0:0:
36,192,249300,128,0,249375:0:0:0:0:
475,192,249300,128,0,249375:0:0:0:0:
329,192,249375,128,0,249450:0:0:0:0:
256,192,249375,128,0,249468:0:0:0:0:
475,192,249450,128,0,249562:0:0:0:0:
182,192,249450,128,0,249506:0:0:0:0:
109,192,249450,128,0,249525:0:0:0:0:
329,192,249525,128,0,249600:0:0:0:0:
402,192,249525,128,0,249581:0:0:0:0:
256,192,249600,128,0,249675:0:0:0:0:
182,192,249600,128,0,249693:0:0:0:0:
109,192,249600,128,0,249712:0:0:0:0:
36,192,249600,128,0,249731:0:0:0:0:
329,192,249675,128,0,249731:0:0:0:0:
475,192,249675,128,0,249750:0:0:0:0:
402,192,249750,128,0,249825:0:0:0:0:
256,192,249750,128,0,249806:0:0:0:0:
109,192,249750,128,0,249825:0:0:0:0:
182,192,249825,128,0,249881:0:0:0:0:
36,192,249825,128,0,249900:0:0:0:0:
256,192,249900,128,0,249956:0:0:0:0:
329,192,249900,128,0,249975:0:0:0:0:
402,192,249900,128,0,250031:0:0:0:0:
475,192,249900,128,0,250050:0:0:0:0:
182,192,249975,128,0,250106:0:0:0:0:
109,192,249975,128,0,250031:0:0:0:0:
256,192,250050,128,0,250181:0:0:0:0:
36,192,250050,128,0,250143:0:0:0:0:
329,192,250125,128,0,250218:0:0:0:0:
109,192,250125,128,0,250218:0:0:0:0:
402,192,250200,128,0,250256:0:0:0:0:
475,192,250200,128,0,250275:0:0:0:0:
182,192,250200,128,0,250293:0:0:0:0:
36,192,250200,128,0,250312:0:0:0:0:
256,192,250275,128,0,250350:0:0:0:0:
329,192,250275,128,0,250368:0:0:0:0:
109,192,250350,128,0,250443:0:0:0:0:
475,192,250350,128,0,250425:0:0:0:0:
402,192,250350,128,0,250406:0:0:0:0:
182,192,250425,128,0,250500:0:0:0:0:
256,192,250425,128,0,250481:0:0:0:0:
109,192,250500,128,0,250556:0:0:0:0:
36,192,250500,128,0,250575:0:0:0:0:
402,192,250500,128,0,250575:0:0:0:0:
475,192,250500,128,0,250556:0:0:0:0:
256,192,250575,128,0,250631:0:0:0:0:
329,192,250575,128,0,250650:0:0:0:0:
182,192,250650,128,0,250706:0:0:0:0:
402,192,250650,128,0,250706:0:0:0:0:
36,192,250650,128,0,250743:0:0:0:0:
109,192,250725,128,0,250818:0:0:0:0:
256,192,250725,128,0,250781:0:0:0:0:
182,192,250800,128,0,250931:0:0:0:0:
329,192,250800,128,0,250893:0:0:0:0:
402,192,250800,128,0,250875:0:0:0:0:
475,192,250800,128,0,250856:0:0:0:0:
109,192,250875,128,0,250950:0:0:0:0:
36,192,250875,128,0,250968:0:0:0:0:
256,192,250950,128,0,251081:0:0:0:0:
402,192,250950,128,0,251025:0:0:0:0:
475,192,250950,128,0,251006:0:0:0:0:
182,192,251025,128,0,251100:0:0:0:0:
109,192,251025,128,0,251118:0:0:0:0:
329,192,251100,128,0,251231:0:0:0:0:
402,192,251100,128,0,251175:0:0:0:0:
475,192,251100,128,0,251156:0:0:0:0:
36,192,251100,128,0,251156:0:0:0:0:
256,192,251175,128,0,251250:0:0:0:0:
182,192,251175,128,0,251268:0:0:0:0:
402,192,251250,128,0,251381:0:0:0:0:
109,192,251250,128,0,251306:0:0:0:0:
475,192,251250,128,0,251306:0:0:0:0:
329,192,251325,128,0,251400:0:0:0:0:
256,192,251325,128,0,251418:0:0:0:0:
475,192,251400,128,0,251531:0:0:0:0:
182,192,251400,128,0,251493:0:0:0:0:
36,192,251400,128,0,251456:0:0:0:0:
109,192,251400,128,0,251475:0:0:0:0:
402,192,251475,128,0,251550:0:0:0:0:
329,192,251475,128,0,251568:0:0:0:0:
109,192,251550,128,0,251606:0:0:0:0:
36,192,251550,128,0,251625:0:0:0:0:
256,192,251550,128,0,251606:0:0:0:0:
402,192,251625,128,0,251681:0:0:0:0:
475,192,251625,128,0,251700:0:0:0:0:
182,192,251700,128,0,251793:0:0:0:0:
329,192,251700,128,0,251831:0:0:0:0:
109,192,251700,128,0,251775:0:0:0:0:
36,192,251700,128,0,251756:0:0:0:0:
402,192,251775,128,0,251850:0:0:0:0:
475,192,251775,128,0,251868:0:0:0:0:
109,192,251850,128,0,251906:0:0:0:0:
256,192,251850,128,0,251981:0:0:0:0:
329,192,251925,128,0,252000:0:0:0:0:
402,192,251925,128,0,252018:0:0:0:0:
36,192,252000,128,0,252168:0:0:0:0:
182,192,252000,128,0,252056:0:0:0:0:
475,192,252000,128,0,252075:0:0:0:0:
109,192,252075,128,0,252243:0:0:0:0:
256,192,252075,128,0,252131:0:0:0:0:
329,192,252150,128,0,252206:0:0:0:0:
402,192,252150,128,0,252225:0:0:0:0:
182,192,252150,128,0,252318:0:0:0:0:
475,192,252225,128,0,252281:0:0:0:0:
256,192,252225,128,0,252393:0:0:0:0:
36,192,252300,128,0,252356:0:0:0:0:
109,192,252300,128,0,252375:0:0:0:0:
329,192,252300,128,0,252468:0:0:0:0:
402,192,252375,128,0,252543:0:0:0:0:
475,192,252375,128,0,252543:0:0:0:0:
256,192,252450,128,0,252506:0:0:0:0:
109,192,252450,128,0,252543:0:0:0:0:
36,192,252450,128,0,252525:0:0:0:0:
182,192,252525,128,0,252618:0:0:0:0:
329,192,252525,128,0,252581:0:0:0:0:
256,192,252600,128,0,252693:0:0:0:0:
402,192,252600,128,0,252656:0:0:0:0:
475,192,252600,128,0,252656:0:0:0:0:
36,192,252600,128,0,252675:0:0:0:0:
182,192,252675,128,0,252731:0:0:0:0:
109,192,252675,128,0,252750:0:0:0:0:
402,192,252750,128,0,252825:0:0:0:0:
475,192,252750,128,0,252806:0:0:0:0:
256,192,252750,128,0,252918:0:0:0:0:
182,192,252825,128,0,252900:0:0:0:0:
109,192,252825,128,0,252881:0:0:0:0:
329,192,252900,128,0,252956:0:0:0:0:
402,192,252900,128,0,252975:0:0:0:0:
256,192,252975,128,0,253143:0:0:0:0:
109,192,252975,128,0,253050:0:0:0:0:
36,192,252975,128,0,253031:0:0:0:0:
329,192,253050,128,0,253125:0:0:0:0:
402,192,253050,128,0,253106:0:0:0:0:
475,192,253050,128,0,253087:0:0:0:0:
182,192,253125,128,0,253200:0:0:0:0:
109,192,253125,128,0,253181:0:0:0:0:
36,192,253125,128,0,253162:0:0:0:0:
256,192,253200,128,0,253331:0:0:0:0:
329,192,253200,128,0,253293:0:0:0:0:
402,192,253200,128,0,253275:0:0:0:0:
475,192,253200,128,0,253256:0:0:0:0:
182,192,253275,128,0,253350:0:0:0:0:
109,192,253275,128,0,253368:0:0:0:0:
329,192,253350,128,0,253481:0:0:0:0:
36,192,253350,128,0,253406:0:0:0:0:
256,192,253425,128,0,253500:0:0:0:0:
182,192,253425,128,0,253518:0:0:0:0:
402,192,253500,128,0,253631:0:0:0:0:
475,192,253500,128,0,253556:0:0:0:0:
109,192,253500,128,0,253556:0:0:0:0:
36,192,253500,128,0,253575:0:0:0:0:
329,192,253575,128,0,253650:0:0:0:0:
256,192,253575,128,0,253668:0:0:0:0:
109,192,253650,128,0,253725:0:0:0:0:
182,192,253650,128,0,253706:0:0:0:0:
329,192,253725,128,0,253800:0:0:0:0:
402,192,253725,128,0,253781:0:0:0:0:
475,192,253800,128,0,253968:0:0:0:0:
256,192,253800,128,0,253875:0:0:0:0:
182,192,253800,128,0,253893:0:0:0:0:
109,192,253800,128,0,253912:0:0:0:0:
36,192,253800,128,0,253931:0:0:0:0:
402,192,253875,128,0,253950:0:0:0:0:
329,192,253875,128,0,253931:0:0:0:0:
109,192,253950,128,0,254006:0:0:0:0:
182,192,253950,128,0,254025:0:0:0:0:
256,192,254025,128,0,254081:0:0:0:0:
475,192,254025,128,0,254100:0:0:0:0:
182,192,254100,128,0,254193:0:0:0:0:
329,192,254100,128,0,254231:0:0:0:0:
109,192,254100,128,0,254175:0:0:0:0:
36,192,254100,128,0,254156:0:0:0:0:
402,192,254175,128,0,254250:0:0:0:0:
475,192,254175,128,0,254268:0:0:0:0:
109,192,254250,128,0,254306:0:0:0:0:
182,192,254250,128,0,254325:0:0:0:0:
256,192,254250,128,0,254381:0:0:0:0:
329,192,254325,128,0,254400:0:0:0:0:
402,192,254325,128,0,254418:0:0:0:0:
36,192,254400,128,0,254456:0:0:0:0:
182,192,254400,128,0,254531:0:0:0:0:
109,192,254400,128,0,254475:0:0:0:0:
475,192,254400,128,0,254475:0:0:0:0:
256,192,254475,128,0,254550:0:0:0:0:
329,192,254475,128,0,254568:0:0:0:0:
402,192,254550,128,0,254643:0:0:0:0:
109,192,254550,128,0,254606:0:0:0:0:
182,192,254625,128,0,254681:0:0:0:0:
329,192,254625,128,0,254718:0:0:0:0:
256,192,254700,128,0,254831:0:0:0:0:
475,192,254700,128,0,254756:0:0:0:0:
109,192,254700,128,0,254775:0:0:0:0:
36,192,254700,128,0,254756:0:0:0:0:
329,192,254775,128,0,254850:0:0:0:0:
402,192,254775,128,0,254868:0:0:0:0:
109,192,254850,128,0,254906:0:0:0:0:
182,192,254850,128,0,254925:0:0:0:0:
36,192,254925,128,0,254981:0:0:0:0:
256,192,254925,128,0,255075:0:0:0:0:
329,192,255000,128,0,255093:0:0:0:0:
475,192,255000,128,0,255075:0:0:0:0:
402,192,255000,128,0,255075:0:0:0:0:
182,192,255000,128,0,255056:0:0:0:0:
109,192,255075,128,0,255150:0:0:0:0:
36,192,255075,128,0,255131:0:0:0:0:
256,192,255150,128,0,255206:0:0:0:0:
402,192,255150,128,0,255243:0:0:0:0:
475,192,255150,128,0,255225:0:0:0:0:
329,192,255225,128,0,255318:0:0:0:0:
182,192,255225,128,0,255281:0:0:0:0:
109,192,255300,128,0,255375:0:0:0:0:
36,192,255300,128,0,255356:0:0:0:0:
475,192,255300,128,0,255356:0:0:0:0:
402,192,255300,128,0,255393:0:0:0:0:
256,192,255375,128,0,255468:0:0:0:0:
475,192,255450,128,0,255506:0:0:0:0:
109,192,255450,128,0,255543:0:0:0:0:
36,192,255450,128,0,255506:0:0:0:0:
402,192,255450,128,0,255525:0:0:0:0:
256,192,255525,128,0,255618:0:0:0:0:
402,192,255600,128,0,255675:0:0:0:0:
475,192,255600,128,0,255656:0:0:0:0:
329,192,255600,128,0,255693:0:0:0:0:
36,192,255600,128,0,255656:0:0:0:0:
182,192,255675,128,0,255750:0:0:0:0:
109,192,255675,128,0,255731:0:0:0:0:
329,192,255750,128,0,255825:0:0:0:0:
402,192,255750,128,0,255806:0:0:0:0:
182,192,255825,128,0,255900:0:0:0:0:
109,192,255825,128,0,255881:0:0:0:0:
36,192,255900,128,0,255956:0:0:0:0:
256,192,255900,128,0,255956:0:0:0:0:
402,192,255900,128,0,255993:0:0:0:0:
475,192,255900,128,0,255956:0:0:0:0:
329,192,255975,128,0,256068:0:0:0:0:
182,192,255975,128,0,256031:0:0:0:0:
256,192,256050,128,0,256143:0:0:0:0:
109,192,256050,128,0,256106:0:0:0:0:
402,192,256125,128,0,256200:0:0:0:0:
475,192,256125,128,0,256181:0:0:0:0:
329,192,256200,128,0,256256:0:0:0:0:
182,192,256200,128,0,256293:0:0:0:0:
36,192,256200,128,0,256256:0:0:0:0:
109,192,256200,128,0,256275:0:0:0:0:
402,192,256275,128,0,256331:0:0:0:0:
256,192,256275,128,0,256368:0:0:0:0:
475,192,256350,128,0,256406:0:0:0:0:
329,192,256350,128,0,256443:0:0:0:0:
109,192,256425,128,0,256500:0:0:0:0:
36,192,256425,128,0,256481:0:0:0:0:
182,192,256500,128,0,256556:0:0:0:0:
329,192,256500,128,0,256593:0:0:0:0:
402,192,256500,128,0,256575:0:0:0:0:
475,192,256500,128,0,256556:0:0:0:0:
109,192,256575,128,0,256631:0:0:0:0:
256,192,256575,128,0,256668:0:0:0:0:
36,192,256650,128,0,256706:0:0:0:0:
182,192,256650,128,0,256743:0:0:0:0:
329,192,256725,128,0,256800:0:0:0:0:
402,192,256725,128,0,256781:0:0:0:0:
475,192,256800,128,0,256856:0:0:0:0:
256,192,256800,128,0,256893:0:0:0:0:
109,192,256800,128,0,256875:0:0:0:0:
36,192,256800,128,0,256856:0:0:0:0:
182,192,256875,128,0,256968:0:0:0:0:
402,192,256875,128,0,256931:0:0:0:0:
329,192,256950,128,0,257006:0:0:0:0:
109,192,256950,128,0,257043:0:0:0:0:
402,192,257025,128,0,257100:0:0:0:0:
475,192,257025,128,0,257081:0:0:0:0:
256,192,257100,128,0,257212:0:0:0:0:
182,192,257100,128,0,257193:0:0:0:0:
109,192,257100,128,0,257175:0:0:0:0:
36,192,257100,128,0,257156:0:0:0:0:
329,192,257175,128,0,257231:0:0:0:0:
402,192,257175,128,0,257250:0:0:0:0:
475,192,257175,128,0,257231:0:0:0:0:
182,192,257250,128,0,257381:0:0:0:0:
109,192,257250,128,0,257306:0:0:0:0:
256,192,257325,128,0,257400:0:0:0:0:
329,192,257325,128,0,257418:0:0:0:0:
109,192,257400,128,0,257475:0:0:0:0:
36,192,257400,128,0,257456:0:0:0:0:
402,192,257400,128,0,257456:0:0:0:0:
475,192,257400,128,0,257475:0:0:0:0:
182,192,257475,128,0,257531:0:0:0:0:
329,192,257475,128,0,257568:0:0:0:0:
109,192,257550,128,0,257625:0:0:0:0:
36,192,257550,128,0,257606:0:0:0:0:
402,192,257625,128,0,257700:0:0:0:0:
475,192,257625,128,0,257718:0:0:0:0:
256,192,257625,128,0,257681:0:0:0:0:
182,192,257700,128,0,257793:0:0:0:0:
109,192,257700,128,0,257775:0:0:0:0:
36,192,257700,128,0,257756:0:0:0:0:
329,192,257775,128,0,257831:0:0:0:0:
402,192,257775,128,0,257850:0:0:0:0:
475,192,257775,128,0,257868:0:0:0:0:
36,192,257850,1,0,0:0:0:0:
256,192,257850,128,0,257925:0:0:0:0:
109,192,257887,1,0,0:0:0:0:
182,192,257925,1,0,0:0:0:0:
329,192,257925,1,0,0:0:0:0:
402,192,257962,1,0,0:0:0:0:
475,192,258000,1,0,0:0:0:0:
256,192,258000,128,0,258056:0:0:0:0:
109,192,258000,128,0,258075:0:0:0:0:
36,192,258000,128,0,258056:0:0:0:0:
329,192,258075,128,0,258168:0:0:0:0:
182,192,258075,128,0,258131:0:0:0:0:
109,192,258150,128,0,258225:0:0:0:0:
36,192,258150,128,0,258206:0:0:0:0:
256,192,258225,128,0,258281:0:0:0:0:
402,192,258225,128,0,258356:0:0:0:0:
475,192,258225,128,0,258281:0:0:0:0:
329,192,258300,128,0,258431:0:0:0:0:
182,192,258300,128,0,258356:0:0:0:0:
109,192,258300,128,0,258375:0:0:0:0:
36,192,258300,128,0,258393:0:0:0:0:
256,192,258375,128,0,258506:0:0:0:0:
475,192,258375,128,0,258468:0:0:0:0:
182,192,258450,128,0,258506:0:0:0:0:
402,192,258450,128,0,258543:0:0:0:0:
109,192,258525,128,0,258600:0:0:0:0:
36,192,258525,128,0,258581:0:0:0:0:
182,192,258600,128,0,258656:0:0:0:0:
329,192,258600,128,0,258731:0:0:0:0:
402,192,258600,128,0,258675:0:0:0:0:
475,192,258600,128,0,258656:0:0:0:0:
256,192,258675,128,0,258806:0:0:0:0:
109,192,258675,128,0,258731:0:0:0:0:
182,192,258750,128,0,258825:0:0:0:0:
36,192,258750,128,0,258806:0:0:0:0:
329,192,258825,128,0,258918:0:0:0:0:
402,192,258825,128,0,258900:0:0:0:0:
475,192,258825,128,0,258881:0:0:0:0:
256,192,258900,128,0,258956:0:0:0:0:
182,192,258900,128,0,258975:0:0:0:0:
109,192,258900,128,0,258993:0:0:0:0:
36,192,258900,128,0,259012:0:0:0:0:
402,192,258975,128,0,259050:0:0:0:0:
475,192,258975,128,0,259031:0:0:0:0:
329,192,259050,128,0,259106:0:0:0:0:
256,192,259050,128,0,259125:0:0:0:0:
182,192,259050,128,0,259143:0:0:0:0:
109,192,259125,128,0,259181:0:0:0:0:
36,192,259125,128,0,259200:0:0:0:0:
256,192,259200,128,0,259275:0:0:0:0:
329,192,259200,128,0,259293:0:0:0:0:
402,192,259200,128,0,259312:0:0:0:0:
475,192,259200,128,0,259331:0:0:0:0:
182,192,259275,128,0,259350:0:0:0:0:
109,192,259275,128,0,259331:0:0:0:0:
36,192,259350,128,0,259406:0:0:0:0:
402,192,259350,128,0,259406:0:0:0:0:
256,192,259425,128,0,259481:0:0:0:0:
182,192,259425,128,0,259556:0:0:0:0:
109,192,259500,128,0,259575:0:0:0:0:
36,192,259500,128,0,259593:0:0:0:0:
402,192,259500,128,0,259556:0:0:0:0:
475,192,259500,128,0,259575:0:0:0:0:
329,192,259575,128,0,259631:0:0:0:0:
256,192,259575,128,0,259706:0:0:0:0:
182,192,259650,128,0,259725:0:0:0:0:
109,192,259650,128,0,259743:0:0:0:0:
402,192,259725,128,0,259781:0:0:0:0:
329,192,259725,128,0,259856:0:0:0:0:
256,192,259800,128,0,259875:0:0:0:0:
182,192,259800,128,0,259893:0:0:0:0:
109,192,259800,128,0,259912:0:0:0:0:
36,192,259800,128,0,259931:0:0:0:0:
402,192,259875,128,0,260006:0:0:0:0:
475,192,259875,128,0,259931:0:0:0:0:
329,192,259950,128,0,260025:0:0:0:0:
182,192,259950,128,0,260043:0:0:0:0:
109,192,260025,128,0,260081:0:0:0:0:
36,192,260025,128,0,260100:0:0:0:0:
329,192,260100,128,0,260193:0:0:0:0:
402,192,260100,128,0,260175:0:0:0:0:
475,192,260100,128,0,260156:0:0:0:0:
256,192,260100,128,0,260212:0:0:0:0:
182,192,260175,128,0,260231:0:0:0:0:
109,192,260175,128,0,260250:0:0:0:0:
329,192,260250,128,0,260306:0:0:0:0:
402,192,260250,128,0,260325:0:0:0:0:
475,192,260250,128,0,260343:0:0:0:0:
182,192,260325,128,0,260418:0:0:0:0:
109,192,260325,128,0,260400:0:0:0:0:
36,192,260325,128,0,260381:0:0:0:0:
256,192,260400,128,0,260456:0:0:0:0:
329,192,260400,128,0,260475:0:0:0:0:
402,192,260400,128,0,260493:0:0:0:0:
475,192,260400,128,0,260475:0:0:0:0:
109,192,260475,128,0,260550:0:0:0:0:
36,192,260475,128,0,260531:0:0:0:0:
182,192,260550,128,0,260718:0:0:0:0:
329,192,260550,128,0,260606:0:0:0:0:
402,192,260550,128,0,260681:0:0:0:0:
475,192,260625,128,0,260700:0:0:0:0:
36,192,260625,128,0,260700:0:0:0:0:
109,192,260700,128,0,260868:0:0:0:0:
256,192,260700,128,0,260756:0:0:0:0:
329,192,260700,128,0,260831:0:0:0:0:
402,192,260775,128,0,260850:0:0:0:0:
475,192,260775,128,0,260868:0:0:0:0:
36,192,260850,128,0,261018:0:0:0:0:
256,192,260850,128,0,260981:0:0:0:0:
182,192,260850,128,0,260906:0:0:0:0:
329,192,260925,128,0,261000:0:0:0:0:
402,192,260925,128,0,261018:0:0:0:0:
182,192,261000,128,0,261131:0:0:0:0:
109,192,261000,128,0,261075:0:0:0:0:
475,192,261000,128,0,261075:0:0:0:0:
402,192,261075,128,0,261187:0:0:0:0:
256,192,261075,128,0,261150:0:0:0:0:
329,192,261075,128,0,261168:0:0:0:0:
109,192,261150,128,0,261281:0:0:0:0:
475,192,261150,128,0,261206:0:0:0:0:
36,192,261150,128,0,261225:0:0:0:0:
182,192,261225,128,0,261300:0:0:0:0:
329,192,261225,128,0,261337:0:0:0:0:
256,192,261225,128,0,261318:0:0:0:0:
36,192,261300,128,0,261431:0:0:0:0:
402,192,261300,128,0,261356:0:0:0:0:
475,192,261300,128,0,261375:0:0:0:0:
256,192,261375,128,0,261487:0:0:0:0:
109,192,261375,128,0,261450:0:0:0:0:
182,192,261375,128,0,261468:0:0:0:0:
329,192,261450,128,0,261506:0:0:0:0:
402,192,261450,128,0,261525:0:0:0:0:
475,192,261450,128,0,261543:0:0:0:0:
182,192,261525,128,0,261693:0:0:0:0:
109,192,261525,128,0,261600:0:0:0:0:
36,192,261525,128,0,261581:0:0:0:0:
329,192,261600,128,0,261656:0:0:0:0:
402,192,261600,128,0,261731:0:0:0:0:
475,192,261600,128,0,261806:0:0:0:0:
256,192,261675,128,0,261768:0:0:0:0:
109,192,261675,128,0,261731:0:0:0:0:
329,192,261750,128,0,261843:0:0:0:0:
182,192,261750,128,0,261806:0:0:0:0:
402,192,261825,128,0,261918:0:0:0:0:
256,192,261825,128,0,261881:0:0:0:0:
182,192,261900,128,0,261956:0:0:0:0:
109,192,261900,128,0,262031:0:0:0:0:
36,192,261900,128,0,262106:0:0:0:0:
256,192,261975,128,0,262068:0:0:0:0:
402,192,261975,128,0,262031:0:0:0:0:
182,192,262050,128,0,262143:0:0:0:0:
329,192,262050,128,0,262106:0:0:0:0:
109,192,262125,128,0,262218:0:0:0:0:
256,192,262125,128,0,262181:0:0:0:0:
329,192,262200,128,0,262275:0:0:0:0:
402,192,262200,128,0,262275:0:0:0:0:
475,192,262200,128,0,262275:0:0:0:0:
182,192,262275,128,0,262350:0:0:0:0:
109,192,262275,128,0,262350:0:0:0:0:
36,192,262275,1,0,0:0:0:0:
475,192,262350,1,0,0:0:0:0:
256,192,262350,128,0,262425:0:0:0:0:
402,192,262350,128,0,262425:0:0:0:0:
329,192,262425,128,0,262500:0:0:0:0:
182,192,262425,128,0,262500:0:0:0:0:
109,192,262425,128,0,262500:0:0:0:0:
36,192,262500,1,0,0:0:0:0:
475,192,262500,1,0,0:0:0:0:
256,192,262500,128,0,262575:0:0:0:0:
182,192,262575,128,0,262650:0:0:0:0:
329,192,262575,128,0,262650:0:0:0:0:
402,192,262575,128,0,262650:0:0:0:0:
475,192,262650,1,0,0:0:0:0:
36,192,262650,1,0,0:0:0:0:
256,192,262650,128,0,262725:0:0:0:0:
109,192,262725,128,0,262800:0:0:0:0:
182,192,262725,128,0,262800:0:0:0:0:
329,192,262725,128,0,262800:0:0:0:0:
475,192,262800,1,0,0:0:0:0:
36,192,262800,1,0,0:0:0:0:
256,192,262800,128,0,262931:0:0:0:0:
402,192,262800,128,0,262893:0:0:0:0:
182,192,262875,128,0,262950:0:0:0:0:
109,192,262875,128,0,262968:0:0:0:0:
329,192,262950,128,0,263081:0:0:0:0:
402,192,262950,128,0,263043:0:0:0:0:
256,192,263025,128,0,263100:0:0:0:0:
182,192,263025,128,0,263118:0:0:0:0:
36,192,263100,1,0,0:0:0:0:
402,192,263100,128,0,263231:0:0:0:0:
475,192,263100,128,0,263193:0:0:0:0:
329,192,263175,128,0,263250:0:0:0:0:
256,192,263175,128,0,263268:0:0:0:0:
475,192,263250,128,0,263381:0:0:0:0:
402,192,263325,128,0,263400:0:0:0:0:
329,192,263325,128,0,263418:0:0:0:0:
36,192,263400,1,0,0:0:0:0:
256,192,263400,128,0,263531:0:0:0:0:
182,192,263400,128,0,263493:0:0:0:0:
402,192,263475,128,0,263550:0:0:0:0:
475,192,263475,128,0,263568:0:0:0:0:
182,192,263550,128,0,263681:0:0:0:0:
329,192,263550,128,0,263643:0:0:0:0:
109,192,263625,128,0,263700:0:0:0:0:
36,192,263625,128,0,263718:0:0:0:0:
475,192,263700,1,0,0:0:0:0:
256,192,263700,128,0,263831:0:0:0:0:
329,192,263700,128,0,263793:0:0:0:0:
182,192,263775,128,0,263850:0:0:0:0:
109,192,263775,128,0,263868:0:0:0:0:
329,192,263850,128,0,263981:0:0:0:0:
402,192,263850,128,0,263943:0:0:0:0:
256,192,263925,128,0,264000:0:0:0:0:
182,192,263925,128,0,264018:0:0:0:0:
36,192,264000,128,0,264075:0:0:0:0:
475,192,264000,128,0,264075:0:0:0:0:
329,192,264075,128,0,264150:0:0:0:0:
182,192,264150,128,0,264225:0:0:0:0:
36,192,264225,128,0,264300:0:0:0:0:
109,192,264300,128,0,264375:0:0:0:0:
402,192,264300,128,0,264375:0:0:0:0:
182,192,264375,128,0,264450:0:0:0:0:
329,192,264375,128,0,264450:0:0:0:0:
402,192,264450,128,0,264525:0:0:0:0:
109,192,264450,128,0,264525:0:0:0:0:
182,192,264525,128,0,264600:0:0:0:0:
329,192,264525,128,0,264600:0:0:0:0:
402,192,264600,128,0,264750:0:0:0:0:
182,192,264750,128,0,264900:0:0:0:0:
329,192,264825,128,0,264975:0:0:0:0:
109,192,264900,128,0,265050:0:0:0:0:
256,192,264975,128,0,265125:0:0:0:0:
402,192,265050,128,0,265200:0:0:0:0:
109,192,265200,128,0,265425:0:0:0:0:
182,192,265200,128,0,265293:0:0:0:0:
256,192,265200,128,0,265293:0:0:0:0:
475,192,265200,128,0,265368:0:0:0:0:
36,192,265200,128,0,265425:0:0:0:0:
256,192,265350,1,0,0:0:0:0:
182,192,265350,1,0,0:0:0:0:
475,192,265425,1,0,0:0:0:0:
402,192,265425,1,0,0:0:0:0:
36,192,265500,128,0,265725:0:0:0:0:
182,192,265500,128,0,265593:0:0:0:0:
256,192,265500,128,0,265593:0:0:0:0:
109,192,265500,128,0,265725:0:0:0:0:
256,192,265650,1,0,0:0:0:0:
182,192,265650,1,0,0:0:0:0:
329,192,265725,1,0,0:0:0:0:
402,192,265725,1,0,0:0:0:0:
182,192,265800,128,0,265893:0:0:0:0:
256,192,265800,128,0,265893:0:0:0:0:
109,192,265800,128,0,265968:0:0:0:0:
36,192,265800,128,0,265968:0:0:0:0:
475,192,265800,128,0,266025:0:0:0:0:
256,192,265950,1,0,0:0:0:0:
182,192,265950,1,0,0:0:0:0:
36,192,266025,1,0,0:0:0:0:
109,192,266025,1,0,0:0:0:0:
402,192,266100,128,0,266325:0:0:0:0:
475,192,266100,128,0,266325:0:0:0:0:
329,192,266100,128,0,266193:0:0:0:0:
256,192,266100,128,0,266193:0:0:0:0:
256,192,266250,1,0,0:0:0:0:
329,192,266250,1,0,0:0:0:0:
182,192,266325,1,0,0:0:0:0:
109,192,266325,1,0,0:0:0:0:
36,192,266400,128,0,266625:0:0:0:0:
402,192,266400,128,0,266493:0:0:0:0:
329,192,266400,128,0,266493:0:0:0:0:
475,192,266400,128,0,266625:0:0:0:0:
182,192,266475,1,0,0:0:0:0:
109,192,266475,1,0,0:0:0:0:
329,192,266550,1,0,0:0:0:0:
402,192,266550,1,0,0:0:0:0:
256,192,266625,1,0,0:0:0:0:
182,192,266625,1,0,0:0:0:0:
329,192,266700,128,0,266793:0:0:0:0:
475,192,266700,128,0,266925:0:0:0:0:
402,192,266700,128,0,266793:0:0:0:0:
36,192,266700,128,0,266925:0:0:0:0:
182,192,266775,1,0,0:0:0:0:
256,192,266775,1,0,0:0:0:0:
402,192,266850,1,0,0:0:0:0:
329,192,266850,1,0,0:0:0:0:
109,192,266925,1,0,0:0:0:0:
182,192,266925,1,0,0:0:0:0:
329,192,267000,128,0,267093:0:0:0:0:
256,192,267000,128,0,267093:0:0:0:0:
402,192,267000,128,0,267168:0:0:0:0:
475,192,267000,128,0,267225:0:0:0:0:
109,192,267075,1,0,0:0:0:0:
182,192,267075,1,0,0:0:0:0:
256,192,267150,1,0,0:0:0:0:
329,192,267150,1,0,0:0:0:0:
36,192,267225,1,0,0:0:0:0:
109,192,267225,1,0,0:0:0:0:
256,192,267300,128,0,267393:0:0:0:0:
402,192,267300,128,0,267468:0:0:0:0:
329,192,267300,128,0,267468:0:0:0:0:
182,192,267300,128,0,267393:0:0:0:0:
36,192,267375,1,0,0:0:0:0:
109,192,267375,1,0,0:0:0:0:
256,192,267450,1,0,0:0:0:0:
182,192,267450,1,0,0:0:0:0:
475,192,267525,1,0,0:0:0:0:
402,192,267525,1,0,0:0:0:0:
109,192,267600,128,0,267768:0:0:0:0:
182,192,267600,128,0,267768:0:0:0:0:
256,192,267600,128,0,267693:0:0:0:0:
329,192,267600,128,0,267693:0:0:0:0:
402,192,267675,1,0,0:0:0:0:
475,192,267675,1,0,0:0:0:0:
256,192,267750,1,0,0:0:0:0:
329,192,267750,1,0,0:0:0:0:
109,192,267825,1,0,0:0:0:0:
182,192,267825,1,0,0:0:0:0:
402,192,267900,128,0,267993:0:0:0:0:
36,192,267900,128,0,268125:0:0:0:0:
329,192,267900,128,0,267993:0:0:0:0:
475,192,267900,128,0,268125:0:0:0:0:
109,192,267975,1,0,0:0:0:0:
182,192,267975,1,0,0:0:0:0:
329,192,268050,1,0,0:0:0:0:
402,192,268050,1,0,0:0:0:0:
109,192,268125,1,0,0:0:0:0:
182,192,268125,1,0,0:0:0:0:
256,192,268200,128,0,268368:0:0:0:0:
475,192,268200,128,0,268293:0:0:0:0:
402,192,268200,128,0,268293:0:0:0:0:
329,192,268200,128,0,268368:0:0:0:0:
36,192,268275,1,0,0:0:0:0:
109,192,268275,1,0,0:0:0:0:
475,192,268350,1,0,0:0:0:0:
402,192,268350,1,0,0:0:0:0:
256,192,268425,1,0,0:0:0:0:
329,192,268425,1,0,0:0:0:0:
402,192,268500,128,0,268668:0:0:0:0:
475,192,268500,128,0,268725:0:0:0:0:
109,192,268500,128,0,268593:0:0:0:0:
36,192,268500,128,0,268593:0:0:0:0:
329,192,268575,1,0,0:0:0:0:
256,192,268575,1,0,0:0:0:0:
109,192,268650,1,0,0:0:0:0:
36,192,268650,1,0,0:0:0:0:
182,192,268725,1,0,0:0:0:0:
256,192,268725,1,0,0:0:0:0:
109,192,268800,128,0,268968:0:0:0:0:
36,192,268800,128,0,269025:0:0:0:0:
402,192,268800,128,0,268893:0:0:0:0:
475,192,268800,128,0,268893:0:0:0:0:
182,192,268875,1,0,0:0:0:0:
256,192,268875,1,0,0:0:0:0:
475,192,268950,1,0,0:0:0:0:
402,192,268950,1,0,0:0:0:0:
109,192,269025,1,0,0:0:0:0:
182,192,269025,1,0,0:0:0:0:
475,192,269100,128,0,269193:0:0:0:0:
402,192,269100,128,0,269193:0:0:0:0:
256,192,269100,128,0,269268:0:0:0:0:
329,192,269100,128,0,269268:0:0:0:0:
36,192,269175,1,0,0:0:0:0:
109,192,269175,1,0,0:0:0:0:
402,192,269250,1,0,0:0:0:0:
475,192,269250,1,0,0:0:0:0:
329,192,269325,1,0,0:0:0:0:
256,192,269325,1,0,0:0:0:0:
36,192,269400,128,0,269625:0:0:0:0:
402,192,269400,128,0,269493:0:0:0:0:
109,192,269400,128,0,269625:0:0:0:0:
475,192,269400,128,0,269493:0:0:0:0:
182,192,269475,1,0,0:0:0:0:
256,192,269475,1,0,0:0:0:0:
402,192,269550,1,0,0:0:0:0:
475,192,269550,1,0,0:0:0:0:
256,192,269625,1,0,0:0:0:0:
329,192,269700,128,0,269793:0:0:0:0:
402,192,269700,128,0,269793:0:0:0:0:
475,192,269700,128,0,269793:0:0:0:0:
109,192,269700,128,0,269793:0:0:0:0:
36,192,269700,128,0,269793:0:0:0:0:
182,192,269700,128,0,269793:0:0:0:0:
36,192,269850,128,0,269943:0:0:0:0:
182,192,269850,128,0,269943:0:0:0:0:
109,192,269850,128,0,269943:0:0:0:0:
329,192,269850,128,0,269943:0:0:0:0:
402,192,269850,128,0,269943:0:0:0:0:
475,192,269850,128,0,269943:0:0:0:0:
256,192,269925,1,0,0:0:0:0:
182,192,270000,128,0,270093:0:0:0:0:
109,192,270000,128,0,270093:0:0:0:0:
36,192,270000,128,0,270093:0:0:0:0:
402,192,270000,128,0,270168:0:0:0:0:
475,192,270000,128,0,270168:0:0:0:0:
256,192,270075,1,0,0:0:0:0:
329,192,270075,1,0,0:0:0:0:
109,192,270150,1,0,0:0:0:0:
36,192,270150,1,0,0:0:0:0:
182,192,270225,1,0,0:0:0:0:
256,192,270225,1,0,0:0:0:0:
109,192,270300,128,0,270393:0:0:0:0:
36,192,270300,128,0,270393:0:0:0:0:
402,192,270300,128,0,270468:0:0:0:0:
475,192,270300,128,0,270468:0:0:0:0:
329,192,270375,1,0,0:0:0:0:
256,192,270375,1,0,0:0:0:0:
182,192,270450,1,0,0:0:0:0:
109,192,270450,1,0,0:0:0:0:
402,192,270525,1,0,0:0:0:0:
475,192,270525,1,0,0:0:0:0:
36,192,270600,128,0,270768:0:0:0:0:
329,192,270600,128,0,270693:0:0:0:0:
256,192,270600,128,0,270693:0:0:0:0:
109,192,270600,128,0,270768:0:0:0:0:
182,192,270600,128,0,270693:0:0:0:0:
402,192,270675,1,0,0:0:0:0:
475,192,270675,1,0,0:0:0:0:
182,192,270750,1,0,0:0:0:0:
329,192,270750,1,0,0:0:0:0:
109,192,270825,1,0,0:0:0:0:
36,192,270825,1,0,0:0:0:0:
182,192,270900,128,0,271068:0:0:0:0:
256,192,270900,128,0,270993:0:0:0:0:
475,192,270900,128,0,271068:0:0:0:0:
402,192,270900,128,0,270993:0:0:0:0:
109,192,270975,1,0,0:0:0:0:
36,192,270975,1,0,0:0:0:0:
256,192,271050,1,0,0:0:0:0:
402,192,271050,1,0,0:0:0:0:
182,192,271125,1,0,0:0:0:0:
109,192,271125,1,0,0:0:0:0:
256,192,271200,128,0,271368:0:0:0:0:
36,192,271200,128,0,271368:0:0:0:0:
329,192,271200,128,0,271293:0:0:0:0:
402,192,271200,128,0,271293:0:0:0:0:
475,192,271200,128,0,271293:0:0:0:0:
182,192,271275,1,0,0:0:0:0:
109,192,271275,1,0,0:0:0:0:
329,192,271350,1,0,0:0:0:0:
475,192,271350,1,0,0:0:0:0:
256,192,271425,1,0,0:0:0:0:
182,192,271425,1,0,0:0:0:0:
402,192,271500,128,0,271593:0:0:0:0:
475,192,271500,128,0,271668:0:0:0:0:
109,192,271500,128,0,271593:0:0:0:0:
36,192,271500,128,0,271668:0:0:0:0:
256,192,271575,1,0,0:0:0:0:
182,192,271575,1,0,0:0:0:0:
109,192,271650,1,0,0:0:0:0:
402,192,271650,1,0,0:0:0:0:
329,192,271725,1,0,0:0:0:0:
256,192,271725,1,0,0:0:0:0:
182,192,271800,128,0,271893:0:0:0:0:
109,192,271800,128,0,271893:0:0:0:0:
36,192,271800,128,0,271893:0:0:0:0:
402,192,271800,128,0,271968:0:0:0:0:
475,192,271800,128,0,271968:0:0:0:0:
329,192,271875,1,0,0:0:0:0:
256,192,271875,1,0,0:0:0:0:
109,192,271950,1,0,0:0:0:0:
36,192,271950,1,0,0:0:0:0:
329,192,272025,1,0,0:0:0:0:
402,192,272025,1,0,0:0:0:0:
36,192,272100,128,0,272175:0:0:0:0:
256,192,272100,128,0,272175:0:0:0:0:
475,192,272100,128,0,272175:0:0:0:0:
109,192,272100,128,0,272175:0:0:0:0:
182,192,272100,128,0,272175:0:0:0:0:
329,192,272175,128,0,272250:0:0:0:0:
402,192,272175,128,0,272250:0:0:0:0:
475,192,272250,128,0,272325:0:0:0:0:
256,192,272250,128,0,272325:0:0:0:0:
36,192,272250,128,0,272325:0:0:0:0:
182,192,272325,128,0,272400:0:0:0:0:
109,192,272325,128,0,272400:0:0:0:0:
329,192,272325,128,0,272400:0:0:0:0:
402,192,272400,128,0,272493:0:0:0:0:
475,192,272400,128,0,272493:0:0:0:0:
256,192,272400,128,0,272493:0:0:0:0:
36,192,272400,128,0,272493:0:0:0:0:
256,192,272550,128,0,272643:0:0:0:0:
109,192,272550,128,0,272643:0:0:0:0:
36,192,272550,128,0,272643:0:0:0:0:
475,192,272550,128,0,272643:0:0:0:0:
402,192,272700,128,0,272868:0:0:0:0:
475,192,272700,128,0,272925:0:0:0:0:
109,192,272700,128,0,272793:0:0:0:0:
36,192,272700,128,0,272793:0:0:0:0:
256,192,272700,128,0,272793:0:0:0:0:
109,192,272850,1,0,0:0:0:0:
36,192,272850,1,0,0:0:0:0:
329,192,272925,1,0,0:0:0:0:
182,192,272925,1,0,0:0:0:0:
475,192,273000,128,0,273150:0:0:0:0:
402,192,273000,128,0,273093:0:0:0:0:
109,192,273000,128,0,273093:0:0:0:0:
36,192,273000,128,0,273225:0:0:0:0:
329,192,273075,1,0,0:0:0:0:
182,192,273075,1,0,0:0:0:0:
109,192,273150,1,0,0:0:0:0:
402,192,273150,1,0,0:0:0:0:
256,192,273225,1,0,0:0:0:0:
475,192,273225,1,0,0:0:0:0:
182,192,273300,128,0,273393:0:0:0:0:
109,192,273300,128,0,273356:0:0:0:0:
36,192,273300,128,0,273356:0:0:0:0:
329,192,273300,128,0,273356:0:0:0:0:
256,192,273375,128,0,273468:0:0:0:0:
402,192,273375,128,0,273431:0:0:0:0:
475,192,273375,128,0,273431:0:0:0:0:
329,192,273450,128,0,273543:0:0:0:0:
109,192,273450,128,0,273506:0:0:0:0:
36,192,273450,128,0,273506:0:0:0:0:
182,192,273525,128,0,273581:0:0:0:0:
402,192,273525,128,0,273618:0:0:0:0:
475,192,273525,128,0,273581:0:0:0:0:
256,192,273600,128,0,273768:0:0:0:0:
36,192,273600,128,0,273768:0:0:0:0:
109,192,273600,128,0,273768:0:0:0:0:
329,192,273600,128,0,273693:0:0:0:0:
329,192,273750,1,0,0:0:0:0:
256,192,273825,128,0,273993:0:0:0:0:
402,192,273825,128,0,273993:0:0:0:0:
475,192,273825,128,0,273993:0:0:0:0:
36,192,273825,128,0,273993:0:0:0:0:
182,192,273825,128,0,273918:0:0:0:0:
182,192,273975,1,0,0:0:0:0:
256,192,274050,128,0,274200:0:0:0:0:
402,192,274050,128,0,274143:0:0:0:0:
475,192,274050,128,0,274143:0:0:0:0:
36,192,274050,128,0,274143:0:0:0:0:
109,192,274050,128,0,274143:0:0:0:0:
329,192,274200,1,0,0:0:0:0:
182,192,274275,1,0,0:0:0:0:
329,192,274350,1,0,0:0:0:0:
109,192,274425,1,0,0:0:0:0:
36,192,274425,1,0,0:0:0:0:
475,192,274500,1,0,0:0:0:0:
329,192,274500,1,0,0:0:0:0:
182,192,274500,1,0,0:0:0:0:
329,192,274575,1,0,0:0:0:0:
475,192,274575,1,0,0:0:0:0:
109,192,274650,1,0,0:0:0:0:
36,192,274650,1,0,0:0:0:0:
182,192,274650,1,0,0:0:0:0:
475,192,274800,1,0,0:0:0:0:
256,192,274800,1,0,0:0:0:0:
109,192,274800,1,0,0:0:0:0:
36,192,274800,1,0,0:0:0:0:
329,192,274875,1,0,0:0:0:0:
402,192,274875,1,0,0:0:0:0:
109,192,274950,1,0,0:0:0:0:
36,192,274950,1,0,0:0:0:0:
182,192,274950,1,0,0:0:0:0:
475,192,274950,1,0,0:0:0:0:
329,192,275025,1,0,0:0:0:0:
256,192,275025,1,0,0:0:0:0:
36,192,275100,1,0,0:0:0:0:
475,192,275100,1,0,0:0:0:0:
402,192,275100,1,0,0:0:0:0:
109,192,275100,1,0,0:0:0:0:
182,192,275175,1,0,0:0:0:0:
329,192,275175,1,0,0:0:0:0:
402,192,275250,1,0,0:0:0:0:
109,192,275250,1,0,0:0:0:0:
256,192,275325,1,0,0:0:0:0:
36,192,275325,1,0,0:0:0:0:
182,192,275400,1,0,0:0:0:0:
329,192,275400,1,0,0:0:0:0:
402,192,275400,1,0,0:0:0:0:
475,192,275400,1,0,0:0:0:0:
256,192,275475,1,0,0:0:0:0:
109,192,275475,1,0,0:0:0:0:
402,192,275550,1,0,0:0:0:0:
182,192,275550,1,0,0:0:0:0:
36,192,275550,1,0,0:0:0:0:
329,192,275625,1,0,0:0:0:0:
256,192,275625,1,0,0:0:0:0:
182,192,275700,1,0,0:0:0:0:
109,192,275700,1,0,0:0:0:0:
36,192,275700,1,0,0:0:0:0:
475,192,275700,1,0,0:0:0:0:
329,192,275775,1,0,0:0:0:0:
402,192,275775,1,0,0:0:0:0:
256,192,275850,1,0,0:0:0:0:
109,192,275850,1,0,0:0:0:0:
475,192,275850,1,0,0:0:0:0:
182,192,275925,1,0,0:0:0:0:
329,192,275925,1,0,0:0:0:0:
256,192,276000,1,0,0:0:0:0:
402,192,276000,1,0,0:0:0:0:
475,192,276000,1,0,0:0:0:0:
36,192,276000,1,0,0:0:0:0:
182,192,276075,1,0,0:0:0:0:
109,192,276075,1,0,0:0:0:0:
329,192,276150,1,0,0:0:0:0:
36,192,276150,1,0,0:0:0:0:
475,192,276150,1,0,0:0:0:0:
402,192,276225,1,0,0:0:0:0:
256,192,276225,1,0,0:0:0:0:
182,192,276300,1,0,0:0:0:0:
36,192,276300,1,0,0:0:0:0:
329,192,276300,1,0,0:0:0:0:
109,192,276300,1,0,0:0:0:0:
402,192,276375,1,0,0:0:0:0:
475,192,276375,1,0,0:0:0:0:
256,192,276375,1,0,0:0:0:0:
182,192,276450,1,0,0:0:0:0:
109,192,276450,1,0,0:0:0:0:
36,192,276450,1,0,0:0:0:0:
329,192,276525,1,0,0:0:0:0:
402,192,276525,1,0,0:0:0:0:
475,192,276600,1,0,0:0:0:0:
36,192,276600,1,0,0:0:0:0:
109,192,276600,1,0,0:0:0:0:
256,192,276600,1,0,0:0:0:0:
182,192,276675,1,0,0:0:0:0:
329,192,276675,1,0,0:0:0:0:
402,192,276750,1,0,0:0:0:0:
109,192,276750,1,0,0:0:0:0:
475,192,276750,1,0,0:0:0:0:
36,192,276825,1,0,0:0:0:0:
256,192,276825,1,0,0:0:0:0:
182,192,276900,1,0,0:0:0:0:
329,192,276900,1,0,0:0:0:0:
475,192,276900,1,0,0:0:0:0:
402,192,276900,1,0,0:0:0:0:
256,192,276975,1,0,0:0:0:0:
109,192,276975,1,0,0:0:0:0:
402,192,277050,1,0,0:0:0:0:
475,192,277050,1,0,0:0:0:0:
329,192,277050,1,0,0:0:0:0:
36,192,277125,1,0,0:0:0:0:
182,192,277125,1,0,0:0:0:0:
109,192,277125,1,0,0:0:0:0:
256,192,277200,1,0,0:0:0:0:
475,192,277200,1,0,0:0:0:0:
402,192,277200,1,0,0:0:0:0:
329,192,277200,1,0,0:0:0:0:
182,192,277275,1,0,0:0:0:0:
109,192,277275,1,0,0:0:0:0:
256,192,277350,1,0,0:0:0:0:
402,192,277350,1,0,0:0:0:0:
475,192,277350,1,0,0:0:0:0:
329,192,277425,1,0,0:0:0:0:
182,192,277425,1,0,0:0:0:0:
256,192,277500,1,0,0:0:0:0:
109,192,277500,1,0,0:0:0:0:
36,192,277500,1,0,0:0:0:0:
475,192,277500,1,0,0:0:0:0:
402,192,277575,1,0,0:0:0:0:
329,192,277575,1,0,0:0:0:0:
182,192,277650,1,0,0:0:0:0:
36,192,277650,1,0,0:0:0:0:
475,192,277650,1,0,0:0:0:0:
109,192,277725,1,0,0:0:0:0:
256,192,277725,1,0,0:0:0:0:
182,192,277800,1,0,0:0:0:0:
329,192,277800,1,0,0:0:0:0:
402,192,277800,1,0,0:0:0:0:
475,192,277800,1,0,0:0:0:0:
36,192,277875,1,0,0:0:0:0:
109,192,277875,1,0,0:0:0:0:
182,192,277950,1,0,0:0:0:0:
402,192,277950,1,0,0:0:0:0:
256,192,277950,1,0,0:0:0:0:
109,192,278025,1,0,0:0:0:0:
329,192,278025,1,0,0:0:0:0:
256,192,278100,1,0,0:0:0:0:
402,192,278100,1,0,0:0:0:0:
475,192,278100,1,0,0:0:0:0:
36,192,278100,1,0,0:0:0:0:
182,192,278175,1,0,0:0:0:0:
329,192,278175,1,0,0:0:0:0:
256,192,278250,1,0,0:0:0:0:
475,192,278250,1,0,0:0:0:0:
36,192,278250,1,0,0:0:0:0:
402,192,278325,1,0,0:0:0:0:
109,192,278325,1,0,0:0:0:0:
329,192,278400,1,0,0:0:0:0:
475,192,278400,1,0,0:0:0:0:
182,192,278400,1,0,0:0:0:0:
36,192,278400,1,0,0:0:0:0:
256,192,278475,1,0,0:0:0:0:
109,192,278550,1,0,0:0:0:0:
182,192,278550,1,0,0:0:0:0:
402,192,278550,1,0,0:0:0:0:
329,192,278625,1,0,0:0:0:0:
256,192,278700,1,0,0:0:0:0:
475,192,278700,1,0,0:0:0:0:
36,192,278700,1,0,0:0:0:0:
109,192,278700,1,0,0:0:0:0:
182,192,278775,1,0,0:0:0:0:
402,192,278775,1,0,0:0:0:0:
329,192,278775,1,0,0:0:0:0:
256,192,278850,1,0,0:0:0:0:
36,192,278850,1,0,0:0:0:0:
475,192,278850,1,0,0:0:0:0:
329,192,278925,1,0,0:0:0:0:
109,192,278925,1,0,0:0:0:0:
182,192,279000,1,0,0:0:0:0:
402,192,279000,1,0,0:0:0:0:
475,192,279000,1,0,0:0:0:0:
36,192,279000,1,0,0:0:0:0:
256,192,279075,1,0,0:0:0:0:
329,192,279075,1,0,0:0:0:0:
402,192,279150,1,0,0:0:0:0:
475,192,279150,1,0,0:0:0:0:
109,192,279150,1,0,0:0:0:0:
182,192,279225,1,0,0:0:0:0:
256,192,279225,1,0,0:0:0:0:
109,192,279300,1,0,0:0:0:0:
36,192,279300,1,0,0:0:0:0:
329,192,279300,1,0,0:0:0:0:
402,192,279300,1,0,0:0:0:0:
256,192,279375,1,0,0:0:0:0:
402,192,279450,1,0,0:0:0:0:
475,192,279450,1,0,0:0:0:0:
36,192,279450,1,0,0:0:0:0:
109,192,279450,1,0,0:0:0:0:
182,192,279487,1,0,0:0:0:0:
256,192,279525,1,0,0:0:0:0:
329,192,279562,1,0,0:0:0:0:
402,192,279600,1,0,0:0:0:0:
475,192,279600,1,0,0:0:0:0:
109,192,279600,1,0,0:0:0:0:
36,192,279600,1,0,0:0:0:0:
182,192,279675,1,0,0:0:0:0:
329,192,279675,1,0,0:0:0:0:
256,192,279750,1,0,0:0:0:0:
109,192,279750,1,0,0:0:0:0:
36,192,279750,1,0,0:0:0:0:
402,192,279825,1,0,0:0:0:0:
475,192,279825,1,0,0:0:0:0:
329,192,279900,1,0,0:0:0:0:
182,192,279900,1,0,0:0:0:0:
109,192,279900,1,0,0:0:0:0:
36,192,279900,1,0,0:0:0:0:
256,192,279975,1,0,0:0:0:0:
402,192,279975,1,0,0:0:0:0:
329,192,280050,1,0,0:0:0:0:
475,192,280050,1,0,0:0:0:0:
36,192,280050,1,0,0:0:0:0:
182,192,280125,1,0,0:0:0:0:
109,192,280125,1,0,0:0:0:0:
256,192,280200,1,0,0:0:0:0:
475,192,280200,1,0,0:0:0:0:
402,192,280200,1,0,0:0:0:0:
36,192,280200,1,0,0:0:0:0:
329,192,280275,1,0,0:0:0:0:
182,192,280275,1,0,0:0:0:0:
402,192,280350,1,0,0:0:0:0:
475,192,280350,1,0,0:0:0:0:
109,192,280350,1,0,0:0:0:0:
256,192,280425,1,0,0:0:0:0:
36,192,280425,1,0,0:0:0:0:
329,192,280500,1,0,0:0:0:0:
182,192,280500,1,0,0:0:0:0:
402,192,280500,1,0,0:0:0:0:
475,192,280500,1,0,0:0:0:0:
109,192,280575,1,0,0:0:0:0:
402,192,280650,1,0,0:0:0:0:
109,192,280700,1,0,0:0:0:0:
402,192,280750,1,0,0:0:0:0:
256,192,280800,1,0,0:0:0:0:
182,192,280800,1,0,0:0:0:0:
36,192,280800,1,0,0:0:0:0:
475,192,280800,1,0,0:0:0:0:
329,192,280875,1,0,0:0:0:0:
402,192,280875,1,0,0:0:0:0:
182,192,280950,1,0,0:0:0:0:
36,192,280950,1,0,0:0:0:0:
475,192,280950,1,0,0:0:0:0:
109,192,281025,1,0,0:0:0:0:
256,192,281025,1,0,0:0:0:0:
182,192,281100,1,0,0:0:0:0:
329,192,281100,1,0,0:0:0:0:
402,192,281100,1,0,0:0:0:0:
475,192,281100,1,0,0:0:0:0:
109,192,281175,1,0,0:0:0:0:
36,192,281175,1,0,0:0:0:0:
256,192,281250,1,0,0:0:0:0:
475,192,281250,1,0,0:0:0:0:
402,192,281250,1,0,0:0:0:0:
329,192,281325,1,0,0:0:0:0:
182,192,281325,1,0,0:0:0:0:
256,192,281400,1,0,0:0:0:0:
109,192,281400,1,0,0:0:0:0:
36,192,281400,1,0,0:0:0:0:
475,192,281400,1,0,0:0:0:0:
329,192,281475,1,0,0:0:0:0:
402,192,281475,1,0,0:0:0:0:
182,192,281550,1,0,0:0:0:0:
36,192,281550,1,0,0:0:0:0:
475,192,281550,1,0,0:0:0:0:
256,192,281625,1,0,0:0:0:0:
329,192,281625,1,0,0:0:0:0:
36,192,281700,1,0,0:0:0:0:
475,192,281700,1,0,0:0:0:0:
109,192,281700,1,0,0:0:0:0:
182,192,281700,1,0,0:0:0:0:
402,192,281737,1,0,0:0:0:0:
329,192,281775,1,0,0:0:0:0:
256,192,281812,1,0,0:0:0:0:
36,192,281850,1,0,0:0:0:0:
109,192,281875,1,0,0:0:0:0:
182,192,281900,1,0,0:0:0:0:
256,192,281925,1,0,0:0:0:0:
329,192,281950,1,0,0:0:0:0:
402,192,281975,1,0,0:0:0:0:
475,192,282000,1,0,0:0:0:0:
182,192,282000,1,0,0:0:0:0:
109,192,282000,1,0,0:0:0:0:
36,192,282000,1,0,0:0:0:0:
256,192,282075,1,0,0:0:0:0:
182,192,282150,1,0,0:0:0:0:
109,192,282150,1,0,0:0:0:0:
36,192,282150,1,0,0:0:0:0:
402,192,282150,1,0,0:0:0:0:
475,192,282150,1,0,0:0:0:0:
329,192,282225,1,0,0:0:0:0:
256,192,282300,1,0,0:0:0:0:
402,192,282300,1,0,0:0:0:0:
475,192,282300,1,0,0:0:0:0:
109,192,282300,1,0,0:0:0:0:
36,192,282300,1,0,0:0:0:0:
182,192,282375,1,0,0:0:0:0:
109,192,282450,1,0,0:0:0:0:
329,192,282450,1,0,0:0:0:0:
475,192,282450,1,0,0:0:0:0:
256,192,282525,1,0,0:0:0:0:
402,192,282600,1,0,0:0:0:0:
475,192,282600,1,0,0:0:0:0:
36,192,282600,1,0,0:0:0:0:
182,192,282600,1,0,0:0:0:0:
329,192,282675,1,0,0:0:0:0:
256,192,282675,1,0,0:0:0:0:
36,192,282750,1,0,0:0:0:0:
475,192,282750,1,0,0:0:0:0:
109,192,282750,1,0,0:0:0:0:
402,192,282750,1,0,0:0:0:0:
256,192,282825,1,0,0:0:0:0:
182,192,282825,1,0,0:0:0:0:
329,192,282900,1,0,0:0:0:0:
402,192,282900,1,0,0:0:0:0:
475,192,282900,1,0,0:0:0:0:
36,192,282900,1,0,0:0:0:0:
109,192,282975,1,0,0:0:0:0:
182,192,282975,1,0,0:0:0:0:
256,192,283050,1,0,0:0:0:0:
329,192,283050,1,0,0:0:0:0:
402,192,283050,1,0,0:0:0:0:
475,192,283050,1,0,0:0:0:0:
109,192,283125,1,0,0:0:0:0:
36,192,283125,1,0,0:0:0:0:
256,192,283200,1,0,0:0:0:0:
402,192,283200,1,0,0:0:0:0:
475,192,283200,1,0,0:0:0:0:
329,192,283200,1,0,0:0:0:0:
182,192,283200,1,0,0:0:0:0:
109,192,283275,1,0,0:0:0:0:
402,192,283350,1,0,0:0:0:0:
475,192,283350,1,0,0:0:0:0:
329,192,283350,1,0,0:0:0:0:
256,192,283350,1,0,0:0:0:0:
36,192,283350,1,0,0:0:0:0:
109,192,283425,1,0,0:0:0:0:
182,192,283425,1,0,0:0:0:0:
36,192,283500,1,0,0:0:0:0:
329,192,283500,1,0,0:0:0:0:
402,192,283500,1,0,0:0:0:0:
475,192,283500,1,0,0:0:0:0:
256,192,283575,1,0,0:0:0:0:
182,192,283575,1,0,0:0:0:0:
109,192,283650,1,0,0:0:0:0:
402,192,283650,1,0,0:0:0:0:
475,192,283650,1,0,0:0:0:0:
36,192,283650,1,0,0:0:0:0:
329,192,283725,1,0,0:0:0:0:
256,192,283725,1,0,0:0:0:0:
182,192,283800,1,0,0:0:0:0:
109,192,283800,1,0,0:0:0:0:
36,192,283800,1,0,0:0:0:0:
256,192,283875,1,0,0:0:0:0:
402,192,283875,1,0,0:0:0:0:
475,192,283875,1,0,0:0:0:0:
182,192,283950,1,0,0:0:0:0:
109,192,283950,1,0,0:0:0:0:
36,192,283950,1,0,0:0:0:0:
329,192,284025,1,0,0:0:0:0:
402,192,284025,1,0,0:0:0:0:
256,192,284100,1,0,0:0:0:0:
109,192,284100,1,0,0:0:0:0:
36,192,284100,1,0,0:0:0:0:
182,192,284175,1,0,0:0:0:0:
329,192,284175,1,0,0:0:0:0:
402,192,284175,1,0,0:0:0:0:
475,192,284250,1,0,0:0:0:0:
256,192,284250,1,0,0:0:0:0:
36,192,284250,1,0,0:0:0:0:
182,192,284325,1,0,0:0:0:0:
329,192,284325,1,0,0:0:0:0:
36,192,284400,128,0,284437:0:0:0:0:
256,192,284400,128,0,284437:0:0:0:0:
402,192,284400,128,0,284437:0:0:0:0:
475,192,284400,128,0,284437:0:0:0:0:
109,192,284475,128,0,284512:0:0:0:0:
329,192,284550,128,0,284587:0:0:0:0:
182,192,284550,128,0,284587:0:0:0:0:
402,192,284625,128,0,284662:0:0:0:0:
475,192,284700,128,0,284737:0:0:0:0:
256,192,284700,128,0,284737:0:0:0:0:
36,192,284700,128,0,284737:0:0:0:0:
182,192,284775,128,0,284812:0:0:0:0:
329,192,284850,128,0,284887:0:0:0:0:
109,192,284925,128,0,284962:0:0:0:0:
256,192,285000,128,0,285037:0:0:0:0:
402,192,285075,128,0,285112:0:0:0:0:
182,192,285150,128,0,285187:0:0:0:0:
329,192,285225,128,0,285262:0:0:0:0:
475,192,285225,128,0,285262:0:0:0:0:
109,192,285300,128,0,285337:0:0:0:0:
256,192,285375,128,0,285412:0:0:0:0:
402,192,285450,128,0,285487:0:0:0:0:
475,192,285450,128,0,285487:0:0:0:0:
109,192,285525,128,0,285562:0:0:0:0:
36,192,285525,128,0,285562:0:0:0:0:
329,192,285600,128,0,285637:0:0:0:0:
182,192,285675,128,0,285712:0:0:0:0:
402,192,285750,128,0,285787:0:0:0:0:
256,192,285825,128,0,285862:0:0:0:0:
109,192,285900,128,0,285937:0:0:0:0:
329,192,285975,128,0,286012:0:0:0:0:
182,192,286050,128,0,286087:0:0:0:0:
402,192,286125,128,0,286162:0:0:0:0:
256,192,286200,128,0,286237:0:0:0:0:
109,192,286275,128,0,286312:0:0:0:0:
329,192,286350,128,0,286387:0:0:0:0:
182,192,286425,128,0,286462:0:0:0:0:
36,192,286425,128,0,286462:0:0:0:0:
402,192,286500,128,0,286537:0:0:0:0:
256,192,286575,128,0,286612:0:0:0:0:
109,192,286650,128,0,286687:0:0:0:0:
36,192,286650,128,0,286687:0:0:0:0:
402,192,286725,128,0,286762:0:0:0:0:
475,192,286725,128,0,286762:0:0:0:0:
182,192,286800,128,0,286837:0:0:0:0:
329,192,286875,128,0,286912:0:0:0:0:
109,192,286950,128,0,286987:0:0:0:0:
256,192,287025,128,0,287062:0:0:0:0:
402,192,287100,128,0,287137:0:0:0:0:
182,192,287175,128,0,287212:0:0:0:0:
329,192,287250,128,0,287287:0:0:0:0:
109,192,287325,128,0,287362:0:0:0:0:
256,192,287400,128,0,287437:0:0:0:0:
402,192,287475,128,0,287512:0:0:0:0:
182,192,287550,128,0,287587:0:0:0:0:
329,192,287625,128,0,287662:0:0:0:0:
475,192,287625,128,0,287662:0:0:0:0:
109,192,287700,128,0,287737:0:0:0:0:
256,192,287775,128,0,287812:0:0:0:0:
402,192,287850,128,0,287887:0:0:0:0:
475,192,287850,128,0,287887:0:0:0:0:
109,192,287925,128,0,287962:0:0:0:0:
36,192,287925,128,0,287962:0:0:0:0:
329,192,288000,128,0,288037:0:0:0:0:
182,192,288075,128,0,288112:0:0:0:0:
402,192,288150,128,0,288187:0:0:0:0:
256,192,288225,128,0,288262:0:0:0:0:
109,192,288300,128,0,288337:0:0:0:0:
329,192,288375,128,0,288412:0:0:0:0:
182,192,288450,128,0,288487:0:0:0:0:
402,192,288525,128,0,288562:0:0:0:0:
256,192,288600,128,0,288637:0:0:0:0:
109,192,288675,128,0,288712:0:0:0:0:
329,192,288750,128,0,288787:0:0:0:0:
182,192,288825,128,0,288862:0:0:0:0:
36,192,288825,128,0,288862:0:0:0:0:
402,192,288900,128,0,288937:0:0:0:0:
256,192,288975,128,0,289012:0:0:0:0:
109,192,289050,128,0,289087:0:0:0:0:
36,192,289050,128,0,289087:0:0:0:0:
402,192,289125,128,0,289162:0:0:0:0:
475,192,289125,128,0,289162:0:0:0:0:
256,192,289200,128,0,291487:0:0:0:0:
36,192,291525,1,0,0:0:0:0:
109,192,291562,1,0,0:0:0:0:
182,192,291600,1,0,0:0:0:0:
256,192,291637,1,0,0:0:0:0:
329,192,291675,1,0,0:0:0:0:
402,192,291712,1,0,0:0:0:0:
475,192,291750,1,0,0:0:0:0:
402,192,291787,1,0,0:0:0:0:
329,192,291825,1,0,0:0:0:0:
256,192,291862,1,0,0:0:0:0:
182,192,291900,1,0,0:0:0:0:
109,192,291937,1,0,0:0:0:0:
36,192,291975,1,0,0:0:0:0:
109,192,292012,1,0,0:0:0:0:
182,192,292050,1,0,0:0:0:0:
256,192,292087,1,0,0:0:0:0:
329,192,292125,1,0,0:0:0:0:
402,192,292162,1,0,0:0:0:0:
475,192,292200,1,0,0:0:0:0:
402,192,292237,1,0,0:0:0:0:
329,192,292275,1,0,0:0:0:0:
256,192,292312,1,0,0:0:0:0:
182,192,292350,1,0,0:0:0:0:
109,192,292387,1,0,0:0:0:0:
36,192,292425,1,0,0:0:0:0:
109,192,292462,1,0,0:0:0:0:
182,192,292500,1,0,0:0:0:0:
256,192,292537,1,0,0:0:0:0:
329,192,292575,1,0,0:0:0:0:
402,192,292612,1,0,0:0:0:0:
475,192,292650,1,0,0:0:0:0:
402,192,292687,1,0,0:0:0:0:
329,192,292725,1,0,0:0:0:0:
256,192,292762,1,0,0:0:0:0:
182,192,292800,1,0,0:0:0:0:
109,192,292837,1,0,0:0:0:0:
36,192,292875,1,0,0:0:0:0:
109,192,292912,1,0,0:0:0:0:
182,192,292950,1,0,0:0:0:0:
256,192,292987,1,0,0:0:0:0:
329,192,293025,1,0,0:0:0:0:
402,192,293062,1,0,0:0:0:0:
475,192,293100,1,0,0:0:0:0:
402,192,293137,1,0,0:0:0:0:
329,192,293175,1,0,0:0:0:0:
256,192,293212,1,0,0:0:0:0:
182,192,293250,1,0,0:0:0:0:
109,192,293287,1,0,0:0:0:0:
36,192,293325,1,0,0:0:0:0:
109,192,293362,1,0,0:0:0:0:
182,192,293400,1,0,0:0:0:0:
256,192,293437,1,0,0:0:0:0:
329,192,293475,1,0,0:0:0:0:
402,192,293512,1,0,0:0:0:0:
329,192,293550,1,0,0:0:0:0:
256,192,293587,1,0,0:0:0:0:
182,192,293625,1,0,0:0:0:0:
109,192,293662,1,0,0:0:0:0:
182,192,293700,1,0,0:0:0:0:
256,192,293737,1,0,0:0:0:0:
329,192,293775,1,0,0:0:0:0:
402,192,293812,1,0,0:0:0:0:
329,192,293850,1,0,0:0:0:0:
256,192,293887,128,0,294000:0:0:0:0:
36,192,294000,1,0,0:0:0:0:
402,192,294000,1,0,0:0:0:0:
475,192,294000,1,0,0:0:0:0:
109,192,294000,1,0,0:0:0:0:
