osu file format v14

[General]
AudioFilename: audio.mp3
AudioLeadIn: 0
PreviewTime: 171870
Countdown: 0
SampleSet: Soft
StackLeniency: 0.7
Mode: 0
LetterboxInBreaks: 0
EpilepsyWarning: 1
WidescreenStoryboard: 1

[Editor]
Bookmarks: 20100,36120,60120,67120,84120,91120,152120,187870,195120,228120,258120,259120,260120
DistanceSpacing: 1.3
BeatDivisor: 8
GridSize: 4
TimelineZoom: 1

[Metadata]
Title:STIMULANT DRUG
TitleUnicode:STIMULANT DRUG
Artist:Laur
ArtistUnicode:Laur
Creator:Tenderz
Version:Extra
Source:
Tags:FREAKIN SOUNDS Vol.4 hardcore frenchcore
BeatmapID:1044421
BeatmapSetID:489932

[Difficulty]
HPDrainRate:5
CircleSize:4
OverallDifficulty:8
ApproachRate:9.6
SliderMultiplier:1.4
SliderTickRate:1

[Events]
//Background and Video events
0,0,"bg.png",0,0
//Break Periods
2,24320,31580
2,34320,35611
2,52319,59611
2,116320,131611
2,134445,135611
2,138445,139611
2,146320,151120
//Storyboard Layer 0 (Background)
//Storyboard Layer 1 (Fail)
//Storyboard Layer 2 (Pass)
//Storyboard Layer 3 (Foreground)
//Storyboard Sound Samples

[TimingPoints]
120,500,4,2,1,25,1,0
24120,-100,4,1,1,100,0,0
32120,8000,4,2,1,25,1,0
32120,-800,4,2,1,25,0,0
34120,500,4,2,1,25,1,0
34120,-66.6666666666667,4,2,1,25,0,0
36120,250,4,2,1,75,1,1
36120,-83.3333333333333,4,2,1,75,0,1
37370,-83.3333333333333,4,2,1,75,0,0
38370,-83.3333333333333,4,2,1,50,0,0
38620,-83.3333333333333,4,2,1,75,0,0
39745,-200,4,2,1,75,0,0
40120,-83.3333333333333,4,2,1,75,0,1
41370,-83.3333333333333,4,2,1,75,0,0
44120,-83.3333333333333,4,2,1,75,0,1
46120,-83.3333333333333,4,2,1,75,0,0
48120,-83.3333333333333,4,2,1,75,0,1
49120,-83.3333333333333,4,2,1,75,0,0
49870,-83.3333333333333,4,2,1,25,0,0
50120,-83.3333333333333,4,2,1,75,0,0
51120,4000,4,2,1,75,1,0
51120,-800,4,2,1,75,0,0
52120,250,4,2,1,75,1,0
60120,-100,4,2,1,25,0,0
62120,-100,4,2,1,40,0,0
64120,-100,4,2,1,30,0,0
65120,-100,4,2,1,25,0,0
65370,-100,4,2,1,40,0,0
65620,-100,4,2,1,60,0,0
65870,-100,4,2,1,75,0,0
66120,4000,4,2,1,25,1,0
67120,250,4,2,1,50,1,0
67870,-100,4,2,1,50,0,0
68120,-83.3333333333333,4,2,1,75,0,1
82120,-83.3333333333333,4,2,1,75,0,0
84120,-83.3333333333333,4,2,1,75,0,1
95620,-83.3333333333333,4,2,1,50,0,1
95870,-83.3333333333333,4,2,1,75,0,1
99120,-83.3333333333333,4,2,1,75,0,0
100120,-83.3333333333333,4,2,1,75,0,1
103120,-100,4,2,1,75,0,1
103870,-83.3333333333333,4,2,1,75,0,1
107120,-100,4,2,1,75,0,0
108120,-83.3333333333333,4,2,1,75,0,1
111120,-83.3333333333333,4,2,1,75,0,0
112120,-83.3333333333333,4,2,1,75,0,1
115120,-83.3333333333333,4,2,1,75,0,0
116120,-83.3333333333333,4,2,1,75,0,1
116182,-100,4,2,1,75,0,0
132120,-100,4,2,1,50,0,0
152120,-100,4,2,1,75,0,0
156120,-100,4,2,1,50,0,0
164120,-100,4,2,1,25,0,0
165120,-100,4,2,1,35,0,0
166120,-100,4,2,1,45,0,0
167120,-100,4,2,1,55,0,0
168370,-100,4,2,1,45,0,0
168870,-100,4,2,1,25,0,0
169120,-100,4,2,1,50,0,0
169370,-100,4,2,1,60,0,0
169620,-100,4,2,1,70,0,0
170120,4000,4,2,1,25,1,0
170120,-400,4,2,1,25,0,0
171120,250,4,2,1,70,1,0
171870,-100,4,2,1,50,0,0
172120,-83.3333333333333,4,2,1,75,0,1
186120,-83.3333333333333,4,2,1,75,0,0
188120,-83.3333333333333,4,2,1,75,0,1
191120,-83.3333333333333,4,2,1,75,0,0
192120,-83.3333333333333,4,2,1,75,0,1
199120,-83.3333333333333,4,2,1,75,0,0
200120,-83.3333333333333,4,2,1,75,0,1
203120,-83.3333333333333,4,2,1,75,0,0
204120,-83.3333333333333,4,2,1,75,0,1
211120,-83.3333333333333,4,2,1,75,0,0
211495,-100,4,2,1,75,0,0
212120,-83.3333333333333,4,2,1,75,0,1
215120,-83.3333333333333,4,2,1,75,0,0
216120,-83.3333333333333,4,2,1,75,0,1
217370,-83.3333333333333,4,2,1,75,0,0
218120,-83.3333333333333,4,2,1,75,0,1
219120,-83.3333333333333,4,2,1,75,0,0
227120,4000,4,2,1,75,1,0
227120,-200,4,2,1,75,0,0
227870,-200,4,2,1,25,0,0
228120,250,4,2,1,75,1,1
228120,-76.9230769230769,4,2,1,75,0,1
242120,-76.9230769230769,4,2,1,75,0,0
244120,-76.9230769230769,4,2,1,75,0,1
259120,8000,4,2,1,75,1,0
259120,-800,4,2,1,75,0,0
260120,250,4,2,1,75,1,0

[HitObjects]
256,192,6120,12,0,7870,0:0:0:0:
216,140,8120,5,0,1:0:0:0:
252,224,8370,1,0,0:0:0:0:
304,96,8620,1,0,1:0:0:0:
304,96,8870,1,0,0:0:0:0:
372,32,9120,6,0,B|397:63|392:88,1,35,0|0,0:0|0:0,0:0:0:0:
432,80,9370,2,0,L|444:128,1,35,0|0,0:0|0:0,0:0:0:0:
476,144,9620,2,0,P|480:164|480:180,1,35,0|0,1:0|0:0,0:0:0:0:
408,184,9870,2,0,L|412:228,1,35,2|0,0:0|0:0,0:0:0:0:
324,224,10245,5,2,0:0:0:0:
324,224,10370,2,0,L|272:240,1,35,0|0,0:0|0:0,0:0:0:0:
224,260,10620,1,0,1:0:0:0:
224,260,10870,1,0,0:0:0:0:
212,88,11245,5,0,0:0:0:0:
212,88,11370,2,0,L|240:108,1,35,0|0,0:0|0:0,0:0:0:0:
280,88,11620,2,0,L|332:88,1,35,0|0,1:0|0:0,0:0:0:0:
336,160,11870,2,0,L|400:160,1,35,0|0,0:0|0:0,0:0:0:0:
416,136,12120,5,0,0:0:0:0:
444,224,12370,1,0,0:0:0:0:
304,240,12620,1,0,1:0:0:0:
272,156,12870,1,0,0:0:0:0:
212,252,13120,1,0,0:0:0:0:
212,252,13495,5,0,0:0:0:0:
212,252,13620,2,0,L|188:188,1,35,0|0,1:0|0:0,0:0:0:0:
128,212,13870,2,0,L|112:168,1,35,2|0,0:0|0:0,0:0:0:0:
184,60,14245,5,2,0:0:0:0:
272,80,14495,1,0,0:0:0:0:
272,80,14620,1,0,1:0:0:0:
168,128,14870,1,0,0:0:0:0:
148,136,15245,1,0,0:0:0:0:
208,204,15495,5,0,0:0:0:0:
208,204,15620,2,0,L|272:220,1,35,0|0,1:0|0:0,0:0:0:0:
288,152,15870,2,0,L|352:172,1,35,0|0,0:0|0:0,0:0:0:0:
368,156,16120,5,0,0:0:0:0:
388,244,16370,1,0,0:0:0:0:
260,296,16620,1,0,1:0:0:0:
300,212,16870,1,0,0:0:0:0:
176,280,17120,1,2,0:0:0:0:
176,280,17495,5,0,0:0:0:0:
176,280,17620,2,0,L|192:216,1,35,0|0,1:0|0:0,0:0:0:0:
136,196,17870,2,0,L|152:148,1,35,2|0,0:0|0:0,0:0:0:0:
176,88,18245,5,2,0:0:0:0:
176,88,18495,1,0,0:0:0:0:
176,88,18620,1,0,1:0:0:0:
260,124,18870,1,0,0:0:0:0:
228,256,19245,1,0,0:0:0:0:
288,324,19495,5,0,0:0:0:0:
288,324,19620,2,0,P|312:312|320:300,1,35,0|0,1:0|0:0,0:0:0:0:
308,224,19870,2,0,L|348:208,1,35,0|0,0:0|0:0,0:0:0:0:
416,184,20120,1,0,1:0:0:0:
256,192,20245,12,0,23870,0:0:0:0:
256,192,24120,5,4,1:0:0:0:
252,188,32120,6,0,L|256:192,1,4.375,0|0,0:0|1:0,0:0:0:0:
140,136,36120,6,0,P|184:104|236:104,1,83.9999974365235,0|0,1:0|0:0,0:0:0:0:
324,200,36370,1,0,1:0:0:0:
396,72,36495,1,0,0:0:0:0:
456,240,36620,2,0,P|432:296|384:324,1,83.9999974365235,0|0,1:0|0:0,0:0:0:0:
252,240,36870,2,0,P|244:184|264:148,1,83.9999974365235,0|0,1:0|0:0,0:0:0:0:
440,148,37120,1,0,1:0:0:0:
324,200,37245,1,0,0:0:0:0:
316,324,37370,6,0,L|268:336,2,41.9999987182618,0|0|0,1:0|1:0|1:0,0:0:0:0:
344,80,37620,1,0,0:0:0:0:
344,80,37745,1,0,0:0:0:0:
348,232,37870,2,0,L|384:256,2,41.9999987182618,0|0|0,0:0|0:0|0:0,0:0:0:0:
228,56,38120,1,0,1:0:0:0:
160,272,38245,1,0,0:0:0:0:
288,160,38370,6,0,L|328:152,5,20.9999993591309,0|0|0|0|0|0,1:0|0:0|1:0|0:0|1:0|0:0,0:0:0:0:
432,144,38620,2,0,L|448:96,2,41.9999987182618,0|0|0,0:0|0:0|0:0,0:0:0:0:
468,268,38870,2,0,L|452:316,2,41.9999987182618,0|0|0,0:0|0:0|0:0,0:0:0:0:
372,208,39120,1,4,0:0:0:0:
208,112,39557,5,0,0:0:0:0:
208,112,39745,1,0,0:0:0:0:
416,196,40120,6,0,P|436:140|424:100,1,83.9999974365235,0|0,1:0|0:0,0:0:0:0:
132,196,40370,2,0,P|138:255|166:285,1,83.9999974365235,0|0,1:0|0:0,0:0:0:0:
276,296,40620,1,0,1:0:0:0:
340,144,40745,1,0,0:0:0:0:
364,268,40870,1,0,1:0:0:0:
240,112,40995,1,0,0:0:0:0:
431,117,41120,5,0,1:0:0:0:
264,200,41245,1,0,0:0:0:0:
460,252,41370,2,0,L|456:320,3,41.9999987182618,0|0|0|0,1:0|1:0|1:0|1:0,0:0:0:0:
356,268,41620,2,0,L|324:324,3,41.9999987182618,0|0|0|0,0:0|0:0|0:0|0:0,0:0:0:0:
236,272,41870,2,0,L|180:296,3,41.9999987182618,0|0|0|0,0:0|0:0|0:0|0:0,0:0:0:0:
196,184,42120,2,0,L|164:144,3,41.9999987182618,0|0|0|0,1:0|0:0|0:0|0:0,0:0:0:0:
264,104,42370,2,0,L|312:60,3,41.9999987182618,0|0|0|0,1:0|1:0|1:0|1:0,0:0:0:0:
344,72,42620,5,0,1:0:0:0:
384,108,42682,1,0,1:0:0:0:
408,156,42745,1,0,1:0:0:0:
412,208,42807,1,0,1:0:0:0:
388,264,42870,1,0,1:0:0:0:
340,296,42932,1,0,1:0:0:0:
280,308,42995,1,0,1:0:0:0:
224,300,43057,1,0,1:0:0:0:
176,268,43120,1,4,0:0:0:0:
176,204,43995,5,0,0:0:0:0:
144,204,44057,1,0,0:0:0:0:
120,192,44120,2,0,P|140:132|184:104,1,83.9999974365235,0|0,1:0|0:0,0:0:0:0:
400,248,44370,2,0,P|388:296|340:332,1,83.9999974365235,0|0,1:0|0:0,0:0:0:0:
304,120,44620,1,0,1:0:0:0:
452,176,44745,1,0,0:0:0:0:
288,232,44870,1,0,1:0:0:0:
384,80,44995,1,0,0:0:0:0:
280,324,45120,6,0,P|228:316|192:280,1,83.9999974365235,2|0,1:2|0:0,0:0:0:0:
224,48,45370,1,0,0:0:0:0:
252,276,45495,2,0,P|203:253|180:207,1,83.9999974365235,2|0,1:2|0:0,0:0:0:0:
264,24,45745,1,0,0:0:0:0:
356,232,45870,5,0,1:0:0:0:
306,236,45932,1,0,1:0:0:0:
255,224,45995,1,0,1:0:0:0:
210,204,46057,1,0,1:0:0:0:
185,160,46120,6,0,P|219:120|276:117,1,83.9999974365235,0|0,1:0|0:0,0:0:0:0:
349,121,46370,1,0,0:0:0:0:
418,193,46495,1,0,0:0:0:0:
422,295,46620,1,0,0:0:0:0:
351,364,46745,1,0,0:0:0:0:
252,356,46870,2,0,L|264:300,2,41.9999987182618,0|0|0,0:0|0:0|0:0,0:0:0:0:
172,292,47120,1,4,0:0:0:0:
128,96,48120,6,0,L|216:76,1,83.9999974365235,0|0,1:0|0:0,0:0:0:0:
388,248,48370,2,0,L|300:268,1,83.9999974365235,0|0,1:0|0:0,0:0:0:0:
140,304,48620,1,0,1:0:0:0:
232,172,48745,1,0,0:0:0:0:
388,248,48870,1,0,1:0:0:0:
196,180,48995,1,0,0:0:0:0:
364,52,49120,2,0,L|320:44,3,41.9999987182618,0|0|0|0,0:0|0:0|0:0|0:0,0:0:0:0:
360,160,49370,2,0,L|368:208,3,41.9999987182618,0|0|0|0,0:0|0:0|0:0|0:0,0:0:0:0:
248,84,49620,2,0,P|168:104|140:188,1,167.999994873047,0|0,1:0|0:0,0:0:0:0:
248,328,50120,6,0,L|256:272,1,41.9999987182618,0|0,1:0|0:0,0:0:0:0:
300,296,50245,2,0,L|304:248,1,41.9999987182618,0|0,0:0|0:0,0:0:0:0:
348,256,50370,2,0,L|344:212,1,41.9999987182618,0|0,0:0|0:0,0:0:0:0:
388,216,50495,2,0,L|380:172,1,41.9999987182618,0|0,0:0|0:0,0:0:0:0:
344,120,50620,5,0,1:0:0:0:
312,112,50682,1,0,1:0:0:0:
280,108,50745,1,0,1:0:0:0:
248,108,50807,1,0,1:0:0:0:
216,112,50870,1,0,1:0:0:0:
184,120,50932,1,0,1:0:0:0:
152,136,50995,1,0,1:0:0:0:
127,158,51057,1,0,1:0:0:0:
109,190,51120,6,0,L|107:193,1,4.375,0|4,0:0|1:0,0:0:0:0:
80,71,60120,6,0,P|120:51|152:51,1,70,0|0,0:0|0:0,0:0:0:0:
88,175,60370,2,0,P|118:141|148:130,1,70,0|0,0:0|0:0,0:0:0:0:
136,275,60620,2,0,P|144:231|164:205,1,70,0|0,0:0|0:0,0:0:0:0:
232,328,60870,2,0,P|211:288|210:255,1,70,0|0,0:0|0:0,0:0:0:0:
388,296,61120,6,0,P|396:256|428:224,1,70,0|0,0:0|0:0,0:0:0:0:
336,216,61370,2,0,P|357:181|399:163,1,70,0|0,0:0|0:0,0:0:0:0:
316,124,61620,2,0,P|348:99|393:97,1,70,0|0,0:0|0:0,0:0:0:0:
336,32,61870,2,0,P|375:22|418:37,1,70,0|0,0:0|0:0,0:0:0:0:
464,116,62120,6,0,L|480:204,1,70,0|0,0:0|0:0,0:0:0:0:
288,344,62370,2,0,L|275:275,1,70,0|0,0:0|0:0,0:0:0:0:
408,80,62620,2,0,L|424:168,1,70,0|0,0:0|0:0,0:0:0:0:
224,320,62870,2,0,L|211:251,1,70,0|0,0:0|0:0,0:0:0:0:
320,36,63120,2,0,P|344:72|352:104,1,70,0|0,0:0|0:0,0:0:0:0:
140,288,63371,2,0,P|133:253|135:218,1,70,0|0,0:0|0:0,0:0:0:0:
412,52,63620,2,0,P|428:112|420:144,1,70,0|0,0:0|0:0,0:0:0:0:
216,112,63870,1,0,0:0:0:0:
216,112,63995,1,0,0:0:0:0:
352,192,64120,6,0,P|336:236|300:264,1,70,0|0,1:0|0:0,0:0:0:0:
136,92,64370,2,0,P|160:51|200:31,1,70,0|0,1:0|0:0,0:0:0:0:
292,208,64620,2,0,P|260:242|216:253,1,70,0|0,1:0|0:0,0:0:0:0:
196,87,64870,2,0,P|233:59|279:56,1,70,0|0,1:0|0:0,0:0:0:0:
308,148,65120,6,0,L|264:164,3,35,0|0|0|0,1:0|1:0|1:0|1:0,0:0:0:0:
320,104,65370,2,0,L|364:88,3,35,0|0|0|0,1:0|1:0|1:0|1:0,0:0:0:0:
296,192,65620,2,0,L|252:208,3,35,0|0|0|0,1:0|1:0|1:0|1:0,0:0:0:0:
340,64,65870,2,0,L|384:48,3,35,0|0|0|0,0:0|0:0|0:0|0:0,0:0:0:0:
280,236,66120,6,0,L|252:248,1,26.25,0|0,0:1|0:0,0:0:0:0:
152,64,67120,6,0,L|228:60,1,70,0|0,0:0|0:0,0:0:0:0:
116,180,67370,2,0,L|188:152,1,70,0|0,0:0|0:0,0:0:0:0:
108,324,67620,2,0,L|164:272,1,70,0|0,0:0|0:0,0:0:0:0:
344,108,67870,5,2,1:2:0:0:
344,108,67995,1,0,0:0:0:0:
320,332,68120,6,0,L|196:344,1,83.9999974365235,0|0,1:0|0:0,0:0:0:0:
88,76,68370,2,0,L|212:64,1,83.9999974365235,0|0,1:0|0:0,0:0:0:0:
284,192,68620,1,0,1:0:0:0:
176,284,68745,1,0,0:0:0:0:
196,92,68870,1,0,1:0:0:0:
376,192,68995,1,0,0:0:0:0:
176,196,69120,6,0,L|80:156,1,83.9999974365235,0|0,1:0|0:0,0:0:0:0:
344,12,69370,2,0,P|364:64|360:104,1,83.9999974365235,0|0,1:0|0:0,0:0:0:0:
256,260,69620,1,0,1:0:0:0:
196,80,69745,1,0,0:0:0:0:
372,264,69870,1,0,1:0:0:0:
372,264,69995,1,0,1:0:0:0:
160,348,70120,6,0,P|132:308|128:268,1,83.9999974365235,0|0,1:0|0:0,0:0:0:0:
372,168,70370,2,0,P|432:192|452:232,1,83.9999974365235,0|0,1:0|0:0,0:0:0:0:
384,344,70620,1,0,1:0:0:0:
252,244,70745,1,0,0:0:0:0:
364,84,70870,1,0,1:0:0:0:
400,108,70932,1,0,1:0:0:0:
424,148,70995,1,0,1:0:0:0:
440,192,71057,1,0,1:0:0:0:
432,248,71120,6,0,L|384:268,2,41.9999987182618,0|0|0,0:0|0:0|0:0,0:0:0:0:
300,168,71370,2,0,L|248:152,2,41.9999987182618,0|0|0,1:0|0:0|0:0,0:0:0:0:
260,52,71620,5,2,0:0:0:0:
364,84,71745,1,2,0:0:0:0:
472,120,71870,1,2,0:0:0:0:
472,120,71995,1,2,0:0:0:0:
384,276,72120,6,0,L|284:312,1,83.9999974365235,0|0,1:0|0:0,0:0:0:0:
88,224,72370,2,0,B|104:192|104:192|176:164,1,83.9999974365235,0|0,1:0|0:0,0:0:0:0:
312,276,72620,2,0,L|212:312,1,83.9999974365235,0|0,1:0|0:0,0:0:0:0:
52,144,72870,1,0,1:0:0:0:
224,84,72995,1,0,0:0:0:0:
224,84,73057,1,0,0:0:0:0:
224,84,73120,6,0,L|316:104,1,83.9999974365235,2|0,1:2|0:0,0:0:0:0:
160,304,73370,1,0,0:0:0:0:
292,72,73495,2,0,L|380:60,1,83.9999974365235,2|0,1:2|0:0,0:0:0:0:
232,288,73745,2,0,L|180:300,5,41.9999987182618,2|0|0|0|0|0,0:0|0:0|0:0|0:0|0:0|0:0,0:0:0:0:
304,316,74120,6,0,P|304:260|284:232,1,83.9999974365235,0|0,1:0|0:0,0:0:0:0:
104,200,74370,2,0,L|60:216,3,41.9999987182618,0|0|0|0,0:0|0:0|0:0|0:0,0:0:0:0:
152,104,74620,2,0,P|176:112|200:128,3,41.9999987182618,2|0|2|0,0:0|0:0|0:0|0:0,0:0:0:0:
300,88,74870,2,0,P|308:112|308:140,3,41.9999987182618,2|0|2|0,0:0|0:0|0:0|0:0,0:0:0:0:
380,216,75120,6,0,B|368:272|368:272|316:300,1,83.9999974365235,0|0,0:0|0:0,0:0:0:0:
452,260,75370,2,0,L|484:352,1,83.9999974365235,0|0,1:0|0:0,0:0:0:0:
248,332,75620,2,0,P|220:280|232:232,1,83.9999974365235,0|0,1:0|0:0,0:0:0:0:
344,144,75870,1,2,1:2:0:0:
344,144,75995,1,0,0:0:0:0:
200,36,76120,6,0,P|144:72|128:112,1,83.9999974365235,0|0,1:0|0:0,0:0:0:0:
184,240,76370,1,0,1:0:0:0:
276,88,76495,1,0,0:0:0:0:
128,104,76620,1,0,1:0:0:0:
232,236,76745,1,0,0:0:0:0:
380,164,76870,1,0,1:0:0:0:
256,76,76995,1,0,0:0:0:0:
124,244,77120,6,0,P|140:312|176:340,1,83.9999974365235,0|0,1:0|0:0,0:0:0:0:
380,164,77370,2,0,P|321:126|275:131,1,83.9999974365235,0|0,1:0|0:0,0:0:0:0:
128,124,77620,1,0,1:0:0:0:
147,321,77745,1,0,0:0:0:0:
152,148,77870,1,0,1:0:0:0:
360,252,77995,1,0,0:0:0:0:
360,252,78057,1,0,0:0:0:0:
360,252,78120,6,0,P|368:192|356:160,1,83.9999974365235,2|0,1:2|0:0,0:0:0:0:
76,280,78370,1,0,0:0:0:0:
420,113,78495,2,0,P|385:91|344:92,1,83.9999974365235,2|0,1:2|0:0,0:0:0:0:
164,296,78745,1,2,0:0:0:0:
212,276,78807,1,0,0:0:0:0:
236,228,78870,1,0,0:0:0:0:
220,176,78932,1,0,0:0:0:0:
172,148,78995,1,0,0:0:0:0:
120,160,79057,1,0,0:0:0:0:
92,208,79120,5,0,1:0:0:0:
228,356,79245,1,0,0:0:0:0:
408,296,79370,2,0,L|432:248,3,41.9999987182618,0|0|0|0,0:0|0:0|0:0|0:0,0:0:0:0:
400,108,79620,6,0,L|368:104,5,20.9999993591309,0|0|0|0|0|0,0:0|0:0|0:0|0:0|0:0|0:0,0:0:0:0:
280,56,79870,2,0,L|224:48,3,41.9999987182618,0|0|0|0,0:0|0:0|0:0|0:0,0:0:0:0:
148,72,80120,6,0,P|108:104|100:156,1,83.9999974365235,0|0,1:0|0:0,0:0:0:0:
380,272,80370,2,0,L|364:160,1,83.9999974365235,0|0,1:0|0:0,0:0:0:0:
176,144,80620,1,0,1:0:0:0:
224,304,80745,1,0,0:0:0:0:
380,272,80870,1,0,1:0:0:0:
152,236,80995,1,0,0:0:0:0:
384,164,81120,5,0,1:0:0:0:
364,112,81182,1,0,1:0:0:0:
324,72,81245,1,0,1:0:0:0:
280,44,81307,1,0,1:0:0:0:
228,28,81370,1,0,1:0:0:0:
172,32,81432,1,0,1:0:0:0:
124,56,81495,1,0,1:0:0:0:
88,96,81557,1,0,1:0:0:0:
68,148,81620,1,0,1:0:0:0:
68,204,81682,1,0,1:0:0:0:
92,256,81745,1,0,1:0:0:0:
128,296,81807,1,0,1:0:0:0:
180,312,81870,1,0,1:0:0:0:
236,308,81932,1,0,1:0:0:0:
288,288,81995,1,0,1:0:0:0:
324,248,82057,1,0,1:0:0:0:
336,196,82120,1,4,0:1:0:0:
320,104,83870,5,2,1:2:0:0:
224,344,83995,1,0,0:0:0:0:
264,160,84120,6,0,P|208:156|168:168,1,83.9999974365235,0|0,1:0|0:0,0:0:0:0:
296,304,84370,2,0,P|345:288|380:243,1,83.9999974365235,0|0,1:0|0:0,0:0:0:0:
404,136,84620,1,0,1:0:0:0:
296,44,84745,1,0,0:0:0:0:
300,188,84870,1,0,1:0:0:0:
472,208,84995,1,0,0:0:0:0:
388,48,85120,5,0,1:0:0:0:
224,96,85245,1,0,0:0:0:0:
316,272,85370,2,0,P|360:248|376:208,1,83.9999974365235,0|0,1:0|0:0,0:0:0:0:
152,52,85620,1,0,1:0:0:0:
64,196,85745,1,0,0:0:0:0:
224,248,85870,1,0,1:0:0:0:
224,248,85995,1,0,1:0:0:0:
328,148,86120,6,0,L|308:56,1,83.9999974365235,0|0,1:0|0:0,0:0:0:0:
92,248,86370,2,0,L|168:320,1,83.9999974365235,0|0,1:0|0:0,0:0:0:0:
304,284,86620,1,0,1:0:0:0:
320,112,86745,1,0,0:0:0:0:
96,140,86870,1,0,1:0:0:0:
68,188,86932,1,0,1:0:0:0:
60,244,86995,1,0,1:0:0:0:
80,292,87057,1,0,1:0:0:0:
128,316,87120,6,0,L|184:328,2,41.9999987182618,0|0|0,0:0|0:0|0:0,0:0:0:0:
320,192,87370,2,0,L|368:176,2,41.9999987182618,0|0|0,1:0|0:0|0:0,0:0:0:0:
148,60,87620,2,0,L|88:40,2,41.9999987182618,2|0|2,0:0|0:0|0:0,0:0:0:0:
252,96,87870,1,2,0:0:0:0:
252,96,87995,1,2,0:0:0:0:
264,260,88120,6,0,P|312:284|352:276,1,83.9999974365235,0|0,1:0|0:0,0:0:0:0:
444,72,88370,2,0,P|396:52|340:68,1,83.9999974365235,0|0,1:0|0:0,0:0:0:0:
344,216,88620,1,0,1:0:0:0:
456,96,88745,1,0,0:0:0:0:
416,288,88870,1,0,1:0:0:0:
324,60,88995,1,0,0:0:0:0:
287,77,89057,1,0,0:0:0:0:
263,113,89120,2,0,L|251:205,1,83.9999974365235,2|0,1:2|0:0,0:0:0:0:
284,324,89370,6,0,L|252:364,2,41.9999987182618,2|0|0,0:1|0:0|1:0,0:0:0:0:
396,176,89620,1,2,0:0:0:0:
396,176,89745,1,2,0:0:0:0:
392,268,89870,5,0,0:0:0:0:
348,244,89932,1,0,0:0:0:0:
300,232,89995,1,0,0:0:0:0:
252,236,90057,1,0,0:0:0:0:
204,256,90120,6,0,P|164:292|152:348,1,83.9999974365235,0|0,1:0|0:0,0:0:0:0:
464,232,90370,1,0,0:0:0:0:
160,168,90495,2,0,P|152:240|164:272,1,83.9999974365235,0|0,1:0|0:0,0:0:0:0:
464,308,90745,1,2,0:0:0:0:
300,120,90870,1,0,1:0:0:0:
260,92,90932,1,0,1:0:0:0:
216,68,90995,1,0,1:0:0:0:
168,52,91057,1,0,1:0:0:0:
116,56,91120,5,2,1:0:0:0:
80,220,91245,1,0,0:0:0:0:
236,176,91370,1,2,1:0:0:0:
280,328,91495,1,0,0:0:0:0:
364,192,91620,5,2,1:0:0:0:
160,320,91745,1,0,0:0:0:0:
320,84,91870,1,2,1:0:0:0:
320,84,91995,1,0,0:0:0:0:
320,312,92120,6,0,P|348:276|359:227,1,83.9999974365235,0|0,1:0|0:0,0:0:0:0:
152,68,92370,2,0,P|152:120|184:164,1,83.9999974365235,0|0,1:0|0:0,0:0:0:0:
420,228,92620,2,0,P|404:172|372:144,1,83.9999974365235,0|0,1:0|0:0,0:0:0:0:
188,236,92870,1,0,1:0:0:0:
336,304,92995,1,0,0:0:0:0:
476,148,93120,2,0,P|464:100|432:68,1,83.9999974365235,0|0,1:0|0:0,0:0:0:0:
224,112,93370,2,0,L|292:176,1,83.9999974365235,0|0,1:0|0:0,0:0:0:0:
444,228,93620,1,0,1:0:0:0:
364,80,93745,1,0,0:0:0:0:
376,276,93870,1,0,1:0:0:0:
284,168,93995,5,0,0:0:0:0:
232,184,94057,1,0,0:0:0:0:
180,204,94120,2,0,P|136:244|132:292,1,83.9999974365235,0|0,1:0|0:0,0:0:0:0:
380,320,94370,2,0,L|456:272,1,83.9999974365235,0|0,1:0|0:0,0:0:0:0:
120,152,94620,2,0,L|32:208,1,83.9999974365235,2|2,1:2|0:0,0:0:0:0:
376,228,94870,5,0,0:0:0:0:
396,176,94932,1,0,0:0:0:0:
400,120,94995,1,0,0:0:0:0:
388,68,95057,1,0,0:0:0:0:
356,24,95120,1,0,1:0:0:0:
276,152,95245,1,0,0:0:0:0:
196,280,95370,6,0,P|236:308|252:308,3,41.9999987182618,0|0|0|0,0:0|0:0|0:0|0:0,0:0:0:0:
288,236,95620,2,0,L|324:228,6,20.9999993591309,0|0|0|0|0|0|0,1:0|0:0|1:0|0:0|1:0|0:0|1:0,0:0:0:0:
400,200,95870,2,0,P|396:168|388:152,3,41.9999987182618,0|0|0|0,0:0|0:0|0:0|0:0,0:0:0:0:
460,112,96120,6,0,P|440:64|404:36,1,83.9999974365235,0|0,1:0|0:0,0:0:0:0:
244,116,96370,1,0,1:0:0:0:
460,136,96495,1,0,0:0:0:0:
280,208,96620,1,0,1:0:0:0:
444,280,96745,1,0,0:0:0:0:
256,304,96870,1,0,1:0:0:0:
448,140,96995,1,0,0:0:0:0:
288,40,97120,6,0,L|320:96,3,41.9999987182618,0|0|0|0,1:0|0:0|0:0|0:0,0:0:0:0:
204,152,97370,2,0,L|180:200,3,41.9999987182618,0|0|0|0,0:0|0:0|0:0|0:0,0:0:0:0:
352,216,97620,2,0,L|384:272,3,41.9999987182618,0|0|0|0,1:0|0:0|0:0|0:0,0:0:0:0:
456,112,97870,2,0,L|400:24,1,83.9999974365235,0|0,0:0|0:0,0:0:0:0:
232,40,98120,6,0,L|184:56,3,41.9999987182618,0|0|0|0,1:0|1:0|1:0|1:0,0:0:0:0:
212,120,98370,2,0,L|176:168,3,41.9999987182618,0|0|0|0,1:0|1:0|1:0|1:0,0:0:0:0:
260,188,98620,2,0,L|268:244,3,41.9999987182618,0|0|0|0,1:0|1:0|1:0|1:0,0:0:0:0:
344,220,98870,2,0,L|424:224,3,41.9999987182618,0|0|0|0,1:0|1:0|1:0|1:0,0:0:0:0:
480,224,99120,1,4,0:1:0:0:
176,80,100120,6,0,B|144:124|144:124|156:168,1,83.9999974365235,0|0,1:0|0:0,0:0:0:0:
360,352,100370,2,0,P|364:300|332:252,1,83.9999974365235,0|0,1:0|0:0,0:0:0:0:
76,127,100620,5,0,1:0:0:0:
232,296,100745,1,0,0:0:0:0:
97,95,100870,2,0,P|157:75|189:87,1,83.9999974365235,0|0,1:0|0:0,0:0:0:0:
300,236,101120,1,0,1:0:0:0:
440,212,101245,5,0,0:0:0:0:
472,168,101307,1,0,0:0:0:0:
468,112,101370,1,0,1:0:0:0:
292,40,101495,1,0,0:0:0:0:
280,240,101620,1,0,1:0:0:0:
384,96,101745,1,0,1:0:0:0:
172,164,101870,2,0,P|151:200|144:241,1,83.9999974365235,0|0,0:0|0:0,0:0:0:0:
440,256,102120,5,0,1:0:0:0:
440,256,102245,1,0,0:0:0:0:
224,128,102370,2,0,P|272:112|312:120,1,83.9999974365235,0|0,1:0|0:0,0:0:0:0:
320,316,102620,1,0,1:0:0:0:
320,316,102745,1,0,0:0:0:0:
184,276,102870,5,0,1:0:0:0:
148,236,102932,1,0,0:0:0:0:
124,188,102995,1,0,0:0:0:0:
128,132,103057,1,0,0:0:0:0:
152,88,103120,6,0,B|184:61|184:61|301:45|330:107|330:107|285:198|360:252,1,350,2|0,1:0|0:0,0:0:0:0:
432,168,103870,5,2,1:2:0:0:
264,304,103995,1,0,0:0:0:0:
284,136,104120,6,0,P|224:131|181:154,1,83.9999974365235,0|0,1:0|0:0,0:0:0:0:
364,336,104370,2,0,P|424:336|448:320,1,83.9999974365235,0|0,1:0|0:0,0:0:0:0:
380,140,104620,1,0,1:0:0:0:
284,280,104745,1,0,0:0:0:0:
284,280,104870,1,0,1:0:0:0:
228,132,104995,1,0,0:0:0:0:
128,324,105120,1,0,1:0:0:0:
156,204,105245,5,0,0:0:0:0:
208,196,105307,1,0,0:0:0:0:
264,212,105370,1,0,1:0:0:0:
360,296,105495,1,0,0:0:0:0:
336,136,105620,2,0,P|296:112|224:112,1,83.9999974365235,0|0,1:0|1:0,0:0:0:0:
84,132,105870,1,0,0:0:0:0:
148,296,105995,1,0,0:0:0:0:
196,316,106057,1,0,0:0:0:0:
248,304,106120,1,0,1:0:0:0:
352,160,106245,5,0,0:0:0:0:
212,208,106370,2,0,P|200:264|200:296,1,83.9999974365235,0|0,1:0|0:0,0:0:0:0:
332,332,106620,1,0,1:0:0:0:
432,224,106745,1,0,0:0:0:0:
268,136,106870,1,2,0:0:0:0:
268,136,106995,1,2,0:0:0:0:
240,328,107120,6,0,B|280:345|333:332|333:332|328:268|384:260,2,175,2|0|0,1:0|0:0|0:0,0:0:0:0:
131,159,108120,5,0,1:0:0:0:
240,328,108245,1,0,0:0:0:0:
404,220,108370,2,0,P|412:160|400:116,1,83.9999974365235,0|0,1:0|0:0,0:0:0:0:
156,256,108620,1,0,1:0:0:0:
156,256,108745,1,0,0:0:0:0:
304,116,108870,2,0,P|268:80|208:64,1,83.9999974365235,0|0,1:0|0:0,0:0:0:0:
244,228,109120,1,0,1:0:0:0:
376,300,109245,5,0,0:0:0:0:
424,276,109307,1,0,0:0:0:0:
452,228,109370,1,0,1:0:0:0:
384,72,109495,1,0,0:0:0:0:
292,304,109620,1,0,1:0:0:0:
208,60,109745,1,0,1:0:0:0:
164,312,109870,2,0,B|156:340|156:340|92:352,1,83.9999974365235,0|0,0:0|0:0,0:0:0:0:
232,136,110120,6,0,L|336:112,1,83.9999974365235,0|0,1:0|0:0,0:0:0:0:
276,344,110370,1,0,0:0:0:0:
320,44,110495,2,0,L|428:64,1,83.9999974365235,0|0,1:0|0:0,0:0:0:0:
352,332,110745,5,0,0:0:0:0:
396,300,110807,1,0,0:0:0:0:
404,244,110870,1,0,1:0:0:0:
372,200,110932,1,0,1:0:0:0:
320,180,110995,1,0,1:0:0:0:
288,136,111057,1,0,1:0:0:0:
288,80,111120,1,2,1:0:0:0:
196,304,112120,5,0,1:0:0:0:
148,112,112245,1,0,0:0:0:0:
360,160,112370,2,0,B|376:216|376:216|368:264,1,83.9999974365235,0|0,1:0|0:0,0:0:0:0:
132,224,112620,1,0,1:0:0:0:
248,80,112745,1,0,0:0:0:0:
456,152,112870,2,0,P|472:216|460:256,1,83.9999974365235,0|0,1:0|0:0,0:0:0:0:
296,312,113120,5,0,1:0:0:0:
188,156,113245,1,0,0:0:0:0:
164,108,113307,1,0,0:0:0:0:
164,52,113370,1,0,1:0:0:0:
364,12,113495,1,0,0:0:0:0:
344,232,113620,1,0,1:0:0:0:
152,220,113745,1,0,1:0:0:0:
288,144,113870,1,0,0:0:0:0:
256,288,113995,1,0,0:0:0:0:
216,324,114057,1,0,0:0:0:0:
168,340,114120,6,0,P|120:340|64:308,1,83.9999974365235,0|0,1:0|0:0,0:0:0:0:
128,204,114370,1,0,0:0:0:0:
168,340,114495,1,0,0:0:0:0:
312,348,114620,2,0,L|372:336,3,41.9999987182618,0|0|0|0,0:0|0:0|0:0|0:0,0:0:0:0:
408,252,114870,2,0,L|432:212,2,41.9999987182618,0|0|0,0:0|0:0|0:0,0:0:0:0:
384,120,115120,1,2,0:1:0:0:
344,120,116120,5,4,1:0:0:0:
128,280,132120,5,12,1:0:0:0:
256,192,132245,12,0,134245,0:0:0:0:
368,104,136120,5,12,1:0:0:0:
256,192,136245,12,0,138245,0:0:0:0:
96,72,140120,5,12,1:0:0:0:
256,192,140245,12,0,142245,0:0:0:0:
416,312,144120,5,12,1:0:0:0:
256,192,144245,12,0,146120,0:0:0:0:
256,192,152120,5,14,1:0:0:0:
256,192,152245,12,0,154245,0:0:0:0:
256,192,154370,12,0,155995,0:0:0:0:
324,152,156120,6,0,P|334:201|271:270,1,140,8|0,1:0|0:0,0:0:0:0:
288,48,156620,2,0,P|372:52|416:100,1,140,8|0,1:0|0:0,0:0:0:0:
208,192,157120,2,0,P|128:198|93:153,1,140,8|0,1:0|0:0,0:0:0:0:
336,180,157620,6,0,L|376:244,1,70,0|0,1:0|0:0,0:0:0:0:
280,368,157870,2,0,L|240:300,1,70,8|0,1:0|0:0,0:0:0:0:
172,116,158120,6,0,P|184:68|280:40,1,140,8|0,1:0|0:0,0:0:0:0:
312,208,158620,2,0,L|388:336,1,140,8|0,1:0|0:0,0:0:0:0:
136,240,159120,2,0,L|64:116,1,140,8|0,1:0|0:0,0:0:0:0:
248,140,159620,6,0,L|328:128,1,70,0|0,1:0|0:0,0:0:0:0:
352,256,159870,2,0,L|428:272,1,70,0|0,1:0|0:0,0:0:0:0:
400,104,160120,6,0,P|360:56|280:56,1,140,8|0,1:0|0:0,0:0:0:0:
248,248,160620,2,0,P|260:320|312:360,1,140,8|0,1:0|0:0,0:0:0:0:
168,140,161120,2,0,P|125:192|119:267,1,140,8|0,1:0|0:0,0:0:0:0:
384,252,161620,5,0,1:0:0:0:
384,252,161745,1,0,0:0:0:0:
456,152,161870,2,0,P|416:128|372:132,1,70,8|0,1:0|0:0,0:0:0:0:
264,232,162120,6,0,P|216:280|144:272,1,140,8|0,1:0|0:0,0:0:0:0:
168,112,162620,2,0,B|196:76|196:76|248:60|304:60,1,140,8|0,1:0|0:0,0:0:0:0:
488,144,163120,2,0,B|471:186|471:186|425:216|371:231,1,140,8|0,1:0|0:0,0:0:0:0:
204,248,163620,5,0,1:0:0:0:
204,248,163745,1,0,0:0:0:0:
276,152,163870,2,0,P|308:128|348:116,1,70,8|0,1:0|0:0,0:0:0:0:
388,228,164120,5,0,1:0:0:0:
324,304,164370,1,0,1:0:0:0:
232,332,164620,1,0,1:0:0:0:
124,312,164870,1,0,1:0:0:0:
256,252,165120,5,0,1:0:0:0:
152,208,165370,1,0,1:0:0:0:
100,108,165620,1,0,1:0:0:0:
120,0,165870,1,0,1:0:0:0:
272,80,166120,5,0,1:0:0:0:
388,128,166370,1,0,1:0:0:0:
444,240,166620,1,0,1:0:0:0:
424,364,166870,1,0,1:0:0:0:
352,48,167120,5,0,1:0:0:0:
296,160,167370,1,0,1:0:0:0:
172,184,167620,1,0,1:0:0:0:
56,176,167870,1,0,1:0:0:0:
56,176,167995,1,0,1:0:0:0:
148,284,168120,5,0,1:0:0:0:
268,212,168370,1,0,1:0:0:0:
284,64,168620,1,0,1:0:0:0:
384,252,168870,1,0,1:0:0:0:
432,84,169120,6,0,L|444:40,3,35,0|0|0|0,0:0|0:0|0:0|0:0,0:0:0:0:
352,160,169370,2,0,L|348:112,3,35,0|0|0|0,0:0|0:0|0:0|0:0,0:0:0:0:
384,252,169620,2,0,L|424:220,3,35,0|0|0|0,0:0|0:0|0:0|0:0,0:0:0:0:
300,324,169870,2,0,L|288:292,3,35,0|0|0|0,0:0|0:0|0:0|0:0,0:0:0:0:
396,356,170120,6,0,L|400:352,1,6.5625,2|0,0:1|0:0,0:0:0:0:
360,64,171120,6,0,L|284:60,1,70,0|0,0:0|0:0,0:0:0:0:
396,180,171370,2,0,L|324:152,1,70,0|0,0:0|0:0,0:0:0:0:
404,324,171620,2,0,L|348:272,1,70,0|0,0:0|0:0,0:0:0:0:
196,136,171870,5,2,1:2:0:0:
196,136,171995,1,0,0:0:0:0:
60,280,172120,6,0,P|120:324|160:324,1,83.9999974365235,0|0,1:0|0:0,0:0:0:0:
264,284,172370,1,0,1:0:0:0:
264,284,172495,1,0,0:0:0:0:
188,40,172620,2,0,P|160:100|164:144,1,83.9999974365235,0|0,1:0|0:0,0:0:0:0:
392,204,172870,2,0,P|404:156|396:116,1,83.9999974365235,0|0,1:0|0:0,0:0:0:0:
256,148,173120,1,0,1:0:0:0:
132,244,173245,1,0,0:0:0:0:
260,184,173370,1,0,1:0:0:0:
132,244,173495,1,0,0:0:0:0:
312,272,173620,2,0,L|408:320,1,83.9999974365235,2|0,1:2|0:0,0:0:0:0:
460,168,173870,5,0,1:0:0:0:
424,132,173932,1,0,1:0:0:0:
380,100,173995,1,0,1:0:0:0:
332,72,174057,1,0,1:0:0:0:
280,56,174120,2,0,L|188:92,1,83.9999974365235,0|0,1:0|0:0,0:0:0:0:
96,236,174370,2,0,B|132:244|132:244|188:220,1,83.9999974365235,0|0,1:0|0:0,0:0:0:0:
372,204,174620,2,0,P|376:264|348:304,1,83.9999974365235,0|0,1:0|0:0,0:0:0:0:
192,364,174870,5,0,0:0:0:0:
140,372,174932,1,0,0:0:0:0:
84,360,174995,1,0,0:0:0:0:
40,328,175057,1,0,0:0:0:0:
24,276,175120,2,0,L|32:180,1,83.9999974365235,0|0,1:0|0:0,0:0:0:0:
224,68,175370,2,0,B|204:92|204:92|196:164,1,83.9999974365235,0|0,0:0|0:0,0:0:0:0:
280,316,175620,1,2,0:0:0:0:
380,136,175745,1,0,0:0:0:0:
180,248,175870,1,2,0:0:0:0:
460,200,175995,1,2,0:0:0:0:
320,224,176120,5,0,1:0:0:0:
320,224,176245,1,0,1:0:0:0:
320,224,176370,2,0,P|284:176|276:136,1,83.9999974365235,0|0,1:0|0:0,0:0:0:0:
376,52,176620,2,0,L|476:84,1,83.9999974365235,0|0,1:0|0:0,0:0:0:0:
488,232,176870,1,0,1:0:0:0:
344,328,176995,1,0,0:0:0:0:
288,332,177057,1,0,0:0:0:0:
232,332,177120,6,0,P|180:296|164:260,1,83.9999974365235,2|0,1:2|0:0,0:0:0:0:
444,160,177370,1,0,0:0:0:0:
88,296,177495,2,0,P|64:252|64:192,1,83.9999974365235,2|0,1:2|0:0,0:0:0:0:
248,224,177745,1,0,0:0:0:0:
348,152,177870,1,0,0:0:0:0:
348,152,177932,1,0,0:0:0:0:
348,152,177995,1,0,0:0:0:0:
348,152,178057,1,0,0:0:0:0:
348,152,178120,6,0,P|368:104|340:52,1,83.9999974365235,0|0,1:0|0:0,0:0:0:0:
144,56,178370,2,0,B|88:68|80:132,1,83.9999974365235,0|0,1:0|0:0,0:0:0:0:
60,272,178620,1,0,1:0:0:0:
244,208,178745,1,0,0:0:0:0:
140,236,178870,1,0,1:0:0:0:
160,272,178932,1,0,1:0:0:0:
192,300,178995,1,0,1:0:0:0:
232,312,179057,1,0,1:0:0:0:
276,308,179120,6,0,P|332:268|108:148,1,503.999984619141,0|0,0:0|0:0,0:0:0:0:
80,320,179995,1,0,0:0:0:0:
80,320,180120,6,0,P|123:311|153:266,1,83.9999974365235,14|0,1:0|0:0,0:0:0:0:
204,96,180370,1,0,1:0:0:0:
252,280,180495,1,0,0:0:0:0:
324,136,180620,1,0,1:0:0:0:
332,300,180745,1,0,0:0:0:0:
440,132,180870,1,0,1:0:0:0:
416,288,180995,1,0,0:0:0:0:
388,84,181120,6,0,P|356:60|288:60,1,83.9999974365235,0|0,1:0|0:0,0:0:0:0:
120,116,181370,2,0,L|164:192,1,83.9999974365235,0|0,1:0|0:0,0:0:0:0:
229,304,181620,1,2,1:2:0:0:
400,252,181745,1,0,0:0:0:0:
352,64,181870,1,0,1:0:0:0:
312,100,181932,1,0,1:0:0:0:
300,156,181995,1,0,1:0:0:0:
312,208,182057,1,0,1:0:0:0:
296,260,182120,6,0,B|248:304|248:304|192:304,1,83.9999974365235,0|0,1:0|0:0,0:0:0:0:
152,88,182370,2,0,B|212:64|212:64|264:84,1,83.9999974365235,0|0,1:0|0:0,0:0:0:0:
368,136,182620,1,0,1:0:0:0:
420,304,182745,1,0,0:0:0:0:
220,288,182870,1,0,1:0:0:0:
360,184,182995,1,0,0:0:0:0:
392,344,183120,1,0,1:0:0:0:
156,340,183245,5,2,0:0:0:0:
132,292,183307,1,2,0:0:0:0:
148,240,183370,1,2,0:0:0:0:
304,112,183495,5,0,0:0:0:0:
184,28,183620,1,2,0:1:0:0:
88,132,183745,1,2,0:1:0:0:
184,216,183870,1,2,0:1:0:0:
272,124,183995,1,0,0:0:0:0:
204,52,184120,5,0,1:0:0:0:
204,52,184245,1,0,1:0:0:0:
204,52,184370,2,0,P|252:28|316:40,1,83.9999974365235,0|0,1:0|0:0,0:0:0:0:
384,168,184620,1,0,1:0:0:0:
224,264,184745,1,0,0:0:0:0:
312,128,184870,1,0,1:0:0:0:
424,264,184995,5,0,1:0:0:0:
404,316,185057,1,0,1:0:0:0:
360,352,185120,1,0,1:0:0:0:
200,324,185245,1,0,1:0:0:0:
136,152,185370,1,0,1:0:0:0:
280,236,185495,1,0,0:0:0:0:
221,98,185620,2,0,P|180:63|26:162,1,251.999992309571,2|0,1:0|0:0,0:0:0:0:
72,232,186120,1,4,0:1:0:0:
192,300,187870,5,2,1:2:0:0:
308,60,187995,1,0,0:0:0:0:
392,152,188120,5,0,1:0:0:0:
392,152,188245,1,0,0:0:0:0:
328,332,188370,2,0,P|264:340|230:315,1,83.9999974365235,0|0,1:0|0:0,0:0:0:0:
392,152,188620,1,0,1:0:0:0:
400,296,188745,1,0,0:0:0:0:
248,332,188870,1,0,1:0:0:0:
280,148,188995,1,0,0:0:0:0:
360,272,189120,5,0,1:0:0:0:
184,232,189245,1,0,0:0:0:0:
304,84,189370,1,0,1:0:0:0:
320,248,189495,1,0,0:0:0:0:
108,268,189620,2,0,P|104:224|132:168,1,83.9999974365235,2|0,1:2|0:0,0:0:0:0:
200,44,189870,5,0,1:0:0:0:
252,60,189932,1,0,1:0:0:0:
284,108,189995,1,0,1:0:0:0:
288,164,190057,1,0,1:0:0:0:
296,220,190120,2,0,P|332:256|380:256,1,83.9999974365235,0|0,1:0|0:0,0:0:0:0:
484,112,190370,2,0,P|448:84|388:88,1,83.9999974365235,0|0,1:0|0:0,0:0:0:0:
312,276,190620,2,0,P|372:292|396:276,1,83.9999974365235,0|0,1:0|0:0,0:0:0:0:
388,120,190870,5,0,0:0:0:0:
336,100,190932,1,0,0:0:0:0:
280,104,190995,1,0,0:0:0:0:
228,124,191057,1,0,0:0:0:0:
196,168,191120,1,4,1:0:0:0:
280,328,192120,5,0,1:0:0:0:
280,328,192245,1,0,1:0:0:0:
320,168,192370,1,0,1:0:0:0:
204,248,192495,1,0,0:0:0:0:
104,112,192620,1,0,1:0:0:0:
24,228,192745,1,0,0:0:0:0:
204,160,192870,1,0,1:0:0:0:
324,328,192995,5,0,0:0:0:0:
376,332,193057,1,0,0:0:0:0:
428,312,193120,2,0,B|440:260|440:260|424:224,1,83.9999974365235,0|0,0:0|0:0,0:0:0:0:
356,104,193370,2,0,L|372:56,2,41.9999987182618,0|0|0,1:0|0:0|0:0,0:0:0:0:
304,265,193620,1,2,0:0:0:0:
304,265,193745,1,2,0:0:0:0:
112,184,193870,5,0,0:0:0:0:
108,240,193932,1,0,0:0:0:0:
136,288,193995,1,0,0:0:0:0:
184,316,194057,1,0,0:0:0:0:
240,312,194120,2,0,B|284:296|284:296|308:260,1,83.9999974365235,0|0,1:0|0:0,0:0:0:0:
424,56,194370,2,0,L|304:64,1,83.9999974365235,0|0,1:0|0:0,0:0:0:0:
172,76,194620,1,0,1:0:0:0:
172,76,194745,1,0,0:0:0:0:
140,272,194870,5,0,1:0:0:0:
184,304,194932,1,0,1:0:0:0:
240,312,194995,1,0,1:0:0:0:
292,300,195057,1,0,1:0:0:0:
336,272,195120,5,2,1:0:0:0:
396,160,195245,1,0,0:0:0:0:
292,88,195370,1,2,1:0:0:0:
292,284,195495,1,0,0:0:0:0:
412,128,195620,1,2,1:0:0:0:
228,72,195745,1,0,0:0:0:0:
264,208,195870,1,2,1:0:0:0:
264,208,195995,1,0,0:0:0:0:
320,96,196120,5,14,1:0:0:0:
320,96,196245,1,0,0:0:0:0:
180,48,196370,1,0,1:0:0:0:
216,188,196495,1,0,0:0:0:0:
357,165,196620,2,0,P|341:113|305:89,1,83.9999974365235,0|0,1:0|0:0,0:0:0:0:
260,344,196870,2,0,L|364:368,1,83.9999974365235,0|0,1:0|0:0,0:0:0:0:
416,200,197120,2,0,P|424:148|408:108,1,83.9999974365235,0|0,1:0|0:0,0:0:0:0:
304,60,197370,1,0,1:0:0:0:
184,136,197495,1,0,0:0:0:0:
376,280,197620,2,0,L|488:292,1,83.9999974365235,2|0,1:2|0:0,0:0:0:0:
336,136,197870,5,0,1:0:0:0:
292,104,197932,1,0,1:0:0:0:
240,92,197995,1,0,1:0:0:0:
184,88,198057,1,0,1:0:0:0:
136,112,198120,2,0,P|120:168|124:212,1,83.9999974365235,0|0,1:0|0:0,0:0:0:0:
228,308,198370,1,0,1:0:0:0:
204,168,198495,1,0,0:0:0:0:
304,68,198620,2,0,L|384:128,1,83.9999974365235,0|0,1:0|0:0,0:0:0:0:
480,216,198870,5,0,1:0:0:0:
464,268,198932,1,0,0:0:0:0:
428,308,198995,1,0,0:0:0:0:
380,336,199057,1,0,0:0:0:0:
324,344,199120,6,0,B|184:328|184:172|184:172|184:240|128:268|128:268|144:352|216:384,1,503.999984619141,4|0,1:0|0:0,0:0:0:0:
116,176,200120,5,0,1:0:0:0:
396,96,200245,1,0,1:0:0:0:
116,180,200370,2,0,P|120:240|160:272,1,83.9999974365235,0|0,1:0|0:0,0:0:0:0:
432,264,200620,2,0,P|428:208|384:164,1,83.9999974365235,0|0,1:0|0:0,0:0:0:0:
256,152,200870,1,0,1:0:0:0:
216,312,200995,5,0,1:0:0:0:
272,328,201057,1,0,1:0:0:0:
328,312,201120,1,0,1:0:0:0:
424,112,201245,1,0,1:0:0:0:
480,248,201370,1,0,1:0:0:0:
272,68,201495,1,0,0:0:0:0:
144,248,201620,2,0,P|128:288|128:332,1,83.9999974365235,2|0,1:2|0:0,0:0:0:0:
256,192,201870,1,0,1:0:0:0:
232,144,201932,1,0,1:0:0:0:
192,108,201995,1,0,1:0:0:0:
144,84,202057,1,0,1:0:0:0:
88,80,202120,2,0,P|56:124|48:168,1,83.9999974365235,0|0,1:0|0:0,0:0:0:0:
256,192,202370,12,4,203120,0:1:0:0:
261,322,204120,5,0,1:0:0:0:
328,84,204245,1,0,0:0:0:0:
261,322,204370,2,0,P|321:318|361:290,1,83.9999974365235,0|0,1:0|0:0,0:0:0:0:
128,168,204620,5,0,1:0:0:0:
328,84,204745,1,0,0:0:0:0:
92,136,204870,2,0,P|48:178|43:229,1,83.9999974365235,0|0,1:0|0:0,0:0:0:0:
224,320,205120,2,0,P|264:292|284:256,1,83.9999974365235,0|0,1:0|0:0,0:0:0:0:
276,208,205307,1,0,0:0:0:0:
268,152,205370,1,0,1:0:0:0:
140,44,205495,1,0,0:0:0:0:
32,220,205620,1,0,1:0:0:0:
248,60,205745,1,0,1:0:0:0:
128,228,205870,1,0,0:0:0:0:
340,112,205995,1,0,0:0:0:0:
352,232,206120,5,0,1:0:0:0:
352,232,206245,1,0,0:0:0:0:
196,136,206370,2,0,P|150:112|83:126,1,83.9999974365235,0|0,1:0|0:0,0:0:0:0:
24,220,206620,1,0,1:0:0:0:
156,292,206745,1,0,0:0:0:0:
304,144,206870,1,0,1:0:0:0:
356,132,206932,1,0,0:0:0:0:
412,140,206995,1,0,0:0:0:0:
452,172,207057,1,0,0:0:0:0:
464,220,207120,2,0,B|476:264|428:340|360:312|360:312|288:368|148:336|140:264,1,419.999987182618,2|0,1:0|0:0,0:0:0:0:
136,140,207870,5,2,1:2:0:0:
136,140,207995,1,0,0:0:0:0:
352,64,208120,5,0,1:0:0:0:
216,112,208245,1,0,0:0:0:0:
384,68,208370,2,0,P|416:112|420:160,1,83.9999974365235,0|0,1:0|0:0,0:0:0:0:
240,296,208620,1,0,1:0:0:0:
416,180,208745,1,0,0:0:0:0:
216,284,208870,2,0,P|188:237|189:193,1,83.9999974365235,0|0,1:0|0:0,0:0:0:0:
272,44,209120,5,0,1:0:0:0:
112,116,209245,1,0,0:0:0:0:
80,160,209308,1,0,0:0:0:0:
68,212,209370,1,0,1:0:0:0:
252,84,209495,1,0,0:0:0:0:
336,180,209620,2,0,P|283:213|235:208,1,83.9999974365235,0|0,1:0|1:0,0:0:0:0:
296,60,209870,1,0,0:0:0:0:
464,176,209995,5,0,0:0:0:0:
492,132,210057,1,0,0:0:0:0:
484,76,210120,2,0,B|472:56|472:56|388:32,1,83.9999974365235,0|0,1:0|0:0,0:0:0:0:
168,180,210370,2,0,P|192:212|232:232,1,83.9999974365235,0|0,1:0|0:0,0:0:0:0:
384,252,210620,1,0,1:0:0:0:
316,76,210745,1,0,0:0:0:0:
80,144,210870,1,2,0:0:0:0:
80,144,210995,1,2,0:0:0:0:
236,116,211120,1,2,1:0:0:0:
228,136,212120,5,0,1:0:0:0:
164,272,212245,1,0,0:0:0:0:
28,168,212370,2,0,P|57:116|83:104,1,83.9999974365235,0|0,1:0|0:0,0:0:0:0:
236,128,212620,1,0,1:0:0:0:
312,264,212745,1,0,0:0:0:0:
444,140,212870,1,0,1:0:0:0:
324,40,212995,1,0,0:0:0:0:
312,264,213120,5,0,1:0:0:0:
392,324,213245,1,0,0:0:0:0:
392,324,213307,1,0,0:0:0:0:
392,324,213370,1,0,1:0:0:0:
360,184,213495,1,0,0:0:0:0:
212,320,213620,1,0,1:0:0:0:
440,244,213745,1,0,1:0:0:0:
280,120,213870,2,0,P|210:131|185:162,1,83.9999974365235,0|0,0:0|0:0,0:0:0:0:
76,328,214120,6,0,P|136:348|172:344,1,83.9999974365235,2|0,1:2|0:0,0:0:0:0:
200,52,214370,1,0,0:0:0:0:
248,316,214495,2,0,P|288:280|292:236,1,83.9999974365235,2|0,1:2|0:0,0:0:0:0:
92,52,214745,1,0,0:0:0:0:
48,232,214870,5,0,0:0:0:0:
76,288,214932,1,0,0:0:0:0:
132,320,214995,1,0,0:0:0:0:
196,328,215057,1,0,0:0:0:0:
248,316,215120,1,2,0:1:0:0:
293,252,215495,5,0,0:0:0:0:
152,116,215745,1,0,0:0:0:0:
392,284,216120,5,0,1:0:0:0:
392,284,216245,1,0,0:0:0:0:
232,40,216370,1,0,1:0:0:0:
164,240,216495,1,0,0:0:0:0:
368,184,216620,5,0,1:0:0:0:
368,184,216745,1,0,0:0:0:0:
232,40,216870,5,0,1:0:0:0:
300,112,216995,1,0,0:0:0:0:
240,192,217120,1,0,1:0:0:0:
156,140,217245,2,0,P|112:144|69:172,1,83.9999974365235,0|0,0:0|1:0,0:0:0:0:
240,192,217495,1,0,0:0:0:0:
152,196,218120,6,0,P|172:188|204:192,7,41.9999987182618,0|0|0|0|0|0|0|0,1:0|0:0|0:0|0:0|0:0|0:0|0:0|0:0,0:0:0:0:
156,252,218620,5,0,1:0:0:0:
212,280,218682,1,0,1:0:0:0:
276,280,218745,1,0,1:0:0:0:
332,248,218807,1,0,1:0:0:0:
360,192,218870,1,0,1:0:0:0:
360,128,218932,1,0,1:0:0:0:
324,76,218995,1,0,1:0:0:0:
268,52,219057,1,0,1:0:0:0:
204,52,219120,1,0,1:0:0:0:
204,52,220120,5,14,1:0:0:0:
184,68,221120,1,0,0:0:0:0:
168,88,222120,1,0,0:0:0:0:
156,112,223120,1,0,0:0:0:0:
152,140,224120,5,0,0:0:0:0:
152,172,225120,1,0,0:0:0:0:
164,200,226120,1,0,0:0:0:0:
184,228,227120,2,0,L|200:228,1,13.125,2|0,0:1|0:0,0:0:0:0:
344,224,228120,6,0,P|380:192|384:136,1,90.9999958343508,0|0,1:0|0:0,0:0:0:0:
300,36,228370,1,0,1:0:0:0:
164,88,228495,1,0,0:0:0:0:
160,304,228620,2,0,P|212:312|252:292,1,90.9999958343508,0|0,1:0|0:0,0:0:0:0:
264,136,228870,1,0,1:0:0:0:
160,304,228995,1,0,0:0:0:0:
328,360,229120,2,0,P|352:312|348:268,1,90.9999958343508,0|0,1:0|0:0,0:0:0:0:
160,192,229370,2,0,P|144:136|152:100,1,90.9999958343508,0|0,1:0|0:0,0:0:0:0:
320,32,229620,1,0,1:0:0:0:
436,152,229745,1,0,0:0:0:0:
264,192,229870,1,0,1:0:0:0:
264,192,229995,1,0,1:0:0:0:
64,168,230120,6,0,L|48:64,1,90.9999958343508,0|0,1:0|0:0,0:0:0:0:
296,160,230370,2,0,L|312:256,1,90.9999958343508,0|0,1:0|0:0,0:0:0:0:
176,308,230620,1,0,1:0:0:0:
296,160,230745,1,0,0:0:0:0:
320,324,230870,1,0,1:0:0:0:
376,340,230932,1,0,1:0:0:0:
432,316,230995,1,0,1:0:0:0:
464,268,231057,1,0,1:0:0:0:
456,208,231120,6,0,L|416:176,3,45.4999979171754,0|0|0|0,0:0|0:0|0:0|0:0,0:0:0:0:
332,112,231370,2,0,L|364:72,3,45.4999979171754,0|0|0|0,1:0|0:0|0:0|0:0,0:0:0:0:
180,124,231620,2,0,P|184:156|204:180,2,45.4999979171754,2|0|2,0:0|0:0|0:0,0:0:0:0:
336,236,231870,2,0,P|320:264|293:279,2,45.4999979171754,2|0|2,0:0|0:0|0:0,0:0:0:0:
224,52,232120,6,0,P|156:44|108:76,1,90.9999958343508,0|0,1:0|0:0,0:0:0:0:
60,232,232370,1,0,1:0:0:0:
208,192,232495,1,0,0:0:0:0:
56,80,232620,1,0,1:0:0:0:
124,264,232745,1,0,0:0:0:0:
284,224,232870,1,0,1:0:0:0:
124,264,232995,1,0,0:0:0:0:
124,264,233057,1,0,0:0:0:0:
124,264,233120,6,0,P|164:296|212:304,1,90.9999958343508,2|0,1:2|0:0,0:0:0:0:
416,72,233370,1,0,0:0:0:0:
180,128,233495,2,0,B|176:160|176:160|200:228,1,90.9999958343508,2|0,1:2|0:0,0:0:0:0:
425,154,233745,2,0,L|408:112,5,45.4999979171754,2|0|0|0|0|0,0:0|0:0|0:0|0:0|0:0|0:0,0:0:0:0:
440,304,234120,6,0,B|399:345|399:345|332:332,1,90.9999958343508,0|0,1:0|0:0,0:0:0:0:
308,100,234370,1,0,0:0:0:0:
320,272,234495,1,0,0:0:0:0:
392,44,234620,6,0,P|444:56|452:52,3,45.4999979171754,2|0|2|0,0:0|0:0|0:0|0:0,0:0:0:0:
372,168,234870,2,0,P|392:192|416:200,3,45.4999979171754,2|0|2|0,0:0|0:0|0:0|0:0,0:0:0:0:
236,168,235120,6,0,L|184:352,1,181.999991668702,0|0,0:0|1:0,0:0:0:0:
168,52,235620,2,0,L|132:172,1,90.9999958343508,0|0,1:0|0:0,0:0:0:0:
96,276,235870,1,2,1:2:0:0:
268,52,235995,1,0,0:0:0:0:
112,228,236120,5,0,1:0:0:0:
112,228,236245,1,0,0:0:0:0:
276,328,236370,2,0,P|339:303|365:266,1,90.9999958343508,0|0,1:0|0:0,0:0:0:0:
352,92,236620,2,0,P|280:104|260:128,1,90.9999958343508,0|0,1:0|0:0,0:0:0:0:
212,248,236870,1,0,1:0:0:0:
372,292,236995,1,0,0:0:0:0:
188,220,237120,2,0,P|156:164|152:108,1,90.9999958343508,0|0,1:0|0:0,0:0:0:0:
240,16,237370,1,0,1:0:0:0:
389,69,237495,1,0,0:0:0:0:
296,220,237620,1,0,1:0:0:0:
408,340,237745,1,0,0:0:0:0:
296,220,237870,1,0,1:0:0:0:
464,224,237995,5,0,0:0:0:0:
480,168,238057,1,0,0:0:0:0:
468,112,238120,2,0,B|436:84|436:84|372:64,1,90.9999958343508,2|0,1:2|0:0,0:0:0:0:
220,324,238370,1,0,0:0:0:0:
376,140,238495,2,0,L|276:108,1,90.9999958343508,2|0,1:2|0:0,0:0:0:0:
136,276,238745,1,2,0:0:0:0:
392,188,238870,5,0,0:0:0:0:
400,248,238932,1,0,0:0:0:0:
380,303,238995,1,0,0:0:0:0:
336,343,239057,1,0,0:0:0:0:
276,351,239120,2,0,P|241:311|237:266,1,90.9999958343508,0|0,1:0|0:0,0:0:0:0:
261,143,239370,1,0,0:0:0:0:
276,351,239495,1,0,0:0:0:0:
170,134,239620,6,0,L|148:100,6,22.7499989585877,0|0|0|0|0|0|0,0:0|0:0|0:0|0:0|0:0|0:0|0:0,0:0:0:0:
86,172,239870,2,0,L|35:151,3,45.4999979171754,0|0|0|0,0:0|0:0|0:0|0:0,0:0:0:0:
240,256,240120,6,0,P|304:252|328:232,1,90.9999958343508,0|0,1:0|0:0,0:0:0:0:
408,100,240370,1,0,1:0:0:0:
236,40,240495,1,0,0:0:0:0:
152,232,240620,1,0,1:0:0:0:
276,16,240745,1,0,0:0:0:0:
416,236,240870,2,0,P|401:292|369:320,1,90.9999958343508,0|0,1:0|0:0,0:0:0:0:
160,308,241120,5,0,1:0:0:0:
104,288,241182,1,0,1:0:0:0:
60,248,241245,1,0,1:0:0:0:
44,192,241307,1,0,1:0:0:0:
56,136,241370,1,0,1:0:0:0:
92,92,241432,1,0,1:0:0:0:
148,72,241495,1,0,1:0:0:0:
208,76,241557,1,0,1:0:0:0:
260,108,241620,1,0,1:0:0:0:
280,164,241682,1,0,1:0:0:0:
272,224,241745,1,0,1:0:0:0:
292,280,241807,1,0,1:0:0:0:
344,308,241870,1,0,1:0:0:0:
404,312,241932,1,0,1:0:0:0:
460,288,241995,1,0,1:0:0:0:
488,236,242057,1,0,1:0:0:0:
488,176,242120,1,4,0:1:0:0:
172,68,244120,6,0,P|112:108|104:152,1,90.9999958343508,0|0,1:0|0:0,0:0:0:0:
172,264,244370,1,0,1:0:0:0:
324,228,244495,1,0,0:0:0:0:
72,56,244620,6,0,P|30:114|38:158,1,90.9999958343508,0|0,1:0|0:0,0:0:0:0:
136,276,244870,1,0,1:0:0:0:
308,256,244995,1,0,0:0:0:0:
432,80,245120,2,0,P|384:52|328:52,1,90.9999958343508,0|0,1:0|0:0,0:0:0:0:
232,160,245370,1,0,1:0:0:0:
282,300,245495,1,0,0:0:0:0:
312,124,245620,1,0,1:0:0:0:
152,52,245745,1,0,0:0:0:0:
312,124,245870,1,0,1:0:0:0:
312,124,245995,1,0,1:0:0:0:
456,184,246120,6,0,B|460:232|460:232|432:304,1,90.9999958343508,0|0,1:0|0:0,0:0:0:0:
160,316,246370,2,0,B|156:268|156:268|184:196,1,90.9999958343508,0|0,1:0|0:0,0:0:0:0:
308,156,246620,1,0,1:0:0:0:
280,320,246745,1,0,0:0:0:0:
340,132,246870,1,0,1:0:0:0:
304,84,246932,1,0,1:0:0:0:
252,56,246995,1,0,1:0:0:0:
196,40,247057,1,0,1:0:0:0:
136,48,247120,2,0,L|116:92,3,45.4999979171754,0|0|0|0,0:0|0:0|0:0|0:0,0:0:0:0:
208,144,247370,2,0,L|252:184,3,45.4999979171754,0|0|0|0,1:0|0:0|0:0|0:0,0:0:0:0:
320,248,247620,5,2,0:0:0:0:
320,248,247745,1,2,0:0:0:0:
320,248,247870,1,2,0:0:0:0:
124,304,248120,6,0,L|48:232,1,90.9999958343508,0|0,1:0|0:0,0:0:0:0:
148,60,248370,1,0,1:0:0:0:
240,252,248495,1,0,0:0:0:0:
316,108,248620,1,0,1:0:0:0:
495,158,248745,1,0,0:0:0:0:
376,320,248870,1,0,1:0:0:0:
392,168,248995,1,0,0:0:0:0:
400,108,249057,1,0,0:0:0:0:
396,48,249120,6,0,P|356:16|288:12,1,90.9999958343508,2|0,1:2|0:0,0:0:0:0:
152,232,249370,1,0,0:0:0:0:
452,176,249495,2,0,P|432:129|384:104,1,90.9999958343508,2|0,1:2|0:0,0:0:0:0:
198,155,249745,1,2,0:0:0:0:
72,272,249870,6,0,L|108:312,3,45.4999979171754,0|0|0|0,0:0|0:0|0:0|0:0,0:0:0:0:
192,308,250120,6,0,L|292:292,1,90.9999958343508,0|0,1:0|0:0,0:0:0:0:
424,272,250370,2,0,L|472:300,3,45.4999979171754,0|0|0|0,0:0|0:0|0:0|0:0,0:0:0:0:
405,139,250620,1,2,0:0:0:0:
405,139,250745,1,2,0:0:0:0:
274,71,250870,1,2,0:0:0:0:
274,71,250995,1,2,0:0:0:0:
144,220,251120,6,0,P|160:296|280:308,1,181.999991668702,0|0,0:0|1:0,0:0:0:0:
340,100,251495,1,0,0:0:0:0:
96,144,251620,2,0,P|52:200|56:248,1,90.9999958343508,0|0,1:0|0:0,0:0:0:0:
112,360,251870,5,2,1:2:0:0:
184,136,251995,1,0,0:0:0:0:
336,244,252120,6,0,P|384:208|392:172,1,90.9999958343508,0|0,1:0|0:0,0:0:0:0:
128,40,252370,2,0,P|96:92|104:140,1,90.9999958343508,0|0,1:0|0:0,0:0:0:0:
156,264,252620,1,0,1:0:0:0:
248,140,252745,1,0,0:0:0:0:
300,320,252870,1,0,1:0:0:0:
460,256,252995,1,0,0:0:0:0:
292,96,253120,6,0,B|250:136|250:136|246:187,1,90.9999958343508,0|0,1:0|0:0,0:0:0:0:
460,256,253370,2,0,L|464:136,1,90.9999958343508,0|0,1:0|0:0,0:0:0:0:
172,156,253620,2,0,P|187:218|236:249,1,90.9999958343508,0|0,1:0|0:0,0:0:0:0:
420,328,253870,1,0,1:0:0:0:
324,160,253995,5,0,0:0:0:0:
284,116,254057,1,0,0:0:0:0:
244,72,254120,2,0,B|208:36|208:36|148:40,1,90.9999958343508,0|0,1:2|0:0,0:0:0:0:
64,216,254370,2,0,L|128:288,1,90.9999958343508,0|0,0:0|1:2,0:0:0:0:
304,264,254620,1,0,0:0:0:0:
200,148,254745,1,2,0:0:0:0:
360,72,254870,1,0,0:0:0:0:
412,100,254932,1,0,0:0:0:0:
452,144,254995,1,0,0:0:0:0:
484,196,255057,1,0,0:0:0:0:
496,256,255120,6,0,L|456:300,2,45.4999979171754,0|0|0,1:0|0:0|0:0,0:0:0:0:
328,324,255370,2,0,L|272:312,3,45.4999979171754,0|0|0|0,0:0|0:0|0:0|0:0,0:0:0:0:
184,112,255620,1,0,0:0:0:0:
60,288,255745,1,0,0:0:0:0:
100,136,255870,1,0,0:0:0:0:
100,136,255995,1,0,0:0:0:0:
152,284,256120,6,0,L|264:312,1,90.9999958343508,0|0,1:0|0:0,0:0:0:0:
384,116,256370,2,0,P|332:84|288:76,1,90.9999958343508,0|0,1:0|0:0,0:0:0:0:
168,156,256620,1,0,1:0:0:0:
256,284,256745,1,0,0:0:0:0:
400,148,256870,1,0,1:0:0:0:
264,192,256995,5,0,0:0:0:0:
260,252,257057,1,0,0:0:0:0:
252,312,257120,2,0,P|300:344|336:340,1,90.9999958343508,0|0,1:0|0:0,0:0:0:0:
160,104,257370,2,0,P|135:146|135:188,1,90.9999958343508,0|0,1:0|0:0,0:0:0:0:
344,232,257620,1,0,1:0:0:0:
428,120,257745,1,0,0:0:0:0:
160,104,257870,1,2,1:0:0:0:
160,104,258120,5,0,1:0:0:0:
220,112,258182,1,0,1:0:0:0:
280,100,258245,1,0,1:0:0:0:
328,64,258307,1,0,1:0:0:0:
384,48,258370,1,0,1:0:0:0:
440,60,258432,1,0,1:0:0:0:
484,100,258495,1,0,1:0:0:0:
504,156,258557,1,0,1:0:0:0:
504,216,258620,1,0,1:0:0:0:
480,268,258682,1,0,1:0:0:0:
436,308,258745,1,0,1:0:0:0:
380,324,258807,1,0,1:0:0:0:
320,316,258870,1,0,1:0:0:0:
268,288,258932,1,0,1:0:0:0:
240,236,258995,1,0,1:0:0:0:
232,176,259057,1,0,1:0:0:0:
248,128,259120,6,0,L|250:127,1,2.1875,2|4,0:1|1:1,0:0:0:0:
