osu file format v14

[General]
AudioFilename: audio.mp3
AudioLeadIn: 0
PreviewTime: 5644
Countdown: 1
SampleSet: None
StackLeniency: 0.7
Mode: 3
LetterboxInBreaks: 0
SpecialStyle: 0
WidescreenStoryboard: 0

[Editor]
DistanceSpacing: 0.6
BeatDivisor: 4
GridSize: 16
TimelineZoom: 1.8

[Metadata]
Title:Rebuilding of Paradise Lost
TitleUnicode:Rebuilding of Paradise Lost
Artist:Laur
ArtistUnicode:Laur
Creator:Wonki
Version:Heavenly
Source:SOUND VOLTEX IV HEAVENLY HAVEN
Tags:
BeatmapID:1775367
BeatmapSetID:849008

[Difficulty]
HPDrainRate:8
CircleSize:4
OverallDifficulty:8
ApproachRate:5
SliderMultiplier:1.4
SliderTickRate:1

[Events]
//Background and Video events
0,0,"chrome_2018-09-15_10-06-06.jpg",0,0
//Break Periods
//Storyboard Layer 0 (Background)
//Storyboard Layer 1 (Fail)
//Storyboard Layer 2 (Pass)
//Storyboard Layer 3 (Foreground)
//Storyboard Sound Samples

[TimingPoints]
5644,315.789473684211,4,1,0,0,1,0
98328,214.285714285714,4,1,0,0,1,0
98328,-149.253731343284,4,1,0,0,0,0

[HitObjects]
64,192,5644,5,0,0:0:0:0:
320,192,5644,1,0,0:0:0:0:
192,192,5801,1,0,0:0:0:0:
448,192,5959,1,0,0:0:0:0:
64,192,6117,1,0,0:0:0:0:
192,192,6275,1,0,0:0:0:0:
448,192,6433,1,0,0:0:0:0:
64,192,6591,1,0,0:0:0:0:
448,192,6749,1,0,0:0:0:0:
64,192,6907,1,0,0:0:0:0:
448,192,7065,1,0,0:0:0:0:
64,192,7222,1,0,0:0:0:0:
320,192,7380,1,0,0:0:0:0:
64,192,7538,1,0,0:0:0:0:
320,192,7696,1,0,0:0:0:0:
64,192,7854,1,0,0:0:0:0:
320,192,8012,1,0,0:0:0:0:
448,192,8170,1,0,0:0:0:0:
192,192,8170,1,0,0:0:0:0:
320,192,8328,1,0,0:0:0:0:
64,192,8486,1,0,0:0:0:0:
448,192,8644,1,0,0:0:0:0:
320,192,8801,1,0,0:0:0:0:
64,192,8959,1,0,0:0:0:0:
448,192,9117,1,0,0:0:0:0:
192,192,9275,1,0,0:0:0:0:
448,192,9433,1,0,0:0:0:0:
64,192,9591,1,0,0:0:0:0:
448,192,9749,1,0,0:0:0:0:
192,192,9907,1,0,0:0:0:0:
448,192,10065,1,0,0:0:0:0:
192,192,10222,1,0,0:0:0:0:
448,192,10380,1,0,0:0:0:0:
192,192,10538,1,0,0:0:0:0:
64,192,10696,1,0,0:0:0:0:
320,192,10696,1,0,0:0:0:0:
192,192,10854,1,0,0:0:0:0:
64,192,11012,1,0,0:0:0:0:
320,192,11170,1,0,0:0:0:0:
192,192,11328,1,0,0:0:0:0:
64,192,11486,1,0,0:0:0:0:
320,192,11644,1,0,0:0:0:0:
192,192,11801,1,0,0:0:0:0:
64,192,11959,1,0,0:0:0:0:
192,192,12117,1,0,0:0:0:0:
320,192,12275,1,0,0:0:0:0:
64,192,12433,1,0,0:0:0:0:
192,192,12591,1,0,0:0:0:0:
320,192,12749,1,0,0:0:0:0:
192,192,12907,1,0,0:0:0:0:
448,192,13065,1,0,0:0:0:0:
64,192,13222,1,0,0:0:0:0:
320,192,13222,1,0,0:0:0:0:
192,192,13380,1,0,0:0:0:0:
64,192,13538,1,0,0:0:0:0:
320,192,13696,1,0,0:0:0:0:
192,192,13854,1,0,0:0:0:0:
64,192,14012,1,0,0:0:0:0:
320,192,14170,1,0,0:0:0:0:
192,192,14328,1,0,0:0:0:0:
64,192,14486,1,0,0:0:0:0:
320,192,14486,1,0,0:0:0:0:
64,192,14644,1,0,0:0:0:0:
448,192,14644,1,0,0:0:0:0:
192,192,14801,1,0,0:0:0:0:
320,192,14801,1,0,0:0:0:0:
320,192,14959,1,0,0:0:0:0:
192,192,14959,1,0,0:0:0:0:
64,192,15117,1,0,0:0:0:0:
448,192,15117,1,0,0:0:0:0:
320,192,15275,1,0,0:0:0:0:
64,192,15275,1,0,0:0:0:0:
192,192,15433,1,0,0:0:0:0:
448,192,15433,1,0,0:0:0:0:
64,192,15591,1,0,0:0:0:0:
448,192,15591,1,0,0:0:0:0:
320,192,15749,1,0,0:0:0:0:
192,192,15749,1,0,0:0:0:0:
64,192,15749,1,0,0:0:0:0:
448,192,15749,1,0,0:0:0:0:
192,192,15907,1,0,0:0:0:0:
320,192,15907,1,0,0:0:0:0:
320,192,16065,1,0,0:0:0:0:
448,192,16065,1,0,0:0:0:0:
192,192,16222,1,0,0:0:0:0:
64,192,16222,1,0,0:0:0:0:
64,192,16380,1,0,0:0:0:0:
448,192,16380,1,0,0:0:0:0:
320,192,16380,1,0,0:0:0:0:
192,192,16538,1,0,0:0:0:0:
448,192,16538,1,0,0:0:0:0:
64,192,16696,1,0,0:0:0:0:
320,192,16696,1,0,0:0:0:0:
320,192,16854,1,0,0:0:0:0:
448,192,16854,1,0,0:0:0:0:
192,192,17012,1,0,0:0:0:0:
64,192,17012,1,0,0:0:0:0:
448,192,17012,1,0,0:0:0:0:
320,192,17170,1,0,0:0:0:0:
448,192,17170,1,0,0:0:0:0:
192,192,17328,1,0,0:0:0:0:
64,192,17328,1,0,0:0:0:0:
64,192,17486,1,0,0:0:0:0:
448,192,17486,1,0,0:0:0:0:
192,192,17486,1,0,0:0:0:0:
320,192,17644,1,0,0:0:0:0:
448,192,17644,1,0,0:0:0:0:
320,192,17801,1,0,0:0:0:0:
192,192,17801,1,0,0:0:0:0:
192,192,17959,1,0,0:0:0:0:
64,192,17959,1,0,0:0:0:0:
448,192,17959,1,0,0:0:0:0:
448,192,18117,1,0,0:0:0:0:
320,192,18117,1,0,0:0:0:0:
64,192,18117,1,0,0:0:0:0:
64,192,18275,1,0,0:0:0:0:
192,192,18275,1,0,0:0:0:0:
320,192,18275,1,0,0:0:0:0:
448,192,18275,1,0,0:0:0:0:
192,192,18433,1,0,0:0:0:0:
320,192,18433,1,0,0:0:0:0:
192,192,18591,1,0,0:0:0:0:
64,192,18591,1,0,0:0:0:0:
320,192,18749,1,0,0:0:0:0:
448,192,18749,1,0,0:0:0:0:
320,192,18907,1,0,0:0:0:0:
192,192,18907,1,0,0:0:0:0:
64,192,18907,1,0,0:0:0:0:
64,192,19065,1,0,0:0:0:0:
192,192,19065,1,0,0:0:0:0:
192,192,19222,1,0,0:0:0:0:
448,192,19222,1,0,0:0:0:0:
320,192,19380,1,0,0:0:0:0:
448,192,19380,1,0,0:0:0:0:
64,192,19538,1,0,0:0:0:0:
192,192,19538,1,0,0:0:0:0:
320,192,19538,1,0,0:0:0:0:
192,192,19696,1,0,0:0:0:0:
448,192,19696,1,0,0:0:0:0:
64,192,19854,1,0,0:0:0:0:
320,192,19854,1,0,0:0:0:0:
448,192,19854,1,0,0:0:0:0:
320,192,20012,1,0,0:0:0:0:
192,192,20012,1,0,0:0:0:0:
64,192,20012,1,0,0:0:0:0:
448,192,20170,1,0,0:0:0:0:
192,192,20170,1,0,0:0:0:0:
192,192,20328,1,0,0:0:0:0:
448,192,20328,1,0,0:0:0:0:
320,192,20486,1,0,0:0:0:0:
448,192,20486,1,0,0:0:0:0:
64,192,20486,1,0,0:0:0:0:
64,192,20644,1,0,0:0:0:0:
320,192,20644,1,0,0:0:0:0:
64,192,20801,1,0,0:0:0:0:
192,192,20801,1,0,0:0:0:0:
320,192,20801,1,0,0:0:0:0:
448,192,20801,1,0,0:0:0:0:
192,192,20959,1,0,0:0:0:0:
448,192,20959,1,0,0:0:0:0:
192,192,21117,1,0,0:0:0:0:
64,192,21117,1,0,0:0:0:0:
320,192,21275,1,0,0:0:0:0:
448,192,21275,1,0,0:0:0:0:
320,192,21433,1,0,0:0:0:0:
192,192,21433,1,0,0:0:0:0:
448,192,21433,1,0,0:0:0:0:
320,192,21591,1,0,0:0:0:0:
64,192,21591,1,0,0:0:0:0:
448,192,21749,1,0,0:0:0:0:
64,192,21749,1,0,0:0:0:0:
192,192,21907,1,0,0:0:0:0:
448,192,21907,1,0,0:0:0:0:
320,192,22065,1,0,0:0:0:0:
448,192,22065,1,0,0:0:0:0:
64,192,22065,1,0,0:0:0:0:
192,192,22222,1,0,0:0:0:0:
320,192,22222,1,0,0:0:0:0:
192,192,22380,1,0,0:0:0:0:
64,192,22380,1,0,0:0:0:0:
448,192,22380,1,0,0:0:0:0:
320,192,22538,1,0,0:0:0:0:
448,192,22538,1,0,0:0:0:0:
64,192,22538,1,0,0:0:0:0:
192,192,22696,1,0,0:0:0:0:
320,192,22696,1,0,0:0:0:0:
192,192,22854,1,0,0:0:0:0:
320,192,22854,1,0,0:0:0:0:
192,192,23012,1,0,0:0:0:0:
320,192,23012,1,0,0:0:0:0:
64,192,23012,1,0,0:0:0:0:
192,192,23170,1,0,0:0:0:0:
320,192,23170,1,0,0:0:0:0:
448,192,23170,1,0,0:0:0:0:
64,192,23328,1,0,0:0:0:0:
192,192,23328,1,0,0:0:0:0:
320,192,23328,1,0,0:0:0:0:
448,192,23328,1,0,0:0:0:0:
64,192,23486,1,0,0:0:0:0:
448,192,23486,1,0,0:0:0:0:
192,192,23644,1,0,0:0:0:0:
64,192,23644,1,0,0:0:0:0:
320,192,23801,1,0,0:0:0:0:
448,192,23801,1,0,0:0:0:0:
192,192,23959,1,0,0:0:0:0:
448,192,23959,1,0,0:0:0:0:
64,192,23959,1,0,0:0:0:0:
64,192,24117,1,0,0:0:0:0:
320,192,24117,1,0,0:0:0:0:
448,192,24117,1,0,0:0:0:0:
192,192,24275,1,0,0:0:0:0:
320,192,24275,1,0,0:0:0:0:
192,192,24433,1,0,0:0:0:0:
64,192,24433,1,0,0:0:0:0:
64,192,24591,1,0,0:0:0:0:
320,192,24591,1,0,0:0:0:0:
448,192,24591,1,0,0:0:0:0:
192,192,24749,1,0,0:0:0:0:
448,192,24749,1,0,0:0:0:0:
64,192,24907,1,0,0:0:0:0:
320,192,24907,1,0,0:0:0:0:
448,192,24907,1,0,0:0:0:0:
320,192,25065,1,0,0:0:0:0:
192,192,25065,1,0,0:0:0:0:
64,192,25065,1,0,0:0:0:0:
192,192,25222,1,0,0:0:0:0:
448,192,25222,1,0,0:0:0:0:
192,192,25380,1,0,0:0:0:0:
448,192,25380,1,0,0:0:0:0:
64,192,25538,1,0,0:0:0:0:
320,192,25538,1,0,0:0:0:0:
448,192,25538,1,0,0:0:0:0:
64,192,25696,1,0,0:0:0:0:
320,192,25696,1,0,0:0:0:0:
448,192,25696,1,0,0:0:0:0:
64,192,25854,1,0,0:0:0:0:
448,192,25854,1,0,0:0:0:0:
320,192,25854,1,0,0:0:0:0:
192,192,25933,1,0,0:0:0:0:
320,192,26012,128,0,26091:0:0:0:0:
192,192,26091,128,0,26170:0:0:0:0:
64,192,26170,1,0,0:0:0:0:
448,192,26170,1,0,0:0:0:0:
320,192,26249,1,0,0:0:0:0:
192,192,26328,128,0,26407:0:0:0:0:
320,192,26407,128,0,26486:0:0:0:0:
64,192,26486,1,0,0:0:0:0:
448,192,26486,1,0,0:0:0:0:
192,192,26565,1,0,0:0:0:0:
320,192,26644,128,0,26722:0:0:0:0:
448,192,26722,128,0,26801:0:0:0:0:
192,192,26801,1,0,0:0:0:0:
64,192,26801,1,0,0:0:0:0:
320,192,26880,1,0,0:0:0:0:
192,192,26959,128,0,27038:0:0:0:0:
64,192,27038,128,0,27117:0:0:0:0:
320,192,27117,1,0,0:0:0:0:
448,192,27117,1,0,0:0:0:0:
192,192,27196,1,0,0:0:0:0:
320,192,27275,128,0,27354:0:0:0:0:
192,192,27354,128,0,27433:0:0:0:0:
64,192,27433,1,0,0:0:0:0:
448,192,27433,1,0,0:0:0:0:
320,192,27512,1,0,0:0:0:0:
192,192,27591,128,0,27670:0:0:0:0:
320,192,27670,128,0,27749:0:0:0:0:
448,192,27749,1,0,0:0:0:0:
64,192,27749,1,0,0:0:0:0:
192,192,27828,1,0,0:0:0:0:
448,192,27907,128,0,27986:0:0:0:0:
320,192,27986,128,0,28065:0:0:0:0:
64,192,28065,1,0,0:0:0:0:
192,192,28065,1,0,0:0:0:0:
320,192,28144,1,0,0:0:0:0:
192,192,28222,128,0,28301:0:0:0:0:
64,192,28301,128,0,28380:0:0:0:0:
320,192,28380,1,0,0:0:0:0:
448,192,28380,1,0,0:0:0:0:
192,192,28459,1,0,0:0:0:0:
448,192,28538,128,0,28617:0:0:0:0:
320,192,28617,128,0,28696:0:0:0:0:
192,192,28696,1,0,0:0:0:0:
64,192,28696,1,0,0:0:0:0:
448,192,28775,1,0,0:0:0:0:
64,192,28854,128,0,28933:0:0:0:0:
192,192,28933,128,0,29012:0:0:0:0:
320,192,29012,1,0,0:0:0:0:
448,192,29012,1,0,0:0:0:0:
64,192,29091,1,0,0:0:0:0:
192,192,29170,128,0,29249:0:0:0:0:
448,192,29249,128,0,29328:0:0:0:0:
64,192,29328,1,0,0:0:0:0:
320,192,29328,1,0,0:0:0:0:
448,192,29407,1,0,0:0:0:0:
320,192,29486,128,0,29565:0:0:0:0:
64,192,29565,128,0,29644:0:0:0:0:
192,192,29644,1,0,0:0:0:0:
448,192,29644,1,0,0:0:0:0:
320,192,29722,1,0,0:0:0:0:
192,192,29801,128,0,29880:0:0:0:0:
320,192,29880,128,0,29959:0:0:0:0:
448,192,29959,1,0,0:0:0:0:
64,192,29959,1,0,0:0:0:0:
192,192,30038,1,0,0:0:0:0:
64,192,30117,128,0,30196:0:0:0:0:
320,192,30196,128,0,30275:0:0:0:0:
64,192,30275,128,0,30828:0:0:0:0:
192,192,30275,128,0,30828:0:0:0:0:
192,192,30907,1,0,0:0:0:0:
64,192,30907,1,0,0:0:0:0:
448,192,30907,1,0,0:0:0:0:
320,192,30986,1,0,0:0:0:0:
192,192,31065,1,0,0:0:0:0:
64,192,31065,1,0,0:0:0:0:
320,192,31144,1,0,0:0:0:0:
448,192,31144,1,0,0:0:0:0:
192,192,31222,1,0,0:0:0:0:
64,192,31222,1,0,0:0:0:0:
448,192,31301,1,0,0:0:0:0:
320,192,31380,1,0,0:0:0:0:
64,192,31380,1,0,0:0:0:0:
192,192,31459,1,0,0:0:0:0:
448,192,31459,1,0,0:0:0:0:
320,192,31538,1,0,0:0:0:0:
64,192,31538,1,0,0:0:0:0:
192,192,31617,1,0,0:0:0:0:
320,192,31696,1,0,0:0:0:0:
448,192,31696,1,0,0:0:0:0:
192,192,31775,1,0,0:0:0:0:
64,192,31775,1,0,0:0:0:0:
320,192,31854,1,0,0:0:0:0:
448,192,31854,1,0,0:0:0:0:
64,192,31933,1,0,0:0:0:0:
192,192,32012,1,0,0:0:0:0:
448,192,32012,1,0,0:0:0:0:
320,192,32091,1,0,0:0:0:0:
64,192,32091,1,0,0:0:0:0:
192,192,32170,1,0,0:0:0:0:
448,192,32170,1,0,0:0:0:0:
320,192,32249,1,0,0:0:0:0:
192,192,32328,1,0,0:0:0:0:
64,192,32328,1,0,0:0:0:0:
320,192,32407,1,0,0:0:0:0:
448,192,32407,1,0,0:0:0:0:
192,192,32486,1,0,0:0:0:0:
64,192,32486,1,0,0:0:0:0:
448,192,32565,1,0,0:0:0:0:
320,192,32644,1,0,0:0:0:0:
64,192,32644,1,0,0:0:0:0:
192,192,32722,1,0,0:0:0:0:
448,192,32722,1,0,0:0:0:0:
320,192,32801,1,0,0:0:0:0:
64,192,32801,1,0,0:0:0:0:
192,192,32880,1,0,0:0:0:0:
320,192,32959,1,0,0:0:0:0:
448,192,32959,1,0,0:0:0:0:
192,192,33038,1,0,0:0:0:0:
64,192,33038,1,0,0:0:0:0:
320,192,33117,1,0,0:0:0:0:
448,192,33117,1,0,0:0:0:0:
64,192,33196,1,0,0:0:0:0:
448,192,33275,1,0,0:0:0:0:
192,192,33275,1,0,0:0:0:0:
320,192,33354,1,0,0:0:0:0:
192,192,33433,1,0,0:0:0:0:
64,192,33433,1,0,0:0:0:0:
320,192,33512,1,0,0:0:0:0:
448,192,33512,1,0,0:0:0:0:
192,192,33591,1,0,0:0:0:0:
64,192,33591,1,0,0:0:0:0:
320,192,33670,1,0,0:0:0:0:
448,192,33670,1,0,0:0:0:0:
192,192,33749,1,0,0:0:0:0:
64,192,33749,1,0,0:0:0:0:
320,192,33828,1,0,0:0:0:0:
448,192,33828,1,0,0:0:0:0:
64,192,33907,1,0,0:0:0:0:
192,192,33907,1,0,0:0:0:0:
320,192,33986,1,0,0:0:0:0:
448,192,33986,1,0,0:0:0:0:
64,192,34065,1,0,0:0:0:0:
192,192,34065,1,0,0:0:0:0:
320,192,34144,1,0,0:0:0:0:
448,192,34222,1,0,0:0:0:0:
64,192,34222,1,0,0:0:0:0:
192,192,34301,1,0,0:0:0:0:
320,192,34380,1,0,0:0:0:0:
448,192,34380,1,0,0:0:0:0:
320,192,34459,1,0,0:0:0:0:
192,192,34538,1,0,0:0:0:0:
192,192,34617,1,0,0:0:0:0:
64,192,34696,1,0,0:0:0:0:
320,192,34696,1,0,0:0:0:0:
448,192,34696,1,0,0:0:0:0:
64,192,35012,1,0,0:0:0:0:
192,192,35012,1,0,0:0:0:0:
448,192,35012,1,0,0:0:0:0:
192,192,35170,1,0,0:0:0:0:
320,192,35170,1,0,0:0:0:0:
64,192,35328,1,0,0:0:0:0:
64,192,35407,1,0,0:0:0:0:
192,192,35486,1,0,0:0:0:0:
192,192,35565,1,0,0:0:0:0:
320,192,35644,128,0,35722:0:0:0:0:
320,192,35801,1,0,0:0:0:0:
64,192,35959,128,0,36170:0:0:0:0:
192,192,36012,128,0,36170:0:0:0:0:
320,192,36065,128,0,36170:0:0:0:0:
448,192,36275,128,0,36486:0:0:0:0:
64,192,36275,128,0,36486:0:0:0:0:
192,192,36328,128,0,36486:0:0:0:0:
320,192,36380,128,0,36486:0:0:0:0:
448,192,36591,128,0,36801:0:0:0:0:
320,192,36644,128,0,36801:0:0:0:0:
192,192,36696,128,0,36801:0:0:0:0:
64,192,36907,128,0,37117:0:0:0:0:
448,192,36907,128,0,37117:0:0:0:0:
320,192,36959,128,0,37117:0:0:0:0:
192,192,37012,128,0,37117:0:0:0:0:
448,192,37222,1,0,0:0:0:0:
64,192,37222,128,0,37538:0:0:0:0:
192,192,37328,128,0,37486:0:0:0:0:
192,192,37538,128,0,37854:0:0:0:0:
448,192,37538,1,0,0:0:0:0:
320,192,37644,128,0,37801:0:0:0:0:
320,192,37854,128,0,38170:0:0:0:0:
64,192,37854,1,0,0:0:0:0:
448,192,37959,128,0,38117:0:0:0:0:
448,192,38170,128,0,38486:0:0:0:0:
64,192,38170,1,0,0:0:0:0:
320,192,38275,128,0,38486:0:0:0:0:
192,192,38486,128,0,38696:0:0:0:0:
320,192,38538,128,0,38696:0:0:0:0:
448,192,38591,128,0,38696:0:0:0:0:
192,192,38801,128,0,39012:0:0:0:0:
64,192,38801,128,0,39012:0:0:0:0:
320,192,38854,128,0,39012:0:0:0:0:
448,192,38907,128,0,39012:0:0:0:0:
320,192,39117,128,0,39328:0:0:0:0:
192,192,39170,128,0,39328:0:0:0:0:
64,192,39222,128,0,39328:0:0:0:0:
448,192,39433,128,0,39644:0:0:0:0:
320,192,39433,128,0,39644:0:0:0:0:
192,192,39486,128,0,39644:0:0:0:0:
64,192,39538,128,0,39644:0:0:0:0:
448,192,39749,128,0,40012:0:0:0:0:
64,192,39749,128,0,41012:0:0:0:0:
320,192,39854,128,0,40012:0:0:0:0:
320,192,40065,128,0,40328:0:0:0:0:
192,192,40065,1,0,0:0:0:0:
448,192,40170,128,0,40328:0:0:0:0:
448,192,40380,128,0,40644:0:0:0:0:
320,192,40486,128,0,40644:0:0:0:0:
320,192,40696,128,0,40959:0:0:0:0:
192,192,40696,1,0,0:0:0:0:
448,192,40801,128,0,40959:0:0:0:0:
448,192,41012,128,0,41222:0:0:0:0:
320,192,41065,128,0,41222:0:0:0:0:
192,192,41117,128,0,41222:0:0:0:0:
64,192,41328,128,0,41538:0:0:0:0:
448,192,41328,128,0,41538:0:0:0:0:
320,192,41380,128,0,41538:0:0:0:0:
192,192,41433,128,0,41538:0:0:0:0:
64,192,41644,128,0,41854:0:0:0:0:
192,192,41696,128,0,41854:0:0:0:0:
320,192,41749,128,0,41854:0:0:0:0:
448,192,41959,128,0,42170:0:0:0:0:
64,192,41959,128,0,42170:0:0:0:0:
192,192,42012,128,0,42170:0:0:0:0:
320,192,42065,128,0,42170:0:0:0:0:
320,192,42275,1,0,0:0:0:0:
64,192,42275,128,0,42591:0:0:0:0:
192,192,42380,128,0,42538:0:0:0:0:
192,192,42591,128,0,42907:0:0:0:0:
448,192,42591,1,0,0:0:0:0:
320,192,42696,128,0,42854:0:0:0:0:
320,192,42907,128,0,43222:0:0:0:0:
64,192,42907,1,0,0:0:0:0:
448,192,43012,128,0,43170:0:0:0:0:
448,192,43222,128,0,43538:0:0:0:0:
192,192,43222,1,0,0:0:0:0:
320,192,43328,128,0,43538:0:0:0:0:
64,192,43538,128,0,43749:0:0:0:0:
192,192,43591,128,0,43749:0:0:0:0:
320,192,43644,128,0,43749:0:0:0:0:
64,192,43854,128,0,44065:0:0:0:0:
448,192,43854,128,0,44065:0:0:0:0:
192,192,43907,128,0,44065:0:0:0:0:
320,192,43959,128,0,44065:0:0:0:0:
448,192,44170,128,0,44380:0:0:0:0:
320,192,44222,128,0,44380:0:0:0:0:
192,192,44275,128,0,44380:0:0:0:0:
448,192,44486,128,0,44696:0:0:0:0:
64,192,44486,128,0,44696:0:0:0:0:
320,192,44538,128,0,44696:0:0:0:0:
192,192,44591,128,0,44696:0:0:0:0:
64,192,44801,1,0,0:0:0:0:
448,192,44801,1,0,0:0:0:0:
64,192,44959,1,0,0:0:0:0:
192,192,44959,1,0,0:0:0:0:
320,192,45038,1,0,0:0:0:0:
448,192,45038,1,0,0:0:0:0:
192,192,45117,1,0,0:0:0:0:
64,192,45117,1,0,0:0:0:0:
192,192,45275,1,0,0:0:0:0:
320,192,45275,1,0,0:0:0:0:
64,192,45433,1,0,0:0:0:0:
448,192,45433,1,0,0:0:0:0:
192,192,45512,1,0,0:0:0:0:
320,192,45512,1,0,0:0:0:0:
64,192,45591,1,0,0:0:0:0:
448,192,45591,1,0,0:0:0:0:
320,192,45670,1,0,0:0:0:0:
192,192,45749,1,0,0:0:0:0:
64,192,45749,1,0,0:0:0:0:
320,192,45828,1,0,0:0:0:0:
448,192,45828,1,0,0:0:0:0:
192,192,45907,1,0,0:0:0:0:
64,192,45907,1,0,0:0:0:0:
320,192,45986,1,0,0:0:0:0:
448,192,45986,1,0,0:0:0:0:
64,192,46065,128,0,46222:0:0:0:0:
192,192,46065,128,0,46170:0:0:0:0:
320,192,46170,1,0,0:0:0:0:
192,192,46222,1,0,0:0:0:0:
64,192,46275,1,0,0:0:0:0:
192,192,46380,128,0,46538:0:0:0:0:
320,192,46380,128,0,46486:0:0:0:0:
448,192,46486,1,0,0:0:0:0:
320,192,46538,1,0,0:0:0:0:
192,192,46591,1,0,0:0:0:0:
64,192,46696,128,0,46854:0:0:0:0:
192,192,46696,128,0,46801:0:0:0:0:
320,192,46801,1,0,0:0:0:0:
192,192,46854,1,0,0:0:0:0:
64,192,46907,1,0,0:0:0:0:
448,192,47012,128,0,47170:0:0:0:0:
320,192,47012,128,0,47117:0:0:0:0:
192,192,47117,1,0,0:0:0:0:
320,192,47170,1,0,0:0:0:0:
448,192,47222,1,0,0:0:0:0:
64,192,47328,128,0,47591:0:0:0:0:
320,192,47328,128,0,47591:0:0:0:0:
192,192,47433,128,0,47591:0:0:0:0:
192,192,47644,128,0,47907:0:0:0:0:
448,192,47644,128,0,47907:0:0:0:0:
320,192,47749,128,0,47907:0:0:0:0:
64,192,47959,128,0,48222:0:0:0:0:
448,192,47959,128,0,48222:0:0:0:0:
320,192,48065,128,0,48222:0:0:0:0:
448,192,48275,128,0,48538:0:0:0:0:
64,192,48275,128,0,48538:0:0:0:0:
192,192,48380,128,0,48538:0:0:0:0:
192,192,48591,128,0,48749:0:0:0:0:
320,192,48591,128,0,48696:0:0:0:0:
448,192,48696,1,0,0:0:0:0:
320,192,48749,1,0,0:0:0:0:
192,192,48801,1,0,0:0:0:0:
64,192,48907,128,0,49065:0:0:0:0:
192,192,48907,128,0,49012:0:0:0:0:
320,192,49012,1,0,0:0:0:0:
192,192,49065,1,0,0:0:0:0:
64,192,49117,1,0,0:0:0:0:
448,192,49222,128,0,49380:0:0:0:0:
320,192,49222,128,0,49328:0:0:0:0:
192,192,49328,1,0,0:0:0:0:
320,192,49380,1,0,0:0:0:0:
448,192,49433,1,0,0:0:0:0:
64,192,49538,128,0,49696:0:0:0:0:
192,192,49538,128,0,49644:0:0:0:0:
320,192,49644,1,0,0:0:0:0:
192,192,49696,1,0,0:0:0:0:
64,192,49749,1,0,0:0:0:0:
448,192,49854,128,0,50117:0:0:0:0:
64,192,49854,128,0,50749:0:0:0:0:
320,192,49959,128,0,50117:0:0:0:0:
320,192,50170,128,0,50433:0:0:0:0:
192,192,50170,1,0,0:0:0:0:
448,192,50275,128,0,50433:0:0:0:0:
448,192,50486,128,0,50749:0:0:0:0:
320,192,50591,128,0,50749:0:0:0:0:
192,192,50801,1,0,0:0:0:0:
64,192,50801,1,0,0:0:0:0:
320,192,50801,1,0,0:0:0:0:
448,192,50801,1,0,0:0:0:0:
192,192,50959,1,0,0:0:0:0:
320,192,50959,1,0,0:0:0:0:
448,192,51117,128,0,51275:0:0:0:0:
320,192,51117,128,0,51222:0:0:0:0:
192,192,51222,1,0,0:0:0:0:
320,192,51275,1,0,0:0:0:0:
448,192,51328,1,0,0:0:0:0:
320,192,51433,128,0,51591:0:0:0:0:
192,192,51433,128,0,51538:0:0:0:0:
64,192,51538,1,0,0:0:0:0:
192,192,51591,1,0,0:0:0:0:
320,192,51644,1,0,0:0:0:0:
448,192,51749,128,0,51907:0:0:0:0:
320,192,51749,128,0,51854:0:0:0:0:
192,192,51854,1,0,0:0:0:0:
320,192,51907,1,0,0:0:0:0:
448,192,51959,1,0,0:0:0:0:
64,192,52065,128,0,52222:0:0:0:0:
192,192,52065,128,0,52170:0:0:0:0:
320,192,52170,1,0,0:0:0:0:
192,192,52222,1,0,0:0:0:0:
64,192,52275,1,0,0:0:0:0:
192,192,52380,128,0,52644:0:0:0:0:
448,192,52380,128,0,52644:0:0:0:0:
320,192,52486,128,0,52644:0:0:0:0:
192,192,52696,128,0,52959:0:0:0:0:
448,192,52696,128,0,52959:0:0:0:0:
320,192,52801,128,0,52959:0:0:0:0:
448,192,53012,128,0,53275:0:0:0:0:
64,192,53012,128,0,53275:0:0:0:0:
192,192,53117,128,0,53275:0:0:0:0:
64,192,53328,128,0,53591:0:0:0:0:
448,192,53328,128,0,53591:0:0:0:0:
192,192,53433,128,0,53591:0:0:0:0:
192,192,53644,128,0,53801:0:0:0:0:
320,192,53644,128,0,53749:0:0:0:0:
448,192,53749,1,0,0:0:0:0:
320,192,53801,1,0,0:0:0:0:
192,192,53854,1,0,0:0:0:0:
64,192,53959,128,0,54117:0:0:0:0:
192,192,53959,128,0,54065:0:0:0:0:
320,192,54065,1,0,0:0:0:0:
192,192,54117,1,0,0:0:0:0:
64,192,54170,1,0,0:0:0:0:
448,192,54275,128,0,54433:0:0:0:0:
320,192,54275,128,0,54380:0:0:0:0:
192,192,54380,1,0,0:0:0:0:
320,192,54433,1,0,0:0:0:0:
448,192,54486,1,0,0:0:0:0:
64,192,54591,128,0,54749:0:0:0:0:
192,192,54591,128,0,54696:0:0:0:0:
320,192,54696,1,0,0:0:0:0:
192,192,54749,1,0,0:0:0:0:
64,192,54801,1,0,0:0:0:0:
320,192,54907,1,0,0:0:0:0:
448,192,54907,1,0,0:0:0:0:
320,192,55104,128,0,55222:0:0:0:0:
448,192,55222,128,0,55380:0:0:0:0:
192,192,55380,1,0,0:0:0:0:
320,192,55538,128,0,55617:0:0:0:0:
320,192,55696,128,0,55775:0:0:0:0:
320,192,55854,128,0,56170:0:0:0:0:
192,192,56170,1,0,0:0:0:0:
64,192,56170,1,0,0:0:0:0:
448,192,56170,1,0,0:0:0:0:
192,192,56328,1,0,0:0:0:0:
448,192,56328,1,0,0:0:0:0:
64,192,56486,1,0,0:0:0:0:
192,192,56486,1,0,0:0:0:0:
320,192,56486,1,0,0:0:0:0:
448,192,56486,1,0,0:0:0:0:
192,192,56644,1,0,0:0:0:0:
448,192,56644,1,0,0:0:0:0:
320,192,56801,1,0,0:0:0:0:
448,192,56801,1,0,0:0:0:0:
64,192,56801,1,0,0:0:0:0:
192,192,56880,1,0,0:0:0:0:
448,192,56959,1,0,0:0:0:0:
64,192,56959,1,0,0:0:0:0:
320,192,57038,1,0,0:0:0:0:
192,192,57117,1,0,0:0:0:0:
64,192,57117,1,0,0:0:0:0:
448,192,57196,1,0,0:0:0:0:
320,192,57275,1,0,0:0:0:0:
64,192,57275,1,0,0:0:0:0:
192,192,57354,1,0,0:0:0:0:
320,192,57433,1,0,0:0:0:0:
448,192,57433,128,0,58065:0:0:0:0:
64,192,57433,128,0,58065:0:0:0:0:
192,192,57512,1,0,0:0:0:0:
320,192,57591,1,0,0:0:0:0:
192,192,57670,1,0,0:0:0:0:
320,192,57749,1,0,0:0:0:0:
192,192,57828,1,0,0:0:0:0:
320,192,57907,1,0,0:0:0:0:
192,192,57986,1,0,0:0:0:0:
320,192,58065,1,0,0:0:0:0:
192,192,58144,1,0,0:0:0:0:
64,192,58222,1,0,0:0:0:0:
448,192,58222,1,0,0:0:0:0:
320,192,58301,1,0,0:0:0:0:
192,192,58380,1,0,0:0:0:0:
448,192,58380,1,0,0:0:0:0:
64,192,58459,1,0,0:0:0:0:
320,192,58538,1,0,0:0:0:0:
448,192,58538,1,0,0:0:0:0:
192,192,58617,1,0,0:0:0:0:
64,192,58696,1,0,0:0:0:0:
320,192,58696,1,0,0:0:0:0:
448,192,58696,1,0,0:0:0:0:
192,192,58775,1,0,0:0:0:0:
448,192,58854,1,0,0:0:0:0:
64,192,58854,1,0,0:0:0:0:
320,192,58933,1,0,0:0:0:0:
192,192,59012,1,0,0:0:0:0:
64,192,59012,1,0,0:0:0:0:
320,192,59091,1,0,0:0:0:0:
448,192,59170,1,0,0:0:0:0:
64,192,59170,1,0,0:0:0:0:
192,192,59249,1,0,0:0:0:0:
320,192,59328,1,0,0:0:0:0:
448,192,59328,1,0,0:0:0:0:
64,192,59407,1,0,0:0:0:0:
192,192,59486,1,0,0:0:0:0:
320,192,59486,1,0,0:0:0:0:
448,192,59565,1,0,0:0:0:0:
192,192,59644,1,0,0:0:0:0:
64,192,59644,1,0,0:0:0:0:
320,192,59722,1,0,0:0:0:0:
448,192,59722,1,0,0:0:0:0:
192,192,59801,1,0,0:0:0:0:
64,192,59801,1,0,0:0:0:0:
448,192,59880,1,0,0:0:0:0:
320,192,59880,1,0,0:0:0:0:
192,192,59959,1,0,0:0:0:0:
64,192,59959,1,0,0:0:0:0:
320,192,60038,1,0,0:0:0:0:
448,192,60117,128,0,60196:0:0:0:0:
64,192,60275,1,0,0:0:0:0:
448,192,60275,128,0,60538:0:0:0:0:
192,192,60328,1,0,0:0:0:0:
320,192,60380,1,0,0:0:0:0:
64,192,60433,1,0,0:0:0:0:
192,192,60486,1,0,0:0:0:0:
320,192,60538,1,0,0:0:0:0:
448,192,60591,1,0,0:0:0:0:
64,192,60591,1,0,0:0:0:0:
192,192,60670,1,0,0:0:0:0:
448,192,60749,1,0,0:0:0:0:
320,192,60801,1,0,0:0:0:0:
192,192,60854,1,0,0:0:0:0:
64,192,60907,1,0,0:0:0:0:
448,192,60907,1,0,0:0:0:0:
64,192,61065,1,0,0:0:0:0:
192,192,61065,1,0,0:0:0:0:
192,192,61144,1,0,0:0:0:0:
64,192,61144,1,0,0:0:0:0:
320,192,61222,1,0,0:0:0:0:
448,192,61222,1,0,0:0:0:0:
64,192,61380,1,0,0:0:0:0:
448,192,61380,1,0,0:0:0:0:
192,192,61538,1,0,0:0:0:0:
64,192,61538,1,0,0:0:0:0:
320,192,61538,1,0,0:0:0:0:
448,192,61617,1,0,0:0:0:0:
64,192,61696,1,0,0:0:0:0:
192,192,61696,1,0,0:0:0:0:
320,192,61775,1,0,0:0:0:0:
448,192,61854,1,0,0:0:0:0:
192,192,61854,1,0,0:0:0:0:
64,192,61933,1,0,0:0:0:0:
320,192,62012,1,0,0:0:0:0:
448,192,62012,1,0,0:0:0:0:
192,192,62091,1,0,0:0:0:0:
64,192,62170,1,0,0:0:0:0:
320,192,62170,1,0,0:0:0:0:
448,192,62249,1,0,0:0:0:0:
192,192,62328,1,0,0:0:0:0:
64,192,62328,1,0,0:0:0:0:
320,192,62407,1,0,0:0:0:0:
448,192,62486,128,0,63117:0:0:0:0:
64,192,62486,128,0,63117:0:0:0:0:
192,192,62486,1,0,0:0:0:0:
320,192,62565,1,0,0:0:0:0:
192,192,62644,1,0,0:0:0:0:
320,192,62722,1,0,0:0:0:0:
192,192,62801,1,0,0:0:0:0:
320,192,62880,1,0,0:0:0:0:
192,192,62959,1,0,0:0:0:0:
320,192,63038,1,0,0:0:0:0:
192,192,63117,1,0,0:0:0:0:
64,192,63196,1,0,0:0:0:0:
320,192,63275,1,0,0:0:0:0:
448,192,63275,1,0,0:0:0:0:
192,192,63354,1,0,0:0:0:0:
64,192,63433,1,0,0:0:0:0:
448,192,63433,1,0,0:0:0:0:
320,192,63512,1,0,0:0:0:0:
192,192,63591,1,0,0:0:0:0:
448,192,63591,1,0,0:0:0:0:
64,192,63670,1,0,0:0:0:0:
192,192,63749,1,0,0:0:0:0:
320,192,63749,1,0,0:0:0:0:
448,192,63749,1,0,0:0:0:0:
64,192,63828,1,0,0:0:0:0:
192,192,63907,1,0,0:0:0:0:
448,192,63907,1,0,0:0:0:0:
320,192,63986,1,0,0:0:0:0:
64,192,64065,1,0,0:0:0:0:
448,192,64065,1,0,0:0:0:0:
192,192,64144,1,0,0:0:0:0:
320,192,64222,1,0,0:0:0:0:
64,192,64222,1,0,0:0:0:0:
192,192,64301,1,0,0:0:0:0:
64,192,64380,1,0,0:0:0:0:
448,192,64380,1,0,0:0:0:0:
320,192,64459,1,0,0:0:0:0:
192,192,64538,1,0,0:0:0:0:
448,192,64538,1,0,0:0:0:0:
320,192,64617,1,0,0:0:0:0:
448,192,64696,1,0,0:0:0:0:
64,192,64696,1,0,0:0:0:0:
192,192,64775,1,0,0:0:0:0:
320,192,64854,1,0,0:0:0:0:
448,192,64854,1,0,0:0:0:0:
192,192,64933,1,0,0:0:0:0:
64,192,65012,1,0,0:0:0:0:
320,192,65012,1,0,0:0:0:0:
448,192,65012,1,0,0:0:0:0:
64,192,65170,1,0,0:0:0:0:
320,192,65170,1,0,0:0:0:0:
192,192,65328,1,0,0:0:0:0:
64,192,65328,1,0,0:0:0:0:
448,192,65328,1,0,0:0:0:0:
192,192,65486,1,0,0:0:0:0:
448,192,65486,1,0,0:0:0:0:
320,192,65565,1,0,0:0:0:0:
64,192,65644,1,0,0:0:0:0:
448,192,65644,1,0,0:0:0:0:
192,192,65722,1,0,0:0:0:0:
64,192,65801,1,0,0:0:0:0:
192,192,65880,1,0,0:0:0:0:
64,192,65959,1,0,0:0:0:0:
320,192,65959,1,0,0:0:0:0:
448,192,65959,1,0,0:0:0:0:
320,192,66117,1,0,0:0:0:0:
448,192,66117,1,0,0:0:0:0:
64,192,66275,1,0,0:0:0:0:
320,192,66275,1,0,0:0:0:0:
448,192,66275,1,0,0:0:0:0:
192,192,66354,1,0,0:0:0:0:
320,192,66433,1,0,0:0:0:0:
448,192,66433,1,0,0:0:0:0:
64,192,66512,1,0,0:0:0:0:
192,192,66591,1,0,0:0:0:0:
320,192,66591,1,0,0:0:0:0:
448,192,66591,1,0,0:0:0:0:
64,192,66670,1,0,0:0:0:0:
448,192,66749,1,0,0:0:0:0:
192,192,66749,1,0,0:0:0:0:
320,192,66828,1,0,0:0:0:0:
192,192,66907,1,0,0:0:0:0:
64,192,66907,1,0,0:0:0:0:
448,192,66986,1,0,0:0:0:0:
192,192,67065,1,0,0:0:0:0:
64,192,67065,1,0,0:0:0:0:
320,192,67144,1,0,0:0:0:0:
64,192,67222,1,0,0:0:0:0:
192,192,67222,1,0,0:0:0:0:
448,192,67222,1,0,0:0:0:0:
320,192,67301,1,0,0:0:0:0:
64,192,67380,1,0,0:0:0:0:
448,192,67380,1,0,0:0:0:0:
320,192,67459,1,0,0:0:0:0:
192,192,67538,1,0,0:0:0:0:
64,192,67538,1,0,0:0:0:0:
320,192,67617,1,0,0:0:0:0:
448,192,67617,1,0,0:0:0:0:
192,192,67696,1,0,0:0:0:0:
64,192,67696,1,0,0:0:0:0:
320,192,67775,1,0,0:0:0:0:
448,192,67775,1,0,0:0:0:0:
192,192,67854,1,0,0:0:0:0:
64,192,67854,1,0,0:0:0:0:
320,192,67933,1,0,0:0:0:0:
448,192,67933,1,0,0:0:0:0:
192,192,68012,1,0,0:0:0:0:
64,192,68012,1,0,0:0:0:0:
320,192,68091,1,0,0:0:0:0:
448,192,68091,1,0,0:0:0:0:
192,192,68170,1,0,0:0:0:0:
64,192,68170,1,0,0:0:0:0:
320,192,68249,1,0,0:0:0:0:
192,192,68328,1,0,0:0:0:0:
448,192,68328,1,0,0:0:0:0:
64,192,68407,1,0,0:0:0:0:
320,192,68486,1,0,0:0:0:0:
448,192,68486,1,0,0:0:0:0:
192,192,68565,1,0,0:0:0:0:
64,192,68644,1,0,0:0:0:0:
448,192,68644,1,0,0:0:0:0:
320,192,68722,1,0,0:0:0:0:
192,192,68801,1,0,0:0:0:0:
64,192,68801,1,0,0:0:0:0:
448,192,68880,1,0,0:0:0:0:
320,192,68959,1,0,0:0:0:0:
64,192,68959,1,0,0:0:0:0:
192,192,69038,1,0,0:0:0:0:
64,192,69117,1,0,0:0:0:0:
320,192,69117,1,0,0:0:0:0:
448,192,69117,1,0,0:0:0:0:
192,192,69196,1,0,0:0:0:0:
448,192,69275,1,0,0:0:0:0:
320,192,69275,1,0,0:0:0:0:
64,192,69354,1,0,0:0:0:0:
192,192,69433,1,0,0:0:0:0:
320,192,69433,1,0,0:0:0:0:
448,192,69512,1,0,0:0:0:0:
64,192,69591,1,0,0:0:0:0:
192,192,69591,1,0,0:0:0:0:
320,192,69670,1,0,0:0:0:0:
192,192,69749,1,0,0:0:0:0:
64,192,69749,1,0,0:0:0:0:
448,192,69749,1,0,0:0:0:0:
320,192,69828,1,0,0:0:0:0:
192,192,69907,1,0,0:0:0:0:
64,192,69986,1,0,0:0:0:0:
320,192,70065,1,0,0:0:0:0:
448,192,70065,1,0,0:0:0:0:
192,192,70144,1,0,0:0:0:0:
320,192,70222,1,0,0:0:0:0:
448,192,70301,1,0,0:0:0:0:
192,192,70380,1,0,0:0:0:0:
64,192,70380,1,0,0:0:0:0:
320,192,70433,1,0,0:0:0:0:
448,192,70486,1,0,0:0:0:0:
64,192,70538,1,0,0:0:0:0:
192,192,70591,1,0,0:0:0:0:
320,192,70644,1,0,0:0:0:0:
448,192,70696,1,0,0:0:0:0:
64,192,70696,1,0,0:0:0:0:
192,192,70775,1,0,0:0:0:0:
64,192,70854,1,0,0:0:0:0:
448,192,70854,1,0,0:0:0:0:
320,192,70933,1,0,0:0:0:0:
64,192,71012,1,0,0:0:0:0:
192,192,71012,1,0,0:0:0:0:
320,192,71091,1,0,0:0:0:0:
448,192,71170,1,0,0:0:0:0:
320,192,71249,1,0,0:0:0:0:
192,192,71328,1,0,0:0:0:0:
64,192,71328,1,0,0:0:0:0:
448,192,71328,1,0,0:0:0:0:
320,192,71407,1,0,0:0:0:0:
192,192,71486,1,0,0:0:0:0:
64,192,71486,1,0,0:0:0:0:
448,192,71565,1,0,0:0:0:0:
320,192,71644,1,0,0:0:0:0:
192,192,71644,1,0,0:0:0:0:
64,192,71644,1,0,0:0:0:0:
448,192,71722,1,0,0:0:0:0:
64,192,71801,1,0,0:0:0:0:
320,192,71801,1,0,0:0:0:0:
192,192,71880,1,0,0:0:0:0:
320,192,71959,1,0,0:0:0:0:
448,192,71959,1,0,0:0:0:0:
64,192,72038,1,0,0:0:0:0:
320,192,72117,1,0,0:0:0:0:
448,192,72117,1,0,0:0:0:0:
192,192,72196,1,0,0:0:0:0:
448,192,72275,1,0,0:0:0:0:
320,192,72275,1,0,0:0:0:0:
64,192,72275,1,0,0:0:0:0:
192,192,72354,1,0,0:0:0:0:
448,192,72433,1,0,0:0:0:0:
64,192,72433,1,0,0:0:0:0:
192,192,72512,1,0,0:0:0:0:
320,192,72591,1,0,0:0:0:0:
448,192,72591,1,0,0:0:0:0:
192,192,72670,1,0,0:0:0:0:
64,192,72670,1,0,0:0:0:0:
320,192,72749,1,0,0:0:0:0:
448,192,72749,1,0,0:0:0:0:
192,192,72828,1,0,0:0:0:0:
64,192,72828,1,0,0:0:0:0:
320,192,72907,1,0,0:0:0:0:
448,192,72907,1,0,0:0:0:0:
192,192,72986,1,0,0:0:0:0:
64,192,72986,1,0,0:0:0:0:
320,192,73065,1,0,0:0:0:0:
448,192,73065,1,0,0:0:0:0:
192,192,73144,1,0,0:0:0:0:
64,192,73144,1,0,0:0:0:0:
320,192,73222,1,0,0:0:0:0:
448,192,73222,1,0,0:0:0:0:
192,192,73301,1,0,0:0:0:0:
320,192,73380,1,0,0:0:0:0:
64,192,73380,1,0,0:0:0:0:
448,192,73459,1,0,0:0:0:0:
192,192,73538,1,0,0:0:0:0:
64,192,73538,1,0,0:0:0:0:
320,192,73617,1,0,0:0:0:0:
448,192,73696,1,0,0:0:0:0:
64,192,73696,1,0,0:0:0:0:
192,192,73775,1,0,0:0:0:0:
320,192,73854,1,0,0:0:0:0:
448,192,73854,1,0,0:0:0:0:
64,192,73933,1,0,0:0:0:0:
192,192,74012,1,0,0:0:0:0:
448,192,74012,1,0,0:0:0:0:
320,192,74091,1,0,0:0:0:0:
448,192,74170,1,0,0:0:0:0:
192,192,74170,1,0,0:0:0:0:
64,192,74170,1,0,0:0:0:0:
320,192,74249,1,0,0:0:0:0:
64,192,74328,1,0,0:0:0:0:
192,192,74328,1,0,0:0:0:0:
448,192,74407,1,0,0:0:0:0:
320,192,74486,1,0,0:0:0:0:
192,192,74486,1,0,0:0:0:0:
64,192,74565,1,0,0:0:0:0:
448,192,74644,1,0,0:0:0:0:
320,192,74644,1,0,0:0:0:0:
192,192,74722,1,0,0:0:0:0:
320,192,74801,1,0,0:0:0:0:
448,192,74801,1,0,0:0:0:0:
64,192,74801,1,0,0:0:0:0:
192,192,74880,1,0,0:0:0:0:
320,192,74959,1,0,0:0:0:0:
448,192,75038,1,0,0:0:0:0:
64,192,75117,1,0,0:0:0:0:
192,192,75117,1,0,0:0:0:0:
320,192,75275,1,0,0:0:0:0:
320,192,75354,1,0,0:0:0:0:
192,192,75433,1,0,0:0:0:0:
192,192,75591,1,0,0:0:0:0:
192,192,75670,1,0,0:0:0:0:
320,192,75749,1,0,0:0:0:0:
320,192,75828,1,0,0:0:0:0:
64,192,75907,1,0,0:0:0:0:
64,192,75986,1,0,0:0:0:0:
192,192,76065,128,0,76380:0:0:0:0:
320,192,76065,128,0,76380:0:0:0:0:
448,192,76065,128,0,76380:0:0:0:0:
64,192,76380,1,0,0:0:0:0:
192,192,76538,1,0,0:0:0:0:
448,192,76696,1,0,0:0:0:0:
64,192,76854,1,0,0:0:0:0:
192,192,77012,1,0,0:0:0:0:
448,192,77170,1,0,0:0:0:0:
64,192,77328,1,0,0:0:0:0:
448,192,77486,1,0,0:0:0:0:
64,192,77644,1,0,0:0:0:0:
448,192,77801,1,0,0:0:0:0:
64,192,77959,1,0,0:0:0:0:
320,192,78117,1,0,0:0:0:0:
64,192,78275,1,0,0:0:0:0:
320,192,78433,1,0,0:0:0:0:
64,192,78591,1,0,0:0:0:0:
320,192,78749,1,0,0:0:0:0:
448,192,78907,1,0,0:0:0:0:
192,192,78907,1,0,0:0:0:0:
320,192,79065,1,0,0:0:0:0:
64,192,79222,1,0,0:0:0:0:
448,192,79380,1,0,0:0:0:0:
320,192,79538,1,0,0:0:0:0:
64,192,79696,1,0,0:0:0:0:
448,192,79854,1,0,0:0:0:0:
192,192,80012,1,0,0:0:0:0:
448,192,80170,1,0,0:0:0:0:
320,192,80170,1,0,0:0:0:0:
64,192,80328,1,0,0:0:0:0:
448,192,80486,1,0,0:0:0:0:
192,192,80644,1,0,0:0:0:0:
320,192,80644,1,0,0:0:0:0:
448,192,80801,1,0,0:0:0:0:
192,192,80959,1,0,0:0:0:0:
448,192,81117,1,0,0:0:0:0:
320,192,81117,1,0,0:0:0:0:
192,192,81275,1,0,0:0:0:0:
448,192,81275,1,0,0:0:0:0:
64,192,81433,1,0,0:0:0:0:
320,192,81433,1,0,0:0:0:0:
448,192,81433,1,0,0:0:0:0:
192,192,81591,1,0,0:0:0:0:
64,192,81749,1,0,0:0:0:0:
320,192,81907,1,0,0:0:0:0:
192,192,82065,1,0,0:0:0:0:
448,192,82065,1,0,0:0:0:0:
64,192,82222,1,0,0:0:0:0:
320,192,82380,1,0,0:0:0:0:
448,192,82380,1,0,0:0:0:0:
192,192,82538,1,0,0:0:0:0:
64,192,82696,1,0,0:0:0:0:
448,192,82696,1,0,0:0:0:0:
192,192,82854,1,0,0:0:0:0:
320,192,83012,1,0,0:0:0:0:
64,192,83170,1,0,0:0:0:0:
192,192,83328,1,0,0:0:0:0:
448,192,83328,1,0,0:0:0:0:
320,192,83486,1,0,0:0:0:0:
192,192,83644,1,0,0:0:0:0:
448,192,83644,1,0,0:0:0:0:
448,192,83801,1,0,0:0:0:0:
64,192,83959,1,0,0:0:0:0:
320,192,83959,1,0,0:0:0:0:
448,192,83959,1,0,0:0:0:0:
192,192,84117,1,0,0:0:0:0:
64,192,84275,1,0,0:0:0:0:
320,192,84433,1,0,0:0:0:0:
192,192,84591,1,0,0:0:0:0:
448,192,84591,1,0,0:0:0:0:
64,192,84749,1,0,0:0:0:0:
320,192,84907,1,0,0:0:0:0:
448,192,84907,1,0,0:0:0:0:
192,192,85065,1,0,0:0:0:0:
64,192,85222,1,0,0:0:0:0:
320,192,85222,1,0,0:0:0:0:
448,192,85222,1,0,0:0:0:0:
64,192,85380,1,0,0:0:0:0:
448,192,85380,1,0,0:0:0:0:
192,192,85538,1,0,0:0:0:0:
320,192,85538,1,0,0:0:0:0:
320,192,85696,1,0,0:0:0:0:
192,192,85696,1,0,0:0:0:0:
64,192,85854,1,0,0:0:0:0:
448,192,85854,1,0,0:0:0:0:
64,192,86486,128,0,87670:0:0:0:0:
192,192,86486,128,0,87670:0:0:0:0:
320,192,86486,128,0,88933:0:0:0:0:
448,192,86486,128,0,88301:0:0:0:0:
192,192,87749,128,0,88301:0:0:0:0:
64,192,87749,128,0,88933:0:0:0:0:
192,192,88380,128,0,90196:0:0:0:0:
448,192,88380,128,0,90828:0:0:0:0:
320,192,89012,128,0,90196:0:0:0:0:
64,192,89012,128,0,91459:0:0:0:0:
320,192,90275,128,0,90828:0:0:0:0:
192,192,90275,128,0,92722:0:0:0:0:
320,192,90907,128,0,91459:0:0:0:0:
448,192,90907,128,0,93354:0:0:0:0:
64,192,91538,128,0,92722:0:0:0:0:
320,192,91538,128,0,93986:0:0:0:0:
192,192,92801,128,0,93354:0:0:0:0:
64,192,92801,128,0,93986:0:0:0:0:
192,192,93433,128,0,94617:0:0:0:0:
448,192,93433,128,0,94933:0:0:0:0:
320,192,94065,128,0,95249:0:0:0:0:
64,192,94065,128,0,94617:0:0:0:0:
64,192,94696,128,0,96512:0:0:0:0:
192,192,94696,128,0,94933:0:0:0:0:
192,192,95012,128,0,95880:0:0:0:0:
448,192,95012,128,0,95249:0:0:0:0:
448,192,95328,128,0,96512:0:0:0:0:
320,192,95328,128,0,95880:0:0:0:0:
192,192,95959,128,0,96512:0:0:0:0:
320,192,95959,128,0,96512:0:0:0:0:
320,192,96591,1,0,0:0:0:0:
448,192,96591,1,0,0:0:0:0:
192,192,96591,1,0,0:0:0:0:
64,192,96591,1,0,0:0:0:0:
64,192,98328,1,0,0:0:0:0:
320,192,98328,1,0,0:0:0:0:
448,192,98328,1,0,0:0:0:0:
64,192,98435,1,0,0:0:0:0:
192,192,98435,1,0,0:0:0:0:
320,192,98542,1,0,0:0:0:0:
448,192,98542,1,0,0:0:0:0:
64,192,98649,1,0,0:0:0:0:
192,192,98649,1,0,0:0:0:0:
192,192,98756,1,0,0:0:0:0:
448,192,98756,1,0,0:0:0:0:
320,192,98863,1,0,0:0:0:0:
448,192,98863,1,0,0:0:0:0:
320,192,99078,1,0,0:0:0:0:
448,192,99078,1,0,0:0:0:0:
320,192,99292,1,0,0:0:0:0:
448,192,99292,1,0,0:0:0:0:
320,192,99399,1,0,0:0:0:0:
192,192,99399,1,0,0:0:0:0:
64,192,99506,1,0,0:0:0:0:
192,192,99506,1,0,0:0:0:0:
320,192,99613,1,0,0:0:0:0:
448,192,99613,1,0,0:0:0:0:
192,192,99828,1,0,0:0:0:0:
320,192,99881,1,0,0:0:0:0:
192,192,99935,1,0,0:0:0:0:
320,192,99988,1,0,0:0:0:0:
192,192,100042,1,0,0:0:0:0:
448,192,100042,1,0,0:0:0:0:
64,192,100149,1,0,0:0:0:0:
320,192,100149,1,0,0:0:0:0:
192,192,100256,1,0,0:0:0:0:
64,192,100256,1,0,0:0:0:0:
320,192,100363,1,0,0:0:0:0:
448,192,100363,1,0,0:0:0:0:
64,192,100470,1,0,0:0:0:0:
320,192,100470,1,0,0:0:0:0:
192,192,100578,1,0,0:0:0:0:
448,192,100578,1,0,0:0:0:0:
192,192,100792,1,0,0:0:0:0:
448,192,100792,1,0,0:0:0:0:
192,192,101006,1,0,0:0:0:0:
448,192,101006,1,0,0:0:0:0:
192,192,101113,1,0,0:0:0:0:
64,192,101113,1,0,0:0:0:0:
320,192,101220,1,0,0:0:0:0:
448,192,101220,1,0,0:0:0:0:
64,192,101328,1,0,0:0:0:0:
192,192,101381,1,0,0:0:0:0:
448,192,101435,1,0,0:0:0:0:
320,192,101488,1,0,0:0:0:0:
192,192,101542,1,0,0:0:0:0:
64,192,101542,1,0,0:0:0:0:
64,192,101756,1,0,0:0:0:0:
320,192,101756,1,0,0:0:0:0:
448,192,101756,1,0,0:0:0:0:
64,192,101863,1,0,0:0:0:0:
192,192,101863,1,0,0:0:0:0:
320,192,101970,1,0,0:0:0:0:
448,192,101970,1,0,0:0:0:0:
64,192,102078,1,0,0:0:0:0:
192,192,102078,1,0,0:0:0:0:
192,192,102185,1,0,0:0:0:0:
448,192,102185,1,0,0:0:0:0:
320,192,102292,1,0,0:0:0:0:
448,192,102292,1,0,0:0:0:0:
320,192,102506,1,0,0:0:0:0:
448,192,102506,1,0,0:0:0:0:
320,192,102720,1,0,0:0:0:0:
448,192,102720,1,0,0:0:0:0:
320,192,102828,1,0,0:0:0:0:
192,192,102828,1,0,0:0:0:0:
64,192,102935,1,0,0:0:0:0:
192,192,102935,1,0,0:0:0:0:
320,192,103042,1,0,0:0:0:0:
448,192,103042,1,0,0:0:0:0:
192,192,103256,1,0,0:0:0:0:
320,192,103256,1,0,0:0:0:0:
64,192,103470,1,0,0:0:0:0:
448,192,103470,1,0,0:0:0:0:
320,192,103470,1,0,0:0:0:0:
320,192,103578,1,0,0:0:0:0:
448,192,103578,1,0,0:0:0:0:
192,192,103685,1,0,0:0:0:0:
64,192,103685,1,0,0:0:0:0:
320,192,103685,1,0,0:0:0:0:
192,192,103792,1,0,0:0:0:0:
64,192,103792,1,0,0:0:0:0:
64,192,103899,1,0,0:0:0:0:
448,192,103899,1,0,0:0:0:0:
320,192,103899,1,0,0:0:0:0:
320,192,104006,1,0,0:0:0:0:
448,192,104006,1,0,0:0:0:0:
64,192,104113,1,0,0:0:0:0:
192,192,104113,1,0,0:0:0:0:
320,192,104113,1,0,0:0:0:0:
192,192,104220,1,0,0:0:0:0:
64,192,104220,1,0,0:0:0:0:
320,192,104327,1,0,0:0:0:0:
448,192,104327,1,0,0:0:0:0:
192,192,104381,1,0,0:0:0:0:
64,192,104381,1,0,0:0:0:0:
320,192,104435,1,0,0:0:0:0:
448,192,104435,1,0,0:0:0:0:
192,192,104542,1,0,0:0:0:0:
64,192,104542,1,0,0:0:0:0:
64,192,104649,1,0,0:0:0:0:
192,192,104649,1,0,0:0:0:0:
320,192,104756,1,0,0:0:0:0:
448,192,104756,1,0,0:0:0:0:
320,192,104863,1,0,0:0:0:0:
448,192,104863,1,0,0:0:0:0:
64,192,104970,1,0,0:0:0:0:
192,192,104970,1,0,0:0:0:0:
320,192,104970,1,0,0:0:0:0:
448,192,104970,1,0,0:0:0:0:
64,192,105185,1,0,0:0:0:0:
192,192,105185,1,0,0:0:0:0:
320,192,105238,1,0,0:0:0:0:
448,192,105238,1,0,0:0:0:0:
192,192,105292,1,0,0:0:0:0:
64,192,105292,1,0,0:0:0:0:
320,192,105345,1,0,0:0:0:0:
448,192,105345,1,0,0:0:0:0:
192,192,105399,1,0,0:0:0:0:
64,192,105399,1,0,0:0:0:0:
320,192,105452,1,0,0:0:0:0:
448,192,105452,1,0,0:0:0:0:
192,192,105506,1,0,0:0:0:0:
64,192,105506,1,0,0:0:0:0:
320,192,105560,1,0,0:0:0:0:
448,192,105560,1,0,0:0:0:0:
192,192,105613,1,0,0:0:0:0:
64,192,105613,1,0,0:0:0:0:
320,192,105667,1,0,0:0:0:0:
448,192,105667,1,0,0:0:0:0:
192,192,105720,1,0,0:0:0:0:
64,192,105720,1,0,0:0:0:0:
320,192,105774,1,0,0:0:0:0:
448,192,105774,1,0,0:0:0:0:
64,192,105827,1,0,0:0:0:0:
192,192,105854,1,0,0:0:0:0:
320,192,105881,1,0,0:0:0:0:
448,192,105908,1,0,0:0:0:0:
64,192,105935,1,0,0:0:0:0:
192,192,105961,1,0,0:0:0:0:
320,192,105988,1,0,0:0:0:0:
192,192,106042,1,0,0:0:0:0:
64,192,106042,1,0,0:0:0:0:
448,192,106095,1,0,0:0:0:0:
320,192,106095,1,0,0:0:0:0:
192,192,106149,1,0,0:0:0:0:
64,192,106149,1,0,0:0:0:0:
320,192,106202,1,0,0:0:0:0:
448,192,106202,1,0,0:0:0:0:
64,192,106256,1,0,0:0:0:0:
192,192,106283,1,0,0:0:0:0:
320,192,106310,1,0,0:0:0:0:
64,192,106363,1,0,0:0:0:0:
448,192,106363,1,0,0:0:0:0:
320,192,106417,1,0,0:0:0:0:
192,192,106417,1,0,0:0:0:0:
64,192,106470,1,0,0:0:0:0:
192,192,106497,1,0,0:0:0:0:
320,192,106524,1,0,0:0:0:0:
448,192,106551,1,0,0:0:0:0:
64,192,106577,1,0,0:0:0:0:
192,192,106604,1,0,0:0:0:0:
320,192,106631,1,0,0:0:0:0:
448,192,106658,1,0,0:0:0:0:
64,192,106685,1,0,0:0:0:0:
192,192,106685,1,0,0:0:0:0:
64,192,106792,1,0,0:0:0:0:
192,192,106792,1,0,0:0:0:0:
320,192,106899,1,0,0:0:0:0:
448,192,106899,1,0,0:0:0:0:
192,192,106952,1,0,0:0:0:0:
64,192,106952,1,0,0:0:0:0:
320,192,107006,1,0,0:0:0:0:
448,192,107006,1,0,0:0:0:0:
64,192,107060,1,0,0:0:0:0:
192,192,107060,1,0,0:0:0:0:
448,192,107113,1,0,0:0:0:0:
320,192,107113,1,0,0:0:0:0:
192,192,107167,1,0,0:0:0:0:
64,192,107167,1,0,0:0:0:0:
320,192,107220,1,0,0:0:0:0:
448,192,107220,1,0,0:0:0:0:
192,192,107274,1,0,0:0:0:0:
64,192,107274,1,0,0:0:0:0:
320,192,107327,1,0,0:0:0:0:
448,192,107327,1,0,0:0:0:0:
192,192,107381,1,0,0:0:0:0:
64,192,107381,1,0,0:0:0:0:
448,192,107435,1,0,0:0:0:0:
320,192,107435,1,0,0:0:0:0:
192,192,107488,1,0,0:0:0:0:
64,192,107488,1,0,0:0:0:0:
448,192,107542,1,0,0:0:0:0:
320,192,107569,1,0,0:0:0:0:
192,192,107595,1,0,0:0:0:0:
64,192,107622,1,0,0:0:0:0:
448,192,107649,1,0,0:0:0:0:
320,192,107676,1,0,0:0:0:0:
192,192,107702,1,0,0:0:0:0:
320,192,107756,1,0,0:0:0:0:
448,192,107756,1,0,0:0:0:0:
192,192,107810,1,0,0:0:0:0:
64,192,107810,1,0,0:0:0:0:
320,192,107863,1,0,0:0:0:0:
448,192,107863,1,0,0:0:0:0:
192,192,107917,1,0,0:0:0:0:
64,192,107917,1,0,0:0:0:0:
320,192,107970,1,0,0:0:0:0:
448,192,107970,1,0,0:0:0:0:
64,192,108185,1,0,0:0:0:0:
192,192,108185,1,0,0:0:0:0:
320,192,108185,1,0,0:0:0:0:
448,192,108185,1,0,0:0:0:0:
192,192,108292,1,0,0:0:0:0:
64,192,108399,1,0,0:0:0:0:
448,192,108399,1,0,0:0:0:0:
64,192,108506,1,0,0:0:0:0:
320,192,108506,1,0,0:0:0:0:
64,192,108613,1,0,0:0:0:0:
192,192,108613,1,0,0:0:0:0:
320,192,108667,1,0,0:0:0:0:
448,192,108667,1,0,0:0:0:0:
192,192,108720,1,0,0:0:0:0:
64,192,108720,1,0,0:0:0:0:
320,192,108774,1,0,0:0:0:0:
448,192,108774,1,0,0:0:0:0:
192,192,108827,1,0,0:0:0:0:
64,192,108827,1,0,0:0:0:0:
320,192,108881,1,0,0:0:0:0:
448,192,108881,1,0,0:0:0:0:
192,192,108935,1,0,0:0:0:0:
64,192,108935,1,0,0:0:0:0:
320,192,108988,1,0,0:0:0:0:
448,192,108988,1,0,0:0:0:0:
192,192,109042,1,0,0:0:0:0:
64,192,109042,1,0,0:0:0:0:
320,192,109095,1,0,0:0:0:0:
448,192,109095,1,0,0:0:0:0:
192,192,109149,1,0,0:0:0:0:
64,192,109149,1,0,0:0:0:0:
320,192,109202,1,0,0:0:0:0:
448,192,109202,1,0,0:0:0:0:
64,192,109256,1,0,0:0:0:0:
192,192,109283,1,0,0:0:0:0:
448,192,109310,1,0,0:0:0:0:
320,192,109336,1,0,0:0:0:0:
64,192,109363,1,0,0:0:0:0:
192,192,109390,1,0,0:0:0:0:
320,192,109417,1,0,0:0:0:0:
192,192,109470,1,0,0:0:0:0:
64,192,109470,1,0,0:0:0:0:
320,192,109524,1,0,0:0:0:0:
448,192,109524,1,0,0:0:0:0:
192,192,109577,1,0,0:0:0:0:
64,192,109577,1,0,0:0:0:0:
320,192,109631,1,0,0:0:0:0:
448,192,109631,1,0,0:0:0:0:
64,192,109685,1,0,0:0:0:0:
192,192,109711,1,0,0:0:0:0:
320,192,109738,1,0,0:0:0:0:
64,192,109792,1,0,0:0:0:0:
448,192,109792,1,0,0:0:0:0:
320,192,109845,1,0,0:0:0:0:
192,192,109845,1,0,0:0:0:0:
64,192,109899,1,0,0:0:0:0:
192,192,109926,1,0,0:0:0:0:
320,192,109952,1,0,0:0:0:0:
448,192,109979,1,0,0:0:0:0:
64,192,110006,1,0,0:0:0:0:
192,192,110033,1,0,0:0:0:0:
320,192,110060,1,0,0:0:0:0:
448,192,110086,1,0,0:0:0:0:
64,192,110113,1,0,0:0:0:0:
192,192,110113,1,0,0:0:0:0:
192,192,110220,1,0,0:0:0:0:
64,192,110220,1,0,0:0:0:0:
320,192,110327,1,0,0:0:0:0:
448,192,110327,1,0,0:0:0:0:
192,192,110381,1,0,0:0:0:0:
64,192,110381,1,0,0:0:0:0:
320,192,110435,1,0,0:0:0:0:
448,192,110435,1,0,0:0:0:0:
192,192,110488,1,0,0:0:0:0:
64,192,110488,1,0,0:0:0:0:
320,192,110542,1,0,0:0:0:0:
448,192,110542,1,0,0:0:0:0:
192,192,110595,1,0,0:0:0:0:
64,192,110595,1,0,0:0:0:0:
320,192,110649,1,0,0:0:0:0:
448,192,110649,1,0,0:0:0:0:
192,192,110702,1,0,0:0:0:0:
64,192,110702,1,0,0:0:0:0:
320,192,110756,1,0,0:0:0:0:
448,192,110756,1,0,0:0:0:0:
192,192,110810,1,0,0:0:0:0:
64,192,110810,1,0,0:0:0:0:
320,192,110863,1,0,0:0:0:0:
448,192,110863,1,0,0:0:0:0:
192,192,110917,1,0,0:0:0:0:
64,192,110917,1,0,0:0:0:0:
448,192,110970,1,0,0:0:0:0:
320,192,110997,1,0,0:0:0:0:
64,192,111024,1,0,0:0:0:0:
192,192,111051,1,0,0:0:0:0:
448,192,111077,1,0,0:0:0:0:
320,192,111104,1,0,0:0:0:0:
64,192,111131,1,0,0:0:0:0:
192,192,111158,1,0,0:0:0:0:
320,192,111185,1,0,0:0:0:0:
448,192,111185,1,0,0:0:0:0:
64,192,112042,1,0,0:0:0:0:
448,192,112042,1,0,0:0:0:0:
192,192,112095,1,0,0:0:0:0:
320,192,112095,1,0,0:0:0:0:
448,192,112149,1,0,0:0:0:0:
64,192,112149,1,0,0:0:0:0:
192,192,112256,1,0,0:0:0:0:
320,192,112256,1,0,0:0:0:0:
192,192,112363,1,0,0:0:0:0:
320,192,112363,1,0,0:0:0:0:
192,192,112470,1,0,0:0:0:0:
64,192,112470,1,0,0:0:0:0:
320,192,112524,1,0,0:0:0:0:
448,192,112524,1,0,0:0:0:0:
64,192,112577,1,0,0:0:0:0:
192,192,112577,1,0,0:0:0:0:
448,192,112685,1,0,0:0:0:0:
320,192,112711,1,0,0:0:0:0:
64,192,112738,1,0,0:0:0:0:
192,192,112765,1,0,0:0:0:0:
320,192,112792,1,0,0:0:0:0:
448,192,112792,1,0,0:0:0:0:
64,192,112899,1,0,0:0:0:0:
192,192,112899,1,0,0:0:0:0:
320,192,112952,1,0,0:0:0:0:
448,192,112952,1,0,0:0:0:0:
192,192,113006,1,0,0:0:0:0:
64,192,113006,1,0,0:0:0:0:
448,192,113113,1,0,0:0:0:0:
320,192,113140,1,0,0:0:0:0:
64,192,113167,1,0,0:0:0:0:
192,192,113194,1,0,0:0:0:0:
320,192,113220,1,0,0:0:0:0:
448,192,113220,1,0,0:0:0:0:
64,192,113327,1,0,0:0:0:0:
192,192,113354,1,0,0:0:0:0:
320,192,113381,1,0,0:0:0:0:
448,192,113408,1,0,0:0:0:0:
64,192,113435,1,0,0:0:0:0:
192,192,113461,1,0,0:0:0:0:
320,192,113488,1,0,0:0:0:0:
448,192,113515,1,0,0:0:0:0:
192,192,113542,1,0,0:0:0:0:
64,192,113542,1,0,0:0:0:0:
64,192,113649,1,0,0:0:0:0:
192,192,113649,1,0,0:0:0:0:
320,192,113756,1,0,0:0:0:0:
448,192,113756,1,0,0:0:0:0:
192,192,113810,1,0,0:0:0:0:
64,192,113810,1,0,0:0:0:0:
448,192,113863,1,0,0:0:0:0:
320,192,113863,1,0,0:0:0:0:
64,192,113970,1,0,0:0:0:0:
192,192,113970,1,0,0:0:0:0:
192,192,114077,1,0,0:0:0:0:
64,192,114077,1,0,0:0:0:0:
64,192,114185,1,0,0:0:0:0:
448,192,114185,1,0,0:0:0:0:
192,192,114238,1,0,0:0:0:0:
320,192,114238,1,0,0:0:0:0:
64,192,114292,1,0,0:0:0:0:
448,192,114292,1,0,0:0:0:0:
192,192,114399,1,0,0:0:0:0:
320,192,114399,1,0,0:0:0:0:
64,192,114452,1,0,0:0:0:0:
448,192,114452,1,0,0:0:0:0:
320,192,114506,1,0,0:0:0:0:
192,192,114506,1,0,0:0:0:0:
448,192,114560,1,0,0:0:0:0:
64,192,114560,1,0,0:0:0:0:
320,192,114613,1,0,0:0:0:0:
192,192,114613,1,0,0:0:0:0:
320,192,114720,1,0,0:0:0:0:
192,192,114720,1,0,0:0:0:0:
448,192,114827,1,0,0:0:0:0:
64,192,114827,1,0,0:0:0:0:
320,192,114881,1,0,0:0:0:0:
192,192,114881,1,0,0:0:0:0:
448,192,114935,1,0,0:0:0:0:
64,192,114935,1,0,0:0:0:0:
320,192,114988,1,0,0:0:0:0:
192,192,114988,1,0,0:0:0:0:
448,192,115042,1,0,0:0:0:0:
64,192,115042,1,0,0:0:0:0:
192,192,115149,1,0,0:0:0:0:
320,192,115149,1,0,0:0:0:0:
192,192,115256,1,0,0:0:0:0:
64,192,115256,1,0,0:0:0:0:
448,192,115256,1,0,0:0:0:0:
64,192,115363,1,0,0:0:0:0:
192,192,115363,1,0,0:0:0:0:
320,192,115470,1,0,0:0:0:0:
448,192,115470,1,0,0:0:0:0:
192,192,115524,1,0,0:0:0:0:
64,192,115524,1,0,0:0:0:0:
320,192,115577,1,0,0:0:0:0:
448,192,115577,1,0,0:0:0:0:
64,192,115685,1,0,0:0:0:0:
192,192,115685,1,0,0:0:0:0:
64,192,115792,1,0,0:0:0:0:
320,192,115792,1,0,0:0:0:0:
192,192,115899,1,0,0:0:0:0:
448,192,115899,1,0,0:0:0:0:
320,192,115952,1,0,0:0:0:0:
64,192,115952,1,0,0:0:0:0:
192,192,116006,1,0,0:0:0:0:
448,192,116006,1,0,0:0:0:0:
64,192,116113,1,0,0:0:0:0:
192,192,116140,1,0,0:0:0:0:
448,192,116167,1,0,0:0:0:0:
320,192,116194,1,0,0:0:0:0:
192,192,116220,1,0,0:0:0:0:
64,192,116220,1,0,0:0:0:0:
320,192,116327,1,0,0:0:0:0:
448,192,116327,1,0,0:0:0:0:
192,192,116381,1,0,0:0:0:0:
64,192,116381,1,0,0:0:0:0:
320,192,116435,1,0,0:0:0:0:
448,192,116435,1,0,0:0:0:0:
192,192,116488,1,0,0:0:0:0:
64,192,116488,1,0,0:0:0:0:
320,192,116542,1,0,0:0:0:0:
448,192,116542,1,0,0:0:0:0:
192,192,116595,1,0,0:0:0:0:
64,192,116595,1,0,0:0:0:0:
320,192,116649,1,0,0:0:0:0:
448,192,116649,1,0,0:0:0:0:
192,192,116702,1,0,0:0:0:0:
64,192,116702,1,0,0:0:0:0:
320,192,116756,1,0,0:0:0:0:
448,192,116756,1,0,0:0:0:0:
320,192,116970,1,0,0:0:0:0:
448,192,116970,1,0,0:0:0:0:
64,192,117185,1,0,0:0:0:0:
192,192,117211,1,0,0:0:0:0:
320,192,117238,1,0,0:0:0:0:
448,192,117265,1,0,0:0:0:0:
64,192,117292,1,0,0:0:0:0:
192,192,117319,1,0,0:0:0:0:
320,192,117345,1,0,0:0:0:0:
448,192,117372,1,0,0:0:0:0:
64,192,117399,1,0,0:0:0:0:
192,192,117426,1,0,0:0:0:0:
320,192,117452,1,0,0:0:0:0:
448,192,117479,1,0,0:0:0:0:
64,192,117506,1,0,0:0:0:0:
192,192,117533,1,0,0:0:0:0:
320,192,117560,1,0,0:0:0:0:
448,192,117586,1,0,0:0:0:0:
64,192,117613,1,0,0:0:0:0:
192,192,117640,1,0,0:0:0:0:
320,192,117667,1,0,0:0:0:0:
448,192,117694,1,0,0:0:0:0:
64,192,117720,1,0,0:0:0:0:
192,192,117747,1,0,0:0:0:0:
320,192,117774,1,0,0:0:0:0:
448,192,117801,1,0,0:0:0:0:
64,192,117827,1,0,0:0:0:0:
192,192,117854,1,0,0:0:0:0:
448,192,117881,1,0,0:0:0:0:
320,192,117908,1,0,0:0:0:0:
64,192,117935,1,0,0:0:0:0:
192,192,117961,1,0,0:0:0:0:
448,192,117988,1,0,0:0:0:0:
320,192,118015,1,0,0:0:0:0:
64,192,118042,128,0,119702:0:0:0:0:
192,192,118042,128,0,118631:0:0:0:0:
320,192,118631,1,0,0:0:0:0:
192,192,118685,128,0,119595:0:0:0:0:
448,192,119595,1,0,0:0:0:0:
192,192,119649,128,0,119702:0:0:0:0:
