osu file format v14

[General]
AudioFilename: audio.mp3
AudioLeadIn: 0
PreviewTime: 35957
Countdown: 0
SampleSet: Soft
StackLeniency: 0.7
Mode: 3
LetterboxInBreaks: 0
SpecialStyle: 0
WidescreenStoryboard: 1

[Editor]
Bookmarks: 15746,25852,35957,56167,76378,86483,97457,98265,104936,119729
DistanceSpacing: 0.8
BeatDivisor: 8
GridSize: 32
TimelineZoom: 2

[Metadata]
Title:Rebuilding of Paradise Lost
TitleUnicode:Rebuilding of Paradise Lost
Artist:Laur
ArtistUnicode:Laur
Creator:Knif3rism
Version:Rebuilding Paradise - Insane
Source:SOUND VOLTEX IV Heavenly Haven
Tags:Ryu*, L.E.D.-G, PARADISE LOST, beatmania IIDX 18 Resort Anthem, Starlight, Album, Launch, Remix, Contest, Tsumabuki, Bemani, BMS, Novice, Advanced, Exhaust, Maximum
BeatmapID:1185595
BeatmapSetID:560651

[Difficulty]
HPDrainRate:8
CircleSize:4
OverallDifficulty:8.5
ApproachRate:5
SliderMultiplier:1.4
SliderTickRate:1

[Events]
//Background and Video events
0,0,"bg.jpg",0,0
//Break Periods
//Storyboard Layer 0 (Background)
//Storyboard Layer 1 (Fail)
//Storyboard Layer 2 (Pass)
//Storyboard Layer 3 (Foreground)
//Storyboard Sound Samples

[TimingPoints]
1852,315.789473684211,4,2,0,50,1,0
1852,-99.9999999999999,4,2,0,50,0,0
98325,214.285714285714,4,2,0,50,1,0
98325,-147.368421052632,4,2,0,50,0,0
98432,-147.368421052632,4,2,0,50,0,1
104860,-147.368421052632,4,2,0,50,0,0
105182,-147.368421052632,4,2,0,50,0,1
107967,-147.368421052632,4,2,0,50,0,0
108610,-147.368421052632,4,2,0,50,0,1
111182,-147.368421052632,4,2,0,50,0,0

[HitObjects]
64,192,1852,128,0,3115:0:0:0:0:
448,192,1852,1,0,0:0:0:0:
320,192,1852,1,0,0:0:0:0:
192,192,5641,1,0,0:0:0:0:
448,192,5641,1,0,0:0:0:0:
320,192,5799,1,0,0:0:0:0:
192,192,5957,1,0,0:0:0:0:
320,192,6115,1,0,0:0:0:0:
64,192,6273,1,0,0:0:0:0:
192,192,6430,1,0,0:0:0:0:
320,192,6588,1,0,0:0:0:0:
448,192,6746,1,0,0:0:0:0:
320,192,6904,1,0,0:0:0:0:
64,192,7062,1,0,0:0:0:0:
192,192,7220,1,0,0:0:0:0:
320,192,7378,1,0,0:0:0:0:
448,192,7536,1,0,0:0:0:0:
192,192,7694,1,0,0:0:0:0:
64,192,7852,1,0,0:0:0:0:
192,192,8009,1,0,0:0:0:0:
320,192,8167,1,0,0:0:0:0:
448,192,8167,1,0,0:0:0:0:
192,192,8325,1,0,0:0:0:0:
64,192,8483,1,0,0:0:0:0:
448,192,8641,1,0,0:0:0:0:
320,192,8799,1,0,0:0:0:0:
192,192,8957,1,0,0:0:0:0:
64,192,9115,1,0,0:0:0:0:
192,192,9273,1,0,0:0:0:0:
448,192,9430,1,0,0:0:0:0:
320,192,9588,1,0,0:0:0:0:
192,192,9746,1,0,0:0:0:0:
64,192,9904,1,0,0:0:0:0:
320,192,10062,1,0,0:0:0:0:
192,192,10220,1,0,0:0:0:0:
64,192,10378,1,0,0:0:0:0:
448,192,10536,1,0,0:0:0:0:
64,192,10694,1,0,0:0:0:0:
320,192,10694,1,0,0:0:0:0:
192,192,10852,1,0,0:0:0:0:
64,192,11009,1,0,0:0:0:0:
448,192,11167,1,0,0:0:0:0:
320,192,11325,1,0,0:0:0:0:
192,192,11483,1,0,0:0:0:0:
320,192,11641,1,0,0:0:0:0:
64,192,11799,1,0,0:0:0:0:
192,192,11957,1,0,0:0:0:0:
448,192,12115,1,0,0:0:0:0:
320,192,12273,1,0,0:0:0:0:
192,192,12430,1,0,0:0:0:0:
64,192,12588,1,0,0:0:0:0:
192,192,12746,1,0,0:0:0:0:
448,192,12904,1,0,0:0:0:0:
320,192,13062,1,0,0:0:0:0:
64,192,13220,1,0,0:0:0:0:
192,192,13220,1,0,0:0:0:0:
320,192,13378,1,0,0:0:0:0:
448,192,13536,1,0,0:0:0:0:
320,192,13694,1,0,0:0:0:0:
192,192,13852,1,0,0:0:0:0:
64,192,14009,1,0,0:0:0:0:
448,192,14167,1,0,0:0:0:0:
320,192,14325,1,0,0:0:0:0:
192,192,14641,1,0,0:0:0:0:
64,192,15115,1,0,0:0:0:0:
320,192,15115,1,0,0:0:0:0:
448,192,15430,1,0,0:0:0:0:
320,192,15588,1,0,0:0:0:0:
64,192,15746,1,0,0:0:0:0:
448,192,15746,128,0,15904:0:0:0:0:
192,192,15904,1,0,0:0:0:0:
320,192,16062,1,0,0:0:0:0:
448,192,16220,1,0,0:0:0:0:
192,192,16378,1,0,0:0:0:0:
320,192,16536,1,0,0:0:0:0:
192,192,16694,1,0,0:0:0:0:
64,192,16852,1,0,0:0:0:0:
192,192,17009,1,0,0:0:0:0:
448,192,17009,128,0,17167:0:0:0:0:
320,192,17167,1,0,0:0:0:0:
192,192,17325,1,0,0:0:0:0:
64,192,17483,1,0,0:0:0:0:
448,192,17641,1,0,0:0:0:0:
192,192,17641,128,0,17799:0:0:0:0:
320,192,17799,1,0,0:0:0:0:
448,192,17957,1,0,0:0:0:0:
64,192,18115,1,0,0:0:0:0:
320,192,18273,1,0,0:0:0:0:
192,192,18273,128,0,18430:0:0:0:0:
448,192,18430,1,0,0:0:0:0:
320,192,18588,1,0,0:0:0:0:
192,192,18746,1,0,0:0:0:0:
64,192,18904,1,0,0:0:0:0:
320,192,19062,1,0,0:0:0:0:
192,192,19220,1,0,0:0:0:0:
64,192,19378,1,0,0:0:0:0:
320,192,19536,1,0,0:0:0:0:
448,192,19536,128,0,19694:0:0:0:0:
64,192,19694,1,0,0:0:0:0:
192,192,19852,1,0,0:0:0:0:
320,192,20009,1,0,0:0:0:0:
448,192,20167,1,0,0:0:0:0:
192,192,20167,128,0,20325:0:0:0:0:
64,192,20325,1,0,0:0:0:0:
192,192,20483,1,0,0:0:0:0:
320,192,20641,1,0,0:0:0:0:
448,192,20799,1,0,0:0:0:0:
64,192,20799,128,0,20957:0:0:0:0:
320,192,20957,1,0,0:0:0:0:
192,192,21115,1,0,0:0:0:0:
64,192,21273,1,0,0:0:0:0:
320,192,21430,1,0,0:0:0:0:
448,192,21588,1,0,0:0:0:0:
192,192,21746,1,0,0:0:0:0:
64,192,21904,1,0,0:0:0:0:
192,192,22062,1,0,0:0:0:0:
448,192,22062,128,0,22220:0:0:0:0:
320,192,22220,1,0,0:0:0:0:
64,192,22378,1,0,0:0:0:0:
192,192,22536,1,0,0:0:0:0:
320,192,22694,1,0,0:0:0:0:
64,192,22694,128,0,22852:0:0:0:0:
448,192,22852,1,0,0:0:0:0:
320,192,23009,1,0,0:0:0:0:
192,192,23167,1,0,0:0:0:0:
64,192,23325,1,0,0:0:0:0:
448,192,23325,128,0,23483:0:0:0:0:
320,192,23483,1,0,0:0:0:0:
192,192,23641,1,0,0:0:0:0:
64,192,23799,1,0,0:0:0:0:
192,192,23957,1,0,0:0:0:0:
320,192,24115,1,0,0:0:0:0:
448,192,24273,1,0,0:0:0:0:
320,192,24430,1,0,0:0:0:0:
192,192,24588,1,0,0:0:0:0:
448,192,24588,128,0,24746:0:0:0:0:
64,192,24746,1,0,0:0:0:0:
192,192,24904,1,0,0:0:0:0:
320,192,25062,1,0,0:0:0:0:
64,192,25220,128,0,25536:0:0:0:0:
448,192,25220,128,0,25536:0:0:0:0:
320,192,25852,1,0,0:0:0:0:
64,192,25852,1,0,0:0:0:0:
448,192,26009,1,0,0:0:0:0:
320,192,26088,1,0,0:0:0:0:
64,192,26167,1,0,0:0:0:0:
192,192,26167,1,0,0:0:0:0:
64,192,26325,1,0,0:0:0:0:
192,192,26404,1,0,0:0:0:0:
448,192,26483,1,0,0:0:0:0:
320,192,26483,1,0,0:0:0:0:
64,192,26641,1,0,0:0:0:0:
192,192,26720,1,0,0:0:0:0:
320,192,26799,1,0,0:0:0:0:
64,192,26799,1,0,0:0:0:0:
192,192,26957,1,0,0:0:0:0:
320,192,27036,1,0,0:0:0:0:
448,192,27115,1,0,0:0:0:0:
192,192,27115,1,0,0:0:0:0:
320,192,27273,1,0,0:0:0:0:
192,192,27352,1,0,0:0:0:0:
64,192,27430,1,0,0:0:0:0:
448,192,27430,1,0,0:0:0:0:
192,192,27588,1,0,0:0:0:0:
320,192,27667,1,0,0:0:0:0:
448,192,27746,1,0,0:0:0:0:
64,192,27746,1,0,0:0:0:0:
192,192,27904,1,0,0:0:0:0:
320,192,27983,1,0,0:0:0:0:
448,192,28062,1,0,0:0:0:0:
192,192,28062,1,0,0:0:0:0:
64,192,28220,1,0,0:0:0:0:
192,192,28299,1,0,0:0:0:0:
448,192,28378,1,0,0:0:0:0:
320,192,28378,1,0,0:0:0:0:
320,192,28536,1,0,0:0:0:0:
192,192,28615,1,0,0:0:0:0:
64,192,28694,1,0,0:0:0:0:
448,192,28694,1,0,0:0:0:0:
320,192,28852,1,0,0:0:0:0:
192,192,28930,1,0,0:0:0:0:
64,192,29009,1,0,0:0:0:0:
320,192,29009,1,0,0:0:0:0:
448,192,29167,1,0,0:0:0:0:
320,192,29246,1,0,0:0:0:0:
64,192,29325,1,0,0:0:0:0:
192,192,29325,1,0,0:0:0:0:
192,192,29483,1,0,0:0:0:0:
320,192,29562,1,0,0:0:0:0:
448,192,29641,1,0,0:0:0:0:
64,192,29641,1,0,0:0:0:0:
320,192,29799,1,0,0:0:0:0:
192,192,29878,1,0,0:0:0:0:
64,192,29957,1,0,0:0:0:0:
448,192,29957,1,0,0:0:0:0:
192,192,30115,1,0,0:0:0:0:
320,192,30194,1,0,0:0:0:0:
64,192,30273,128,0,30904:0:0:0:0:
448,192,30273,128,0,30904:0:0:0:0:
192,192,30904,1,0,0:0:0:0:
320,192,30983,1,0,0:0:0:0:
64,192,31062,1,0,0:0:0:0:
192,192,31141,1,0,0:0:0:0:
320,192,31220,1,0,0:0:0:0:
448,192,31220,1,0,0:0:0:0:
64,192,31299,1,0,0:0:0:0:
192,192,31378,1,0,0:0:0:0:
320,192,31457,1,0,0:0:0:0:
64,192,31536,1,0,0:0:0:0:
448,192,31536,1,0,0:0:0:0:
192,192,31615,1,0,0:0:0:0:
320,192,31694,1,0,0:0:0:0:
448,192,31773,1,0,0:0:0:0:
64,192,31852,1,0,0:0:0:0:
192,192,31852,1,0,0:0:0:0:
320,192,31930,1,0,0:0:0:0:
192,192,32009,1,0,0:0:0:0:
64,192,32088,1,0,0:0:0:0:
448,192,32167,1,0,0:0:0:0:
192,192,32167,1,0,0:0:0:0:
320,192,32246,1,0,0:0:0:0:
192,192,32325,1,0,0:0:0:0:
64,192,32404,1,0,0:0:0:0:
320,192,32483,1,0,0:0:0:0:
448,192,32483,1,0,0:0:0:0:
192,192,32562,1,0,0:0:0:0:
64,192,32641,1,0,0:0:0:0:
448,192,32720,1,0,0:0:0:0:
320,192,32799,1,0,0:0:0:0:
64,192,32799,1,0,0:0:0:0:
192,192,32878,1,0,0:0:0:0:
320,192,32957,1,0,0:0:0:0:
448,192,33036,1,0,0:0:0:0:
192,192,33115,1,0,0:0:0:0:
64,192,33115,1,0,0:0:0:0:
320,192,33194,1,0,0:0:0:0:
448,192,33273,1,0,0:0:0:0:
64,192,33352,1,0,0:0:0:0:
192,192,33430,1,0,0:0:0:0:
448,192,33430,1,0,0:0:0:0:
320,192,33509,1,0,0:0:0:0:
64,192,33588,1,0,0:0:0:0:
192,192,33588,1,0,0:0:0:0:
320,192,33667,1,0,0:0:0:0:
64,192,33746,1,0,0:0:0:0:
448,192,33746,1,0,0:0:0:0:
192,192,33825,1,0,0:0:0:0:
320,192,33904,1,0,0:0:0:0:
448,192,33904,1,0,0:0:0:0:
64,192,33983,1,0,0:0:0:0:
192,192,34062,1,0,0:0:0:0:
320,192,34062,1,0,0:0:0:0:
448,192,34141,1,0,0:0:0:0:
64,192,34220,1,0,0:0:0:0:
320,192,34220,1,0,0:0:0:0:
192,192,34299,1,0,0:0:0:0:
320,192,34378,1,0,0:0:0:0:
448,192,34378,1,0,0:0:0:0:
64,192,34457,1,0,0:0:0:0:
448,192,34536,1,0,0:0:0:0:
192,192,34536,1,0,0:0:0:0:
320,192,34615,1,0,0:0:0:0:
64,192,34694,1,0,0:0:0:0:
192,192,34694,1,0,0:0:0:0:
64,192,35009,1,0,0:0:0:0:
192,192,35009,1,0,0:0:0:0:
320,192,35167,1,0,0:0:0:0:
448,192,35167,1,0,0:0:0:0:
448,192,35325,1,0,0:0:0:0:
192,192,35325,1,0,0:0:0:0:
64,192,35483,1,0,0:0:0:0:
320,192,35483,1,0,0:0:0:0:
192,192,35641,1,0,0:0:0:0:
320,192,35641,1,0,0:0:0:0:
448,192,35799,1,0,0:0:0:0:
192,192,35799,1,0,0:0:0:0:
64,192,35957,1,0,0:0:0:0:
320,192,35957,1,0,0:0:0:0:
448,192,35957,1,0,0:0:0:0:
192,192,36115,1,0,0:0:0:0:
448,192,36273,1,0,0:0:0:0:
64,192,36273,1,0,0:0:0:0:
320,192,36273,1,0,0:0:0:0:
320,192,36430,1,0,0:0:0:0:
192,192,36588,1,0,0:0:0:0:
64,192,36588,1,0,0:0:0:0:
448,192,36588,1,0,0:0:0:0:
320,192,36746,1,0,0:0:0:0:
192,192,36904,1,0,0:0:0:0:
448,192,36904,1,0,0:0:0:0:
320,192,36904,1,0,0:0:0:0:
64,192,37062,1,0,0:0:0:0:
448,192,37220,128,0,37536:0:0:0:0:
192,192,37220,1,0,0:0:0:0:
64,192,37220,1,0,0:0:0:0:
192,192,37536,128,0,37852:0:0:0:0:
64,192,37536,1,0,0:0:0:0:
320,192,37852,128,0,38167:0:0:0:0:
448,192,37852,1,0,0:0:0:0:
64,192,38167,128,0,38483:0:0:0:0:
192,192,38167,1,0,0:0:0:0:
320,192,38483,1,0,0:0:0:0:
448,192,38483,1,0,0:0:0:0:
192,192,38641,1,0,0:0:0:0:
448,192,38799,1,0,0:0:0:0:
64,192,38799,1,0,0:0:0:0:
320,192,38799,1,0,0:0:0:0:
320,192,38957,1,0,0:0:0:0:
448,192,39115,1,0,0:0:0:0:
64,192,39115,1,0,0:0:0:0:
192,192,39115,1,0,0:0:0:0:
448,192,39273,1,0,0:0:0:0:
64,192,39430,1,0,0:0:0:0:
192,192,39430,1,0,0:0:0:0:
320,192,39430,1,0,0:0:0:0:
64,192,39588,1,0,0:0:0:0:
320,192,39746,128,0,40062:0:0:0:0:
448,192,39746,1,0,0:0:0:0:
192,192,39746,1,0,0:0:0:0:
192,192,40062,128,0,40378:0:0:0:0:
64,192,40062,1,0,0:0:0:0:
64,192,40378,128,0,40694:0:0:0:0:
448,192,40378,1,0,0:0:0:0:
192,192,40694,128,0,41009:0:0:0:0:
320,192,40694,1,0,0:0:0:0:
448,192,41009,1,0,0:0:0:0:
64,192,41009,1,0,0:0:0:0:
192,192,41167,1,0,0:0:0:0:
320,192,41325,1,0,0:0:0:0:
64,192,41325,1,0,0:0:0:0:
192,192,41325,1,0,0:0:0:0:
448,192,41483,1,0,0:0:0:0:
64,192,41641,1,0,0:0:0:0:
448,192,41641,1,0,0:0:0:0:
320,192,41641,1,0,0:0:0:0:
320,192,41799,1,0,0:0:0:0:
192,192,41957,1,0,0:0:0:0:
448,192,41957,1,0,0:0:0:0:
64,192,41957,1,0,0:0:0:0:
64,192,42115,1,0,0:0:0:0:
320,192,42273,128,0,42352:0:0:0:0:
448,192,42273,1,0,0:0:0:0:
192,192,42273,1,0,0:0:0:0:
320,192,42430,128,0,42509:0:0:0:0:
192,192,42588,1,0,0:0:0:0:
64,192,42588,128,0,42667:0:0:0:0:
64,192,42746,128,0,42825:0:0:0:0:
192,192,42904,1,0,0:0:0:0:
448,192,42904,128,0,42983:0:0:0:0:
448,192,43062,128,0,43141:0:0:0:0:
192,192,43220,128,0,43536:0:0:0:0:
320,192,43220,1,0,0:0:0:0:
64,192,43536,1,0,0:0:0:0:
448,192,43536,1,0,0:0:0:0:
320,192,43694,1,0,0:0:0:0:
64,192,43852,1,0,0:0:0:0:
192,192,43852,1,0,0:0:0:0:
448,192,43852,1,0,0:0:0:0:
320,192,44009,1,0,0:0:0:0:
192,192,44167,1,0,0:0:0:0:
448,192,44167,1,0,0:0:0:0:
320,192,44167,1,0,0:0:0:0:
64,192,44325,1,0,0:0:0:0:
192,192,44483,1,0,0:0:0:0:
320,192,44483,1,0,0:0:0:0:
64,192,44483,1,0,0:0:0:0:
448,192,44641,1,0,0:0:0:0:
64,192,44799,128,0,46062:0:0:0:0:
320,192,44799,1,0,0:0:0:0:
192,192,44799,1,0,0:0:0:0:
448,192,45036,1,0,0:0:0:0:
192,192,45036,1,0,0:0:0:0:
448,192,45273,1,0,0:0:0:0:
320,192,45273,1,0,0:0:0:0:
192,192,45509,1,0,0:0:0:0:
448,192,45509,1,0,0:0:0:0:
320,192,45746,1,0,0:0:0:0:
192,192,45746,1,0,0:0:0:0:
448,192,46062,1,0,0:0:0:0:
192,192,46062,1,0,0:0:0:0:
320,192,46220,1,0,0:0:0:0:
448,192,46378,1,0,0:0:0:0:
64,192,46378,1,0,0:0:0:0:
320,192,46378,1,0,0:0:0:0:
192,192,46536,1,0,0:0:0:0:
320,192,46694,1,0,0:0:0:0:
64,192,46694,1,0,0:0:0:0:
192,192,46694,1,0,0:0:0:0:
448,192,46852,1,0,0:0:0:0:
192,192,47009,1,0,0:0:0:0:
320,192,47009,1,0,0:0:0:0:
448,192,47009,1,0,0:0:0:0:
64,192,47167,1,0,0:0:0:0:
192,192,47325,1,0,0:0:0:0:
64,192,47325,1,0,0:0:0:0:
448,192,47325,128,0,47404:0:0:0:0:
448,192,47483,128,0,47562:0:0:0:0:
64,192,47641,1,0,0:0:0:0:
320,192,47641,128,0,47720:0:0:0:0:
320,192,47799,128,0,47878:0:0:0:0:
192,192,47957,128,0,48273:0:0:0:0:
448,192,47957,1,0,0:0:0:0:
64,192,48273,128,0,48588:0:0:0:0:
320,192,48273,1,0,0:0:0:0:
448,192,48588,1,0,0:0:0:0:
192,192,48588,1,0,0:0:0:0:
320,192,48746,1,0,0:0:0:0:
448,192,48904,1,0,0:0:0:0:
192,192,48904,1,0,0:0:0:0:
64,192,48904,1,0,0:0:0:0:
320,192,49062,1,0,0:0:0:0:
448,192,49220,1,0,0:0:0:0:
64,192,49220,1,0,0:0:0:0:
320,192,49220,1,0,0:0:0:0:
192,192,49378,1,0,0:0:0:0:
448,192,49536,1,0,0:0:0:0:
64,192,49536,1,0,0:0:0:0:
192,192,49536,1,0,0:0:0:0:
320,192,49694,1,0,0:0:0:0:
448,192,49852,1,0,0:0:0:0:
320,192,49852,1,0,0:0:0:0:
64,192,49852,128,0,49930:0:0:0:0:
64,192,50009,128,0,50088:0:0:0:0:
192,192,50167,1,0,0:0:0:0:
448,192,50167,128,0,50246:0:0:0:0:
448,192,50325,128,0,50404:0:0:0:0:
320,192,50483,128,0,50799:0:0:0:0:
64,192,50483,1,0,0:0:0:0:
192,192,50799,1,0,0:0:0:0:
64,192,50799,1,0,0:0:0:0:
448,192,50957,1,0,0:0:0:0:
192,192,51115,1,0,0:0:0:0:
320,192,51115,1,0,0:0:0:0:
64,192,51115,1,0,0:0:0:0:
64,192,51273,1,0,0:0:0:0:
192,192,51430,1,0,0:0:0:0:
448,192,51430,1,0,0:0:0:0:
320,192,51430,1,0,0:0:0:0:
320,192,51588,1,0,0:0:0:0:
64,192,51746,1,0,0:0:0:0:
448,192,51746,1,0,0:0:0:0:
192,192,51746,1,0,0:0:0:0:
192,192,51904,1,0,0:0:0:0:
320,192,52062,1,0,0:0:0:0:
448,192,52062,1,0,0:0:0:0:
64,192,52062,1,0,0:0:0:0:
192,192,52220,1,0,0:0:0:0:
320,192,52378,1,0,0:0:0:0:
64,192,52378,128,0,52457:0:0:0:0:
192,192,52378,1,0,0:0:0:0:
64,192,52536,128,0,52615:0:0:0:0:
192,192,52694,1,0,0:0:0:0:
448,192,52694,128,0,52773:0:0:0:0:
448,192,52852,128,0,52930:0:0:0:0:
320,192,53009,1,0,0:0:0:0:
192,192,53009,128,0,53088:0:0:0:0:
192,192,53167,128,0,53246:0:0:0:0:
320,192,53325,128,0,53641:0:0:0:0:
64,192,53325,1,0,0:0:0:0:
448,192,53641,1,0,0:0:0:0:
64,192,53641,1,0,0:0:0:0:
192,192,53799,1,0,0:0:0:0:
64,192,53957,1,0,0:0:0:0:
320,192,53957,1,0,0:0:0:0:
448,192,53957,1,0,0:0:0:0:
448,192,54115,1,0,0:0:0:0:
192,192,54273,1,0,0:0:0:0:
320,192,54273,1,0,0:0:0:0:
64,192,54273,1,0,0:0:0:0:
64,192,54430,1,0,0:0:0:0:
448,192,54588,1,0,0:0:0:0:
192,192,54588,1,0,0:0:0:0:
320,192,54588,1,0,0:0:0:0:
320,192,54746,1,0,0:0:0:0:
64,192,54904,128,0,55536:0:0:0:0:
192,192,54904,1,0,0:0:0:0:
192,192,55220,128,0,55536:0:0:0:0:
320,192,55536,128,0,56167:0:0:0:0:
448,192,55536,1,0,0:0:0:0:
448,192,55852,128,0,56167:0:0:0:0:
192,192,56167,128,0,56483:0:0:0:0:
64,192,56167,1,0,0:0:0:0:
320,192,56325,1,0,0:0:0:0:
448,192,56325,1,0,0:0:0:0:
64,192,56483,1,0,0:0:0:0:
448,192,56483,1,0,0:0:0:0:
320,192,56641,128,0,56799:0:0:0:0:
64,192,56641,1,0,0:0:0:0:
448,192,56799,128,0,57115:0:0:0:0:
192,192,56799,1,0,0:0:0:0:
320,192,56957,1,0,0:0:0:0:
64,192,56957,1,0,0:0:0:0:
320,192,57115,1,0,0:0:0:0:
192,192,57115,1,0,0:0:0:0:
64,192,57273,1,0,0:0:0:0:
448,192,57273,1,0,0:0:0:0:
320,192,57430,128,0,58062:0:0:0:0:
192,192,57430,1,0,0:0:0:0:
64,192,57588,1,0,0:0:0:0:
448,192,57588,1,0,0:0:0:0:
192,192,57746,1,0,0:0:0:0:
448,192,57746,1,0,0:0:0:0:
64,192,57904,1,0,0:0:0:0:
448,192,57904,1,0,0:0:0:0:
64,192,58062,128,0,58694:0:0:0:0:
192,192,58062,1,0,0:0:0:0:
320,192,58220,1,0,0:0:0:0:
448,192,58220,1,0,0:0:0:0:
192,192,58378,1,0,0:0:0:0:
320,192,58378,1,0,0:0:0:0:
192,192,58536,1,0,0:0:0:0:
448,192,58536,1,0,0:0:0:0:
192,192,58694,128,0,59009:0:0:0:0:
320,192,58694,1,0,0:0:0:0:
448,192,58852,1,0,0:0:0:0:
64,192,58852,1,0,0:0:0:0:
64,192,59009,1,0,0:0:0:0:
320,192,59009,1,0,0:0:0:0:
192,192,59167,128,0,59325:0:0:0:0:
448,192,59167,1,0,0:0:0:0:
64,192,59325,128,0,59641:0:0:0:0:
320,192,59325,1,0,0:0:0:0:
320,192,59483,1,0,0:0:0:0:
448,192,59483,1,0,0:0:0:0:
192,192,59641,1,0,0:0:0:0:
448,192,59641,1,0,0:0:0:0:
64,192,59799,1,0,0:0:0:0:
320,192,59799,1,0,0:0:0:0:
192,192,59957,128,0,60273:0:0:0:0:
320,192,59957,1,0,0:0:0:0:
64,192,60115,1,0,0:0:0:0:
448,192,60115,1,0,0:0:0:0:
64,192,60273,1,0,0:0:0:0:
448,192,60273,128,0,60588:0:0:0:0:
192,192,60352,1,0,0:0:0:0:
320,192,60430,1,0,0:0:0:0:
192,192,60509,1,0,0:0:0:0:
64,192,60588,128,0,60904:0:0:0:0:
320,192,60588,1,0,0:0:0:0:
448,192,60667,1,0,0:0:0:0:
192,192,60746,1,0,0:0:0:0:
320,192,60825,1,0,0:0:0:0:
192,192,60904,128,0,61220:0:0:0:0:
448,192,60904,1,0,0:0:0:0:
320,192,60983,1,0,0:0:0:0:
64,192,61062,1,0,0:0:0:0:
320,192,61141,1,0,0:0:0:0:
64,192,61220,1,0,0:0:0:0:
448,192,61220,128,0,61536:0:0:0:0:
320,192,61378,1,0,0:0:0:0:
64,192,61378,1,0,0:0:0:0:
64,192,61536,1,0,0:0:0:0:
192,192,61536,1,0,0:0:0:0:
320,192,61694,128,0,61852:0:0:0:0:
64,192,61694,1,0,0:0:0:0:
192,192,61852,128,0,62167:0:0:0:0:
448,192,61852,1,0,0:0:0:0:
320,192,62009,1,0,0:0:0:0:
64,192,62009,1,0,0:0:0:0:
448,192,62167,1,0,0:0:0:0:
64,192,62167,1,0,0:0:0:0:
448,192,62325,1,0,0:0:0:0:
320,192,62325,1,0,0:0:0:0:
320,192,62483,128,0,63115:0:0:0:0:
192,192,62483,1,0,0:0:0:0:
448,192,62641,1,0,0:0:0:0:
192,192,62641,1,0,0:0:0:0:
448,192,62799,1,0,0:0:0:0:
64,192,62799,1,0,0:0:0:0:
192,192,62957,1,0,0:0:0:0:
64,192,62957,1,0,0:0:0:0:
64,192,63115,128,0,63746:0:0:0:0:
448,192,63115,1,0,0:0:0:0:
320,192,63273,1,0,0:0:0:0:
448,192,63273,1,0,0:0:0:0:
192,192,63430,1,0,0:0:0:0:
448,192,63430,1,0,0:0:0:0:
192,192,63588,1,0,0:0:0:0:
320,192,63588,1,0,0:0:0:0:
192,192,63746,128,0,64062:0:0:0:0:
448,192,63746,1,0,0:0:0:0:
320,192,63904,1,0,0:0:0:0:
64,192,63904,1,0,0:0:0:0:
64,192,64062,1,0,0:0:0:0:
448,192,64062,1,0,0:0:0:0:
320,192,64220,128,0,64378:0:0:0:0:
64,192,64220,1,0,0:0:0:0:
448,192,64378,128,0,64694:0:0:0:0:
192,192,64378,1,0,0:0:0:0:
64,192,64536,1,0,0:0:0:0:
192,192,64536,1,0,0:0:0:0:
320,192,64694,1,0,0:0:0:0:
64,192,64694,1,0,0:0:0:0:
320,192,64852,1,0,0:0:0:0:
448,192,64852,1,0,0:0:0:0:
64,192,65009,128,0,65641:0:0:0:0:
192,192,65009,1,0,0:0:0:0:
448,192,65167,1,0,0:0:0:0:
192,192,65167,1,0,0:0:0:0:
448,192,65325,1,0,0:0:0:0:
320,192,65325,1,0,0:0:0:0:
192,192,65483,1,0,0:0:0:0:
448,192,65483,1,0,0:0:0:0:
320,192,65641,128,0,66273:0:0:0:0:
192,192,65641,1,0,0:0:0:0:
448,192,65799,1,0,0:0:0:0:
64,192,65799,1,0,0:0:0:0:
448,192,65957,1,0,0:0:0:0:
192,192,65957,1,0,0:0:0:0:
64,192,66115,1,0,0:0:0:0:
192,192,66115,1,0,0:0:0:0:
192,192,66273,128,0,66588:0:0:0:0:
64,192,66273,1,0,0:0:0:0:
448,192,66430,1,0,0:0:0:0:
320,192,66430,1,0,0:0:0:0:
64,192,66588,1,0,0:0:0:0:
320,192,66588,1,0,0:0:0:0:
192,192,66746,128,0,66904:0:0:0:0:
448,192,66746,1,0,0:0:0:0:
320,192,66904,128,0,67220:0:0:0:0:
64,192,66904,1,0,0:0:0:0:
448,192,67062,1,0,0:0:0:0:
192,192,67220,1,0,0:0:0:0:
64,192,67220,1,0,0:0:0:0:
320,192,67378,1,0,0:0:0:0:
192,192,67378,1,0,0:0:0:0:
448,192,67536,128,0,68167:0:0:0:0:
192,192,67536,1,0,0:0:0:0:
64,192,67694,1,0,0:0:0:0:
320,192,67694,1,0,0:0:0:0:
64,192,67852,1,0,0:0:0:0:
192,192,67852,1,0,0:0:0:0:
320,192,68009,1,0,0:0:0:0:
192,192,68009,1,0,0:0:0:0:
64,192,68167,128,0,68799:0:0:0:0:
192,192,68167,1,0,0:0:0:0:
320,192,68325,1,0,0:0:0:0:
448,192,68325,1,0,0:0:0:0:
448,192,68483,1,0,0:0:0:0:
192,192,68483,1,0,0:0:0:0:
192,192,68641,1,0,0:0:0:0:
320,192,68641,1,0,0:0:0:0:
320,192,68799,128,0,69115:0:0:0:0:
192,192,68799,1,0,0:0:0:0:
64,192,68957,1,0,0:0:0:0:
448,192,68957,1,0,0:0:0:0:
64,192,69115,1,0,0:0:0:0:
192,192,69115,1,0,0:0:0:0:
320,192,69273,128,0,69430:0:0:0:0:
448,192,69273,1,0,0:0:0:0:
64,192,69430,128,0,69746:0:0:0:0:
192,192,69430,1,0,0:0:0:0:
448,192,69588,1,0,0:0:0:0:
320,192,69588,1,0,0:0:0:0:
448,192,69746,1,0,0:0:0:0:
192,192,69746,1,0,0:0:0:0:
320,192,69904,1,0,0:0:0:0:
192,192,69904,1,0,0:0:0:0:
448,192,70062,128,0,70378:0:0:0:0:
64,192,70062,1,0,0:0:0:0:
192,192,70062,1,0,0:0:0:0:
320,192,70220,1,0,0:0:0:0:
192,192,70220,1,0,0:0:0:0:
320,192,70378,1,0,0:0:0:0:
64,192,70378,1,0,0:0:0:0:
192,192,70457,1,0,0:0:0:0:
320,192,70536,1,0,0:0:0:0:
448,192,70615,1,0,0:0:0:0:
64,192,70694,128,0,71009:0:0:0:0:
320,192,70694,1,0,0:0:0:0:
192,192,70773,1,0,0:0:0:0:
448,192,70852,1,0,0:0:0:0:
320,192,70930,1,0,0:0:0:0:
448,192,71009,128,0,71325:0:0:0:0:
320,192,71088,1,0,0:0:0:0:
192,192,71167,1,0,0:0:0:0:
64,192,71246,1,0,0:0:0:0:
320,192,71325,128,0,71641:0:0:0:0:
192,192,71325,1,0,0:0:0:0:
64,192,71483,1,0,0:0:0:0:
448,192,71483,1,0,0:0:0:0:
64,192,71641,1,0,0:0:0:0:
192,192,71641,1,0,0:0:0:0:
320,192,71799,128,0,71957:0:0:0:0:
64,192,71799,1,0,0:0:0:0:
448,192,71957,128,0,72273:0:0:0:0:
192,192,71957,1,0,0:0:0:0:
64,192,72115,1,0,0:0:0:0:
320,192,72115,1,0,0:0:0:0:
192,192,72273,1,0,0:0:0:0:
320,192,72273,1,0,0:0:0:0:
64,192,72430,1,0,0:0:0:0:
448,192,72430,1,0,0:0:0:0:
192,192,72588,128,0,73220:0:0:0:0:
448,192,72588,1,0,0:0:0:0:
320,192,72746,1,0,0:0:0:0:
64,192,72746,1,0,0:0:0:0:
448,192,72904,1,0,0:0:0:0:
320,192,72904,1,0,0:0:0:0:
64,192,73062,1,0,0:0:0:0:
448,192,73062,1,0,0:0:0:0:
448,192,73220,128,0,73852:0:0:0:0:
64,192,73220,1,0,0:0:0:0:
320,192,73378,1,0,0:0:0:0:
192,192,73378,1,0,0:0:0:0:
64,192,73536,1,0,0:0:0:0:
320,192,73536,1,0,0:0:0:0:
192,192,73694,1,0,0:0:0:0:
64,192,73694,1,0,0:0:0:0:
64,192,73852,128,0,74167:0:0:0:0:
320,192,73852,1,0,0:0:0:0:
192,192,74009,1,0,0:0:0:0:
448,192,74009,1,0,0:0:0:0:
448,192,74167,1,0,0:0:0:0:
320,192,74167,1,0,0:0:0:0:
192,192,74325,128,0,74483:0:0:0:0:
64,192,74325,1,0,0:0:0:0:
320,192,74483,1,0,0:0:0:0:
448,192,74483,128,0,74799:0:0:0:0:
64,192,74641,1,0,0:0:0:0:
320,192,74641,1,0,0:0:0:0:
192,192,74799,1,0,0:0:0:0:
320,192,74799,1,0,0:0:0:0:
64,192,74957,1,0,0:0:0:0:
448,192,74957,1,0,0:0:0:0:
320,192,75115,1,0,0:0:0:0:
192,192,75115,1,0,0:0:0:0:
64,192,75273,1,0,0:0:0:0:
192,192,75352,1,0,0:0:0:0:
448,192,75430,128,0,76378:0:0:0:0:
320,192,75430,1,0,0:0:0:0:
192,192,75509,1,0,0:0:0:0:
64,192,75588,1,0,0:0:0:0:
320,192,75667,1,0,0:0:0:0:
192,192,75746,1,0,0:0:0:0:
64,192,75825,1,0,0:0:0:0:
320,192,75904,1,0,0:0:0:0:
192,192,75983,1,0,0:0:0:0:
64,192,76062,128,0,76378:0:0:0:0:
192,192,76378,1,0,0:0:0:0:
64,192,76536,1,0,0:0:0:0:
448,192,76694,1,0,0:0:0:0:
320,192,76852,1,0,0:0:0:0:
192,192,77009,1,0,0:0:0:0:
64,192,77167,1,0,0:0:0:0:
320,192,77325,1,0,0:0:0:0:
192,192,77483,1,0,0:0:0:0:
320,192,77641,1,0,0:0:0:0:
448,192,77799,1,0,0:0:0:0:
64,192,77957,1,0,0:0:0:0:
192,192,78115,1,0,0:0:0:0:
448,192,78430,1,0,0:0:0:0:
320,192,78746,1,0,0:0:0:0:
64,192,78904,128,0,80167:0:0:0:0:
448,192,78904,1,0,0:0:0:0:
192,192,79062,1,0,0:0:0:0:
320,192,79220,1,0,0:0:0:0:
192,192,79378,1,0,0:0:0:0:
448,192,79536,1,0,0:0:0:0:
320,192,79694,1,0,0:0:0:0:
448,192,79852,1,0,0:0:0:0:
192,192,80009,1,0,0:0:0:0:
448,192,80325,1,0,0:0:0:0:
320,192,80641,1,0,0:0:0:0:
192,192,80957,1,0,0:0:0:0:
64,192,81115,1,0,0:0:0:0:
192,192,81273,1,0,0:0:0:0:
320,192,81430,1,0,0:0:0:0:
448,192,81430,128,0,82694:0:0:0:0:
192,192,81588,1,0,0:0:0:0:
64,192,81746,1,0,0:0:0:0:
320,192,81904,1,0,0:0:0:0:
192,192,82062,1,0,0:0:0:0:
64,192,82378,1,0,0:0:0:0:
192,192,82536,1,0,0:0:0:0:
64,192,82852,1,0,0:0:0:0:
192,192,83009,1,0,0:0:0:0:
448,192,83167,1,0,0:0:0:0:
320,192,83325,1,0,0:0:0:0:
192,192,83483,1,0,0:0:0:0:
64,192,83641,1,0,0:0:0:0:
192,192,83799,1,0,0:0:0:0:
448,192,83957,1,0,0:0:0:0:
320,192,83957,128,0,85220:0:0:0:0:
192,192,84115,1,0,0:0:0:0:
64,192,84273,1,0,0:0:0:0:
448,192,84430,1,0,0:0:0:0:
192,192,84588,1,0,0:0:0:0:
64,192,84746,1,0,0:0:0:0:
448,192,84904,1,0,0:0:0:0:
64,192,85062,1,0,0:0:0:0:
192,192,85220,1,0,0:0:0:0:
448,192,85378,1,0,0:0:0:0:
320,192,85694,1,0,0:0:0:0:
192,192,85852,1,0,0:0:0:0:
64,192,86483,128,0,87746:0:0:0:0:
448,192,86483,1,0,0:0:0:0:
320,192,87746,128,0,88378:0:0:0:0:
448,192,88378,128,0,89009:0:0:0:0:
192,192,89009,128,0,90273:0:0:0:0:
448,192,90273,128,0,90904:0:0:0:0:
64,192,90904,128,0,91536:0:0:0:0:
320,192,91536,128,0,92799:0:0:0:0:
192,192,92799,128,0,93430:0:0:0:0:
448,192,93430,128,0,94062:0:0:0:0:
320,192,94062,128,0,94694:0:0:0:0:
64,192,94694,128,0,95009:0:0:0:0:
192,192,95009,128,0,95325:0:0:0:0:
448,192,95325,128,0,96588:0:0:0:0:
192,192,96588,128,0,97220:0:0:0:0:
64,192,96588,128,0,97220:0:0:0:0:
320,192,98325,1,0,0:0:0:0:
64,192,98325,1,0,0:0:0:0:
192,192,98432,1,0,0:0:0:0:
320,192,98539,1,0,0:0:0:0:
448,192,98646,1,0,0:0:0:0:
192,192,98753,1,0,0:0:0:0:
64,192,98860,1,0,0:0:0:0:
448,192,98967,1,0,0:0:0:0:
320,192,99075,1,0,0:0:0:0:
192,192,99182,1,0,0:0:0:0:
64,192,99289,1,0,0:0:0:0:
320,192,99396,1,0,0:0:0:0:
448,192,99503,1,0,0:0:0:0:
64,192,99610,1,0,0:0:0:0:
192,192,99717,1,0,0:0:0:0:
320,192,99825,1,0,0:0:0:0:
448,192,99932,1,0,0:0:0:0:
192,192,100039,1,0,0:0:0:0:
64,192,100146,1,0,0:0:0:0:
448,192,100253,1,0,0:0:0:0:
320,192,100360,1,0,0:0:0:0:
192,192,100467,1,0,0:0:0:0:
64,192,100575,1,0,0:0:0:0:
320,192,100682,1,0,0:0:0:0:
448,192,100789,1,0,0:0:0:0:
320,192,100896,1,0,0:0:0:0:
192,192,101003,1,0,0:0:0:0:
64,192,101110,1,0,0:0:0:0:
448,192,101217,1,0,0:0:0:0:
320,192,101271,1,0,0:0:0:0:
192,192,101325,1,0,0:0:0:0:
64,192,101378,1,0,0:0:0:0:
448,192,101432,1,0,0:0:0:0:
64,192,101539,1,0,0:0:0:0:
192,192,101646,1,0,0:0:0:0:
320,192,101753,1,0,0:0:0:0:
448,192,101860,1,0,0:0:0:0:
192,192,101967,1,0,0:0:0:0:
64,192,102075,1,0,0:0:0:0:
448,192,102182,1,0,0:0:0:0:
320,192,102289,1,0,0:0:0:0:
192,192,102396,1,0,0:0:0:0:
64,192,102503,1,0,0:0:0:0:
192,192,102610,1,0,0:0:0:0:
448,192,102717,1,0,0:0:0:0:
320,192,102825,1,0,0:0:0:0:
192,192,102932,1,0,0:0:0:0:
64,192,103039,1,0,0:0:0:0:
448,192,103146,1,0,0:0:0:0:
320,192,103253,1,0,0:0:0:0:
192,192,103360,1,0,0:0:0:0:
64,192,103467,1,0,0:0:0:0:
448,192,103467,1,0,0:0:0:0:
320,192,103575,1,0,0:0:0:0:
192,192,103682,1,0,0:0:0:0:
64,192,103789,1,0,0:0:0:0:
192,192,103896,1,0,0:0:0:0:
64,192,104003,1,0,0:0:0:0:
320,192,104003,1,0,0:0:0:0:
448,192,104057,1,0,0:0:0:0:
320,192,104110,1,0,0:0:0:0:
192,192,104164,1,0,0:0:0:0:
64,192,104217,1,0,0:0:0:0:
448,192,104271,1,0,0:0:0:0:
320,192,104324,1,0,0:0:0:0:
192,192,104378,1,0,0:0:0:0:
64,192,104432,1,0,0:0:0:0:
448,192,104485,1,0,0:0:0:0:
320,192,104539,1,0,0:0:0:0:
192,192,104592,1,0,0:0:0:0:
64,192,104646,1,0,0:0:0:0:
448,192,104699,1,0,0:0:0:0:
320,192,104753,1,0,0:0:0:0:
64,192,104753,1,0,0:0:0:0:
320,192,105182,1,0,0:0:0:0:
448,192,105235,1,0,0:0:0:0:
64,192,105289,1,0,0:0:0:0:
192,192,105342,1,0,0:0:0:0:
320,192,105396,1,0,0:0:0:0:
448,192,105449,1,0,0:0:0:0:
192,192,105503,1,0,0:0:0:0:
64,192,105557,1,0,0:0:0:0:
448,192,105610,1,0,0:0:0:0:
320,192,105664,1,0,0:0:0:0:
192,192,105717,1,0,0:0:0:0:
64,192,105771,1,0,0:0:0:0:
448,192,105824,1,0,0:0:0:0:
320,192,105851,1,0,0:0:0:0:
192,192,105878,1,0,0:0:0:0:
64,192,105905,1,0,0:0:0:0:
448,192,105932,1,0,0:0:0:0:
320,192,105958,1,0,0:0:0:0:
192,192,105985,1,0,0:0:0:0:
64,192,106012,1,0,0:0:0:0:
448,192,106039,1,0,0:0:0:0:
320,192,106092,1,0,0:0:0:0:
192,192,106146,1,0,0:0:0:0:
320,192,106199,1,0,0:0:0:0:
448,192,106253,1,0,0:0:0:0:
64,192,106307,1,0,0:0:0:0:
192,192,106360,1,0,0:0:0:0:
320,192,106414,1,0,0:0:0:0:
448,192,106467,1,0,0:0:0:0:
320,192,106494,1,0,0:0:0:0:
192,192,106521,1,0,0:0:0:0:
64,192,106548,1,0,0:0:0:0:
448,192,106574,1,0,0:0:0:0:
320,192,106601,1,0,0:0:0:0:
192,192,106628,1,0,0:0:0:0:
64,192,106655,1,0,0:0:0:0:
448,192,106682,1,0,0:0:0:0:
320,192,106735,1,0,0:0:0:0:
192,192,106789,1,0,0:0:0:0:
64,192,106842,1,0,0:0:0:0:
320,192,106896,1,0,0:0:0:0:
448,192,106949,1,0,0:0:0:0:
64,192,107003,1,0,0:0:0:0:
192,192,107057,1,0,0:0:0:0:
320,192,107110,1,0,0:0:0:0:
448,192,107164,1,0,0:0:0:0:
64,192,107217,1,0,0:0:0:0:
448,192,107271,1,0,0:0:0:0:
320,192,107324,1,0,0:0:0:0:
192,192,107378,1,0,0:0:0:0:
64,192,107432,1,0,0:0:0:0:
448,192,107539,1,0,0:0:0:0:
320,192,107566,1,0,0:0:0:0:
192,192,107592,1,0,0:0:0:0:
64,192,107619,1,0,0:0:0:0:
448,192,107646,1,0,0:0:0:0:
320,192,107673,1,0,0:0:0:0:
192,192,107699,1,0,0:0:0:0:
64,192,107726,1,0,0:0:0:0:
448,192,107753,1,0,0:0:0:0:
320,192,107807,1,0,0:0:0:0:
192,192,107860,1,0,0:0:0:0:
64,192,107914,1,0,0:0:0:0:
192,192,107967,1,0,0:0:0:0:
64,192,108182,1,0,0:0:0:0:
320,192,108182,1,0,0:0:0:0:
192,192,108396,1,0,0:0:0:0:
448,192,108396,1,0,0:0:0:0:
320,192,108503,1,0,0:0:0:0:
448,192,108610,1,0,0:0:0:0:
320,192,108664,1,0,0:0:0:0:
192,192,108717,1,0,0:0:0:0:
64,192,108771,1,0,0:0:0:0:
320,192,108824,1,0,0:0:0:0:
448,192,108878,1,0,0:0:0:0:
64,192,108932,1,0,0:0:0:0:
192,192,108985,1,0,0:0:0:0:
320,192,109039,1,0,0:0:0:0:
448,192,109092,1,0,0:0:0:0:
192,192,109146,1,0,0:0:0:0:
64,192,109199,1,0,0:0:0:0:
448,192,109253,1,0,0:0:0:0:
320,192,109280,1,0,0:0:0:0:
192,192,109307,1,0,0:0:0:0:
64,192,109333,1,0,0:0:0:0:
448,192,109360,1,0,0:0:0:0:
320,192,109387,1,0,0:0:0:0:
192,192,109414,1,0,0:0:0:0:
64,192,109441,1,0,0:0:0:0:
448,192,109467,1,0,0:0:0:0:
320,192,109521,1,0,0:0:0:0:
192,192,109574,1,0,0:0:0:0:
64,192,109628,1,0,0:0:0:0:
448,192,109682,1,0,0:0:0:0:
320,192,109735,1,0,0:0:0:0:
192,192,109789,1,0,0:0:0:0:
64,192,109842,1,0,0:0:0:0:
192,192,109869,1,0,0:0:0:0:
320,192,109896,1,0,0:0:0:0:
448,192,109932,1,0,0:0:0:0:
64,192,109949,1,0,0:0:0:0:
192,192,109976,1,0,0:0:0:0:
320,192,110003,1,0,0:0:0:0:
448,192,110030,1,0,0:0:0:0:
320,192,110057,1,0,0:0:0:0:
192,192,110110,1,0,0:0:0:0:
64,192,110164,1,0,0:0:0:0:
320,192,110217,1,0,0:0:0:0:
192,192,110271,1,0,0:0:0:0:
320,192,110324,1,0,0:0:0:0:
448,192,110378,1,0,0:0:0:0:
192,192,110432,1,0,0:0:0:0:
64,192,110485,1,0,0:0:0:0:
192,192,110539,1,0,0:0:0:0:
320,192,110592,1,0,0:0:0:0:
448,192,110646,1,0,0:0:0:0:
320,192,110699,1,0,0:0:0:0:
64,192,110753,1,0,0:0:0:0:
192,192,110807,1,0,0:0:0:0:
320,192,110860,1,0,0:0:0:0:
448,192,110914,1,0,0:0:0:0:
320,192,110941,1,0,0:0:0:0:
192,192,110967,1,0,0:0:0:0:
64,192,110994,1,0,0:0:0:0:
448,192,111021,1,0,0:0:0:0:
320,192,111048,1,0,0:0:0:0:
192,192,111074,128,0,112039:0:0:0:0:
64,192,112039,1,0,0:0:0:0:
448,192,112039,1,0,0:0:0:0:
320,192,112092,1,0,0:0:0:0:
64,192,112146,1,0,0:0:0:0:
192,192,112146,1,0,0:0:0:0:
320,192,112199,1,0,0:0:0:0:
448,192,112253,1,0,0:0:0:0:
192,192,112253,1,0,0:0:0:0:
64,192,112467,1,0,0:0:0:0:
320,192,112467,1,0,0:0:0:0:
192,192,112521,1,0,0:0:0:0:
448,192,112574,1,0,0:0:0:0:
320,192,112574,1,0,0:0:0:0:
192,192,112628,1,0,0:0:0:0:
320,192,112682,1,0,0:0:0:0:
64,192,112682,1,0,0:0:0:0:
192,192,112896,1,0,0:0:0:0:
448,192,112896,1,0,0:0:0:0:
320,192,112949,1,0,0:0:0:0:
64,192,113003,1,0,0:0:0:0:
192,192,113003,1,0,0:0:0:0:
320,192,113110,1,0,0:0:0:0:
448,192,113110,1,0,0:0:0:0:
192,192,113164,1,0,0:0:0:0:
64,192,113217,1,0,0:0:0:0:
320,192,113217,1,0,0:0:0:0:
192,192,113324,128,0,113539:0:0:0:0:
64,192,113324,128,0,113539:0:0:0:0:
448,192,113432,1,0,0:0:0:0:
320,192,113646,1,0,0:0:0:0:
448,192,113646,1,0,0:0:0:0:
192,192,113699,1,0,0:0:0:0:
64,192,113753,1,0,0:0:0:0:
320,192,113753,1,0,0:0:0:0:
448,192,113807,1,0,0:0:0:0:
64,192,113860,1,0,0:0:0:0:
192,192,113860,1,0,0:0:0:0:
320,192,113967,1,0,0:0:0:0:
192,192,114074,1,0,0:0:0:0:
64,192,114074,1,0,0:0:0:0:
320,192,114128,1,0,0:0:0:0:
192,192,114182,1,0,0:0:0:0:
448,192,114182,1,0,0:0:0:0:
64,192,114235,1,0,0:0:0:0:
320,192,114289,1,0,0:0:0:0:
448,192,114289,1,0,0:0:0:0:
192,192,114396,1,0,0:0:0:0:
320,192,114503,1,0,0:0:0:0:
448,192,114503,1,0,0:0:0:0:
192,192,114557,1,0,0:0:0:0:
64,192,114610,1,0,0:0:0:0:
320,192,114610,1,0,0:0:0:0:
448,192,114664,1,0,0:0:0:0:
64,192,114717,1,0,0:0:0:0:
192,192,114717,1,0,0:0:0:0:
320,192,114824,1,0,0:0:0:0:
448,192,114932,1,0,0:0:0:0:
320,192,114985,1,0,0:0:0:0:
192,192,115039,1,0,0:0:0:0:
64,192,115092,1,0,0:0:0:0:
192,192,115146,1,0,0:0:0:0:
320,192,115199,1,0,0:0:0:0:
448,192,115253,1,0,0:0:0:0:
192,192,115360,1,0,0:0:0:0:
64,192,115467,1,0,0:0:0:0:
320,192,115467,1,0,0:0:0:0:
192,192,115521,1,0,0:0:0:0:
448,192,115574,1,0,0:0:0:0:
64,192,115574,1,0,0:0:0:0:
320,192,115628,1,0,0:0:0:0:
64,192,115682,1,0,0:0:0:0:
192,192,115682,1,0,0:0:0:0:
320,192,115789,1,0,0:0:0:0:
448,192,115896,1,0,0:0:0:0:
192,192,115896,1,0,0:0:0:0:
320,192,115949,1,0,0:0:0:0:
64,192,116003,1,0,0:0:0:0:
448,192,116003,1,0,0:0:0:0:
192,192,116057,1,0,0:0:0:0:
320,192,116110,1,0,0:0:0:0:
448,192,116110,1,0,0:0:0:0:
192,192,116217,1,0,0:0:0:0:
64,192,116324,1,0,0:0:0:0:
320,192,116324,1,0,0:0:0:0:
192,192,116378,1,0,0:0:0:0:
448,192,116432,1,0,0:0:0:0:
320,192,116432,1,0,0:0:0:0:
64,192,116485,1,0,0:0:0:0:
192,192,116539,1,0,0:0:0:0:
448,192,116539,1,0,0:0:0:0:
320,192,116592,1,0,0:0:0:0:
64,192,116646,1,0,0:0:0:0:
320,192,116699,1,0,0:0:0:0:
448,192,116699,1,0,0:0:0:0:
64,192,116753,128,0,117182:0:0:0:0:
192,192,116753,1,0,0:0:0:0:
448,192,117182,1,0,0:0:0:0:
320,192,117235,1,0,0:0:0:0:
192,192,117289,1,0,0:0:0:0:
64,192,117342,1,0,0:0:0:0:
320,192,117396,1,0,0:0:0:0:
448,192,117449,1,0,0:0:0:0:
64,192,117503,1,0,0:0:0:0:
192,192,117557,1,0,0:0:0:0:
320,192,117610,1,0,0:0:0:0:
448,192,117664,1,0,0:0:0:0:
64,192,117717,1,0,0:0:0:0:
192,192,117744,1,0,0:0:0:0:
320,192,117771,1,0,0:0:0:0:
448,192,117807,1,0,0:0:0:0:
64,192,117824,1,0,0:0:0:0:
192,192,117851,1,0,0:0:0:0:
320,192,117878,1,0,0:0:0:0:
448,192,117905,1,0,0:0:0:0:
192,192,117932,128,0,119646:0:0:0:0:
