osu file format v14

[General]
AudioFilename: audio.mp3
AudioLeadIn: 0
PreviewTime: 35957
Countdown: 0
SampleSet: Soft
StackLeniency: 0.7
Mode: 3
LetterboxInBreaks: 0
SpecialStyle: 0
WidescreenStoryboard: 1

[Editor]
Bookmarks: 15746,25852,35957,56167,76378,86483,97457,98265,104936,119729
DistanceSpacing: 0.8
BeatDivisor: 4
GridSize: 32
TimelineZoom: 2

[Metadata]
Title:Rebuilding of Paradise Lost
TitleUnicode:Rebuilding of Paradise Lost
Artist:Laur
ArtistUnicode:Laur
Creator:Knif3rism
Version:Paradise - Easy
Source:SOUND VOLTEX IV Heavenly Haven
Tags:Ryu*, L.E.D.-G, PARADISE LOST, beatmania IIDX 18 Resort Anthem, Starlight, Album, Launch, Remix, Contest, Tsumabuki, Bemani, BMS, Novice, Advanced, Exhaust, Maximum
BeatmapID:1185568
BeatmapSetID:560651

[Difficulty]
HPDrainRate:7
CircleSize:4
OverallDifficulty:7
ApproachRate:5
SliderMultiplier:1.4
SliderTickRate:1

[Events]
//Background and Video events
0,0,"bg.jpg",0,0
//Break Periods
//Storyboard Layer 0 (Background)
//Storyboard Layer 1 (Fail)
//Storyboard Layer 2 (Pass)
//Storyboard Layer 3 (Foreground)
//Storyboard Sound Samples

[TimingPoints]
1852,315.789473684211,4,2,0,50,1,0
1852,-99.9999999999999,4,2,0,50,0,0
98325,214.285714285714,4,2,0,50,1,0
98325,-147.368421052632,4,2,0,50,0,0
98432,-147.368421052632,4,2,0,50,0,1
104860,-147.368421052632,4,2,0,50,0,0
105182,-147.368421052632,4,2,0,50,0,1
107967,-147.368421052632,4,2,0,50,0,0
108610,-147.368421052632,4,2,0,50,0,1
111182,-147.368421052632,4,2,0,50,0,0

[HitObjects]
64,192,1852,128,0,3115:0:0:0:0:
192,192,5641,1,0,0:0:0:0:
64,192,5641,128,0,8167:0:0:0:0:
192,192,8167,1,0,0:0:0:0:
448,192,8167,128,0,10694:0:0:0:0:
64,192,10694,1,0,0:0:0:0:
320,192,10694,128,0,13220:0:0:0:0:
448,192,13220,1,0,0:0:0:0:
192,192,13220,128,0,15746:0:0:0:0:
64,192,15746,1,0,0:0:0:0:
320,192,15746,1,0,0:0:0:0:
192,192,16378,1,0,0:0:0:0:
320,192,16536,1,0,0:0:0:0:
192,192,17009,1,0,0:0:0:0:
448,192,17009,1,0,0:0:0:0:
64,192,17641,1,0,0:0:0:0:
320,192,17641,1,0,0:0:0:0:
64,192,18273,1,0,0:0:0:0:
192,192,18273,1,0,0:0:0:0:
448,192,18904,1,0,0:0:0:0:
320,192,19062,1,0,0:0:0:0:
64,192,19536,1,0,0:0:0:0:
448,192,19536,1,0,0:0:0:0:
192,192,19852,1,0,0:0:0:0:
320,192,20009,1,0,0:0:0:0:
448,192,20483,1,0,0:0:0:0:
64,192,20799,1,0,0:0:0:0:
192,192,20799,1,0,0:0:0:0:
320,192,21430,1,0,0:0:0:0:
448,192,21588,1,0,0:0:0:0:
64,192,22062,1,0,0:0:0:0:
320,192,22062,1,0,0:0:0:0:
192,192,22378,1,0,0:0:0:0:
320,192,22536,1,0,0:0:0:0:
448,192,23009,1,0,0:0:0:0:
320,192,23167,1,0,0:0:0:0:
64,192,23325,1,0,0:0:0:0:
448,192,23325,1,0,0:0:0:0:
192,192,23957,1,0,0:0:0:0:
320,192,24115,1,0,0:0:0:0:
192,192,24588,1,0,0:0:0:0:
448,192,24588,1,0,0:0:0:0:
64,192,25220,1,0,0:0:0:0:
192,192,25220,1,0,0:0:0:0:
320,192,25852,1,0,0:0:0:0:
64,192,26167,1,0,0:0:0:0:
320,192,26483,1,0,0:0:0:0:
448,192,26799,1,0,0:0:0:0:
64,192,27115,1,0,0:0:0:0:
192,192,27430,1,0,0:0:0:0:
320,192,27746,1,0,0:0:0:0:
448,192,28062,1,0,0:0:0:0:
192,192,28378,1,0,0:0:0:0:
320,192,28694,1,0,0:0:0:0:
64,192,29009,1,0,0:0:0:0:
448,192,29325,1,0,0:0:0:0:
320,192,29641,1,0,0:0:0:0:
192,192,29957,1,0,0:0:0:0:
64,192,30273,128,0,30904:0:0:0:0:
448,192,30273,128,0,30904:0:0:0:0:
192,192,30904,128,0,33430:0:0:0:0:
448,192,33430,128,0,34694:0:0:0:0:
320,192,33430,128,0,34694:0:0:0:0:
64,192,35009,1,0,0:0:0:0:
192,192,35167,1,0,0:0:0:0:
320,192,35325,1,0,0:0:0:0:
448,192,35483,1,0,0:0:0:0:
64,192,35641,1,0,0:0:0:0:
192,192,35799,1,0,0:0:0:0:
320,192,35957,1,0,0:0:0:0:
448,192,35957,1,0,0:0:0:0:
64,192,36273,1,0,0:0:0:0:
320,192,36588,1,0,0:0:0:0:
192,192,36904,1,0,0:0:0:0:
448,192,37220,128,0,37852:0:0:0:0:
192,192,37852,128,0,38483:0:0:0:0:
320,192,38483,1,0,0:0:0:0:
448,192,38799,1,0,0:0:0:0:
64,192,39115,1,0,0:0:0:0:
192,192,39430,1,0,0:0:0:0:
320,192,39746,128,0,40378:0:0:0:0:
64,192,40378,128,0,41009:0:0:0:0:
448,192,41009,1,0,0:0:0:0:
320,192,41325,1,0,0:0:0:0:
64,192,41641,1,0,0:0:0:0:
192,192,41957,1,0,0:0:0:0:
320,192,42273,128,0,42904:0:0:0:0:
448,192,42904,128,0,43536:0:0:0:0:
64,192,43536,1,0,0:0:0:0:
320,192,43852,1,0,0:0:0:0:
192,192,44167,1,0,0:0:0:0:
448,192,44483,1,0,0:0:0:0:
64,192,44799,128,0,46062:0:0:0:0:
320,192,45430,128,0,46062:0:0:0:0:
192,192,46062,1,0,0:0:0:0:
448,192,46378,1,0,0:0:0:0:
320,192,46694,1,0,0:0:0:0:
192,192,47009,1,0,0:0:0:0:
64,192,47325,128,0,47957:0:0:0:0:
448,192,47957,128,0,48588:0:0:0:0:
192,192,48588,1,0,0:0:0:0:
64,192,48904,1,0,0:0:0:0:
320,192,49220,1,0,0:0:0:0:
448,192,49536,1,0,0:0:0:0:
64,192,49852,128,0,50483:0:0:0:0:
320,192,50483,128,0,50799:0:0:0:0:
192,192,50799,1,0,0:0:0:0:
448,192,51115,1,0,0:0:0:0:
192,192,51430,1,0,0:0:0:0:
64,192,51746,1,0,0:0:0:0:
320,192,52062,1,0,0:0:0:0:
64,192,52378,128,0,53009:0:0:0:0:
192,192,53009,128,0,53641:0:0:0:0:
448,192,53641,1,0,0:0:0:0:
64,192,53957,1,0,0:0:0:0:
192,192,54273,1,0,0:0:0:0:
320,192,54588,1,0,0:0:0:0:
64,192,54904,128,0,55536:0:0:0:0:
320,192,55536,128,0,56167:0:0:0:0:
192,192,56167,128,0,56483:0:0:0:0:
64,192,56483,1,0,0:0:0:0:
320,192,56799,1,0,0:0:0:0:
448,192,56799,128,0,57115:0:0:0:0:
192,192,57115,1,0,0:0:0:0:
320,192,57430,128,0,58062:0:0:0:0:
64,192,58062,128,0,58694:0:0:0:0:
192,192,58694,128,0,59009:0:0:0:0:
448,192,59009,1,0,0:0:0:0:
64,192,59325,128,0,59641:0:0:0:0:
320,192,59641,1,0,0:0:0:0:
192,192,59957,128,0,60273:0:0:0:0:
448,192,60273,128,0,60904:0:0:0:0:
64,192,60588,128,0,60904:0:0:0:0:
192,192,60904,128,0,61220:0:0:0:0:
320,192,61220,1,0,0:0:0:0:
448,192,61220,128,0,61536:0:0:0:0:
64,192,61536,1,0,0:0:0:0:
320,192,61852,1,0,0:0:0:0:
192,192,61852,128,0,62167:0:0:0:0:
448,192,62167,1,0,0:0:0:0:
320,192,62483,128,0,63115:0:0:0:0:
64,192,63115,128,0,63746:0:0:0:0:
192,192,63746,128,0,64062:0:0:0:0:
448,192,63746,1,0,0:0:0:0:
64,192,64062,1,0,0:0:0:0:
448,192,64378,128,0,64694:0:0:0:0:
192,192,64378,1,0,0:0:0:0:
320,192,64694,1,0,0:0:0:0:
64,192,65009,128,0,65641:0:0:0:0:
320,192,65641,128,0,66273:0:0:0:0:
192,192,66273,128,0,66588:0:0:0:0:
64,192,66273,1,0,0:0:0:0:
448,192,66588,1,0,0:0:0:0:
320,192,66904,128,0,67220:0:0:0:0:
64,192,66904,1,0,0:0:0:0:
192,192,67220,1,0,0:0:0:0:
448,192,67536,128,0,68167:0:0:0:0:
64,192,68167,128,0,68799:0:0:0:0:
320,192,68799,128,0,69115:0:0:0:0:
192,192,68799,1,0,0:0:0:0:
448,192,69115,1,0,0:0:0:0:
64,192,69430,128,0,69746:0:0:0:0:
192,192,69430,1,0,0:0:0:0:
320,192,69746,1,0,0:0:0:0:
448,192,70062,128,0,70378:0:0:0:0:
64,192,70378,128,0,71009:0:0:0:0:
320,192,70694,128,0,71009:0:0:0:0:
448,192,71009,128,0,71325:0:0:0:0:
64,192,71325,128,0,71641:0:0:0:0:
192,192,71325,1,0,0:0:0:0:
320,192,71641,1,0,0:0:0:0:
448,192,71957,128,0,72273:0:0:0:0:
192,192,71957,1,0,0:0:0:0:
64,192,72273,1,0,0:0:0:0:
192,192,72588,128,0,73220:0:0:0:0:
448,192,73220,128,0,73852:0:0:0:0:
64,192,73852,128,0,74167:0:0:0:0:
320,192,73852,1,0,0:0:0:0:
192,192,74167,1,0,0:0:0:0:
320,192,74483,1,0,0:0:0:0:
448,192,74483,128,0,74799:0:0:0:0:
64,192,74799,1,0,0:0:0:0:
192,192,75115,128,0,75430:0:0:0:0:
448,192,75430,128,0,76378:0:0:0:0:
64,192,75746,128,0,76378:0:0:0:0:
192,192,76378,128,0,78904:0:0:0:0:
448,192,78904,1,0,0:0:0:0:
64,192,78904,128,0,81430:0:0:0:0:
320,192,81430,1,0,0:0:0:0:
448,192,81430,128,0,83957:0:0:0:0:
192,192,83957,1,0,0:0:0:0:
320,192,83957,128,0,86483:0:0:0:0:
64,192,86483,128,0,87746:0:0:0:0:
320,192,87746,128,0,88378:0:0:0:0:
448,192,88378,128,0,89009:0:0:0:0:
192,192,89009,128,0,90273:0:0:0:0:
448,192,90273,128,0,90904:0:0:0:0:
64,192,90904,128,0,91536:0:0:0:0:
320,192,91536,128,0,92799:0:0:0:0:
192,192,92799,128,0,93430:0:0:0:0:
448,192,93430,128,0,94062:0:0:0:0:
320,192,94062,128,0,94694:0:0:0:0:
64,192,94694,128,0,95009:0:0:0:0:
192,192,95009,128,0,95325:0:0:0:0:
448,192,95325,128,0,96588:0:0:0:0:
64,192,96588,1,0,0:0:0:0:
320,192,98325,1,0,0:0:0:0:
64,192,98325,1,0,0:0:0:0:
192,192,98539,1,0,0:0:0:0:
320,192,98753,1,0,0:0:0:0:
448,192,98967,1,0,0:0:0:0:
192,192,99182,1,0,0:0:0:0:
64,192,99396,1,0,0:0:0:0:
448,192,99610,1,0,0:0:0:0:
320,192,99825,1,0,0:0:0:0:
192,192,100039,1,0,0:0:0:0:
64,192,100253,1,0,0:0:0:0:
448,192,100467,1,0,0:0:0:0:
320,192,100682,1,0,0:0:0:0:
64,192,100896,1,0,0:0:0:0:
320,192,101217,128,0,101432:0:0:0:0:
192,192,101432,1,0,0:0:0:0:
448,192,101753,1,0,0:0:0:0:
192,192,101753,1,0,0:0:0:0:
320,192,102075,1,0,0:0:0:0:
64,192,102289,1,0,0:0:0:0:
192,192,102610,1,0,0:0:0:0:
448,192,102825,1,0,0:0:0:0:
320,192,103039,1,0,0:0:0:0:
192,192,103253,1,0,0:0:0:0:
448,192,103467,128,0,104324:0:0:0:0:
64,192,103467,1,0,0:0:0:0:
64,192,104324,128,0,104753:0:0:0:0:
320,192,104753,128,0,105182:0:0:0:0:
448,192,105182,128,0,108182:0:0:0:0:
64,192,105824,128,0,106039:0:0:0:0:
320,192,106360,128,0,106574:0:0:0:0:
64,192,107432,128,0,107646:0:0:0:0:
320,192,108610,128,0,111074:0:0:0:0:
64,192,109199,128,0,109414:0:0:0:0:
192,192,109789,128,0,110003:0:0:0:0:
448,192,110860,128,0,111074:0:0:0:0:
192,192,111074,128,0,112039:0:0:0:0:
64,192,112039,1,0,0:0:0:0:
192,192,112146,1,0,0:0:0:0:
320,192,112235,1,0,0:0:0:0:
448,192,112467,1,0,0:0:0:0:
320,192,112574,1,0,0:0:0:0:
64,192,112682,128,0,112896:0:0:0:0:
448,192,113003,128,0,113217:0:0:0:0:
192,192,113217,128,0,113432:0:0:0:0:
320,192,113646,1,0,0:0:0:0:
192,192,113753,1,0,0:0:0:0:
64,192,113860,1,0,0:0:0:0:
192,192,114074,1,0,0:0:0:0:
320,192,114182,1,0,0:0:0:0:
448,192,114289,1,0,0:0:0:0:
320,192,114503,1,0,0:0:0:0:
192,192,114610,1,0,0:0:0:0:
64,192,114717,1,0,0:0:0:0:
320,192,114985,128,0,115199:0:0:0:0:
64,192,115467,1,0,0:0:0:0:
192,192,115574,1,0,0:0:0:0:
320,192,115682,1,0,0:0:0:0:
448,192,115896,1,0,0:0:0:0:
320,192,116003,1,0,0:0:0:0:
192,192,116110,1,0,0:0:0:0:
64,192,116324,1,0,0:0:0:0:
192,192,116432,1,0,0:0:0:0:
448,192,116539,1,0,0:0:0:0:
320,192,116646,1,0,0:0:0:0:
192,192,116753,128,0,117182:0:0:0:0:
448,192,117182,128,0,117771:0:0:0:0:
64,192,117717,128,0,117932:0:0:0:0:
192,192,117932,128,0,119646:0:0:0:0:
