osu file format v14

[General]
AudioFilename: 1636715168.ogg
AudioLeadIn: 363
PreviewTime: 50056
Countdown: 0
SampleSet: Soft
StackLeniency: 0.7
Mode: 3
LetterboxInBreaks: 0
StoryFireInFront: 0
SpecialStyle: 0
WidescreenStoryboard: 1

[Editor]
Bookmarks: 0,38994
DistanceSpacing: 1
BeatDivisor: 4
GridSize: 4
TimelineZoom: 2.3

[Metadata]
Title:Rebuff
TitleUnicode:Rebuff
Artist:Laur
ArtistUnicode:Laur
Creator:Alptraum
Version:Advanced
Source:
Tags:dark glitch hop piano trance hybrid hb long notes ln LLCD-002 Last Labyrinth Afflict M3-2021 Fall M3-2021秋 M3-48 electronic instrumental
BeatmapID:3963711
BeatmapSetID:1919502

[Difficulty]
HPDrainRate:7.5
CircleSize:6
OverallDifficulty:6.8
ApproachRate:5
SliderMultiplier:1.4
SliderTickRate:1

[Events]
//Background and Video events
0,0,"111.jpg",0,0
//Break Periods
//Storyboard Layer 0 (Background)
//Storyboard Layer 1 (Fail)
//Storyboard Layer 2 (Pass)
//Storyboard Layer 3 (Foreground)
//Storyboard Layer 4 (Overlay)
//Storyboard Sound Samples

[TimingPoints]
2994,375,4,2,1,20,1,0
26994,-100,4,2,1,40,0,0
50994,-100,4,2,1,40,0,1
61494,-100,4,2,1,40,0,0
62994,-100,4,2,1,40,0,1
68994,-100,4,2,1,40,0,0
74994,-100,4,2,1,40,0,1
82306,-100,4,2,1,40,0,0
86994,-100,4,2,1,20,0,0
104994,-100,4,2,1,40,0,0
154494,468.75,4,2,1,40,1,0
154494,-80,4,2,1,40,0,1
183087,-80,4,2,1,40,0,0
184494,375,4,2,1,40,1,0
184494,-100,4,2,1,40,0,0
187494,-100,4,2,1,20,0,0

[HitObjects]
42,192,2994,5,0,0:0:0:0:
213,192,3181,1,0,0:0:0:0:
298,192,3369,1,0,0:0:0:0:
384,192,3556,1,0,0:0:0:0:
469,192,3931,1,0,0:0:0:0:
128,192,4494,1,0,0:0:0:0:
298,192,5056,1,0,0:0:0:0:
384,192,5150,1,0,0:0:0:0:
213,192,5244,1,0,0:0:0:0:
128,192,5525,1,0,0:0:0:0:
298,192,5806,1,0,0:0:0:0:
469,192,5994,1,0,0:0:0:0:
128,192,6181,1,0,0:0:0:0:
213,192,6369,1,0,0:0:0:0:
298,192,6556,1,0,0:0:0:0:
469,192,6744,1,0,0:0:0:0:
213,192,6931,1,0,0:0:0:0:
128,192,7494,1,0,0:0:0:0:
213,192,8056,1,0,0:0:0:0:
384,192,8619,1,0,0:0:0:0:
128,192,8994,1,0,0:0:0:0:
213,192,9087,1,0,0:0:0:0:
42,192,9369,1,0,0:0:0:0:
213,192,9556,1,0,0:0:0:0:
298,192,9744,1,0,0:0:0:0:
384,192,9931,1,0,0:0:0:0:
128,192,10119,1,0,0:0:0:0:
298,192,10306,1,0,0:0:0:0:
213,192,11244,1,0,0:0:0:0:
298,192,11619,1,0,0:0:0:0:
42,192,11994,1,0,0:0:0:0:
384,192,11994,1,0,0:0:0:0:
298,192,12556,1,0,0:0:0:0:
42,192,12556,1,0,0:0:0:0:
469,192,13119,1,0,0:0:0:0:
213,192,13494,1,0,0:0:0:0:
384,192,13494,1,0,0:0:0:0:
42,192,14244,1,0,0:0:0:0:
213,192,14244,1,0,0:0:0:0:
298,192,14806,1,0,0:0:0:0:
384,192,14900,1,0,0:0:0:0:
42,192,14994,1,0,0:0:0:0:
469,192,14994,1,0,0:0:0:0:
469,192,15744,1,0,0:0:0:0:
384,192,15837,1,0,0:0:0:0:
298,192,15931,1,0,0:0:0:0:
213,192,16025,1,0,0:0:0:0:
128,192,16119,1,0,0:0:0:0:
42,192,16212,1,0,0:0:0:0:
384,192,16306,1,0,0:0:0:0:
128,192,16494,1,0,0:0:0:0:
128,192,17056,1,0,0:0:0:0:
469,192,17150,1,0,0:0:0:0:
213,192,17244,1,0,0:0:0:0:
128,192,17525,1,0,0:0:0:0:
42,192,17806,1,0,0:0:0:0:
469,192,17994,1,0,0:0:0:0:
298,192,18369,1,0,0:0:0:0:
42,192,18556,1,0,0:0:0:0:
42,192,18931,1,0,0:0:0:0:
213,192,19119,1,0,0:0:0:0:
298,192,19306,1,0,0:0:0:0:
298,192,19681,1,0,0:0:0:0:
384,192,19869,1,0,0:0:0:0:
469,192,20056,1,0,0:0:0:0:
128,192,20056,1,0,0:0:0:0:
384,192,20431,1,0,0:0:0:0:
469,192,20806,1,0,0:0:0:0:
298,192,20994,1,0,0:0:0:0:
42,192,20994,1,0,0:0:0:0:
213,192,21931,1,0,0:0:0:0:
384,192,22400,1,0,0:0:0:0:
128,192,22494,1,0,0:0:0:0:
213,192,23244,1,0,0:0:0:0:
298,192,23619,1,0,0:0:0:0:
42,192,23994,1,0,0:0:0:0:
384,192,23994,1,0,0:0:0:0:
213,192,24744,1,0,0:0:0:0:
298,192,25119,1,0,0:0:0:0:
469,192,25494,128,0,26244:0:0:0:0:
128,192,26244,128,0,26994:0:0:0:0:
42,192,26994,1,0,0:0:0:0:
469,192,26994,1,0,0:0:0:0:
128,192,27181,1,0,0:0:0:0:
384,192,27181,1,0,0:0:0:0:
298,192,27369,1,0,0:0:0:0:
213,192,27369,1,0,0:0:0:0:
42,192,27556,1,0,0:0:0:0:
469,192,27744,1,0,0:0:0:0:
213,192,27931,1,0,0:0:0:0:
384,192,28119,1,0,0:0:0:0:
128,192,28306,1,0,0:0:0:0:
469,192,28494,1,0,0:0:0:0:
213,192,28681,1,0,0:0:0:0:
384,192,28869,1,0,0:0:0:0:
128,192,29056,1,0,0:0:0:0:
42,192,29244,128,0,29431:0:0:0:0:
298,192,29244,1,0,0:0:0:0:
384,192,29431,1,0,0:0:0:0:
469,192,29619,128,0,29806:0:0:0:0:
42,192,29619,1,0,0:0:0:0:
128,192,29806,1,0,0:0:0:0:
213,192,29994,128,0,30181:0:0:0:0:
469,192,29994,1,0,0:0:0:0:
128,192,30181,1,0,0:0:0:0:
298,192,30369,1,0,0:0:0:0:
42,192,30556,1,0,0:0:0:0:
469,192,30744,1,0,0:0:0:0:
128,192,30931,1,0,0:0:0:0:
298,192,31119,1,0,0:0:0:0:
42,192,31306,1,0,0:0:0:0:
384,192,31494,128,0,31681:0:0:0:0:
213,192,31494,1,0,0:0:0:0:
128,192,31681,1,0,0:0:0:0:
469,192,31869,1,0,0:0:0:0:
213,192,32056,1,0,0:0:0:0:
128,192,32244,128,0,32431:0:0:0:0:
384,192,32244,1,0,0:0:0:0:
298,192,32431,1,0,0:0:0:0:
42,192,32619,1,0,0:0:0:0:
384,192,32806,1,0,0:0:0:0:
42,192,32994,1,0,0:0:0:0:
298,192,33181,1,0,0:0:0:0:
128,192,33275,1,0,0:0:0:0:
384,192,33462,1,0,0:0:0:0:
213,192,33556,1,0,0:0:0:0:
469,192,33744,1,0,0:0:0:0:
213,192,33931,1,0,0:0:0:0:
384,192,34025,1,0,0:0:0:0:
128,192,34212,1,0,0:0:0:0:
298,192,34306,1,0,0:0:0:0:
42,192,34494,1,0,0:0:0:0:
298,192,34681,1,0,0:0:0:0:
128,192,34775,1,0,0:0:0:0:
384,192,34962,1,0,0:0:0:0:
213,192,35056,1,0,0:0:0:0:
469,192,35244,1,0,0:0:0:0:
213,192,35431,1,0,0:0:0:0:
384,192,35525,1,0,0:0:0:0:
128,192,35712,1,0,0:0:0:0:
469,192,35900,1,0,0:0:0:0:
42,192,35994,1,0,0:0:0:0:
213,192,36181,1,0,0:0:0:0:
128,192,36275,1,0,0:0:0:0:
298,192,36462,1,0,0:0:0:0:
213,192,36556,1,0,0:0:0:0:
384,192,36744,1,0,0:0:0:0:
298,192,36837,1,0,0:0:0:0:
469,192,37025,1,0,0:0:0:0:
128,192,37212,1,0,0:0:0:0:
384,192,37306,1,0,0:0:0:0:
213,192,37494,1,0,0:0:0:0:
42,192,37681,1,0,0:0:0:0:
384,192,37775,1,0,0:0:0:0:
213,192,37962,1,0,0:0:0:0:
128,192,38056,1,0,0:0:0:0:
298,192,38244,1,0,0:0:0:0:
213,192,38337,1,0,0:0:0:0:
384,192,38525,1,0,0:0:0:0:
298,192,38619,1,0,0:0:0:0:
469,192,38806,1,0,0:0:0:0:
384,192,38900,1,0,0:0:0:0:
128,192,38994,5,0,0:0:0:0:
42,192,38994,1,0,0:0:0:0:
42,192,39369,1,0,0:0:0:0:
128,192,39369,1,0,0:0:0:0:
469,192,39744,1,0,0:0:0:0:
213,192,39744,1,0,0:0:0:0:
128,192,40119,1,0,0:0:0:0:
42,192,40119,1,0,0:0:0:0:
384,192,40494,1,0,0:0:0:0:
469,192,40494,1,0,0:0:0:0:
384,192,40869,1,0,0:0:0:0:
469,192,40869,1,0,0:0:0:0:
298,192,41244,1,0,0:0:0:0:
42,192,41244,1,0,0:0:0:0:
384,192,41619,1,0,0:0:0:0:
469,192,41619,1,0,0:0:0:0:
42,192,41994,1,0,0:0:0:0:
298,192,41994,1,0,0:0:0:0:
128,192,42181,1,0,0:0:0:0:
384,192,42181,1,0,0:0:0:0:
213,192,42369,1,0,0:0:0:0:
469,192,42369,1,0,0:0:0:0:
128,192,42556,1,0,0:0:0:0:
384,192,42556,1,0,0:0:0:0:
42,192,42744,128,0,42931:0:0:0:0:
469,192,42931,1,0,0:0:0:0:
384,192,43025,1,0,0:0:0:0:
298,192,43119,1,0,0:0:0:0:
213,192,43212,1,0,0:0:0:0:
128,192,43306,1,0,0:0:0:0:
42,192,43400,1,0,0:0:0:0:
469,192,44056,128,0,44994:0:0:0:0:
42,192,44994,128,0,45556:0:0:0:0:
213,192,45181,128,0,45556:0:0:0:0:
42,192,45744,1,0,0:0:0:0:
213,192,45744,1,0,0:0:0:0:
384,192,45744,1,0,0:0:0:0:
469,192,46025,128,0,46306:0:0:0:0:
298,192,46306,128,0,46587:0:0:0:0:
128,192,46587,128,0,46869:0:0:0:0:
384,192,46869,128,0,47150:0:0:0:0:
298,192,47150,128,0,47431:0:0:0:0:
213,192,47431,128,0,47712:0:0:0:0:
128,192,47712,128,0,47994:0:0:0:0:
42,192,47994,1,0,0:0:0:0:
469,192,47994,1,0,0:0:0:0:
42,192,50056,128,0,50244:0:0:0:0:
469,192,50244,128,0,50431:0:0:0:0:
128,192,50994,1,0,0:0:0:0:
213,192,50994,1,0,0:0:0:0:
128,192,51181,1,0,0:0:0:0:
213,192,51181,1,0,0:0:0:0:
469,192,51369,128,0,51744:0:0:0:0:
42,192,51744,1,0,0:0:0:0:
298,192,51744,128,0,51931:0:0:0:0:
213,192,51744,1,0,0:0:0:0:
128,192,51931,128,0,52119:0:0:0:0:
213,192,52119,128,0,52306:0:0:0:0:
384,192,52306,128,0,52494:0:0:0:0:
42,192,52494,1,0,0:0:0:0:
128,192,52494,1,0,0:0:0:0:
298,192,52681,128,0,52869:0:0:0:0:
128,192,53056,128,0,53244:0:0:0:0:
298,192,53244,1,0,0:0:0:0:
42,192,53244,1,0,0:0:0:0:
469,192,53431,128,0,53619:0:0:0:0:
213,192,53806,128,0,53994:0:0:0:0:
384,192,53994,1,0,0:0:0:0:
42,192,53994,1,0,0:0:0:0:
128,192,54181,128,0,54744:0:0:0:0:
213,192,54744,1,0,0:0:0:0:
384,192,54744,1,0,0:0:0:0:
469,192,54744,128,0,54931:0:0:0:0:
42,192,54931,128,0,55119:0:0:0:0:
213,192,55119,128,0,55306:0:0:0:0:
384,192,55306,128,0,55494:0:0:0:0:
298,192,55494,1,0,0:0:0:0:
42,192,55494,1,0,0:0:0:0:
128,192,55681,128,0,55869:0:0:0:0:
469,192,56056,128,0,56244:0:0:0:0:
42,192,56244,1,0,0:0:0:0:
128,192,56244,1,0,0:0:0:0:
384,192,56431,128,0,56619:0:0:0:0:
213,192,56806,128,0,56994:0:0:0:0:
128,192,56994,1,0,0:0:0:0:
298,192,56994,1,0,0:0:0:0:
213,192,57275,128,0,57556:0:0:0:0:
42,192,57744,1,0,0:0:0:0:
298,192,57744,1,0,0:0:0:0:
469,192,57744,128,0,57931:0:0:0:0:
128,192,57931,128,0,58119:0:0:0:0:
213,192,58119,128,0,58306:0:0:0:0:
384,192,58306,128,0,58494:0:0:0:0:
42,192,58494,1,0,0:0:0:0:
128,192,58494,1,0,0:0:0:0:
298,192,58681,128,0,58869:0:0:0:0:
128,192,59056,128,0,59244:0:0:0:0:
298,192,59244,1,0,0:0:0:0:
469,192,59244,1,0,0:0:0:0:
384,192,59431,128,0,59619:0:0:0:0:
213,192,59806,128,0,59994:0:0:0:0:
42,192,59994,1,0,0:0:0:0:
469,192,59994,128,0,60369:0:0:0:0:
298,192,59994,1,0,0:0:0:0:
42,192,60744,128,0,60931:0:0:0:0:
213,192,60744,1,0,0:0:0:0:
298,192,60744,1,0,0:0:0:0:
469,192,60931,128,0,61119:0:0:0:0:
298,192,61119,128,0,61306:0:0:0:0:
128,192,61306,128,0,61494:0:0:0:0:
298,192,61494,1,0,0:0:0:0:
469,192,61494,1,0,0:0:0:0:
384,192,61681,128,0,61869:0:0:0:0:
42,192,61681,128,0,62431:0:0:0:0:
298,192,62056,128,0,62244:0:0:0:0:
469,192,62431,128,0,62619:0:0:0:0:
128,192,62806,128,0,62994:0:0:0:0:
384,192,62994,1,0,0:0:0:0:
469,192,62994,1,0,0:0:0:0:
384,192,63181,1,0,0:0:0:0:
469,192,63181,1,0,0:0:0:0:
213,192,63369,128,0,63744:0:0:0:0:
42,192,63369,128,0,63744:0:0:0:0:
469,192,63744,1,0,0:0:0:0:
298,192,63744,128,0,63931:0:0:0:0:
128,192,63931,1,0,0:0:0:0:
298,192,64119,128,0,64306:0:0:0:0:
128,192,64306,1,0,0:0:0:0:
469,192,64494,1,0,0:0:0:0:
384,192,64494,1,0,0:0:0:0:
128,192,64681,1,0,0:0:0:0:
298,192,64869,128,0,65056:0:0:0:0:
128,192,65056,1,0,0:0:0:0:
42,192,65244,1,0,0:0:0:0:
384,192,65244,1,0,0:0:0:0:
469,192,65244,1,0,0:0:0:0:
213,192,65431,128,0,65806:0:0:0:0:
298,192,65431,128,0,65806:0:0:0:0:
42,192,65994,1,0,0:0:0:0:
128,192,65994,1,0,0:0:0:0:
42,192,66181,1,0,0:0:0:0:
128,192,66181,1,0,0:0:0:0:
298,192,66369,128,0,66744:0:0:0:0:
469,192,66369,128,0,66744:0:0:0:0:
42,192,66744,1,0,0:0:0:0:
213,192,66744,128,0,66931:0:0:0:0:
384,192,66931,1,0,0:0:0:0:
213,192,67119,128,0,67306:0:0:0:0:
384,192,67306,1,0,0:0:0:0:
42,192,67494,1,0,0:0:0:0:
128,192,67494,1,0,0:0:0:0:
384,192,67681,1,0,0:0:0:0:
213,192,67869,128,0,68056:0:0:0:0:
384,192,68056,1,0,0:0:0:0:
128,192,68244,1,0,0:0:0:0:
42,192,68244,1,0,0:0:0:0:
469,192,68244,128,0,68619:0:0:0:0:
213,192,68994,5,0,0:0:0:0:
42,192,68994,128,0,69744:0:0:0:0:
469,192,69744,1,0,0:0:0:0:
128,192,69931,1,0,0:0:0:0:
213,192,70119,1,0,0:0:0:0:
384,192,70306,1,0,0:0:0:0:
213,192,70681,1,0,0:0:0:0:
42,192,71056,1,0,0:0:0:0:
469,192,71431,1,0,0:0:0:0:
298,192,71806,1,0,0:0:0:0:
213,192,71994,128,0,72744:0:0:0:0:
42,192,71994,128,0,72744:0:0:0:0:
469,192,72744,1,0,0:0:0:0:
128,192,72931,1,0,0:0:0:0:
213,192,73119,1,0,0:0:0:0:
384,192,73306,1,0,0:0:0:0:
298,192,73681,1,0,0:0:0:0:
469,192,74056,1,0,0:0:0:0:
42,192,74431,128,0,74619:0:0:0:0:
469,192,74619,128,0,74806:0:0:0:0:
213,192,74994,128,0,75650:0:0:0:0:
298,192,74994,128,0,75650:0:0:0:0:
128,192,74994,128,0,75650:0:0:0:0:
42,192,75744,1,0,0:0:0:0:
469,192,75744,1,0,0:0:0:0:
384,192,75931,1,0,0:0:0:0:
298,192,76119,1,0,0:0:0:0:
42,192,76306,1,0,0:0:0:0:
128,192,76494,1,0,0:0:0:0:
469,192,76494,1,0,0:0:0:0:
384,192,76681,1,0,0:0:0:0:
298,192,76869,1,0,0:0:0:0:
128,192,77056,1,0,0:0:0:0:
469,192,77244,128,0,77994:0:0:0:0:
42,192,77244,1,0,0:0:0:0:
213,192,77244,1,0,0:0:0:0:
213,192,77525,1,0,0:0:0:0:
213,192,77806,1,0,0:0:0:0:
42,192,77994,1,0,0:0:0:0:
128,192,77994,1,0,0:0:0:0:
298,192,78134,1,0,0:0:0:0:
469,192,78275,1,0,0:0:0:0:
384,192,78369,1,0,0:0:0:0:
298,192,78462,1,0,0:0:0:0:
213,192,78556,1,0,0:0:0:0:
128,192,78650,1,0,0:0:0:0:
42,192,78744,1,0,0:0:0:0:
469,192,78744,1,0,0:0:0:0:
298,192,78931,1,0,0:0:0:0:
384,192,79119,1,0,0:0:0:0:
128,192,79306,1,0,0:0:0:0:
469,192,79494,1,0,0:0:0:0:
42,192,79494,1,0,0:0:0:0:
298,192,79681,1,0,0:0:0:0:
384,192,79869,1,0,0:0:0:0:
128,192,80056,1,0,0:0:0:0:
469,192,80244,1,0,0:0:0:0:
42,192,80244,128,0,80619:0:0:0:0:
298,192,80244,1,0,0:0:0:0:
128,192,80994,1,0,0:0:0:0:
469,192,80994,1,0,0:0:0:0:
298,192,81181,1,0,0:0:0:0:
213,192,81275,1,0,0:0:0:0:
42,192,81369,1,0,0:0:0:0:
469,192,81369,1,0,0:0:0:0:
213,192,81744,128,0,82306:0:0:0:0:
128,192,82306,1,0,0:0:0:0:
42,192,82306,1,0,0:0:0:0:
469,192,82494,128,0,83150:0:0:0:0:
128,192,83150,128,0,83994:0:0:0:0:
42,192,83150,128,0,83994:0:0:0:0:
469,192,84744,128,0,85400:0:0:0:0:
42,192,86244,128,0,86431:0:0:0:0:
469,192,86431,128,0,86619:0:0:0:0:
384,192,86994,1,0,0:0:0:0:
213,192,87369,1,0,0:0:0:0:
128,192,87556,1,0,0:0:0:0:
298,192,87931,1,0,0:0:0:0:
384,192,88494,1,0,0:0:0:0:
128,192,89056,1,0,0:0:0:0:
384,192,89150,1,0,0:0:0:0:
213,192,89244,1,0,0:0:0:0:
298,192,89431,1,0,0:0:0:0:
128,192,89619,1,0,0:0:0:0:
213,192,89806,1,0,0:0:0:0:
469,192,89994,1,0,0:0:0:0:
128,192,90369,1,0,0:0:0:0:
128,192,91587,1,0,0:0:0:0:
213,192,92244,1,0,0:0:0:0:
213,192,92806,1,0,0:0:0:0:
298,192,92994,1,0,0:0:0:0:
384,192,93931,1,0,0:0:0:0:
298,192,94119,1,0,0:0:0:0:
213,192,94306,1,0,0:0:0:0:
42,192,94494,1,0,0:0:0:0:
469,192,94869,1,0,0:0:0:0:
298,192,95244,1,0,0:0:0:0:
128,192,95619,1,0,0:0:0:0:
298,192,95994,1,0,0:0:0:0:
384,192,96744,1,0,0:0:0:0:
469,192,97494,1,0,0:0:0:0:
128,192,98244,1,0,0:0:0:0:
213,192,98525,1,0,0:0:0:0:
469,192,98806,1,0,0:0:0:0:
469,192,98994,1,0,0:0:0:0:
213,192,99369,1,0,0:0:0:0:
213,192,99556,1,0,0:0:0:0:
469,192,99931,1,0,0:0:0:0:
384,192,100119,1,0,0:0:0:0:
298,192,100306,1,0,0:0:0:0:
42,192,100494,1,0,0:0:0:0:
42,192,100869,1,0,0:0:0:0:
128,192,101244,1,0,0:0:0:0:
298,192,101619,1,0,0:0:0:0:
213,192,101994,1,0,0:0:0:0:
128,192,101994,1,0,0:0:0:0:
384,192,102369,1,0,0:0:0:0:
42,192,102744,1,0,0:0:0:0:
213,192,102744,1,0,0:0:0:0:
298,192,103119,1,0,0:0:0:0:
469,192,103306,1,0,0:0:0:0:
42,192,103494,1,0,0:0:0:0:
128,192,103494,1,0,0:0:0:0:
42,192,103869,1,0,0:0:0:0:
128,192,103962,1,0,0:0:0:0:
213,192,104056,1,0,0:0:0:0:
298,192,104150,1,0,0:0:0:0:
384,192,104244,1,0,0:0:0:0:
469,192,104337,1,0,0:0:0:0:
42,192,104431,1,0,0:0:0:0:
128,192,104525,1,0,0:0:0:0:
213,192,104619,1,0,0:0:0:0:
298,192,104712,1,0,0:0:0:0:
384,192,104806,1,0,0:0:0:0:
42,192,107994,128,0,109119:0:0:0:0:
213,192,109119,128,0,109494:0:0:0:0:
298,192,109494,128,0,110244:0:0:0:0:
469,192,110244,128,0,110994:0:0:0:0:
128,192,110994,128,0,113994:0:0:0:0:
384,192,112494,128,0,113994:0:0:0:0:
469,192,113994,1,0,0:0:0:0:
298,192,114275,1,0,0:0:0:0:
128,192,114556,1,0,0:0:0:0:
469,192,114744,1,0,0:0:0:0:
298,192,115025,1,0,0:0:0:0:
213,192,115306,1,0,0:0:0:0:
298,192,115494,1,0,0:0:0:0:
469,192,115775,1,0,0:0:0:0:
42,192,116056,1,0,0:0:0:0:
42,192,116431,1,0,0:0:0:0:
128,192,116619,1,0,0:0:0:0:
213,192,116806,1,0,0:0:0:0:
384,192,116994,1,0,0:0:0:0:
213,192,117275,1,0,0:0:0:0:
42,192,117556,1,0,0:0:0:0:
469,192,117744,1,0,0:0:0:0:
298,192,118025,1,0,0:0:0:0:
128,192,118306,1,0,0:0:0:0:
469,192,118494,1,0,0:0:0:0:
469,192,118775,1,0,0:0:0:0:
469,192,119056,1,0,0:0:0:0:
42,192,119244,1,0,0:0:0:0:
213,192,119525,1,0,0:0:0:0:
298,192,119806,1,0,0:0:0:0:
469,192,119994,1,0,0:0:0:0:
384,192,120275,1,0,0:0:0:0:
42,192,120556,1,0,0:0:0:0:
469,192,120744,1,0,0:0:0:0:
384,192,121025,1,0,0:0:0:0:
213,192,121306,1,0,0:0:0:0:
42,192,121494,1,0,0:0:0:0:
298,192,121775,1,0,0:0:0:0:
384,192,122056,1,0,0:0:0:0:
384,192,122619,1,0,0:0:0:0:
469,192,122806,1,0,0:0:0:0:
42,192,122994,1,0,0:0:0:0:
213,192,123275,1,0,0:0:0:0:
384,192,123556,1,0,0:0:0:0:
128,192,123744,1,0,0:0:0:0:
384,192,124025,1,0,0:0:0:0:
42,192,124306,1,0,0:0:0:0:
298,192,124494,1,0,0:0:0:0:
469,192,124775,1,0,0:0:0:0:
213,192,125056,1,0,0:0:0:0:
469,192,125431,1,0,0:0:0:0:
384,192,125619,1,0,0:0:0:0:
298,192,125806,1,0,0:0:0:0:
213,192,125994,128,0,127119:0:0:0:0:
42,192,127119,128,0,127494:0:0:0:0:
469,192,127494,128,0,128056:0:0:0:0:
213,192,128056,128,0,128619:0:0:0:0:
384,192,128619,128,0,128994:0:0:0:0:
128,192,128994,128,0,129556:0:0:0:0:
298,192,129556,128,0,130119:0:0:0:0:
213,192,130119,128,0,130494:0:0:0:0:
384,192,130494,128,0,131244:0:0:0:0:
469,192,131244,128,0,131431:0:0:0:0:
213,192,131431,128,0,131619:0:0:0:0:
128,192,131619,128,0,131806:0:0:0:0:
42,192,131806,128,0,131994:0:0:0:0:
469,192,131994,128,0,133119:0:0:0:0:
213,192,133119,128,0,133494:0:0:0:0:
42,192,133494,128,0,133775:0:0:0:0:
298,192,133775,128,0,134056:0:0:0:0:
384,192,134056,128,0,134431:0:0:0:0:
128,192,134431,128,0,134619:0:0:0:0:
213,192,134619,128,0,134806:0:0:0:0:
298,192,134806,128,0,134994:0:0:0:0:
384,192,134994,128,0,135556:0:0:0:0:
42,192,134994,1,0,0:0:0:0:
42,192,135369,1,0,0:0:0:0:
298,192,135556,128,0,136119:0:0:0:0:
42,192,135744,1,0,0:0:0:0:
469,192,136119,128,0,136494:0:0:0:0:
42,192,136119,1,0,0:0:0:0:
384,192,136494,128,0,137056:0:0:0:0:
128,192,136494,1,0,0:0:0:0:
128,192,136869,1,0,0:0:0:0:
298,192,137056,128,0,137994:0:0:0:0:
128,192,137244,1,0,0:0:0:0:
128,192,137619,1,0,0:0:0:0:
469,192,137994,1,0,0:0:0:0:
42,192,137994,1,0,0:0:0:0:
128,192,138275,1,0,0:0:0:0:
213,192,138556,1,0,0:0:0:0:
469,192,138744,1,0,0:0:0:0:
384,192,138744,1,0,0:0:0:0:
213,192,138931,1,0,0:0:0:0:
128,192,139119,1,0,0:0:0:0:
469,192,139494,1,0,0:0:0:0:
42,192,139494,1,0,0:0:0:0:
128,192,139775,1,0,0:0:0:0:
213,192,140056,1,0,0:0:0:0:
469,192,140244,1,0,0:0:0:0:
384,192,140244,1,0,0:0:0:0:
213,192,140431,1,0,0:0:0:0:
128,192,140619,1,0,0:0:0:0:
469,192,140994,1,0,0:0:0:0:
42,192,140994,1,0,0:0:0:0:
128,192,141275,1,0,0:0:0:0:
213,192,141556,1,0,0:0:0:0:
469,192,141744,1,0,0:0:0:0:
384,192,141744,1,0,0:0:0:0:
213,192,141931,1,0,0:0:0:0:
128,192,142119,1,0,0:0:0:0:
298,192,142306,1,0,0:0:0:0:
469,192,142306,1,0,0:0:0:0:
298,192,142494,1,0,0:0:0:0:
469,192,142494,1,0,0:0:0:0:
213,192,142775,1,0,0:0:0:0:
469,192,143056,1,0,0:0:0:0:
128,192,143056,1,0,0:0:0:0:
213,192,143150,1,0,0:0:0:0:
298,192,143244,1,0,0:0:0:0:
384,192,143244,1,0,0:0:0:0:
42,192,143337,1,0,0:0:0:0:
128,192,143337,1,0,0:0:0:0:
384,192,143525,1,0,0:0:0:0:
42,192,143525,1,0,0:0:0:0:
384,192,143712,1,0,0:0:0:0:
469,192,143712,1,0,0:0:0:0:
213,192,143806,1,0,0:0:0:0:
128,192,143806,1,0,0:0:0:0:
128,192,143994,1,0,0:0:0:0:
469,192,143994,1,0,0:0:0:0:
384,192,144275,1,0,0:0:0:0:
42,192,144369,1,0,0:0:0:0:
128,192,144369,1,0,0:0:0:0:
298,192,144556,1,0,0:0:0:0:
384,192,144744,1,0,0:0:0:0:
42,192,144744,1,0,0:0:0:0:
128,192,145025,1,0,0:0:0:0:
469,192,145119,1,0,0:0:0:0:
384,192,145119,1,0,0:0:0:0:
213,192,145306,1,0,0:0:0:0:
128,192,145494,1,0,0:0:0:0:
469,192,145494,1,0,0:0:0:0:
384,192,145775,1,0,0:0:0:0:
42,192,145869,1,0,0:0:0:0:
128,192,145869,1,0,0:0:0:0:
298,192,146056,1,0,0:0:0:0:
384,192,146244,1,0,0:0:0:0:
42,192,146244,1,0,0:0:0:0:
128,192,146525,1,0,0:0:0:0:
469,192,146619,1,0,0:0:0:0:
384,192,146619,1,0,0:0:0:0:
213,192,146806,1,0,0:0:0:0:
469,192,146994,1,0,0:0:0:0:
128,192,146994,1,0,0:0:0:0:
384,192,147087,1,0,0:0:0:0:
298,192,147181,1,0,0:0:0:0:
42,192,147181,1,0,0:0:0:0:
213,192,147369,1,0,0:0:0:0:
469,192,147369,1,0,0:0:0:0:
128,192,147462,1,0,0:0:0:0:
42,192,147556,1,0,0:0:0:0:
298,192,147556,1,0,0:0:0:0:
213,192,147744,1,0,0:0:0:0:
469,192,147837,1,0,0:0:0:0:
213,192,147931,1,0,0:0:0:0:
469,192,148025,1,0,0:0:0:0:
128,192,148119,1,0,0:0:0:0:
384,192,148212,1,0,0:0:0:0:
42,192,148306,1,0,0:0:0:0:
298,192,148400,1,0,0:0:0:0:
128,192,148494,1,0,0:0:0:0:
469,192,149056,128,0,149994:0:0:0:0:
42,192,149994,1,0,0:0:0:0:
213,192,153181,128,0,154494:0:0:0:0:
298,192,153181,128,0,154494:0:0:0:0:
42,192,154494,1,0,0:0:0:0:
469,192,154494,1,0,0:0:0:0:
384,192,154650,1,0,0:0:0:0:
298,192,154806,1,0,0:0:0:0:
42,192,154962,1,0,0:0:0:0:
469,192,154962,1,0,0:0:0:0:
128,192,155079,1,0,0:0:0:0:
213,192,155197,1,0,0:0:0:0:
298,192,155314,1,0,0:0:0:0:
42,192,155431,1,0,0:0:0:0:
384,192,155431,1,0,0:0:0:0:
128,192,155548,1,0,0:0:0:0:
213,192,155665,1,0,0:0:0:0:
298,192,155783,1,0,0:0:0:0:
384,192,155900,1,0,0:0:0:0:
128,192,155900,1,0,0:0:0:0:
213,192,156017,1,0,0:0:0:0:
298,192,156134,1,0,0:0:0:0:
384,192,156251,1,0,0:0:0:0:
469,192,156369,1,0,0:0:0:0:
213,192,156369,128,0,156837:0:0:0:0:
42,192,156837,1,0,0:0:0:0:
469,192,156837,1,0,0:0:0:0:
384,192,156954,1,0,0:0:0:0:
298,192,157072,1,0,0:0:0:0:
213,192,157189,1,0,0:0:0:0:
128,192,157306,1,0,0:0:0:0:
469,192,157306,1,0,0:0:0:0:
384,192,157423,1,0,0:0:0:0:
298,192,157540,1,0,0:0:0:0:
213,192,157658,1,0,0:0:0:0:
128,192,157775,1,0,0:0:0:0:
384,192,157775,1,0,0:0:0:0:
298,192,157892,1,0,0:0:0:0:
213,192,158009,1,0,0:0:0:0:
128,192,158126,1,0,0:0:0:0:
42,192,158244,1,0,0:0:0:0:
298,192,158244,128,0,158712:0:0:0:0:
42,192,158712,1,0,0:0:0:0:
469,192,158712,1,0,0:0:0:0:
128,192,158829,1,0,0:0:0:0:
213,192,158947,1,0,0:0:0:0:
298,192,159064,1,0,0:0:0:0:
384,192,159181,1,0,0:0:0:0:
42,192,159181,1,0,0:0:0:0:
128,192,159298,1,0,0:0:0:0:
213,192,159415,1,0,0:0:0:0:
298,192,159533,1,0,0:0:0:0:
384,192,159650,1,0,0:0:0:0:
128,192,159650,1,0,0:0:0:0:
42,192,159767,1,0,0:0:0:0:
469,192,159884,1,0,0:0:0:0:
384,192,160001,1,0,0:0:0:0:
42,192,160119,1,0,0:0:0:0:
213,192,160119,1,0,0:0:0:0:
298,192,160236,1,0,0:0:0:0:
384,192,160353,1,0,0:0:0:0:
469,192,160470,1,0,0:0:0:0:
42,192,160587,1,0,0:0:0:0:
298,192,160587,1,0,0:0:0:0:
128,192,160704,1,0,0:0:0:0:
213,192,160822,1,0,0:0:0:0:
298,192,160939,1,0,0:0:0:0:
384,192,161056,128,0,161525:0:0:0:0:
128,192,161525,128,0,161994:0:0:0:0:
42,192,161994,1,0,0:0:0:0:
469,192,161994,1,0,0:0:0:0:
128,192,162150,1,0,0:0:0:0:
213,192,162306,1,0,0:0:0:0:
469,192,162462,1,0,0:0:0:0:
42,192,162462,1,0,0:0:0:0:
384,192,162579,1,0,0:0:0:0:
298,192,162697,1,0,0:0:0:0:
213,192,162814,1,0,0:0:0:0:
469,192,162931,1,0,0:0:0:0:
128,192,162931,1,0,0:0:0:0:
384,192,163048,1,0,0:0:0:0:
298,192,163165,1,0,0:0:0:0:
213,192,163283,1,0,0:0:0:0:
128,192,163400,1,0,0:0:0:0:
384,192,163400,1,0,0:0:0:0:
298,192,163517,1,0,0:0:0:0:
213,192,163634,1,0,0:0:0:0:
128,192,163751,1,0,0:0:0:0:
42,192,163869,1,0,0:0:0:0:
298,192,163869,128,0,164337:0:0:0:0:
469,192,164337,1,0,0:0:0:0:
42,192,164337,1,0,0:0:0:0:
128,192,164454,1,0,0:0:0:0:
213,192,164572,1,0,0:0:0:0:
298,192,164689,1,0,0:0:0:0:
384,192,164806,1,0,0:0:0:0:
42,192,164806,1,0,0:0:0:0:
128,192,164923,1,0,0:0:0:0:
213,192,165040,1,0,0:0:0:0:
298,192,165158,1,0,0:0:0:0:
384,192,165275,1,0,0:0:0:0:
128,192,165275,1,0,0:0:0:0:
213,192,165392,1,0,0:0:0:0:
298,192,165509,1,0,0:0:0:0:
384,192,165626,1,0,0:0:0:0:
469,192,165744,1,0,0:0:0:0:
213,192,165744,128,0,166212:0:0:0:0:
469,192,166212,1,0,0:0:0:0:
42,192,166212,1,0,0:0:0:0:
384,192,166329,1,0,0:0:0:0:
298,192,166447,1,0,0:0:0:0:
213,192,166564,1,0,0:0:0:0:
128,192,166681,1,0,0:0:0:0:
469,192,166681,1,0,0:0:0:0:
384,192,166798,1,0,0:0:0:0:
298,192,166915,1,0,0:0:0:0:
213,192,167033,1,0,0:0:0:0:
128,192,167150,1,0,0:0:0:0:
384,192,167150,1,0,0:0:0:0:
298,192,167267,1,0,0:0:0:0:
213,192,167384,1,0,0:0:0:0:
128,192,167501,1,0,0:0:0:0:
42,192,167619,1,0,0:0:0:0:
298,192,167619,128,0,168790:0:0:0:0:
469,192,167619,128,0,168790:0:0:0:0:
42,192,168790,128,0,169025:0:0:0:0:
213,192,169025,128,0,169494:0:0:0:0:
469,192,169494,1,0,0:0:0:0:
42,192,169494,1,0,0:0:0:0:
384,192,169650,1,0,0:0:0:0:
298,192,169806,1,0,0:0:0:0:
42,192,169962,1,0,0:0:0:0:
469,192,169962,1,0,0:0:0:0:
128,192,170079,1,0,0:0:0:0:
213,192,170197,1,0,0:0:0:0:
298,192,170314,1,0,0:0:0:0:
42,192,170431,1,0,0:0:0:0:
384,192,170431,1,0,0:0:0:0:
128,192,170548,1,0,0:0:0:0:
213,192,170665,1,0,0:0:0:0:
298,192,170783,1,0,0:0:0:0:
384,192,170900,1,0,0:0:0:0:
128,192,170900,1,0,0:0:0:0:
213,192,171017,1,0,0:0:0:0:
298,192,171134,1,0,0:0:0:0:
384,192,171251,1,0,0:0:0:0:
469,192,171369,1,0,0:0:0:0:
213,192,171369,128,0,171837:0:0:0:0:
42,192,171837,1,0,0:0:0:0:
469,192,171837,1,0,0:0:0:0:
384,192,171954,1,0,0:0:0:0:
298,192,172072,1,0,0:0:0:0:
213,192,172189,1,0,0:0:0:0:
128,192,172306,1,0,0:0:0:0:
469,192,172306,1,0,0:0:0:0:
384,192,172423,1,0,0:0:0:0:
298,192,172540,1,0,0:0:0:0:
213,192,172658,1,0,0:0:0:0:
128,192,172775,1,0,0:0:0:0:
384,192,172775,1,0,0:0:0:0:
298,192,172892,1,0,0:0:0:0:
213,192,173009,1,0,0:0:0:0:
128,192,173126,1,0,0:0:0:0:
42,192,173244,1,0,0:0:0:0:
298,192,173244,128,0,173712:0:0:0:0:
42,192,173712,1,0,0:0:0:0:
469,192,173712,1,0,0:0:0:0:
128,192,173829,1,0,0:0:0:0:
213,192,173947,1,0,0:0:0:0:
298,192,174064,1,0,0:0:0:0:
384,192,174181,1,0,0:0:0:0:
42,192,174181,1,0,0:0:0:0:
128,192,174298,1,0,0:0:0:0:
213,192,174415,1,0,0:0:0:0:
298,192,174533,1,0,0:0:0:0:
384,192,174650,1,0,0:0:0:0:
128,192,174650,1,0,0:0:0:0:
42,192,174767,1,0,0:0:0:0:
469,192,174884,1,0,0:0:0:0:
384,192,175001,1,0,0:0:0:0:
213,192,175119,1,0,0:0:0:0:
42,192,175119,1,0,0:0:0:0:
298,192,175236,1,0,0:0:0:0:
384,192,175353,1,0,0:0:0:0:
469,192,175470,1,0,0:0:0:0:
42,192,175587,1,0,0:0:0:0:
298,192,175587,1,0,0:0:0:0:
128,192,175704,1,0,0:0:0:0:
213,192,175822,1,0,0:0:0:0:
298,192,175939,1,0,0:0:0:0:
384,192,176056,128,0,176525:0:0:0:0:
128,192,176525,128,0,176994:0:0:0:0:
42,192,176994,1,0,0:0:0:0:
469,192,176994,1,0,0:0:0:0:
128,192,177150,1,0,0:0:0:0:
213,192,177306,1,0,0:0:0:0:
469,192,177462,1,0,0:0:0:0:
42,192,177462,1,0,0:0:0:0:
384,192,177579,1,0,0:0:0:0:
298,192,177697,1,0,0:0:0:0:
213,192,177814,1,0,0:0:0:0:
469,192,177931,1,0,0:0:0:0:
128,192,177931,1,0,0:0:0:0:
384,192,178048,1,0,0:0:0:0:
298,192,178165,1,0,0:0:0:0:
213,192,178283,1,0,0:0:0:0:
128,192,178400,1,0,0:0:0:0:
384,192,178400,1,0,0:0:0:0:
298,192,178517,1,0,0:0:0:0:
213,192,178634,1,0,0:0:0:0:
128,192,178751,1,0,0:0:0:0:
42,192,178869,1,0,0:0:0:0:
298,192,178869,128,0,179337:0:0:0:0:
469,192,179337,1,0,0:0:0:0:
42,192,179337,1,0,0:0:0:0:
128,192,179454,1,0,0:0:0:0:
213,192,179572,1,0,0:0:0:0:
298,192,179689,1,0,0:0:0:0:
384,192,179806,1,0,0:0:0:0:
42,192,179806,1,0,0:0:0:0:
128,192,179923,1,0,0:0:0:0:
213,192,180040,1,0,0:0:0:0:
298,192,180158,1,0,0:0:0:0:
384,192,180275,1,0,0:0:0:0:
128,192,180275,1,0,0:0:0:0:
213,192,180392,1,0,0:0:0:0:
298,192,180509,1,0,0:0:0:0:
384,192,180626,1,0,0:0:0:0:
469,192,180744,1,0,0:0:0:0:
213,192,180744,128,0,181212:0:0:0:0:
469,192,181212,1,0,0:0:0:0:
42,192,181212,1,0,0:0:0:0:
384,192,181329,1,0,0:0:0:0:
298,192,181447,1,0,0:0:0:0:
213,192,181564,1,0,0:0:0:0:
128,192,181681,1,0,0:0:0:0:
469,192,181681,1,0,0:0:0:0:
384,192,181798,1,0,0:0:0:0:
298,192,181915,1,0,0:0:0:0:
213,192,182033,1,0,0:0:0:0:
128,192,182150,1,0,0:0:0:0:
384,192,182150,1,0,0:0:0:0:
298,192,182267,1,0,0:0:0:0:
213,192,182384,1,0,0:0:0:0:
128,192,182501,1,0,0:0:0:0:
42,192,182619,1,0,0:0:0:0:
469,192,182619,128,0,183087:0:0:0:0:
213,192,182853,128,0,183087:0:0:0:0:
384,192,183322,128,0,183556:0:0:0:0:
298,192,183790,128,0,184025:0:0:0:0:
128,192,184259,128,0,184494:0:0:0:0:
469,192,184494,1,0,0:0:0:0:
42,192,184494,1,0,0:0:0:0:
128,192,187494,1,0,0:0:0:0:
469,192,187494,1,0,0:0:0:0:
213,192,187869,1,0,0:0:0:0:
42,192,188056,1,0,0:0:0:0:
128,192,188431,1,0,0:0:0:0:
298,192,188994,1,0,0:0:0:0:
213,192,189931,1,0,0:0:0:0:
384,192,190306,1,0,0:0:0:0:
42,192,190494,1,0,0:0:0:0:
469,192,190681,1,0,0:0:0:0:
213,192,191056,1,0,0:0:0:0:
213,192,192087,1,0,0:0:0:0:
298,192,192884,1,0,0:0:0:0:
384,192,193087,1,0,0:0:0:0:
469,192,193275,1,0,0:0:0:0:
213,192,193494,1,0,0:0:0:0:
128,192,194244,1,0,0:0:0:0:
469,192,194431,1,0,0:0:0:0:
384,192,194619,1,0,0:0:0:0:
298,192,194806,1,0,0:0:0:0:
128,192,194994,1,0,0:0:0:0:
469,192,195369,1,0,0:0:0:0:
298,192,195744,1,0,0:0:0:0:
42,192,196119,1,0,0:0:0:0:
128,192,196494,1,0,0:0:0:0:
213,192,197244,1,0,0:0:0:0:
384,192,197994,1,0,0:0:0:0:
42,192,198931,1,0,0:0:0:0:
128,192,199119,1,0,0:0:0:0:
213,192,199306,1,0,0:0:0:0:
298,192,199494,1,0,0:0:0:0:
469,192,199494,1,0,0:0:0:0:
384,192,199869,1,0,0:0:0:0:
42,192,200056,1,0,0:0:0:0:
298,192,200431,1,0,0:0:0:0:
384,192,200619,1,0,0:0:0:0:
469,192,200806,1,0,0:0:0:0:
298,192,200994,1,0,0:0:0:0:
42,192,200994,1,0,0:0:0:0:
213,192,201369,1,0,0:0:0:0:
128,192,201556,1,0,0:0:0:0:
469,192,201931,1,0,0:0:0:0:
213,192,202306,1,0,0:0:0:0:
298,192,202400,1,0,0:0:0:0:
384,192,202494,1,0,0:0:0:0:
42,192,202494,1,0,0:0:0:0:
128,192,202681,1,0,0:0:0:0:
213,192,202869,1,0,0:0:0:0:
298,192,203056,1,0,0:0:0:0:
213,192,203431,1,0,0:0:0:0:
469,192,203806,1,0,0:0:0:0:
298,192,203994,1,0,0:0:0:0:
42,192,205494,1,0,0:0:0:0:
128,192,205681,1,0,0:0:0:0:
213,192,205869,1,0,0:0:0:0:
298,192,206056,1,0,0:0:0:0:
213,192,206431,1,0,0:0:0:0:
469,192,206806,1,0,0:0:0:0:
213,192,206994,1,0,0:0:0:0:
298,192,207556,1,0,0:0:0:0:
42,192,208494,1,0,0:0:0:0:
128,192,208681,1,0,0:0:0:0:
213,192,208869,1,0,0:0:0:0:
298,192,209056,1,0,0:0:0:0:
213,192,209431,1,0,0:0:0:0:
384,192,209806,1,0,0:0:0:0:
128,192,209994,1,0,0:0:0:0:
42,192,211494,5,0,0:0:0:0:
128,192,211494,1,0,0:0:0:0:
