osu file format v14

[General]
AudioFilename: audio.mp3
AudioLeadIn: 0
PreviewTime: 53
Countdown: 0
SampleSet: None
StackLeniency: 0.2
Mode: 0
LetterboxInBreaks: 0
WidescreenStoryboard: 0

[Editor]
Bookmarks: 11174,22208,23588,29105,31864,34622,45657,55312,56691,67726,69795,70484,75312,76002,78760,81519,84277,87036,89795,95312,100829,102036,102208,103588,105312,105484,106346,109105,110829,111864,114622,115312,118760
DistanceSpacing: 0.8
BeatDivisor: 4
GridSize: 4
TimelineZoom: 3.299999

[Metadata]
Title:Pragmatism
TitleUnicode:Pragmatism
Artist:Laur
ArtistUnicode:Laur
Creator:Reya
Version:Consensus
Source:
Tags:
BeatmapID:1418383
BeatmapSetID:670704

[Difficulty]
HPDrainRate:6
CircleSize:4
OverallDifficulty:9
ApproachRate:9.4
SliderMultiplier:1.87
SliderTickRate:2

[Events]
//Background and Video events
0,0,"behe2.jpg",0,0
//Break Periods
//Storyboard Layer 0 (Background)
//Storyboard Layer 1 (Fail)
//Storyboard Layer 2 (Pass)
//Storyboard Layer 3 (Foreground)
//Storyboard Sound Samples

[TimingPoints]
140,344.827586206897,4,2,1,35,1,0
140,-200,4,2,1,35,0,0
11174,-80,4,2,1,55,0,0
11519,-125,4,2,1,55,0,0
12553,-80,4,2,1,55,0,0
12898,-125,4,2,1,55,0,0
13933,-80,4,2,1,55,0,0
14277,-125,4,2,1,55,0,0
15312,-80,4,2,1,55,0,0
15657,-125,4,2,1,55,0,0
16691,-80,4,2,1,55,0,0
17036,-125,4,2,1,55,0,0
18071,-80,4,2,1,55,0,0
18415,-125,4,2,1,55,0,0
19450,-80,4,2,1,55,0,0
19795,-125,4,2,1,55,0,0
20829,-200,4,2,1,55,0,0
22165,-100,4,2,1,55,0,0
23588,-100,4,2,1,70,0,0
24622,-80,4,2,1,70,0,0
24967,-100,4,2,1,70,0,0
26002,-58.8235294117647,4,2,1,70,0,0
26346,-100,4,2,1,70,0,0
27381,-80,4,2,1,70,0,0
27726,-58.8235294117647,4,2,1,70,0,0
28071,-100,4,2,1,70,0,0
28760,-58.8235294117647,4,2,1,70,0,0
31864,-100,4,2,1,70,0,0
32208,-76.9230769230769,4,2,1,70,0,0
33243,-80,4,2,1,70,0,0
34622,-100,4,2,1,70,0,0
34967,-55.5555555555556,4,2,1,70,0,0
35312,-50,4,2,1,70,0,0
36002,-100,4,2,1,70,0,0
36346,-55.5555555555556,4,2,1,70,0,0
36691,-50,4,2,1,70,0,0
37036,-200,4,2,1,70,0,0
37381,-100,4,2,1,70,0,0
37726,-55.5555555555556,4,2,1,70,0,0
38071,-100,4,2,1,70,0,0
38415,-55.5555555555556,4,2,1,70,0,0
38760,-100,4,2,1,70,0,0
39795,-50,4,2,1,70,0,0
40140,-100,4,2,1,70,0,0
40657,-57.1428571428571,4,2,1,70,0,0
41174,-50,4,2,1,70,0,0
41519,-100,4,2,1,70,0,0
42208,-55.5555555555556,4,2,1,70,0,0
42553,-50,4,2,1,70,0,0
42898,-100,4,2,1,70,0,0
43415,-55.5555555555556,4,2,1,70,0,0
43933,-50,4,2,1,70,0,0
44277,-100,4,2,1,70,0,0
45312,-50,4,2,1,70,0,0
45657,-100,4,2,1,70,0,0
46346,-57.1428571428571,4,2,1,70,0,0
46691,-50,4,2,1,70,0,0
47036,-100,4,2,1,70,0,0
47726,-57.1428571428571,4,2,1,70,0,0
48071,-200,4,2,1,70,0,0
48415,-100,4,2,1,70,0,0
49450,-50,4,2,1,70,0,0
49795,-100,4,2,1,70,0,0
50484,-57.1428571428571,4,2,1,70,0,0
50829,-200,4,2,1,70,0,0
51174,-100,4,2,1,70,0,0
52208,-50,4,2,1,70,0,0
52553,-100,4,2,1,70,0,0
53243,-57.1428571428571,4,2,1,70,0,0
53588,-50,4,2,1,70,0,0
53933,-100,4,2,1,70,0,0
54622,-57.1428571428571,4,2,1,70,0,0
54967,-33.3333333333333,4,2,1,70,0,0
55312,-125,4,2,1,70,0,0
56346,-66.6666666666667,4,2,1,70,0,0
56691,-133.333333333333,4,2,1,70,0,0
67726,-100,4,2,1,70,0,0
78760,-50,4,2,1,70,0,1
87036,-50,4,2,1,70,0,0
87553,-45.4545454545455,4,2,1,70,0,0
88071,-41.6666666666667,4,2,1,70,0,0
88588,-38.4615384615385,4,2,1,70,0,0
89105,-35.7142857142857,4,2,1,70,0,0
89450,-33.3333333333333,4,2,1,70,0,0
89795,-50,4,2,1,70,0,1
100829,-200,4,2,1,70,0,0
102208,-100,4,2,1,70,0,0
102467,-66.6666666666667,4,2,1,70,0,0
102726,-50,4,2,1,70,0,0
103588,-200,4,2,1,70,0,0
105312,-66.6666666666667,4,2,1,70,0,0
106691,-200,4,2,1,70,0,0
110829,-66.6666666666667,4,2,1,70,0,0
111864,-200,4,2,1,70,0,0
114191,-50,4,2,1,70,0,0

[HitObjects]
128,320,140,5,2,0:0:0:0:
25,274,312,1,2,0:0:0:0:
36,162,657,1,0,0:0:0:0:
147,138,1002,1,2,0:0:0:0:
202,236,1174,1,2,0:0:0:0:
128,320,1519,5,2,0:0:0:0:
244,336,1691,1,2,0:0:0:0:
360,352,2036,1,0,0:0:0:0:
476,368,2381,5,2,0:0:0:0:
432,260,2553,1,2,0:0:0:0:
484,156,2726,1,0,0:0:0:0:
489,145,2898,1,2,0:0:0:0:
495,135,3071,5,2,0:0:0:0:
392,84,3415,1,0,0:0:0:0:
288,36,3760,1,2,0:0:0:0:
220,132,3933,1,2,0:0:0:0:
328,180,4277,5,2,0:0:0:0:
328,180,4795,1,0,0:0:0:0:
328,180,5140,1,2,0:0:0:0:
328,180,5312,1,2,0:0:0:0:
156,364,5657,6,0,P|144:340|140:308,1,46.75,2|2,0:0|0:0,0:0:0:0:
344,272,6002,2,0,P|338:294|328:315,1,46.75,2|0,0:0|0:0,0:0:0:0:
56,200,6346,2,0,L|120:192,1,46.75,2|2,0:0|0:0,0:0:0:0:
220,176,6691,1,2,0:0:0:0:
208,160,7036,6,0,P|188:192|180:216,1,46.75,2|2,0:0|0:0,0:0:0:0:
320,368,7381,2,0,P|300:336|292:312,1,46.75,2|0,0:0|0:0,0:0:0:0:
480,236,7726,2,0,L|416:228,1,46.75,2|2,0:0|0:0,0:0:0:0:
316,212,8071,1,2,0:0:0:0:
328,224,8415,6,0,P|346:199|352:168,1,46.75,2|2,0:0|0:0,0:0:0:0:
188,88,8760,1,2,0:0:0:0:
296,24,8933,2,0,L|284:136,1,93.5,2|2,0:0|0:0,0:0:0:0:
256,360,9450,1,2,0:0:0:0:
180,272,9622,1,0,0:0:0:0:
350,183,9795,6,0,P|378:195|410:195,1,46.75,2|2,0:0|0:0,0:0:0:0:
484,360,10140,2,0,P|460:363|440:373,1,46.75,2|2,0:0|0:0,0:0:0:0:
300,292,10484,2,0,L|468:272,1,163.625,2|0,0:0|0:0,0:0:0:0:
488,284,11174,6,0,B|508:228|508:228|480:148,1,116.875,2|0,0:0|0:0,0:0:0:0:
424,104,11433,5,2,0:0:0:0:
396,108,11519,2,0,L|321:115,1,74.8,2|2,0:0|0:0,0:0:0:0:
124,140,11864,1,0,0:0:0:0:
284,200,12036,1,2,0:0:0:0:
228,24,12208,2,0,P|207:63|228:136,1,112.2,2|0,0:0|0:0,0:0:0:0:
284,200,12553,6,0,B|288:276|288:276|252:328,1,116.875,2|0,0:0|0:0,0:0:0:0:
184,360,12812,5,2,0:0:0:0:
152,352,12898,2,0,L|79:337,1,74.8,2|2,0:0|0:0,0:0:0:0:
0,216,13243,2,0,L|146:184,1,149.6,2|2,0:0|0:0,0:0:0:0:
388,128,13760,1,0,0:0:0:0:
220,12,13933,6,0,B|188:44|188:44|209:134,1,116.875,2|0,0:0|0:0,0:0:0:0:
324,200,14191,5,2,0:0:0:0:
318,232,14277,2,0,L|306:320,1,74.8,2|2,0:0|0:0,0:0:0:0:
216,248,14622,1,2,0:0:0:0:
420,208,14795,1,2,0:0:0:0:
324,28,14967,2,0,P|300:76|364:100,1,112.2,2|0,0:0|0:0,0:0:0:0:
352,96,15312,6,0,L|224:92,1,116.875,2|0,0:0|0:0,0:0:0:0:
116,32,15571,5,2,0:0:0:0:
96,52,15657,2,0,P|80:96|88:136,1,74.8,2|2,0:0|0:0,0:0:0:0:
288,248,16002,2,0,P|289:210|275:176,1,74.8,2|2,0:0|0:0,0:0:0:0:
20,248,16346,1,2,0:0:0:0:
140,360,16519,1,0,0:0:0:0:
244,160,16691,6,0,L|368:148,1,116.875,2|0,0:0|0:0,0:0:0:0:
504,64,16950,5,2,0:0:0:0:
496,100,17036,2,0,L|480:184,1,74.8,2|2,0:0|0:0,0:0:0:0:
440,360,17381,1,2,0:0:0:0:
272,228,17553,1,2,0:0:0:0:
272,228,17640,1,2,0:0:0:0:
272,228,17726,2,0,B|333:218|316:260|400:244,1,112.2,2|0,0:0|0:0,0:0:0:0:
404,238,18071,6,0,L|284:306,1,116.875,2|0,0:0|0:0,0:0:0:0:
220,372,18329,5,2,0:0:0:0:
184,356,18415,2,0,P|160:312|172:260,1,74.8,2|2,0:0|0:0,0:0:0:0:
216,232,18674,1,2,0:0:0:0:
228,240,18760,1,2,0:0:0:0:
452,316,18933,1,2,0:0:0:0:
440,324,19019,1,2,0:0:0:0:
384,374,19105,6,0,L|400:250,1,112.2,2|0,0:0|0:0,0:0:0:0:
468,204,19450,6,0,B|484:148|484:148|456:72,1,116.875,2|0,0:0|0:0,0:0:0:0:
368,32,19708,5,2,0:0:0:0:
332,40,19795,2,0,L|236:56,1,74.8,2|2,0:0|0:0,0:0:0:0:
112,160,20140,1,0,0:0:0:0:
292,256,20312,1,2,0:0:0:0:
144,368,20484,2,0,P|116:332|104:280,1,74.8,2|0,0:0|0:0,0:0:0:0:
176,68,20829,6,0,B|240:40|292:92|292:92|260:140|300:188|300:188|352:140|428:176,1,350.625,2|0,0:0|0:0,0:0:0:0:
432,192,22165,6,0,L|428:216,2,23.375,2|2|2,0:0|0:0|0:0,0:0:0:0:
400,352,22467,1,2,3:0:0:0:
400,352,22553,2,0,L|316:360,1,46.75,2|0,3:0|0:0,0:0:0:0:
280,304,22726,2,0,L|173:314,1,93.5,2|0,3:0|0:0,0:0:0:0:
108,268,22984,5,2,3:0:0:0:
113,253,23070,1,2,3:0:0:0:
119,238,23156,1,2,3:0:0:0:
124,224,23243,2,0,L|146:166,1,46.75,2|0,3:0|0:0,0:0:0:0:
260,20,23415,2,0,L|282:78,1,46.75,2|0,3:0|0:0,0:0:0:0:
360,200,23588,6,0,P|372:152|340:100,1,93.5,8|0,0:0|0:0,0:0:0:0:
112,88,23846,1,0,0:0:0:0:
144,84,23933,2,0,L|216:76,1,46.75,8|0,0:0|0:0,0:0:0:0:
240,164,24105,2,0,L|312:156,1,46.75
496,44,24277,2,0,L|379:33,1,93.5,8|0,0:0|0:0,0:0:0:0:
172,124,24622,6,0,P|161:152|169:192,1,58.4375,8|0,0:0|0:0,0:0:0:0:
376,248,24795,2,0,P|378:219|367:192,1,58.4375
108,280,24967,6,0,L|216:288,1,93.5,8|0,0:0|0:0,0:0:0:0:
460,185,25312,2,0,L|366:191,1,93.5,8|0,0:0|0:0,0:0:0:0:
220,124,25657,1,8,0:0:0:0:
388,324,25829,1,0,0:0:0:0:
436,104,26002,6,0,B|380:36|284:64|284:64|316:92|308:160,1,238.425004547596,8|0,0:0|0:0,0:0:0:0:
256,204,26346,6,0,L|144:196,1,93.5,8|0,0:0|0:0,0:0:0:0:
16,96,26605,1,0,0:0:0:0:
22,124,26691,2,0,L|34:180,1,46.75,8|0,0:0|0:0,0:0:0:0:
134,325,26864,2,0,L|144:280,1,46.75
309,127,27036,2,0,L|402:133,1,93.5,8|0,0:0|0:0,0:0:0:0:
504,248,27381,6,0,P|464:240|432:212,1,58.4375,8|0,0:0|0:0,0:0:0:0:
396,24,27553,2,0,P|356:32|324:60,1,58.4375
176,172,27726,6,0,B|256:180|308:128|308:128|256:184|276:240,1,238.425004547596,8|0,0:0|0:0,0:0:0:0:
388,320,28071,6,0,P|383:277|319:225,1,93.5,8|0,0:0|0:0,0:0:0:0:
8,144,28415,1,8,0:0:0:0:
136,292,28588,1,0,0:0:0:0:
107,121,28760,6,0,B|127:181|71:229|71:229|27:285|63:345,1,238.425004547596,8|0,0:0|0:0,0:0:0:0:
148,372,29105,5,8,0:0:0:0:
388,240,29277,1,8,0:0:0:0:
184,280,29450,5,8,0:0:0:0:
360,332,29622,1,8,0:0:0:0:
328,160,29795,5,8,0:0:0:0:
252,352,29967,1,8,0:0:0:0:
200,136,30140,5,8,0:0:0:0:
376,360,30312,1,8,0:0:0:0:
434,274,30484,5,0,0:0:0:0:
398,256,30570,1,0,0:0:0:0:
359,255,30656,1,0,0:0:0:0:
322,269,30742,1,0,0:0:0:0:
312,284,30829,5,0,0:0:0:0:
263,317,30915,1,0,0:0:0:0:
204,322,31001,1,0,0:0:0:0:
151,298,31087,1,0,0:0:0:0:
116,250,31174,5,0,0:0:0:0:
129,191,31260,1,0,0:0:0:0:
143,133,31346,1,0,0:0:0:0:
157,75,31432,1,0,0:0:0:0:
136,8,31519,5,0,0:0:0:0:
143,87,31605,1,0,0:0:0:0:
150,166,31691,1,0,0:0:0:0:
157,245,31777,1,0,0:0:0:0:
165,324,31864,6,0,P|199:349|272:332,1,93.5
432,260,32208,6,0,B|492:144|416:28|416:28|244:220|372:272|384:220|416:120|308:12,1,668.524969397356
236,24,33243,5,2,3:0:0:0:
236,24,33329,2,0,L|120:36,1,116.875,2|0,3:0|0:0,0:0:0:0:
24,20,33588,2,0,P|0:80|28:140,1,116.875,2|0,3:0|0:0,0:0:0:0:
176,192,33846,1,2,3:0:0:0:
152,176,33933,6,0,L|92:184,1,58.4375,2|0,3:0|0:0,0:0:0:0:
4,288,34105,2,0,L|64:280,1,58.4375,2|0,3:0|0:0,0:0:0:0:
356,224,34277,5,2,3:0:0:0:
317,157,34363,1,2,3:0:0:0:
243,173,34449,1,2,3:0:0:0:
235,248,34535,1,2,3:0:0:0:
305,280,34622,6,0,B|319:326|319:326|296:392,1,93.5,8|0,0:0|0:0,0:0:0:0:
24,312,34881,1,0,0:0:0:0:
2,288,34967,6,0,B|62:264|114:312|114:312|178:360|242:320,1,252.449992295838,8|0,0:0|0:0,0:0:0:0:
276,236,35312,6,0,P|240:224|180:248,1,93.5,8|0,0:0|0:0,0:0:0:0:
15,374,35484,2,0,B|-5:346|-5:346|3:270,1,93.5,8|0,0:0|0:0,0:0:0:0:
120,120,35657,6,0,B|135:81|102:58|71:48|71:48|32:88|21:141|51:193|120:212,1,280.5,8|0,0:0|0:0,0:0:0:0:
188,240,36002,6,0,L|292:228,1,93.5,8|0,0:0|0:0,0:0:0:0:
464,328,36346,6,0,P|376:280|424:260,1,168.299994863892,8|0,0:0|0:0,0:0:0:0:
444,180,36605,1,0,0:0:0:0:
432,156,36691,6,0,B|420:132|420:132|400:208,1,93.5
256,352,36864,2,0,B|268:376|268:376|288:300,1,93.5,8|0,0:0|0:0,0:0:0:0:
176,148,37036,6,0,L|96:156,1,70.125,8|0,0:0|0:0,0:0:0:0:
32,167,37381,6,0,P|76:167|128:211,1,93.5,8|0,0:0|0:0,0:0:0:0:
124,360,37726,6,0,B|64:284|116:192|116:192|120:248|196:280,1,252.449992295838,8|0,0:0|0:0,0:0:0:0:
236,284,38071,6,0,L|356:272,1,93.5,8|8,0:0|0:0,0:0:0:0:
509,166,38415,6,0,B|341:190|341:190|396:200|412:251,1,252.449992295838,8|0,0:0|0:0,0:0:0:0:
460,368,38760,6,0,P|480:336|468:264,1,93.5,8|0,0:0|0:0,0:0:0:0:
236,112,39105,2,0,P|231:157|254:198,1,93.5,8|0,0:0|0:0,0:0:0:0:
396,72,39364,1,0,0:0:0:0:
364,56,39450,2,0,L|296:64,1,46.75
96,148,39622,2,0,L|164:156,1,46.75,8|0,0:0|0:0,0:0:0:0:
304,328,39795,6,0,P|248:236|368:276,1,280.5,8|0,0:0|0:0,0:0:0:0:
196,360,40140,6,0,P|152:332|92:320,1,93.5,8|0,0:0|0:0,0:0:0:0:
16,192,40484,1,8,0:0:0:0:
228,60,40657,6,0,B|152:20|152:20|180:200,1,245.437502340674
188,256,41002,1,8,0:0:0:0:
396,92,41174,6,0,B|336:84|336:84|276:108,1,93.5,8|0,0:0|0:0,0:0:0:0:
85,173,41346,2,0,B|145:165|145:165|205:189,1,93.5
268,368,41519,6,0,L|280:272,1,93.5,8|0,0:0|0:0,0:0:0:0:
305,96,41864,1,8,0:0:0:0:
444,212,42036,1,0,0:0:0:0:
444,212,42122,1,0,0:0:0:0:
444,212,42208,6,0,P|404:208|356:232,1,84.1499974319459
268,368,42381,2,0,P|228:372|180:348,1,84.1499974319459,8|0,0:0|0:0,0:0:0:0:
312,80,42553,6,0,B|284:164|364:224|364:224|408:284|356:352,1,280.5,8|0,0:0|0:0,0:0:0:0:
271,232,42898,6,0,L|371:224,1,93.5,8|0,0:0|0:0,0:0:0:0:
421,119,43243,1,8,0:0:0:0:
219,6,43415,6,0,B|152:40|155:102|155:102|208:104|223:150|223:150|151:198|187:290,1,336.599989727784,0|8,0:0|0:0,0:0:0:0:
356,324,43933,6,0,B|288:236|176:256|176:256|156:300|108:316,1,280.5,8|0,0:0|0:0,0:0:0:0:
0,240,44277,6,0,L|100:228,1,93.5,8|8,0:0|0:0,0:0:0:0:
256,360,44622,1,8,0:0:0:0:
104,140,44795,1,0,0:0:0:0:
96,128,44881,1,0,0:0:0:0:
88,116,44967,2,0,L|100:44,1,46.75,8|0,0:0|0:0,0:0:0:0:
272,32,45140,5,8,0:0:0:0:
328,100,45226,1,0,0:0:0:0:
268,160,45312,2,0,B|196:144|196:144|256:124,1,93.5,8|0,0:0|0:0,0:0:0:0:
392,44,45484,2,0,B|464:60|464:60|404:80,1,93.5
225,230,45657,6,0,L|213:126,1,93.5,8|0,0:0|0:0,0:0:0:0:
400,192,46002,1,0,0:0:0:0:
272,316,46174,2,0,L|204:308,1,46.75
44,304,46346,6,0,B|104:304|152:268|152:268|136:296|144:328,1,163.62500156045
312,384,46605,1,0,0:0:0:0:
320,368,46691,6,0,B|312:284|312:284|328:260|328:260|309:225|309:225|296:84,1,280.5
316,24,47036,6,0,B|285:17|257:32|257:32|269:12|288:6,1,93.5
456,116,47295,1,0,0:0:0:0:
429,118,47381,2,0,L|361:126,1,46.75
188,144,47553,1,0,0:0:0:0:
177,149,47640,1,0,0:0:0:0:
190,221,47726,6,0,L|200:140,1,81.8125007802248
18,106,47898,2,0,L|28:188,1,81.8125007802248
244,68,48071,6,0,P|218:57|166:65,1,70.125
166,57,48415,6,0,P|205:48|268:84,1,93.5
456,160,48674,1,0,0:0:0:0:
436,184,48760,2,0,P|393:202|348:194,1,93.5
252,148,49019,1,0,0:0:0:0:
244,176,49105,2,0,L|228:236,1,46.75
368,292,49277,2,0,L|384:352,1,46.75
252,148,49450,6,0,B|152:120|172:192|64:160,1,187
0,36,49708,1,0,0:0:0:0:
10,16,49795,6,0,P|47:46|46:101,1,93.5
8,240,50140,1,0,0:0:0:0:
252,148,50312,1,0,0:0:0:0:
252,148,50398,1,0,0:0:0:0:
252,148,50484,6,0,L|368:160,1,81.8125007802248
448,332,50657,2,0,L|332:320,1,81.8125007802248
417,147,50829,6,0,P|418:177|406:205,1,46.75
288,344,51088,1,0,0:0:0:0:
260,340,51174,6,0,L|144:328,1,93.5
20,172,51519,1,0,0:0:0:0:
124,60,51691,2,0,L|132:116,1,46.75
196,224,51864,2,0,P|220:184|196:116,1,93.5
100,260,52122,1,0,0:0:0:0:
112,240,52208,6,0,B|148:208|200:224|200:224|240:276|308:264|308:264|344:216|424:232,1,327.25
478,191,52553,6,0,P|489:236|472:279,1,93.5
264,348,52898,1,0,0:0:0:0:
332,148,53071,1,0,0:0:0:0:
336,136,53157,1,0,0:0:0:0:
388,80,53243,6,0,B|256:96|256:96|292:72,1,163.62500156045
436,8,53502,1,0,0:0:0:0:
460,21,53588,6,0,B|496:73|464:133|464:133|416:205|468:237|524:212|492:157,1,280.5
376,240,53933,6,0,L|364:356,1,93.5
148,196,54277,1,0,0:0:0:0:
320,112,54450,2,0,P|332:80|328:28,1,46.75
264,24,54622,6,0,L|280:200,1,163.62500156045
380,316,54881,1,0,0:0:0:0:
352,292,54967,6,0,B|297:273|239:326|239:326|174:393|100:346|100:346|114:258|203:255,1,420.750016050339
428,368,55312,6,0,L|444:244,1,112.2
448,220,55657,1,0,0:0:0:0:
184,168,55829,6,0,L|168:44,1,112.2
268,16,56174,1,0,0:0:0:0:
260,33,56260,1,0,0:0:0:0:
252,52,56346,6,0,B|323:24|367:84|367:84|336:126|360:180,1,210.37500802517
503,143,56691,6,0,L|427:135,1,70.1250026750566
433,135,57036,1,0,0:0:0:0:
288,224,57208,2,0,L|136:204,1,140.250005350113
36,256,57726,2,0,P|40:296|64:328,1,70.1250026750566
140,360,58071,5,0,0:0:0:0:
228,344,58243,1,0,0:0:0:0:
316,328,58415,1,0,0:0:0:0:
224,316,58588,1,0,0:0:0:0:
136,300,58760,5,0,0:0:0:0:
248,176,58933,1,0,0:0:0:0:
156,56,59105,2,0,L|160:84,2,17.5312506687641,2|2|2,0:0|0:0|0:0,0:0:0:0:
155,37,59277,1,2,0:0:0:0:
320,104,59450,5,2,0:0:0:0:
248,176,59622,1,0,0:0:0:0:
252,188,59708,1,0,0:0:0:0:
256,200,59795,1,0,0:0:0:0:
320,363,59967,2,0,L|340:215,1,140.250005350113,2|0,0:0|0:0,0:0:0:0:
480,88,60484,2,0,P|464:112|416:140,1,70.1250026750566,2|2,0:0|0:0,0:0:0:0:
352,92,60829,5,2,0:0:0:0:
280,36,61002,1,0,0:0:0:0:
188,32,61174,1,0,0:0:0:0:
112,80,61346,1,2,0:0:0:0:
76,164,61519,5,0,0:0:0:0:
96,64,61691,1,0,0:0:0:0:
176,148,61864,1,2,0:0:0:0:
174,182,61950,1,2,0:0:0:0:
162,215,62036,1,2,0:0:0:0:
140,242,62122,1,2,0:0:0:0:
110,260,62208,6,0,L|192:268,1,70.1250026750566,2|0,0:0|0:0,0:0:0:0:
180,266,62553,1,0,0:0:0:0:
288,356,62726,2,0,L|448:340,1,140.250005350113
508,240,63243,2,0,P|496:192|464:164,1,70.1250026750566
400,136,63588,5,2,0:0:0:0:
308,144,63760,1,0,0:0:0:0:
216,160,63933,1,0,0:0:0:0:
304,176,64105,1,2,0:0:0:0:
272,92,64277,5,0,0:0:0:0:
160,232,64450,1,0,0:0:0:0:
344,260,64622,1,2,0:0:0:0:
272,92,64795,1,0,0:0:0:0:
160,232,64967,5,2,0:0:0:0:
256,200,65140,1,0,0:0:0:0:
258,187,65226,1,0,0:0:0:0:
261,175,65312,1,0,0:0:0:0:
64,48,65484,1,0,0:0:0:0:
132,108,65657,2,0,L|212:100,1,70.1250026750566
376,32,66002,2,0,L|433:38,2,35.0625013375283
224,100,66346,5,2,0:0:0:0:
252,188,66519,1,0,0:0:0:0:
280,276,66691,1,0,0:0:0:0:
312,360,66864,1,2,0:0:0:0:
420,212,67036,5,0,0:0:0:0:
300,376,67208,1,0,0:0:0:0:
152,256,67381,1,0,0:0:0:0:
392,372,67553,1,2,0:0:0:0:
400,360,67640,1,2,0:0:0:0:
408,348,67726,6,0,L|300:360,1,93.5,2|2,3:0|3:0,0:0:0:0:
396,180,68071,2,0,L|460:267,1,93.5,2|0,3:0|0:0,0:0:0:0:
248,280,68415,2,0,L|291:180,1,93.5,0|2,0:0|3:0,0:0:0:0:
352,268,68760,1,2,3:0:0:0:
216,356,68933,1,2,3:0:0:0:
200,368,69019,1,2,3:0:0:0:
184,380,69105,6,0,L|84:368,1,93.5,2|2,3:0|3:0,0:0:0:0:
8,256,69450,1,0,0:0:0:0:
124,120,69622,1,2,3:0:0:0:
140,128,69708,1,0,0:0:0:0:
156,136,69795,6,0,L|168:176,1,23.375,2|0,3:0|0:0,0:0:0:0:
284,200,69967,6,0,L|306:194,1,23.375,2|0,3:0|0:0,0:0:0:0:
272,64,70140,6,0,L|243:33,1,23.375,2|0,3:0|0:0,0:0:0:0:
240,24,70226,5,2,3:0:0:0:
300,28,70312,1,2,3:0:0:0:
360,32,70398,1,2,3:0:0:0:
420,36,70484,6,0,B|482:40|482:40|456:52|448:68,1,93.5,2|0,3:0|0:0,0:0:0:0:
496,204,70829,2,0,P|516:156|500:104,1,93.5,2|0,3:0|0:0,0:0:0:0:
284,256,71174,1,2,3:0:0:0:
496,328,71346,1,2,3:0:0:0:
436,151,71519,5,2,3:0:0:0:
389,154,71605,1,2,3:0:0:0:
342,157,71691,1,2,3:0:0:0:
296,160,71777,1,2,3:0:0:0:
249,163,71864,6,0,L|140:171,1,93.5,2|0,3:0|0:0,0:0:0:0:
46,48,72208,2,0,P|88:53|134:84,1,93.5,2|0,3:0|0:0,0:0:0:0:
286,247,72553,2,0,P|331:240|370:214,1,93.5,2|2,3:0|3:0,0:0:0:0:
272,52,72898,1,2,3:0:0:0:
188,276,73071,1,2,3:0:0:0:
184,288,73157,1,2,3:0:0:0:
180,300,73243,5,2,3:0:0:0:
34,212,73415,1,0,0:0:0:0:
72,47,73588,1,2,3:0:0:0:
241,33,73760,1,0,0:0:0:0:
64,40,73933,5,2,3:0:0:0:
236,28,74105,1,2,3:0:0:0:
307,188,74277,1,2,3:0:0:0:
278,192,74363,1,2,3:0:0:0:
265,168,74449,1,2,3:0:0:0:
285,147,74535,1,2,3:0:0:0:
310,160,74621,5,2,3:0:0:0:
176,356,74795,1,2,3:0:0:0:
408,240,74967,5,0,0:0:0:0:
120,184,75140,1,2,3:0:0:0:
288,352,75312,6,0,L|296:324,1,23.375,2|0,3:0|0:0,0:0:0:0:
324,220,75484,6,0,L|332:192,1,23.375,2|0,3:0|0:0,0:0:0:0:
360,84,75657,6,0,L|368:56,1,23.375,2|0,3:0|0:0,0:0:0:0:
372,36,75743,5,2,3:0:0:0:
316,40,75829,1,2,3:0:0:0:
260,48,75915,1,2,3:0:0:0:
204,56,76002,6,0,L|94:70,1,93.5,2|0,3:0|0:0,0:0:0:0:
16,244,76346,2,0,P|56:208|80:148,1,93.5,2|2,3:0|3:0,0:0:0:0:
184,260,76605,1,2,3:0:0:0:
184,260,76691,2,0,L|164:370,1,93.5,2|2,3:0|3:0,0:0:0:0:
204,172,77036,5,2,3:0:0:0:
247,104,77122,1,2,3:0:0:0:
321,72,77208,1,2,3:0:0:0:
400,89,77294,1,2,3:0:0:0:
456,147,77380,1,2,3:0:0:0:
484,360,77640,5,2,3:0:0:0:
484,360,77726,2,0,L|492:304,1,46.75,2|0,3:0|0:0,0:0:0:0:
340,176,77898,2,0,L|353:268,1,93.5,2|0,3:0|0:0,0:0:0:0:
296,344,78157,1,2,3:0:0:0:
280,341,78243,1,2,3:0:0:0:
265,338,78329,1,2,3:0:0:0:
184,360,78415,5,2,3:0:0:0:
195,304,78501,1,0,0:0:0:0:
207,249,78587,1,2,3:0:0:0:
219,194,78673,1,0,0:0:0:0:
231,138,78760,6,0,B|92:156|92:156|152:176,1,187,8|0,0:0|0:0,0:0:0:0:
344,220,79019,1,0,0:0:0:0:
372,228,79105,2,0,P|404:288|312:264,1,187,8|0,0:0|0:0,0:0:0:0:
355,140,79364,1,0,0:0:0:0:
387,134,79450,6,0,L|495:119,1,93.5
360,272,79622,2,0,L|252:287,1,93.5,8|0,0:0|0:0,0:0:0:0:
36,192,79795,6,0,P|21:153|45:89,1,93.5,8|0,0:0|0:0,0:0:0:0:
264,196,79967,2,0,P|279:235|255:299,1,93.5
68,336,80140,6,0,L|104:144,1,187,8|8,0:0|0:0,0:0:0:0:
272,80,80398,1,0,0:0:0:0:
256,104,80484,2,0,P|188:112|228:24,1,187,8|0,0:0|0:0,0:0:0:0:
352,128,80743,1,0,0:0:0:0:
356,159,80829,6,0,B|362:227|362:227|340:275|340:275|348:351,1,187,0|8,0:0|0:0,0:0:0:0:
448,340,81088,1,0,0:0:0:0:
432,308,81174,2,0,P|368:252|256:308,1,187,8|0,0:0|0:0,0:0:0:0:
176,348,81433,1,0,0:0:0:0:
140,344,81519,6,0,L|36:336,1,93.5,8|0,0:0|0:0,0:0:0:0:
152,180,81691,2,0,L|197:274,1,93.5
8,252,81864,2,0,L|66:165,1,93.5,8|0,0:0|0:0,0:0:0:0:
156,44,82036,5,0,0:0:0:0:
156,44,82122,1,0,0:0:0:0:
156,44,82208,2,0,B|217:40|256:96|256:96|283:67|336:72,1,187,0|8,0:0|0:0,0:0:0:0:
420,192,82467,1,0,0:0:0:0:
388,204,82553,2,0,P|340:188|316:136,1,93.5,8|0,0:0|0:0,0:0:0:0:
454,24,82726,2,0,L|462:136,1,93.5
481,356,82898,6,0,B|469:224|469:224|456:262|417:280,1,187,8|8,0:0|0:0,0:0:0:0:
180,244,83157,1,0,0:0:0:0:
210,231,83243,2,0,B|342:187|342:187|398:207,1,187,8|8,0:0|0:0,0:0:0:0:
368,376,83502,1,8,0:0:0:0:
340,364,83588,6,0,P|324:312|352:256,1,93.5,8|0,0:0|0:0,0:0:0:0:
444,48,83760,2,0,P|460:100|432:156,1,93.5,8|0,0:0|0:0,0:0:0:0:
335,276,83933,2,0,L|227:268,1,93.5,8|0,0:0|0:0,0:0:0:0:
70,126,84105,2,0,L|164:120,1,93.5
380,96,84277,6,0,P|284:96|236:192,1,187,8|0,0:0|0:0,0:0:0:0:
351,384,84536,1,0,0:0:0:0:
349,368,84622,2,0,B|337:300|337:300|345:260|345:260|333:176,1,187,8|0,0:0|0:0,0:0:0:0:
120,48,84881,1,0,0:0:0:0:
144,60,84967,6,0,P|184:60|252:-4,1,93.5
441,51,85140,2,0,P|429:47|385:111,1,93.5,8|0,0:0|0:0,0:0:0:0:
480,216,85312,6,0,B|492:172|492:172|464:96,1,93.5,8|0,0:0|0:0,0:0:0:0:
216,228,85484,2,0,B|204:272|204:272|220:316,1,93.5
393,123,85657,6,0,L|193:139,1,187,8|8,0:0|0:0,0:0:0:0:
46,27,85915,1,0,0:0:0:0:
66,7,86002,2,0,B|122:15|126:67|126:67|83:111|110:183,1,187,8|0,0:0|0:0,0:0:0:0:
196,312,86260,1,0,0:0:0:0:
184,288,86346,6,0,P|116:240|-8:248,1,187,0|8,0:0|0:0,0:0:0:0:
104,360,86605,1,0,0:0:0:0:
130,354,86691,2,0,P|199:292|221:203,1,187,8|0,0:0|0:0,0:0:0:0:
32,88,86950,1,0,0:0:0:0:
12,108,87036,6,0,L|204:124,1,187,8|0,0:0|0:0,0:0:0:0:
396,144,87381,1,0,0:0:0:0:
291,30,87553,6,0,P|247:98|491:266,1,411.400012554932,8|0,0:0|0:0,0:0:0:0:
396,144,88071,6,0,L|132:164,1,224.399993151856,8|0,0:0|0:0,0:0:0:0:
7,218,88415,1,0,0:0:0:0:
0,52,88588,6,0,B|50:130|6:218|6:218|70:146|174:162|174:162|172:256|278:286,1,486.199977743531,8|0,0:0|0:0,0:0:0:0:
503,152,89105,6,0,B|392:112|331:208|331:208|375:324|267:375,1,392.699988015747,8|0,0:0|0:0,0:0:0:0:
149,313,89450,6,0,P|205:353|273:370,1,140.250005350113,8|0,0:0|0:0,0:0:0:0:
424,60,89622,2,0,P|360:76|256:188,1,140.250005350113,8|0,0:0|0:0,0:0:0:0:
56,364,89795,6,0,L|36:164,1,187,8|0,0:0|0:0,0:0:0:0:
88,24,90053,1,0,0:0:0:0:
73,48,90140,2,0,B|89:92|137:96|137:96|183:46|286:75,1,187,8|0,0:0|0:0,0:0:0:0:
342,215,90398,1,0,0:0:0:0:
318,203,90484,6,0,P|294:159|318:91,1,93.5
500,24,90657,2,0,P|504:69|481:109,1,93.5,8|0,0:0|0:0,0:0:0:0:
224,193,90829,6,0,L|344:205,1,93.5,8|0,0:0|0:0,0:0:0:0:
488,332,91002,2,0,L|368:344,1,93.5
155,116,91174,6,0,P|119:188|199:296,1,187,8|8,0:0|0:0,0:0:0:0:
440,76,91433,1,0,0:0:0:0:
420,56,91519,2,0,L|216:44,1,187,8|0,0:0|0:0,0:0:0:0:
0,192,91777,1,0,0:0:0:0:
20,215,91864,6,0,P|76:211|152:75,1,187,0|8,0:0|0:0,0:0:0:0:
308,356,92121,1,0,0:0:0:0:
279,365,92208,2,0,P|233:332|237:177,1,187,8|0,0:0|0:0,0:0:0:0:
504,104,92467,1,0,0:0:0:0:
484,124,92553,6,0,B|376:96|420:176|284:140,1,187,8|0,0:0|0:0,0:0:0:0:
4,36,92898,1,8,0:0:0:0:
88,200,93071,2,0,P|228:184|264:4,1,280.5
176,8,93415,6,0,P|176:68|224:120,1,93.5,8|0,0:0|0:0,0:0:0:0:
456,72,93588,2,0,P|404:42|335:57,1,93.5,8|0,0:0|0:0,0:0:0:0:
292,288,93760,2,0,P|343:258|364:190,1,93.5
282,68,93933,6,0,L|60:84,1,187,8|8,0:0|0:0,0:0:0:0:
28,248,94191,1,0,0:0:0:0:
52,264,94277,2,0,P|142:255|204:168,1,187,8|0,0:0|0:0,0:0:0:0:
20,20,94536,1,0,0:0:0:0:
4,44,94622,6,0,P|-3:94|36:160,1,93.5
88,208,94795,2,0,P|132:231|207:217,1,93.5,8|0,0:0|0:0,0:0:0:0:
344,80,94967,6,0,P|297:81|257:103,1,93.5,8|0,0:0|0:0,0:0:0:0:
174,231,95140,2,0,P|175:277|197:317,1,93.5
448,272,95312,6,0,P|368:236|248:268,1,187,8|0,0:0|0:0,0:0:0:0:
32,336,95571,1,0,0:0:0:0:
65,355,95657,2,0,P|156:305|169:213,1,187,8|0,0:0|0:0,0:0:0:0:
0,112,95915,1,0,0:0:0:0:
28,108,96002,6,0,L|136:96,1,93.5
212,84,96174,2,0,L|320:72,1,93.5,8|0,0:0|0:0,0:0:0:0:
450,265,96346,6,0,L|342:253,1,93.5,8|0,0:0|0:0,0:0:0:0:
266,241,96518,1,0,0:0:0:0:
173,230,96604,1,0,0:0:0:0:
220,314,96691,6,0,P|268:242|200:138,1,187,8|8,0:0|0:0,0:0:0:0:
20,60,96950,1,0,0:0:0:0:
40,40,97036,2,0,B|108:36|108:36|145:62|145:62|244:52,1,187,8|0,0:0|0:0,0:0:0:0:
420,124,97295,1,0,0:0:0:0:
396,136,97381,6,0,P|312:104|372:44,1,187,0|8,0:0|0:0,0:0:0:0:
471,246,97640,1,0,0:0:0:0:
450,265,97726,2,0,L|262:242,1,187,8|0,0:0|0:0,0:0:0:0:
122,271,97984,1,0,0:0:0:0:
184,359,98071,6,0,P|228:276|176:180,1,187,8|0,0:0|0:0,0:0:0:0:
40,60,98415,1,8,0:0:0:0:
195,195,98588,2,0,P|245:188|303:127,1,93.5
500,88,98760,6,0,L|304:76,1,187,0|8,0:0|0:0,0:0:0:0:
313,76,99105,2,0,P|352:96|368:180,1,93.5,8|0,0:0|0:0,0:0:0:0:
216,368,99277,2,0,L|204:256,1,93.5
176,32,99450,5,8,0:0:0:0:
32,216,99622,2,0,B|90:230|90:230|148:212,1,93.5,8|8,0:0|0:0,0:0:0:0:
380,144,99795,2,0,P|320:96|192:136,1,187,8|8,0:0|0:0,0:0:0:0:
392,332,100053,1,0,0:0:0:0:
412,312,100140,6,0,B|424:264|424:264|400:192,1,93.5,8|0,0:0|0:0,0:0:0:0:
216,111,100312,2,0,L|112:119,1,93.5,8|0,0:0|0:0,0:0:0:0:
272,318,100484,2,0,B|228:254|277:188|277:188|346:117|281:23,1,280.5,8|0,0:0|0:0,0:0:0:0:
208,28,100829,6,0,B|264:20|304:64|304:64|376:56|404:8|404:8|392:68|440:112,1,327.25
481,235,102208,6,0,P|501:196|488:134,1,93.5,2|0,3:0|0:0,0:0:0:0:
425,180,102467,6,0,L|441:340,1,140.250005350113,2|0,3:0|0:0,0:0:0:0:
503,364,102726,6,0,B|439:320|439:320|303:376,1,187,2|0,3:0|0:0,0:0:0:0:
337,361,102984,1,2,3:0:0:0:
337,361,103071,6,0,L|320:248,1,93.5,2|0,3:0|0:0,0:0:0:0:
164,92,103243,2,0,L|149:184,1,93.5,2|0,3:0|0:0,0:0:0:0:
116,344,103415,1,0,0:0:0:0:
76,276,103502,1,0,0:0:0:0:
40,208,103588,6,0,B|112:156|192:212|192:212|276:266|352:212|352:212|311:257|328:320,1,444.125
412,364,105312,6,0,P|434:353|452:328,5,46.750001783371
508,264,105657,2,0,P|510:239|498:211,5,46.750001783371
508,124,106002,2,0,P|488:109|458:103,5,46.750001783371
380,128,106346,5,0,0:0:0:0:
380,128,106691,6,0,L|388:164,3,23.375
268,176,107036,2,0,L|260:212,3,23.375
412,240,107381,2,0,L|420:276,3,23.375
244,288,107726,2,0,L|236:324,3,23.375
380,128,108071,6,0,L|388:164,3,23.375
268,176,108415,2,0,L|260:212,3,23.375
412,240,108760,2,0,L|420:276,3,23.375
244,288,109105,6,0,B|228:348|228:348|216:272|152:248|152:248|128:168|184:108|184:108|124:125|112:184,1,444.125
244,192,110829,6,0,P|276:186|296:172,5,46.750001783371
380,192,111174,6,0,P|390:161|388:136,5,46.750001783371
464,84,111519,6,0,P|442:59|420:48,5,46.750001783371
328,40,111864,5,0,0:0:0:0:
328,40,112208,6,0,L|288:44,3,23.375
280,148,112553,2,0,L|256:150,3,23.375
208,56,112898,2,0,L|184:58,3,23.375
160,164,113243,2,0,L|120:168,3,23.375
328,40,113588,6,0,L|288:44,3,23.375
204,56,113933,1,0,0:0:0:0:
240,129,114019,1,0,0:0:0:0:
277,202,114105,1,0,0:0:0:0:
320,280,114191,6,0,L|336:164,1,93.5
348,64,114450,1,0,0:0:0:0:
309,365,114622,1,0,0:0:0:0:
16,24,115312,5,0,0:0:0:0:
256,192,115398,12,0,118760,0:0:0:0:
