osu file format v14

[General]
AudioFilename: audio.mp3
AudioLeadIn: 0
PreviewTime: 78410
Countdown: 0
SampleSet: Soft
StackLeniency: 0.5
Mode: 0
LetterboxInBreaks: 0
WidescreenStoryboard: 1

[Editor]
Bookmarks: 11169,23583,34617,45652,56686,67721,78755,89790,100824,109100,115307
DistanceSpacing: 1.3
BeatDivisor: 4
GridSize: 4
TimelineZoom: 1.4

[Metadata]
Title:Pragmatism
TitleUnicode:Pragmatism
Artist:Laur
ArtistUnicode:Laur
Creator:Ambient
Version:Normal
Source:Arcaea
Tags:dakinibrave rain
BeatmapID:1293715
BeatmapSetID:612657

[Difficulty]
HPDrainRate:4
CircleSize:3.5
OverallDifficulty:4
ApproachRate:5
SliderMultiplier:0.799999999999999
SliderTickRate:1

[Events]
//Background and Video events
0,0,"bg.jpg",0,0
//Break Periods
2,21024,22383
2,32059,33417
2,101024,102383
//Storyboard Layer 0 (Background)
//Storyboard Layer 1 (Fail)
//Storyboard Layer 2 (Pass)
//Storyboard Layer 3 (Foreground)
//Storyboard Sound Samples

[TimingPoints]
135,344.827586206897,4,2,0,45,1,0
5652,-100,4,2,0,60,0,0
11169,-100,4,2,0,70,0,0
23583,-100,4,2,0,70,0,0
26341,-100,4,2,0,70,0,0
28066,-100,4,2,0,70,0,0
28410,-100,4,2,0,70,0,0
28755,-100,4,2,0,70,0,0
31859,-100,4,2,0,70,0,0
34272,-100,4,2,0,70,0,0
34617,-100,4,2,0,70,0,0
35221,-100,4,2,0,70,0,0
35997,-100,4,2,0,70,0,0
39790,-100,4,2,0,70,0,0
40135,-100,4,2,0,70,0,0
42548,-100,4,2,0,70,0,0
42893,-100,4,2,0,70,0,0
47031,-100,4,2,0,70,0,0
50824,-100,4,2,0,70,0,0
51169,-100,4,2,0,70,0,0
53583,-100,4,2,0,70,0,0
53928,-100,4,2,0,70,0,0
55307,-100,4,2,0,55,0,0
56686,-100,4,2,0,45,0,0
67721,-100,4,2,0,60,0,0
73238,-100,4,2,0,70,0,0
78755,-100,4,2,0,70,0,1
82031,-100,4,2,0,70,0,1
82548,-100,4,2,0,70,0,1
89962,-100,4,2,0,70,0,1
93928,-100,4,2,0,70,0,1
94272,-100,4,2,0,70,0,1
98583,-100,4,2,0,70,0,1
99100,-100,4,2,0,70,0,1
100824,-100,4,2,0,20,0,0
102203,-100,4,2,0,30,0,0
102462,-100,4,2,0,40,0,0
102721,-100,4,2,0,50,0,0
102979,-100,4,2,0,60,0,0
103583,-133.333333333333,4,2,0,50,0,0
115307,-100,4,2,0,5,0,0

[HitObjects]
29,143,135,6,0,P|136:180|254:148,1,240,4|0,0:0|0:0,0:0:0:0:
314,71,1514,2,0,B|346:140|346:140|325:314,1,240,4|0,0:0|0:0,0:0:0:0:
236,337,2893,2,0,P|156:346|78:332,1,160,4|0,0:0|0:0,0:0:0:0:
52,239,3928,1,0,0:0:0:0:
81,147,4272,2,0,P|160:108|154:232,1,240,4|0,0:0|0:0,0:0:0:0:
264,263,5652,6,0,P|352:272|448:263,1,160,4|0,0:0|0:0,0:0:0:0:
466,181,6686,1,0,0:0:0:0:
428,92,7031,2,0,P|340:83|244:92,1,160,4|0,0:0|0:0,0:0:0:0:
221,171,8066,1,0,0:0:0:0:
134,130,8410,2,0,L|140:315,1,160,4|0,0:0|0:0,0:0:0:0:
219,343,9445,1,0,0:0:0:0:
314,346,9790,2,0,P|404:333|317:229,1,240,4|0,0:0|0:0,0:0:0:0:
301,151,11169,6,0,P|392:129|445:163,1,160,6|0,0:0|0:0,0:0:0:0:
367,221,12203,1,0,0:0:0:0:
444,284,12548,2,0,P|376:318|294:284,1,160,6|2,0:0|0:0,0:0:0:0:
204,248,13583,1,2,0:0:0:0:
115,298,13928,2,0,L|107:115,1,160,6|0,0:0|0:0,0:0:0:0:
174,69,14962,1,0,0:0:0:0:
242,136,15307,2,0,P|324:152|419:133,1,160,6|0,0:0|0:0,0:0:0:0:
482,93,16341,1,2,0:0:0:0:
482,189,16686,6,0,L|489:359,1,160,6|0,0:0|0:0,0:0:0:0:
393,308,17721,1,0,0:0:0:0:
303,343,18066,2,0,L|309:183,1,160,6|0,0:0|0:0,0:0:0:0:
361,102,19100,1,0,0:0:0:0:
280,48,19445,2,0,B|221:80|148:52|180:27|109:0|45:48,1,240,6|0,0:0|0:0,0:0:0:0:
110,119,20824,5,0,0:0:0:0:
414,361,23583,6,0,P|418:317|407:228,1,79.9999999999999,6|2,0:0|0:0,0:0:0:0:
363,201,24272,2,0,P|359:157|370:68,1,79.9999999999999,2|2,0:0|0:0,0:0:0:0:
386,80,24790,1,0,0:0:0:0:
412,40,24962,2,0,P|327:25|270:86,1,160,2|2,0:0|0:0,0:0:0:0:
241,158,25997,1,2,0:0:0:0:
155,115,26341,6,0,L|48:119,1,79.9999999999999,2|2,0:0|0:0,0:0:0:0:
35,205,27031,2,0,L|114:207,1,79.9999999999999,2|2,0:0|0:0,0:0:0:0:
150,238,27548,1,0,0:0:0:0:
184,274,27721,2,0,B|229:289|229:289|271:273|271:273|335:302|423:269,1,240,2|2,0:0|0:0,0:0:0:0:
457,185,29100,6,0,P|458:143|454:93,2,79.9999999999999,2|10|2,0:0|0:0|0:0,0:0:0:0:
414,271,30135,1,10,0:0:0:0:
352,197,30479,2,0,L|300:200,2,40,2|0|0,0:0|0:0|0:0,0:0:0:0:
308,284,31169,2,0,L|255:279,2,40,10|2|0,0:0|0:0|0:0,0:0:0:0:
380,347,31859,5,0,0:0:0:0:
90,28,34617,6,0,B|58:87|86:160|111:128|138:199|90:263,1,240,6|8,0:0|0:0,0:0:0:0:
49,339,35997,2,0,P|87:349|142:334,1,79.9999999999999,2|8,0:0|0:0,0:0:0:0:
200,280,36686,2,0,P|239:273|277:283,1,79.9999999999999,0|8,0:0|0:0,0:0:0:0:
313,315,37203,1,0,0:0:0:0:
349,346,37376,2,0,B|362:306|360:259|360:259|330:214|380:174|340:107,1,240,2|8,0:0|0:0,0:0:0:0:
293,29,38755,2,0,P|332:20|371:23,2,79.9999999999999,2|8|0,0:0|0:0|0:0,0:0:0:0:
239,109,39790,1,8,0:0:0:0:
161,165,40135,6,0,P|144:108|168:44,2,120,6|8|0,0:0|0:0|0:0,0:0:0:0:
247,205,41514,1,0,0:0:0:0:
336,166,41859,2,0,P|344:130|338:86,2,79.9999999999999,8|0|8,0:0|0:0|0:0,0:0:0:0:
387,247,42893,2,0,B|330:289|259:262|291:237|218:209|159:241,1,240,2|8,0:0|0:0,0:0:0:0:
96,311,44272,2,0,L|94:231,1,79.9999999999999,2|8,0:0|0:0,0:0:0:0:
34,155,44962,2,0,L|36:75,1,79.9999999999999,0|10,0:0|0:0,0:0:0:0:
120,122,45652,6,0,P|181:130|210:124,1,79.9999999999999,6|8,0:0|0:0,0:0:0:0:
291,100,46341,1,0,0:0:0:0:
349,24,46686,2,0,P|386:93|362:167,1,160,8|8,0:0|0:0,0:0:0:0:
399,255,47721,2,0,P|353:260|318:255,1,79.9999999999999,0|8,0:0|0:0,0:0:0:0:
279,281,48238,1,0,0:0:0:0:
242,312,48410,2,0,B|238:257|238:257|255:206|255:206|240:165|195:210|141:156,1,240,2|8,0:0|0:0,0:0:0:0:
53,195,49790,2,0,P|47:142|57:106,1,79.9999999999999,2|8,0:0|0:0,0:0:0:0:
140,77,50479,2,0,P|146:130|136:166,1,79.9999999999999,0|8,0:0|0:0,0:0:0:0:
206,225,51169,6,0,P|199:264|206:303,2,79.9999999999999,6|8|0,0:0|0:0|0:0,0:0:0:0:
268,152,52203,2,0,P|364:228|269:362,1,320,8|8,0:0|0:0,0:0:0:0:
256,192,53928,12,6,55307,0:0:0:0:
328,84,56686,6,0,P|413:72|492:93,2,160,6|0|0,0:0|0:0|0:0,0:0:0:0:
254,188,58755,1,0,0:0:0:0:
185,80,59445,2,0,P|107:62|28:74,2,160,6|0|0,0:0|0:0|0:0,0:0:0:0:
254,188,61514,1,0,0:0:0:0:
174,288,62203,6,0,L|337:285,1,160,6|0,0:0|0:0,0:0:0:0:
413,185,63583,2,0,L|250:188,1,160,0|0,0:0|0:0,0:0:0:0:
149,112,64962,2,0,P|132:189|154:276,1,160,6|0,0:0|0:0,0:0:0:0:
254,343,66341,2,0,P|271:266|249:179,1,160,0|0,0:0|0:0,0:0:0:0:
160,172,67376,1,0,0:0:0:0:
170,125,67548,1,0,0:0:0:0:
180,82,67721,6,0,L|14:92,2,160,6|2|2,0:0|0:0|0:0,0:0:0:0:
266,40,69445,2,0,L|265:122,1,79.9999999999999,10|2,0:0|0:0,0:0:0:0:
245,214,70135,1,2,0:0:0:0:
329,259,70479,2,0,L|495:269,2,160,6|2|2,0:0|0:0|0:0,0:0:0:0:
249,312,72203,2,0,P|193:316|161:313,1,79.9999999999999,10|2,0:0|0:0,0:0:0:0:
92,256,72893,1,2,0:0:0:0:
152,181,73238,6,0,B|209:149|282:177|250:202|321:229|378:187,1,240,6|2,0:0|0:0,0:0:0:0:
466,224,74617,2,0,P|470:178|462:140,2,79.9999999999999,2|10|2,0:0|0:0|0:0,0:0:0:0:
403,297,75652,1,2,0:0:0:0:
309,317,75997,2,0,B|281:333|257:313|257:313|217:327|217:327|164:311|125:284|158:239|151:209|151:209|110:185|106:150,1,320,2|2,0:0|0:0,0:0:0:0:
376,56,78755,6,0,P|405:84|291:128,1,240,6|8,0:0|0:0,0:0:0:0:
207,90,80135,2,0,P|201:137|211:179,1,79.9999999999999,2|8,0:0|0:0,0:0:0:0:
272,239,80824,2,0,P|278:286|268:328,1,79.9999999999999,0|8,0:0|0:0,0:0:0:0:
183,356,81514,2,0,B|132:363|132:363|79:338|79:338|119:289|89:257|132:232|104:208|104:208|120:160|108:128,1,320,2|2,0:0|0:0,0:0:0:0:
80,48,83238,1,8,0:0:0:0:
176,76,83583,2,0,P|229:79|260:73,1,79.9999999999999,0|8,0:0|0:0,0:0:0:0:
330,27,84272,6,0,P|336:77|335:117,1,79.9999999999999,6|0,0:0|0:0,0:0:0:0:
353,134,84790,2,0,P|347:183|348:223,1,79.9999999999999,6|0,0:0|0:0,0:0:0:0:
360,243,85307,1,8,0:0:0:0:
280,322,85652,2,0,P|203:316|185:233,1,160,2|0,0:0|0:0,0:0:0:0:
261,168,86686,1,8,0:0:0:0:
271,54,87031,6,0,P|219:64|176:56,2,79.9999999999999,2|8|0,0:0|0:0|0:0,0:0:0:0:
335,126,88066,2,0,P|387:136|430:128,2,79.9999999999999,2|8|0,0:0|0:0|0:0,0:0:0:0:
272,198,89100,2,0,P|220:208|177:200,1,79.9999999999999,10|10,0:0|0:0,0:0:0:0:
154,233,89617,1,0,0:0:0:0:
117,264,89790,6,0,B|75:207|102:136|127:168|155:95|123:38,1,240,6|8,0:0|0:0,0:0:0:0:
215,64,91169,2,0,P|273:60|306:65,1,79.9999999999999,2|8,0:0|0:0,0:0:0:0:
369,122,91859,2,0,P|408:125|448:120,1,79.9999999999999,0|8,0:0|0:0,0:0:0:0:
497,202,92548,2,0,L|491:293,2,79.9999999999999,2|8|0,0:0|0:0|0:0,0:0:0:0:
404,228,93583,1,8,0:0:0:0:
316,187,93928,2,0,P|268:183|221:192,1,79.9999999999999,2|8,0:0|0:0,0:0:0:0:
147,151,94617,2,0,P|143:199|152:246,1,79.9999999999999,0|10,0:0|0:0,0:0:0:0:
164,275,95135,1,0,0:0:0:0:
194,311,95307,6,0,B|275:266|374:301|278:328|416:378|492:301,1,320,6|2,0:0|0:0,0:0:0:0:
411,240,97031,2,0,P|440:158|428:74,1,160,8|0,0:0|0:0,0:0:0:0:
393,53,97893,1,0,0:0:0:0:
347,34,98066,2,0,B|290:35|276:79|236:87|236:87|207:127|209:213|209:213,1,240,2|8,0:0|0:0,0:0:0:0:
275,266,99445,2,0,P|213:288|184:282,1,79.9999999999999,6|8,0:0|0:0,0:0:0:0:
157,256,99962,2,0,P|117:257|82:276,1,79.9999999999999,4|8,0:0|0:0,0:0:0:0:
51,319,100479,1,8,0:0:0:0:
143,366,100824,5,2,0:0:0:0:
338,324,103583,6,0,B|368:315|368:315|374:294|374:294|403:272|403:272|362:210|419:184|419:184|432:141|388:93|356:127|356:127|295:170|259:106|185:141,1,480.000018310547,6|8,0:0|0:0,0:0:0:0:
105,327,109100,6,0,B|146:219|101:139|101:139|155:166|190:119|211:154|211:154|201:213|228:276|307:264,1,480.000018310547,6|8,0:0|0:0,0:0:0:0:
256,192,114617,5,2,0:0:0:0:
256,192,115307,12,0,118928,0:0:0:0:
