osu file format v14

[General]
AudioFilename: audio.mp3
AudioLeadIn: 0
PreviewTime: 169454
Countdown: 0
SampleSet: Soft
StackLeniency: 0.2
Mode: 0
LetterboxInBreaks: 0
WidescreenStoryboard: 1

[Editor]
Bookmarks: 125402,147471,245402,267471
DistanceSpacing: 3
BeatDivisor: 6
GridSize: 8
TimelineZoom: 2.6

[Metadata]
Title:PRISTINE
TitleUnicode:PRISTINE
Artist:Laur
ArtistUnicode:Laur
Creator:Hishiro Chizuru
Version:Pur et Clair
Source:
Tags:amb1d3x Hailie Shanipika DJ_Lucky the angel's message electronic artcore classical neurofunk Instrumental
BeatmapID:2080676
BeatmapSetID:872448

[Difficulty]
HPDrainRate:5
CircleSize:3.8
OverallDifficulty:9
ApproachRate:9.4
SliderMultiplier:2.2
SliderTickRate:1

[Events]
//Background and Video events
0,0,"Konachan.com - 272943 anthropomorphism brown_eyes dark dress girls_frontline instrument isaka_wasabi long_hair red_hair violin wa2000_(girls_frontline).png",0,0
//Break Periods
//Storyboard Layer 0 (Background)
//Storyboard Layer 1 (Fail)
//Storyboard Layer 2 (Pass)
//Storyboard Layer 3 (Foreground)
//Storyboard Sound Samples

[TimingPoints]
1081,508.474576271186,4,2,1,30,1,0
1081,-400,4,2,1,30,0,0
17352,-400,4,2,1,35,0,0
33623,-400,4,2,1,40,0,0
37691,-400,4,2,1,42,0,0
41758,-400,4,2,1,45,0,0
45826,-400,4,2,1,48,0,0
49894,-250,4,2,1,50,0,0
51165,-400,4,2,1,50,0,0
53962,-250,4,2,1,52,0,0
55233,-400,4,2,1,52,0,0
58030,-250,4,2,1,55,0,0
59301,-400,4,2,1,55,0,0
62097,-250,4,2,1,58,0,0
63369,-400,4,2,1,58,0,0
66165,-400,4,2,1,80,0,0
70230,344.827586206897,4,2,1,80,1,0
70230,-80,4,2,1,80,0,0
72988,-66.6666666666667,4,2,1,80,0,0
73678,-100,4,2,1,80,0,0
74367,-80,4,2,1,80,0,0
75402,-100,4,2,1,80,0,0
75747,-80,4,2,1,80,0,0
77471,-100,4,2,1,80,0,0
78275,-200,4,2,1,80,0,0
78390,-100,4,2,1,80,0,0
78505,-80,4,2,1,80,0,0
78850,-200,4,2,1,80,0,0
79195,-80,4,2,1,80,0,0
79540,-66.6666666666667,4,2,1,80,0,0
79885,-80,4,2,1,80,0,0
80919,-80,4,2,1,80,0,0
81264,-80,4,2,1,85,0,0
84367,-100,4,2,1,85,0,0
85402,-80,4,2,1,85,0,0
91379,-200,4,2,1,85,0,0
91494,-80,4,2,1,85,0,0
92298,-333.333333333333,4,2,1,50,0,0
101954,-333.333333333333,4,2,1,55,0,0
102212,-200,4,2,1,55,0,0
102643,-333.333333333333,4,2,1,55,0,0
103333,-111.111111111111,4,2,1,60,0,0
105057,-117.647058823529,4,2,1,60,0,0
105402,-125,4,2,1,60,0,0
105747,-133.333333333333,4,2,1,60,0,0
106092,-111.111111111111,4,2,1,60,0,0
110574,-117.647058823529,4,2,1,60,0,0
110919,-125,4,2,1,60,0,0
111264,-133.333333333333,4,2,1,60,0,0
111609,-111.111111111111,4,2,1,60,0,0
112988,-111.111111111111,4,2,1,61,0,0
113074,-111.111111111111,4,2,1,62,0,0
113161,-111.111111111111,4,2,1,63,0,0
113247,-111.111111111111,4,2,1,64,0,0
113333,-111.111111111111,4,2,1,65,0,0
113419,-111.111111111111,4,2,1,66,0,0
113505,-111.111111111111,4,2,1,67,0,0
113592,-111.111111111111,4,2,1,68,0,0
113678,-111.111111111111,4,2,1,69,0,0
113764,-111.111111111111,4,2,1,70,0,0
113850,-111.111111111111,4,2,1,71,0,0
113936,-111.111111111111,4,2,1,72,0,0
114023,-200,4,2,1,73,0,0
114367,-333.333333333333,4,2,1,74,0,0
114540,-333.333333333333,4,2,1,45,0,0
119842,-333.333333333333,4,2,1,10,0,0
119885,-200,4,2,1,55,0,0
120057,-200,4,2,1,57,0,0
120402,-200,4,2,1,59,0,0
120747,-200,4,2,1,61,0,0
121092,-200,4,2,1,63,0,0
121436,-200,4,2,1,65,0,0
121781,-200,4,2,1,67,0,0
122126,-200,4,2,1,69,0,0
122471,-200,4,2,1,71,0,0
122816,-200,4,2,1,73,0,0
123161,-200,4,2,1,75,0,0
123505,-200,4,2,1,77,0,0
123850,-200,4,2,1,79,0,0
125402,-66.6666666666667,4,2,1,90,0,1
126436,-50,4,2,1,90,0,1
126781,-66.6666666666667,4,2,1,90,0,1
129195,-50,4,2,1,90,0,1
129540,-66.6666666666667,4,2,1,90,0,1
132298,-100,4,2,1,90,0,1
132988,-66.6666666666667,4,2,1,90,0,1
134712,-40,4,2,1,90,0,1
135057,-181.818181818181,4,2,1,90,0,1
136436,-66.6666666666667,4,2,1,90,0,1
136777,-33.3333333333333,4,2,1,90,0,1
137126,-66.6666666666667,4,2,1,90,0,1
137468,-100,4,2,1,90,0,1
137816,-66.6666666666667,4,2,1,90,0,1
138161,-33.3333333333333,4,2,1,90,0,1
138505,-66.6666666666667,4,2,1,90,0,1
139540,-33.3333333333333,4,2,1,90,0,1
140574,-66.6666666666667,4,2,1,90,0,1
140919,-33.3333333333333,4,2,1,90,0,1
141954,-66.6666666666667,4,2,1,90,0,1
142298,-33.3333333333333,4,2,1,90,0,1
142643,-66.6666666666667,4,2,1,90,0,1
143678,-33.3333333333333,4,2,1,90,0,1
144712,-66.6666666666667,4,2,1,90,0,1
145057,-33.3333333333333,4,2,1,90,0,1
146092,-33.3333333333333,4,2,1,50,0,0
147471,-80,4,2,1,80,0,0
158247,-80,4,2,1,80,0,0
158505,-80,4,2,1,80,0,0
168161,-333.333333333333,4,2,1,75,0,0
169540,-333.333333333333,4,2,1,80,0,0
171264,-400,4,2,1,35,0,0
190230,-400,4,2,1,35,0,0
201264,-1000,4,2,1,40,0,0
216436,-1000,4,2,1,65,0,0
217816,-80,4,2,1,80,0,0
220574,-66.6666666666667,4,2,1,80,0,0
221954,-80,4,2,1,80,0,0
225862,-200,4,2,1,80,0,0
225977,-80,4,2,1,80,0,0
226436,-250,4,2,1,80,0,0
226695,-80,4,2,1,80,0,0
227126,-66.6666666666667,4,2,1,80,0,0
227471,-80,4,2,1,80,0,0
235747,-66.6666666666667,4,2,1,80,0,0
236436,-80,4,2,1,80,0,0
245402,-66.6666666666667,4,2,1,90,0,1
245574,-133.333333333333,4,2,1,90,0,1
245747,-66.6666666666667,4,2,1,90,0,1
246954,-50,4,2,1,90,0,1
247643,-100,4,2,1,90,0,1
247988,-66.6666666666667,4,2,1,90,0,1
248333,-133.333333333333,4,2,1,90,0,1
248505,-66.6666666666667,4,2,1,90,0,1
249712,-50,4,2,1,90,0,1
250402,-66.6666666666667,4,2,1,90,0,1
251092,-133.333333333333,4,2,1,90,0,1
251264,-66.6666666666667,4,2,1,90,0,1
252471,-50,4,2,1,90,0,1
253333,-100,4,2,1,90,0,1
253505,-66.6666666666667,4,2,1,90,0,1
253850,-133.333333333333,4,2,1,90,0,1
254023,-66.6666666666667,4,2,1,90,0,1
255057,-133.333333333333,4,2,1,90,0,1
256781,-50,4,2,1,90,0,1
257126,-100,4,2,1,90,0,1
257298,-79.9999999999999,4,2,1,90,0,1
257471,-66.6666666666667,4,2,1,90,0,1
257816,-133.333333333333,4,2,1,90,0,1
258161,-50,4,2,1,90,0,1
258505,-100,4,2,1,90,0,1
258678,-79.9999999999999,4,2,1,90,0,1
258850,-57.1428571428571,4,2,1,90,0,1
259195,-133.333333333333,4,2,1,90,0,1
259540,-50,4,2,1,90,0,1
259885,-100,4,2,1,90,0,1
260057,-79.9999999999999,4,2,1,90,0,1
260230,-66.6666666666667,4,2,1,90,0,1
260574,-133.333333333333,4,2,1,90,0,1
260919,-42.5531914893617,4,2,1,90,0,1
261264,-66.6666666666667,4,2,1,90,0,1
261436,-133.333333333333,4,2,1,90,0,1
261954,-133.333333333333,4,2,1,90,0,1
262298,-50,4,2,1,90,0,1
262643,-100,4,2,1,90,0,1
262816,-79.9999999999999,4,2,1,90,0,1
262988,-66.6666666666667,4,2,1,90,0,1
263333,-133.333333333333,4,2,1,90,0,1
263678,-50,4,2,1,90,0,1
264023,-100,4,2,1,90,0,1
264195,-79.9999999999999,4,2,1,90,0,1
264367,-66.6666666666667,4,2,1,90,0,1
264712,-133.333333333333,4,2,1,90,0,1
265057,-50,4,2,1,90,0,1
265402,-100,4,2,1,90,0,1
265747,-66.6666666666667,4,2,1,90,0,1
266092,-66.6666666666667,4,2,1,80,0,0
267471,-80,4,2,1,80,0,0
288161,-333.333333333333,4,2,1,55,0,0
289540,-1000,4,2,1,30,0,0
315747,-1000,4,2,1,5,0,0

[Colours]
Combo1 : 255,128,255
Combo2 : 128,128,255
Combo3 : 0,255,255
Combo4 : 128,0,128

[HitObjects]
88,29,1081,5,2,0:0:0:0:
96,37,1589,1,0,0:3:0:0:
94,47,2097,1,2,0:0:0:0:
89,125,2352,1,0,0:0:0:0:
168,97,2606,1,0,0:0:0:0:
164,93,2860,1,0,0:0:0:0:
68,204,3114,5,2,0:0:0:0:
76,212,3623,1,0,0:0:0:0:
13,147,4131,1,2,0:0:0:0:
13,147,5148,5,2,0:0:0:0:
21,155,5657,1,0,0:0:0:0:
13,230,6165,1,2,0:0:0:0:
9,234,6419,1,0,0:0:0:0:
26,311,6928,1,0,0:0:0:0:
125,145,7182,5,2,0:0:0:0:
133,153,7691,1,2,0:0:0:0:
133,153,8708,1,0,0:0:0:0:
137,157,8962,1,0,0:0:0:0:
256,68,9216,5,2,0:0:0:0:
264,76,9725,1,0,0:0:0:0:
264,87,10233,1,2,0:0:0:0:
243,164,10487,1,0,0:0:0:0:
187,107,10742,1,0,0:0:0:0:
268,83,10996,1,0,0:0:0:0:
299,221,11250,5,2,0:0:0:0:
291,229,11758,1,0,0:0:0:0:
305,305,12267,1,2,0:0:0:0:
329,143,13284,5,2,0:0:0:0:
337,151,13792,1,0,0:0:0:0:
332,164,14301,1,2,0:0:0:0:
367,236,14809,1,0,0:0:0:0:
414,168,15064,1,0,0:0:0:0:
487,304,15318,5,2,0:0:0:0:
487,304,16335,1,2,0:0:0:0:
487,304,17352,6,0,L|423:298,1,55,2|0,0:0|0:0,0:0:0:0:
424,307,18369,1,2,0:0:0:0:
354,354,18623,1,0,0:0:0:0:
272,281,18877,2,0,L|240:283,1,27.5,0|0,0:0|0:0,0:0:0:0:
109,291,19386,6,0,L|114:227,1,55,2|0,0:0|0:0,0:0:0:0:
101,299,20403,1,2,0:0:0:0:
101,299,21419,6,0,L|106:235,1,55,2|0,0:0|0:0,0:0:0:0:
113,236,22436,1,2,0:0:0:0:
74,173,23199,1,0,0:0:0:0:
134,62,23453,6,0,L|197:67,1,55,2|2,0:0|0:0,0:0:0:0:
188,66,24979,1,0,0:0:0:0:
244,126,25233,1,0,0:0:0:0:
346,44,25487,6,0,L|351:107,1,55,2|0,0:0|0:0,0:0:0:0:
358,106,26504,1,2,0:0:0:0:
337,184,26758,1,0,0:0:0:0:
380,288,27013,2,0,L|348:290,1,27.5,0|0,0:0|0:0,0:0:0:0:
220,299,27521,6,0,L|225:235,1,55,2|0,0:0|0:0,0:0:0:0:
216,236,28538,1,2,0:0:0:0:
216,236,29555,6,0,L|211:290,1,55,2|0,0:0|0:0,0:0:0:0:
215,294,30572,1,2,0:0:0:0:
188,371,31080,1,0,0:0:0:0:
89,356,31335,1,0,0:0:0:0:
65,215,31589,5,2,0:0:0:0:
65,215,32606,2,0,L|72:127,1,82.5,2|0,0:0|0:0,0:0:0:0:
54,298,33623,5,4,0:1:0:0:
67,296,33877,1,0,0:0:0:0:
88,301,34131,1,0,0:0:0:0:
111,315,34386,1,2,0:0:0:0:
116,327,34640,1,0,0:0:0:0:
122,338,34894,1,0,0:0:0:0:
138,347,35148,1,2,0:0:0:0:
151,343,35403,1,0,1:0:0:0:
205,284,35657,1,0,0:0:0:0:
224,281,35911,1,2,1:2:0:0:
236,287,36165,1,0,1:0:0:0:
244,297,36419,1,0,0:0:0:0:
59,128,36674,5,2,0:0:0:0:
51,120,36928,1,2,0:0:0:0:
114,187,37182,1,2,0:0:0:0:
122,196,37436,1,2,1:2:0:0:
380,294,37691,5,2,1:2:0:0:
366,290,37945,1,0,0:0:0:0:
344,294,38199,1,0,0:0:0:0:
320,309,38453,1,2,0:0:0:0:
315,321,38708,1,0,0:0:0:0:
305,331,38962,1,0,0:0:0:0:
284,337,39216,1,2,0:0:0:0:
271,331,39470,1,0,1:0:0:0:
222,271,39725,1,0,0:0:0:0:
206,270,39979,1,2,1:2:0:0:
182,285,40233,1,0,1:0:0:0:
172,305,40487,1,0,0:0:0:0:
438,135,40742,5,2,0:0:0:0:
442,131,40996,1,2,1:2:0:0:
386,199,41250,1,2,2:0:0:0:
378,207,41504,1,2,1:2:0:0:
214,239,41758,5,2,0:0:0:0:
215,250,42013,1,0,0:0:0:0:
216,270,42267,1,0,0:0:0:0:
219,298,42521,1,2,0:0:0:0:
220,310,42775,1,0,0:0:0:0:
221,322,43030,1,0,0:0:0:0:
223,342,43284,1,2,0:0:0:0:
224,354,43538,1,0,1:0:0:0:
149,332,43792,1,0,0:0:0:0:
121,329,44047,1,2,1:2:0:0:
101,327,44301,1,0,1:0:0:0:
89,326,44555,1,0,0:0:0:0:
256,94,44809,5,2,0:0:0:0:
257,71,45064,1,2,0:0:0:0:
256,175,45318,1,2,0:0:0:0:
256,194,45572,1,2,1:2:0:0:
53,273,45826,5,2,0:0:0:0:
58,283,46080,1,0,0:0:0:0:
76,297,46334,1,0,0:0:0:0:
101,307,46589,1,2,0:0:0:0:
114,303,46843,1,0,0:0:0:0:
126,301,47097,1,0,0:0:0:0:
143,307,47351,1,2,0:0:0:0:
148,320,47606,1,0,1:0:0:0:
220,369,47860,1,0,0:0:0:0:
238,373,48114,1,2,1:2:0:0:
251,368,48368,1,0,1:0:0:0:
260,359,48622,1,0,0:0:0:0:
256,142,48877,5,2,0:0:0:0:
256,134,49131,1,2,0:0:0:0:
256,122,49385,1,2,0:0:0:0:
256,94,49640,1,2,0:0:0:0:
88,306,49894,6,0,P|22:275|82:235,1,176,4|0,0:1|0:0,0:0:0:0:
86,239,51165,2,0,L|117:241,2,27.5,0|2|0,0:0|0:0|1:0,0:0:0:0:
164,301,51928,2,0,L|195:298,3,27.5,0|2|0|0,0:0|1:2|1:0|0:0,0:0:0:0:
218,103,52945,5,2,0:0:0:0:
283,150,53199,1,2,0:0:0:0:
292,70,53453,1,2,0:0:0:0:
263,106,53708,1,2,1:2:0:0:
252,327,53962,6,0,B|214:351|147:328|179:307|116:288|76:311,1,176,2|0,1:2|0:0,0:0:0:0:
81,311,55233,2,0,L|84:276,2,27.5,0|2|0,0:0|0:0|1:0,0:0:0:0:
38,219,55996,2,0,L|34:184,3,27.5,0|2|0|0,0:0|1:2|1:0|0:0,0:0:0:0:
277,127,57013,5,2,0:0:0:0:
268,47,57267,1,2,0:0:0:0:
173,57,57521,1,2,0:0:0:0:
184,164,57775,1,2,1:2:0:0:
417,307,58030,6,0,P|482:276|422:236,1,176,2|0,1:2|0:0,0:0:0:0:
418,232,59301,2,0,L|386:234,2,27.5,0|2|0,0:0|0:0|1:0,0:0:0:0:
340,294,60064,2,0,L|308:291,3,27.5,0|2|0|0,0:0|1:2|1:0|0:0,0:0:0:0:
255,107,61080,5,2,0:0:0:0:
190,154,61334,1,2,0:0:0:0:
181,74,61588,1,2,0:0:0:0:
211,110,61843,1,2,1:2:0:0:
252,327,62097,6,0,B|288:351|355:328|323:306|386:288|417:306,1,176,2|0,1:2|0:0,0:0:0:0:
421,310,63369,2,0,L|417:275,2,27.5,0|2|0,0:0|0:0|1:0,0:0:0:0:
464,218,64132,2,0,L|467:183,3,27.5,0|2|2|0,0:0|1:2|0:0|0:0,0:0:0:0:
265,28,65148,5,2,0:0:0:0:
303,99,65403,1,2,0:0:0:0:
359,18,65657,1,2,0:0:0:0:
415,117,65911,1,2,1:2:0:0:
256,192,68199,12,0,69979,0:0:0:0:
78,96,70230,6,0,B|44:96|48:60|84:51|112:76|112:76|140:92|174:72|174:72|199:102|225:95,1,206.25,4|0,1:3|0:0,0:0:0:0:
294,51,70574,2,0,P|210:62|264:126,1,206.25,8|0,0:0|1:0,0:0:0:0:
358,117,70919,2,0,B|367:140|366:175|366:175|378:156,1,68.75,2|0,0:3|0:0,0:0:0:0:
290,249,71092,2,0,B|296:274|292:301|292:301|306:323,1,68.75,2|0,0:3|0:0,0:0:0:0:
366,375,71264,1,8,0:0:0:0:
94,300,71436,1,2,0:0:0:0:
98,304,71523,1,0,1:0:0:0:
140,330,71609,6,0,B|189:271|144:207|144:207|202:212|229:182,1,206.25,4|0,1:3|0:0,0:0:0:0:
338,144,71954,2,0,P|306:89|246:109,1,137.5,8|2,0:0|0:0,0:0:0:0:
307,229,72212,1,0,1:0:0:0:
311,233,72298,2,0,P|321:187|376:170,1,68.75,2|0,1:3|0:0,0:0:0:0:
428,130,72471,1,2,1:3:0:0:
373,362,72643,2,0,B|381:316|381:316|378:295,1,68.75,8|0,0:0|0:0,0:0:0:0:
222,282,72816,2,0,B|214:236|214:236|217:215,1,68.75,2|0,0:0|1:0,0:0:0:0:
385,64,72988,6,0,B|392:57|404:54|404:54|416:60|429:62|429:62|453:66|453:66|452:86|462:100|462:100|477:107|480:124|480:124|473:140|473:140|480:149|463:152|463:152|448:173|448:193|448:193|425:191|425:191|404:195|404:195|391:198|380:190|380:190|363:172|358:157,1,330.000012588501,4|8,1:3|0:0,0:0:0:0:
263,64,73505,1,2,1:2:0:0:
259,60,73592,1,0,1:0:0:0:
255,56,73678,6,0,P|218:55|183:66,2,73.3333333333333,2|0|2,0:3|0:0|0:0,0:0:0:0:
76,110,74023,1,8,0:0:0:0:
156,114,74138,1,2,0:0:0:0:
196,188,74252,1,0,0:0:0:0:
121,228,74367,6,0,B|126:260|165:255|186:201|147:133|63:112,1,206.25,4|0,1:3|0:0,0:0:0:0:
100,316,74712,2,0,P|131:327|165:323,1,68.75,8|0,0:0|0:0,0:0:0:0:
257,247,74885,1,2,1:3:0:0:
261,251,74971,1,0,1:0:0:0:
293,268,75057,2,0,B|305:253|333:244|353:255|366:277|366:277|374:253|399:239,1,137.5,2|2,1:2|1:3,0:0:0:0:
447,308,75316,1,0,1:0:0:0:
451,304,75402,6,0,P|478:275|486:235,2,73.3333333333333,10|0|2,1:2|0:0|0:0,0:0:0:0:
430,107,75747,6,0,B|389:108|395:152|395:152|354:149|332:171|332:171|306:190|290:167|290:167|323:153,1,206.25,4|0,1:3|0:0,0:0:0:0:
120,182,76092,2,0,B|153:155|189:153|189:153|194:197|221:226,1,137.5,8|2,0:0|0:0,0:0:0:0:
244,353,76350,1,0,1:0:0:0:
248,357,76436,2,0,B|256:311|256:311|253:290,1,68.75,2|0,1:3|0:0,0:0:0:0:
325,243,76609,2,0,B|317:197|317:197|320:176,1,68.75,2|0,1:3|0:0,0:0:0:0:
247,92,76781,1,8,0:0:0:0:
457,27,76954,1,2,0:0:0:0:
457,27,77040,1,0,1:0:0:0:
428,2,77126,6,0,B|428:-32|392:-28|383:8|408:36|408:36|424:64|404:98|404:98|434:123|427:149,1,206.25,4|0,1:3|0:0,0:0:0:0:
485,217,77471,2,0,P|448:216|413:227,2,73.3333333333333,8|2|2,0:0|0:0|0:0,0:0:0:0:
289,289,77816,2,0,P|320:288|351:297,5,36.6666666666667,2|0|2|2|2|0,1:2|0:0|0:0|1:3|0:0|0:0,0:0:0:0:
244,257,78161,1,10,0:0:0:0:
165,265,78275,1,2,0:0:0:0:
88,273,78390,1,2,0:0:0:0:
233,340,78505,6,0,B|222:307|255:266|255:266|184:253|175:207|175:207|223:239,1,206.25,4|0,1:3|0:0,0:0:0:0:
250,125,78850,2,0,B|243:147|256:171|256:171|259:166,1,55,8|2,0:0|0:0,0:0:0:0:
168,34,79109,1,0,1:0:0:0:
164,30,79195,2,0,B|179:84|147:137|147:137|143:107|143:118,1,137.5,2|2,1:3|1:3,0:0:0:0:
135,340,79540,2,0,B|167:363|220:353|207:333|257:316|293:337,1,165.000006294251,10|2,0:0|0:0,0:0:0:0:
454,291,79798,1,0,1:0:0:0:
457,288,79885,6,0,P|403:302|447:337,1,137.5,4|0,1:3|1:0,0:0:0:0:
452,66,80230,2,0,L|444:153,1,68.75,8|0,0:0|0:0,0:0:0:0:
353,185,80402,1,2,1:3:0:0:
349,189,80488,1,0,1:0:0:0:
345,193,80574,2,0,L|337:105,1,68.75,8|0,0:0|0:0,0:0:0:0:
272,5,80747,1,2,1:3:0:0:
222,6,80833,1,2,1:3:0:0:
181,44,80919,1,8,0:0:0:0:
174,66,81006,1,8,0:0:0:0:
171,85,81092,1,8,0:3:0:0:
197,132,81178,1,8,0:3:0:0:
251,188,81264,6,0,P|154:202|105:119,1,206.25,12|0,1:0|0:0,0:0:0:0:
14,15,81609,2,0,B|44:45|95:42|95:42|63:51|44:69,1,137.5,8|2,0:0|0:0,0:0:0:0:
0,145,81867,1,0,1:0:0:0:
4,149,81954,2,0,B|13:172|12:207|12:207|24:188,1,68.75,2|0,1:3|0:0,0:0:0:0:
103,288,82126,2,0,B|95:294|95:294|105:260|102:236,1,68.75,2|0,1:3|0:0,0:0:0:0:
264,107,82298,2,0,P|200:99|173:157,1,137.5,8|2,0:0|0:0,0:0:0:0:
279,377,82643,6,0,B|313:345|301:303|301:303|230:290|221:244|221:244|236:254,1,206.25,4|0,1:3|0:0,0:0:0:0:
264,107,82988,2,0,B|276:164|276:164|268:196,1,68.75,8|0,0:0|0:0,0:0:0:0:
72,219,83161,1,2,0:0:0:0:
72,212,83247,1,0,1:0:0:0:
41,173,83333,2,0,B|62:145|97:146|97:146|125:111|118:79,2,137.5,2|2|8,1:3|1:3|0:0,0:0:0:0:
114,327,83850,1,2,0:0:0:0:
118,331,83936,1,0,1:0:0:0:
184,383,84023,6,0,P|181:322|122:335,1,137.5,4|0,1:3|0:0,0:0:0:0:
287,241,84367,2,0,B|266:234|244:240|244:240|231:235,1,55,8|0,0:0|0:0,0:0:0:0:
352,312,84540,2,0,B|373:319|394:312|394:312|408:318,1,55,0|0,0:0|0:0,0:0:0:0:
429,154,84712,5,2,0:0:0:0:
378,223,84827,1,0,0:0:0:0:
463,232,84942,1,2,1:2:0:0:
407,151,85057,1,8,0:0:0:0:
368,227,85172,1,2,0:0:0:0:
452,219,85287,1,0,0:0:0:0:
371,153,85402,6,0,B|346:152|313:165|313:165|327:147,1,68.75,4|0,1:3|0:0,0:0:0:0:
248,289,85574,2,0,B|260:267|265:233|265:233|274:254,1,68.75,2|0,0:0|1:0,0:0:0:0:
196,112,85747,1,8,0:0:0:0:
118,363,85919,1,2,1:3:0:0:
118,363,86005,1,2,0:0:0:0:
118,363,86092,2,0,B|98:331|110:306|110:306|83:281,1,68.75,2|0,1:2|0:0,0:0:0:0:
68,123,86264,1,2,1:3:0:0:
72,119,86350,1,2,1:3:0:0:
76,115,86436,2,0,B|126:106|182:143|157:160|207:205|260:198,1,206.25,8|0,0:0|0:0,0:0:0:0:
255,103,86781,6,0,B|285:86|331:111|331:111|332:39|375:22|375:22|352:75,1,206.25,4|0,1:3|0:0,0:0:0:0:
470,171,87126,2,0,B|434:147|426:97|426:97|432:130|395:167,1,137.5,8|2,0:0|0:0,0:0:0:0:
347,251,87385,1,0,1:0:0:0:
343,255,87471,2,0,B|352:232|351:197|351:197|363:216,1,68.75,2|0,1:3|0:0,0:0:0:0:
424,342,87643,2,0,B|416:297|416:297|426:287|433:259,1,68.75,2|0,1:3|0:0,0:0:0:0:
334,378,87816,1,8,0:0:0:0:
127,325,87988,1,2,0:0:0:0:
127,325,88074,1,0,1:0:0:0:
127,325,88161,6,0,B|166:337|174:293|174:293|212:309|240:294|240:294|270:284|278:311|278:311|243:315,1,206.25,4|0,1:3|0:0,0:0:0:0:
208,220,88505,2,0,B|208:195|208:195|191:137,1,68.75,8|0,0:0|0:0,0:0:0:0:
55,104,88678,1,2,1:2:0:0:
51,100,88764,1,0,1:0:0:0:
47,96,88850,2,0,B|71:91|71:91|124:95|124:95|188:57,1,137.5,2|2,1:3|1:3,0:0:0:0:
274,35,89109,1,0,1:0:0:0:
278,39,89195,5,8,0:0:0:0:
355,74,89310,1,2,0:0:0:0:
384,164,89425,1,2,0:0:0:0:
378,251,89540,6,0,P|454:200|384:194,1,206.25,4|0,1:3|0:0,0:0:0:0:
258,202,89885,2,0,B|309:193|308:135|308:135|346:90|378:81|378:81|360:102|362:129,1,206.25,8|0,0:0|1:0,0:0:0:0:
229,105,90230,2,2,L|280:109,5,45.8333333333333,2|0|2|2|0|2,1:2|0:0|0:0|1:3|0:0|0:0,0:0:0:0:
184,85,90574,6,0,B|192:111|185:139|185:139|191:156,1,68.75,10|0,0:0|0:0,0:0:0:0:
258,252,90747,2,0,B|262:239|262:239|255:211|264:184,1,68.75,2|0,0:0|0:0,0:0:0:0:
126,265,90919,2,0,P|139:329|190:351,1,91.6666666666667,4|2,1:3|0:0,0:0:0:0:
278,370,91149,1,0,0:0:0:0:
331,302,91264,5,10,0:0:0:0:
414,345,91379,1,0,0:0:0:0:
475,280,91494,1,2,0:0:0:0:
440,192,91609,2,0,P|404:178|362:184,1,68.75,2|0,1:3|0:0,0:0:0:0:
248,289,91781,1,8,1:3:0:0:
100,264,91954,1,8,1:2:0:0:
46,56,92126,1,8,0:2:0:0:
88,279,92298,6,0,L|123:282,1,32.99999899292,2|0,1:2|0:0,0:0:0:0:
160,349,92643,2,0,L|192:346,1,32.99999899292,0|0,0:0|0:0,0:0:0:0:
254,265,92988,2,0,L|286:267,1,32.99999899292,0|0,0:0|0:0,0:0:0:0:
386,342,93333,2,0,L|353:344,1,32.99999899292,0|0,0:0|0:0,0:0:0:0:
467,245,93678,5,2,0:0:0:0:
475,237,94023,1,2,0:0:0:0:
482,230,94367,1,2,0:0:0:0:
490,222,94712,1,2,0:0:0:0:
498,214,95057,5,2,0:0:0:0:
484,288,95230,1,2,0:0:0:0:
408,281,95402,1,0,0:0:0:0:
344,321,95574,1,2,0:0:0:0:
298,233,95747,1,0,0:0:0:0:
269,305,95919,1,2,0:0:0:0:
200,339,96092,2,0,L|160:335,1,32.99999899292,2|2,0:0|0:0,0:0:0:0:
105,292,96350,1,0,0:0:0:0:
101,296,96436,5,2,0:0:0:0:
39,340,96609,1,0,0:0:0:0:
27,265,96781,1,2,0:0:0:0:
86,218,96954,1,0,0:0:0:0:
160,230,97126,1,2,0:0:0:0:
162,238,97298,1,0,0:0:0:0:
164,246,97471,1,2,0:0:0:0:
181,319,97643,1,0,0:0:0:0:
262,262,97816,5,2,0:0:0:0:
270,270,98333,1,0,0:0:0:0:
333,312,98505,1,0,0:0:0:0:
396,269,98678,1,0,0:0:0:0:
452,319,98850,1,0,0:0:0:0:
500,260,99023,1,0,0:0:0:0:
321,230,99195,5,2,0:0:0:0:
313,238,99540,1,2,0:0:0:0:
305,246,99885,1,2,0:0:0:0:
296,255,100230,1,2,0:0:0:0:
288,263,100574,5,2,0:0:0:0:
228,310,100747,1,2,0:0:0:0:
348,216,101092,1,2,0:0:0:0:
168,357,101436,1,2,0:0:0:0:
228,310,101609,1,0,0:0:0:0:
348,216,101781,1,0,0:0:0:0:
162,355,101954,6,0,P|150:346|135:323,1,32.99999899292,2|0,0:0|0:0,0:0:0:0:
177,192,102212,2,0,P|173:220|161:246,1,55,2|0,0:0|0:0,0:0:0:0:
44,274,102471,1,2,0:0:0:0:
165,350,102643,2,0,P|155:344|143:325,1,32.99999899292,2|0,0:0|0:0,0:0:0:0:
181,196,102902,2,0,P|178:211|165:232,1,32.99999899292,2|0,0:0|0:0,0:0:0:0:
42,261,103161,1,2,0:0:0:0:
20,102,103333,6,0,P|67:129|121:124,1,98.9999969787599,4|2,0:1|0:0,0:0:0:0:
201,56,103592,1,0,0:0:0:0:
205,60,103678,2,0,L|209:109,2,49.4999984893799,6|0|2,0:0|0:0|0:0,0:0:0:0:
279,174,103936,1,0,0:0:0:0:
283,178,104022,2,0,L|287:128,2,49.4999984893799,2|0|2,0:0|0:0|0:0,0:0:0:0:
362,86,104281,1,0,0:0:0:0:
366,82,104367,2,0,L|370:132,2,49.4999984893799,6|0|0,0:0|0:0|0:0,0:0:0:0:
442,178,104626,1,0,0:0:0:0:
446,182,104712,6,0,P|453:251|446:330,1,148.49999546814,2|0,0:0|0:0,0:0:0:0:
446,182,105057,2,0,P|453:251|446:330,1,140.250002675057,6|0,0:0|0:0,0:0:0:0:
446,182,105402,2,0,P|452:248|446:325,1,132,2|0,0:0|0:0,0:0:0:0:
446,182,105747,2,0,P|452:248|446:325,1,123.750004720688,6|0,0:0|0:0,0:0:0:0:
307,334,106092,6,0,L|368:328,1,49.4999984893799,2|0,0:0|0:0,0:0:0:0:
241,254,106264,1,2,0:0:0:0:
237,258,106350,1,0,0:0:0:0:
233,262,106436,2,0,L|169:256,1,49.4999984893799,4|0,0:0|0:0,0:0:0:0:
286,162,106609,1,2,0:0:0:0:
290,166,106695,1,0,0:0:0:0:
294,170,106781,2,0,L|357:164,1,49.4999984893799,0|0,0:0|0:0,0:0:0:0:
195,105,106954,6,0,L|189:172,1,49.4999984893799,2|0,0:0|0:0,0:0:0:0:
113,310,107126,2,0,L|103:204,1,98.9999969787599,6|2,0:0|0:0,0:0:0:0:
96,122,107385,1,0,0:0:0:0:
92,118,107471,5,2,0:0:0:0:
168,163,107643,1,2,0:0:0:0:
240,110,107816,1,4,0:0:0:0:
306,168,107988,1,2,0:0:0:0:
265,247,108161,1,2,0:0:0:0:
302,327,108333,1,2,0:0:0:0:
217,355,108505,1,4,0:0:0:0:
371,378,108678,1,2,0:0:0:0:
432,192,108850,5,4,0:1:0:0:
459,306,109023,1,2,0:0:0:0:
463,310,109109,1,0,0:0:0:0:
467,314,109195,1,6,0:0:0:0:
347,257,109367,1,2,0:0:0:0:
343,261,109453,1,0,0:0:0:0:
339,265,109540,1,2,0:0:0:0:
485,191,109712,2,0,L|433:195,2,49.4999984893799,2|0|6,0:0|0:0|0:0,0:0:0:0:
373,109,110057,1,2,0:0:0:0:
369,113,110143,1,0,0:0:0:0:
365,117,110230,6,0,B|334:101|286:101|302:137|253:146|225:124,1,148.49999546814,2|0,0:0|0:0,0:0:0:0:
365,117,110574,2,0,B|334:101|286:101|302:137|253:146|225:124,1,140.250002675057,6|0,0:0|0:0,0:0:0:0:
365,117,110919,2,0,B|334:101|286:101|302:137|253:146|225:124,1,132,2|0,0:0|0:0,0:0:0:0:
362,115,111264,2,0,B|334:101|286:101|302:137|253:146|240:131,1,123.750004720688,6|0,0:0|0:0,0:0:0:0:
338,190,111609,5,4,0:1:0:0:
249,52,111781,1,2,0:0:0:0:
181,207,111954,2,0,P|187:183|205:166,1,49.4999984893799,4|0,3:2|0:0,0:0:0:0:
166,94,112126,2,0,P|187:82|211:82,1,49.4999984893799,2|0,3:2|0:0,0:0:0:0:
246,13,112298,2,0,P|269:19|286:37,1,49.4999984893799,0|0,3:0|0:0,0:0:0:0:
360,10,112471,2,0,P|371:31|371:55,1,49.4999984893799,2|0,3:2|0:0,0:0:0:0:
449,85,112643,2,0,P|442:108|424:125,1,49.4999984893799,6|0,3:2|0:0,0:0:0:0:
461,198,112816,2,0,P|439:209|415:209,1,49.4999984893799,0|0,3:0|0:0,0:0:0:0:
319,142,112988,5,2,3:2:0:0:
304,134,113074,1,0,3:0:0:0:
288,128,113160,1,0,3:0:0:0:
272,127,113247,1,2,3:2:0:0:
253,128,113332,1,4,3:2:0:0:
233,133,113419,1,0,3:0:0:0:
212,147,113505,1,2,3:2:0:0:
194,187,113592,1,0,3:0:0:0:
183,230,113678,1,2,3:2:0:0:
156,271,113764,1,0,3:0:0:0:
102,285,113850,1,0,3:0:0:0:
57,247,113936,1,2,3:2:0:0:
16,177,114023,2,0,L|10:250,1,55,4|2,1:2|0:0,0:0:0:0:
235,31,114367,6,0,B|245:95|237:146|213:186|220:198|220:198|235:203|283:185|327:207,1,263.99999194336,12|0,0:1|0:0,0:0:0:0:
256,192,116436,12,0,117126,0:0:0:0:
256,192,117212,12,0,117816,0:0:0:0:
256,192,117902,12,0,118506,0:0:0:0:
256,192,118592,12,0,119196,0:0:0:0:
256,192,119281,12,0,119842,0:0:0:0:
256,192,119885,5,12,0:1:0:0:
330,113,120057,2,0,L|373:116,2,27.5,0|0|0,1:0|1:0|3:0,0:0:0:0:
338,121,120402,2,0,L|381:124,2,27.5,0|0|0,1:0|1:0|3:0,0:0:0:0:
346,129,120747,2,0,L|389:132,2,27.5,0|0|0,1:0|1:0|3:0,0:0:0:0:
446,182,121092,1,2,1:3:0:0:
409,338,121264,5,2,1:3:0:0:
360,239,121436,2,0,L|316:242,2,27.5,0|0|0,1:0|1:0|3:0,0:0:0:0:
352,247,121781,2,0,L|308:250,2,27.5,0|0|0,1:0|1:0|3:0,0:0:0:0:
344,255,122126,2,0,L|300:258,2,27.5,0|0|0,1:0|1:0|3:0,0:0:0:0:
409,338,122471,5,0,1:0:0:0:
411,332,122557,1,0,1:0:0:0:
421,287,122643,1,0,3:0:0:0:
232,319,122816,1,0,1:0:0:0:
230,313,122902,1,0,1:0:0:0:
219,269,122988,1,0,3:0:0:0:
311,354,123161,1,0,1:0:0:0:
310,347,123247,1,0,1:0:0:0:
313,299,123333,1,0,3:0:0:0:
125,280,123505,5,0,1:0:0:0:
126,272,123591,1,0,1:0:0:0:
132,230,123677,1,0,3:0:0:0:
400,246,123850,1,0,1:0:0:0:
397,227,123936,1,0,1:0:0:0:
413,323,124022,1,8,0:1:0:0:
123,231,125402,6,0,P|66:132|192:87,1,247.500009441376,8|0,1:0|0:0,0:1:0:0:
266,143,125747,2,0,B|226:158|226:158|148:147,1,82.5000031471254,8|0,0:0|0:0,0:0:0:0:
290,43,125919,1,2,1:3:0:0:
429,98,126092,1,0,1:0:0:0:
361,354,126264,1,4,1:3:0:0:
155,171,126436,2,0,L|168:309,3,110,8|0|0|0,0:0|0:0|0:0|0:0,0:0:0:0:
201,234,126781,6,0,B|295:189|195:69|268:9,1,247.500009441376,4|0,1:3|0:0,0:1:0:0:
413,120,127126,6,0,P|375:127|312:116,1,82.5000031471254,8|0,1:2|0:0,0:0:0:0:
382,40,127298,1,2,1:3:0:0:
449,70,127385,1,2,1:2:0:0:
436,136,127471,2,0,P|328:141|269:107,1,165.000006294251,4|4,3:3|1:3,0:0:0:0:
18,189,127816,2,0,B|81:207|98:167|98:167|128:152|128:152|160:174|160:174|178:214|262:182,1,247.500009441376,8|0,1:2|0:0,0:0:0:0:
419,341,128161,2,0,B|383:327|382:301|382:267|382:267|368:259|334:256|310:268|310:268|282:311|240:301|216:269,1,247.500009441376,8|0,1:0|0:0,0:0:0:0:
119,356,128505,2,0,P|155:307|166:262,1,82.5000031471254,8|0,1:2|0:0,0:0:0:0:
165,120,128678,2,0,P|172:153|180:223,1,82.5000031471254,2|0,1:3|0:0,0:0:0:0:
239,290,128850,1,0,1:0:0:0:
427,121,129023,1,4,1:3:0:0:
225,0,129195,6,2,L|15:99,1,220,8|0,1:2|1:0,0:1:0:0:
249,257,129540,6,0,P|324:195|247:72,1,247.500009441376,4|0,1:3|0:0,0:0:0:0:
300,344,129885,1,8,1:2:0:0:
300,344,129971,2,0,P|257:336|189:345,1,82.5000031471254,2|0,1:2|3:3,0:0:0:0:
76,349,130230,1,4,1:3:0:0:
66,123,130402,1,8,1:3:0:0:
66,123,130488,1,0,1:0:0:0:
66,123,130574,1,8,0:0:0:0:
112,52,130661,1,4,1:3:0:0:
148,131,130747,2,0,L|56:121,1,82.5000031471254,8|0,0:0|0:0,0:0:0:0:
190,207,130919,6,0,P|222:110|83:67,1,247.500009441376,4|0,1:3|0:0,0:0:0:0:
152,280,131264,2,0,B|189:301|189:301|259:291,1,82.5000031471254,8|0,1:2|0:0,0:0:0:0:
361,210,131436,2,0,P|321:198|267:202,1,82.5000031471254,2|0,1:3|1:0,0:0:0:0:
309,307,131609,1,0,1:0:0:0:
406,88,131781,1,4,1:3:0:0:
127,126,131954,2,0,L|147:30,3,82.5000031471254,8|0|2|0,1:2|0:1|1:2|0:1,0:0:0:0:
159,206,132298,6,0,B|103:199|130:125|130:125|75:122|75:122|47:82|73:40,1,220,4|8,1:3|1:2,0:0:0:0:
205,221,132816,5,2,1:3:0:0:
212,204,132902,1,0,1:0:0:0:
258,150,132988,2,0,P|258:206|244:249,1,82.5000031471254,2|0,3:2|0:0,0:0:0:0:
301,165,133161,1,4,1:3:0:0:
302,243,133247,1,4,1:3:0:0:
332,262,133333,6,0,B|355:221|355:221|354:183,1,82.5000031471254,8|0,1:2|0:0,0:0:0:0:
396,47,133505,1,2,3:2:0:0:
430,40,133592,2,0,B|451:77|451:77|454:146,1,82.5000031471254,2|4,1:3|1:3,0:0:0:0:
306,252,133764,2,0,B|319:212|319:212|311:156,1,82.5000031471254,2|0,1:2|0:0,0:0:0:0:
272,21,134023,1,8,1:2:0:0:
104,214,134195,1,2,1:3:0:0:
48,193,134281,1,0,0:0:0:0:
19,140,134367,2,0,P|26:217|61:279,1,82.5000031471254,2|0,1:2|0:0,0:0:0:0:
166,25,134540,1,4,1:3:0:0:
301,254,134712,6,2,B|195:227|195:227|128:348|128:348|-48:278,1,412.5,8|0,1:2|0:0,0:1:0:0:
323,233,135057,6,2,L|223:206,1,90.7500027694703,4|0,1:3|0:0,0:1:0:0:
50,217,135402,2,0,L|156:251,1,90.7500027694703,8|2,1:2|1:3,0:0:0:0:
286,166,135747,5,4,1:3:0:0:
187,135,135833,1,8,1:3:0:0:
97,107,135919,1,4,1:3:0:0:
68,122,136005,5,2,0:0:0:0:
68,122,136092,1,8,1:2:0:0:
68,122,136178,1,2,0:0:0:0:
68,122,136264,1,4,1:3:0:0:
68,122,136350,1,2,1:2:0:0:
89,248,136436,6,0,P|162:226|166:49,1,247.500009441376,12|0,1:0|0:0,0:0:0:0:
70,301,136781,2,2,P|127:304|33:22,1,495.000018882752,8|0,1:2|0:0,0:1:0:0:
429,20,137126,2,0,B|357:30|357:30|353:101|353:101|298:77|244:115,1,247.500009441376,2|0,1:3|0:0,0:0:0:0:
114,141,137471,2,0,P|154:168|226:174,1,110,8|2,1:2|1:2,0:0:0:0:
366,127,137730,1,0,1:0:0:0:
454,300,137816,6,0,B|417:278|372:282|372:282|411:206|370:93|332:112,1,247.500009441376,4|0,1:3|0:0,0:0:0:0:
453,351,138161,2,2,B|396:303|325:307|325:307|371:210|374:121|342:41|342:41|378:104|453:71,1,495.000018882752,8|0,1:2|0:0,0:1:0:0:
475,367,138505,2,0,P|428:320|384:290,1,82.5000031471254,2|0,1:3|0:0,0:0:0:0:
434,128,138678,2,0,P|398:208|393:274,1,82.5000031471254,4|0,1:3|0:0,0:0:0:0:
368,370,138850,1,8,1:2:0:0:
251,165,139023,1,2,1:2:0:0:
251,165,139109,1,0,1:0:0:0:
264,280,139195,6,0,P|164:236|134:106,1,247.500009441376,4|0,1:3|0:0,0:0:0:0:
266,334,139540,2,2,P|111:257|386:70,1,660.000025177003,8|2,1:2|1:3,0:1:0:0:
382,91,139971,1,0,1:0:0:0:
462,79,140057,1,4,1:3:0:0:
344,286,140230,2,0,L|298:181,6,82.5000031471254,8|2|0|2|0|2|0,1:2|0:0|0:0|0:0|1:2|0:0|1:0,0:0:0:0:
225,285,140574,6,0,P|316:348|452:300,1,247.500009441376,4|0,1:3|0:0,0:0:0:0:
153,80,140919,2,2,P|157:265|434:339,1,495.000018882752,8|0,1:2|0:0,0:1:0:0:
156,146,141264,1,4,1:3:0:0:
422,221,141436,2,0,L|265:155,1,165.000006294251,8|0,1:3|0:0,0:0:0:0:
153,29,141609,2,0,L|423:-1,3,165.000006294251,8|2|8|2,3:2|1:3|3:2|1:3,0:0:0:0:
435,70,141954,6,0,P|298:90|229:179,1,247.500009441376,4|0,1:3|0:0,0:0:0:0:
358,315,142298,2,2,P|317:124|90:264,1,495.000018882752,8|0,1:2|0:0,0:1:0:0:
254,365,142643,2,0,P|258:306|243:258,1,82.5000031471254,2|0,1:3|0:0,0:0:0:0:
144,175,142816,1,4,1:3:0:0:
403,140,142988,1,8,1:2:0:0:
403,140,143074,1,0,1:0:0:0:
403,140,143161,1,2,1:3:0:0:
403,140,143247,1,0,1:0:0:0:
418,276,143333,6,0,P|321:244|290:92,1,247.500009441376,4|0,1:3|0:0,0:0:0:0:
476,307,143678,2,2,P|264:256|480:17,1,660.000025177003,8|2,1:2|1:3,0:1:0:0:
134,9,144195,1,4,1:3:0:0:
167,289,144367,2,0,L|207:100,3,165.000006294251,8|0|2|0,1:2|1:0|1:3|1:0,0:0:0:0:
270,49,144712,6,0,P|213:148|312:290,1,247.500009441376,4|0,1:3|0:0,0:0:0:0:
445,11,145057,2,2,P|229:40|44:284,1,495.000018882752,8|0,1:2|0:0,0:1:0:0:
404,40,145402,1,2,1:3:0:0:
167,289,145574,1,4,1:3:0:0:
149,196,145661,1,4,1:3:0:0:
216,77,145747,2,0,L|30:392,1,330.000012588501,8|2,1:2|1:2,0:0:0:0:
62,321,146005,1,0,1:0:0:0:
39,225,146092,5,8,1:0:0:0:
181,263,147126,1,4,3:2:0:0:
185,267,147212,1,4,3:2:0:0:
189,271,147298,1,4,1:2:0:0:
193,275,147385,1,4,1:3:0:0:
223,252,147471,6,0,B|272:264|319:224|319:224|316:250|320:257,1,137.5,12|2,1:0|0:0,0:0:0:0:
471,277,147816,2,0,B|438:250|402:248|402:248|397:292|370:321,1,137.5,8|2,0:2|1:2,0:0:0:0:
257,348,148074,1,0,1:0:0:0:
253,352,148161,2,0,B|276:343|311:344|311:344|292:332,1,68.75,2|0,1:2|0:0,0:0:0:0:
195,287,148333,2,0,B|172:278|137:279|137:279|156:267,1,68.75,2|0,1:3|0:0,0:0:0:0:
312,76,148505,1,8,0:2:0:0:
312,76,148850,6,0,B|288:71|288:71|235:75|235:75|171:37,1,137.5,4|2,1:3|0:0,0:0:0:0:
397,56,149195,2,0,B|405:82|398:110|398:110|404:127,1,68.75,8|0,0:0|0:0,0:0:0:0:
436,219,149367,1,2,1:2:0:0:
440,223,149454,1,0,1:0:0:0:
444,227,149540,2,0,P|468:204|502:201,1,68.75,2|0,1:2|0:0,0:0:0:0:
379,295,149712,2,0,P|354:272|320:269,1,68.75,2|0,1:3|0:0,0:0:0:0:
451,363,149885,1,8,0:0:0:0:
146,260,150143,5,0,1:0:0:0:
142,264,150230,2,0,B|119:273|84:272|84:272|103:284,1,68.75,4|0,1:3|0:0,0:0:0:0:
229,228,150402,1,2,1:2:0:0:
95,170,150574,2,0,B|118:179|153:178|153:178|134:190,1,68.75,8|0,0:0|0:0,0:0:0:0:
8,134,150746,1,2,1:2:0:0:
238,67,150919,2,0,B|228:95|236:124|236:124|229:142,1,68.75,2|2,0:0|0:0,0:0:0:0:
246,59,151092,2,0,B|236:87|244:116|244:116|237:134,1,68.75,2|2,1:3|0:0,0:0:0:0:
254,51,151264,2,0,B|244:79|252:108|252:108|245:126,1,68.75,8|0,0:0|0:0,0:0:0:0:
262,43,151436,1,2,1:2:0:0:
255,319,151609,6,0,B|221:287|233:245|233:245|304:232|313:186|313:186|298:196,1,206.25,4|0,1:3|0:0,0:0:0:0:
378,130,151954,2,0,P|334:177|275:152,1,137.5,8|2,0:0|1:3,0:0:0:0:
453,141,152212,1,0,1:0:0:0:
457,145,152298,2,0,P|451:183|432:211,1,68.75,8|0,0:0|0:0,0:0:0:0:
304,66,152471,1,2,1:3:0:0:
300,70,152557,1,4,1:3:0:0:
296,74,152643,2,0,B|249:66|249:66|228:69,1,68.75,8|0,0:0|0:0,0:0:0:0:
155,165,152816,1,8,0:0:0:0:
19,11,152988,6,0,B|-15:11|-11:47|25:56|53:31|53:31|81:15|115:35|115:35|140:5|166:12,1,206.25,4|0,1:3|0:0,0:0:0:0:
176,83,153333,2,0,P|143:34|200:21,1,137.5,8|2,0:0|1:2,0:0:0:0:
116,158,153592,1,0,1:0:0:0:
112,162,153678,2,0,B|109:200|109:200|117:229,1,68.75,2|0,1:2|0:0,0:0:0:0:
269,308,153850,1,4,1:3:0:0:
273,312,153936,1,2,1:2:0:0:
277,316,154023,2,0,B|230:346|169:332|169:332|197:319|186:323,1,137.5,8|0,0:0|1:0,0:0:0:0:
293,207,154281,1,0,1:0:0:0:
297,203,154367,6,0,B|348:186|348:186|426:213,1,137.5,4|2,1:3|0:2,0:0:0:0:
161,75,154712,1,8,0:0:0:0:
277,27,154885,1,0,1:0:0:0:
273,31,154971,1,2,0:0:0:0:
269,35,155057,2,0,B|264:59|264:59|269:119,1,68.75,8|0,1:3|0:0,0:0:0:0:
363,213,155230,2,0,B|368:189|368:189|363:129,1,68.75,4|0,1:3|0:0,0:0:0:0:
161,75,155402,1,8,0:0:0:0:
195,274,155574,1,2,1:2:0:0:
191,278,155661,1,0,1:0:0:0:
187,282,155747,6,0,B|138:223|183:159|183:159|125:164|98:134,1,206.25,4|0,1:3|0:0,0:0:0:0:
15,21,156092,2,0,B|46:34|23:57|54:86|54:86|112:43|151:68|151:68|95:81,1,206.25,8|0,0:0|0:0,0:0:0:0:
253,142,156436,2,0,P|219:133|186:141,1,68.75,2|0,0:0|0:0,0:0:0:0:
294,228,156609,1,2,1:3:0:0:
298,232,156695,1,2,0:0:0:0:
302,236,156781,2,0,P|335:227|368:235,1,68.75,10|0,0:0|0:0,0:0:0:0:
238,327,156954,1,2,1:2:0:0:
234,331,157040,1,0,1:0:0:0:
230,335,157126,6,0,P|196:326|163:334,1,68.75,10|0,1:2|0:0,0:0:0:0:
112,207,157298,1,4,1:3:0:0:
108,211,157385,1,8,0:0:0:0:
209,127,157557,1,4,1:3:0:0:
213,131,157644,1,8,0:0:0:0:
42,263,157816,1,4,1:3:0:0:
38,267,157903,1,8,0:0:0:0:
280,79,158074,5,4,1:3:0:0:
293,86,158161,1,10,0:0:0:0:
315,121,158247,1,2,1:3:0:0:
318,169,158333,1,10,0:0:0:0:
293,221,158419,1,2,1:2:0:0:
251,285,158505,6,0,B|275:258|309:241|341:253|371:271|371:271|365:242|381:220|381:220|386:241|404:253,1,206.25,4|0,1:3|0:0,0:0:0:0:
414,63,158850,2,0,B|380:95|392:137|392:137|463:150|472:196|472:196|457:186,1,206.25,8|0,0:0|0:0,0:0:0:0:
398,297,159195,2,0,P|429:276|468:286,1,68.75,2|0,1:3|0:0,0:0:0:0:
316,358,159367,2,0,P|284:337|245:347,1,68.75,4|0,1:3|0:0,0:0:0:0:
112,340,159540,2,0,P|177:356|237:327,1,137.5,8|2,0:0|1:2,0:0:0:0:
175,222,159798,1,0,1:0:0:0:
171,218,159885,6,0,B|165:244|166:269|166:269|159:261|153:259,1,68.75,4|0,1:3|0:0,0:0:0:0:
134,141,160057,2,0,P|167:132|200:138,1,68.75,2|0,0:0|0:0,0:0:0:0:
34,334,160230,2,0,B|47:363|83:348|89:291|31:238|3:236|3:236|34:232|53:223,1,206.25,8|0,0:0|1:0,0:0:0:0:
172,81,160574,2,0,B|164:107|171:135|171:135|166:148,1,68.75,2|0,1:2|0:0,0:0:0:0:
141,237,160747,1,4,1:3:0:0:
325,134,160919,2,0,B|333:160|326:188|326:188|332:205,1,68.75,8|0,0:0|0:0,0:0:0:0:
357,294,161092,1,2,1:2:0:0:
311,32,161264,6,0,B|344:29|386:32|419:71|421:107|421:107|411:78|377:64,1,206.25,4|0,1:3|0:0,0:0:0:0:
405,289,161609,2,0,B|419:263|410:231|402:242|390:212|407:188|407:188|461:193|480:168|480:168|448:176|427:169,1,206.25,8|0,0:0|0:0,0:0:0:0:
365,207,161954,2,0,P|327:215|292:197,1,68.75,2|0,1:2|0:0,0:0:0:0:
169,263,162126,2,0,P|207:255|242:273,1,68.75,4|0,1:3|0:0,0:0:0:0:
82,317,162298,2,0,B|52:276|64:208|89:225|111:162|85:116,1,206.25,8|0,0:0|0:0,0:0:0:0:
257,57,162643,6,0,B|233:97|189:95|189:95|161:28|114:30|114:30|127:42,1,206.25,4|0,1:3|0:0,0:0:0:0:
133,158,162988,2,0,P|159:179|192:186,1,68.75,8|0,0:0|0:0,0:0:0:0:
322,161,163161,1,4,1:3:0:0:
318,165,163247,1,0,1:0:0:0:
314,169,163333,2,0,P|297:198|296:232,1,68.75,8|0,0:0|0:0,0:0:0:0:
234,349,163505,1,4,1:3:0:0:
232,343,163591,1,2,1:3:0:0:
231,338,163678,2,0,P|213:308|184:290,1,68.75,8|0,0:0|0:0,0:0:0:0:
40,266,163850,2,0,B|63:252|87:246|87:246|74:243|67:238,1,68.75,8|0,0:0|0:0,0:0:0:0:
146,123,164023,6,0,P|153:206|85:149,1,206.25,4|0,1:3|0:0,0:0:0:0:
114,45,164367,2,0,B|155:36|155:36|180:45,1,68.75,8|0,0:0|0:0,0:0:0:0:
305,111,164540,2,0,B|264:102|264:102|238:111,1,68.75,2|0,1:3|0:0,0:0:0:0:
359,188,164712,2,0,B|418:138|386:68|386:68|411:102|455:119,1,206.25,2|0,1:2|0:0,0:0:0:0:
459,250,165057,2,0,B|423:227|405:188|405:188|387:232|348:265|348:265|377:258|408:260,1,206.25,8|0,0:0|0:0,0:0:0:0:
245,193,165402,6,0,P|276:179|310:183,1,68.75,4|0,1:3|0:0,0:0:0:0:
239,303,165574,1,2,1:2:0:0:
235,299,165661,1,0,1:0:0:0:
231,295,165747,2,0,B|246:251|217:218|217:218|148:238|120:200|120:200|137:203,1,206.25,8|0,0:0|0:0,0:0:0:0:
189,68,166092,2,0,B|177:102|186:117|186:117|178:154,1,68.75,2|0,0:2|0:0,0:0:0:0:
101,303,166264,2,0,B|89:268|98:254|98:254|90:217,1,68.75,4|0,1:3|0:0,0:0:0:0:
6,133,166436,2,0,B|39:122|80:155|80:155|93:84|139:75|139:75|107:123,1,206.25,8|0,0:0|0:0,0:0:0:0:
324,203,166781,6,0,P|233:236|173:161,1,206.25,4|0,1:3|0:0,0:0:0:0:
123,259,167126,2,0,P|156:263|186:248,1,68.75,8|0,0:0|0:0,0:0:0:0:
264,77,167298,1,4,1:3:0:0:
268,81,167385,1,0,1:0:0:0:
272,85,167471,2,0,B|260:112|259:142|259:142|254:133|244:126,1,68.75,8|0,1:3|0:0,0:0:0:0:
359,268,167643,1,4,1:3:0:0:
363,264,167730,1,2,1:3:0:0:
367,260,167816,2,0,B|355:232|354:202|354:202|349:211|339:218,1,68.75,8|0,0:0|0:0,0:0:0:0:
124,310,167988,1,2,1:2:0:0:
120,314,168074,1,0,1:0:0:0:
67,370,168161,6,0,L|-1:364,3,65.9999979858399,2|0|0|0,0:0|0:0|0:0|0:0,0:0:0:0:
256,192,169540,5,12,0:1:0:0:
256,192,171264,6,0,P|284:192|315:201,1,55,2|0,0:0|0:0,0:0:0:0:
369,256,171954,1,0,0:0:0:0:
434,305,172298,1,2,0:0:0:0:
437,309,172342,2,0,P|441:233|471:155,1,158.125,0|2,0:0|0:0,0:0:0:0:
473,152,173678,1,2,0:0:0:0:
414,92,174023,1,0,0:0:0:0:
337,122,174367,1,0,0:0:0:0:
273,69,174712,1,0,0:0:0:0:
189,96,175057,5,2,0:0:0:0:
185,100,175100,2,0,P|181:122|182:150,1,48.125,0|0,0:0|0:0,0:0:0:0:
225,210,175747,2,0,P|229:237|228:271,2,55,0|0|0,0:0|0:0|0:0,0:0:0:0:
159,319,176781,1,2,0:0:0:0:
86,280,177126,1,2,0:0:0:0:
95,197,177471,1,0,0:0:0:0:
71,117,177816,5,2,0:0:0:0:
67,113,177859,2,0,P|91:109|116:110,1,48.125,0|0,0:0|0:0,0:0:0:0:
185,139,178505,1,0,0:0:0:0:
261,53,178850,1,2,0:0:0:0:
312,120,179195,2,0,L|316:175,1,55,2|0,0:0|0:0,0:0:0:0:
374,312,179885,1,0,0:0:0:0:
377,230,180230,1,0,0:0:0:0:
303,266,180574,5,2,0:0:0:0:
299,270,180617,2,0,P|275:274|250:273,1,48.125,0|0,0:0|0:0,0:0:0:0:
183,237,181264,2,0,P|152:229|120:231,2,55,0|0|0,0:0|0:0|0:0,0:0:0:0:
189,319,182298,1,2,0:0:0:0:
258,273,182643,1,2,0:0:0:0:
183,237,182988,1,0,0:0:0:0:
336,308,183333,6,0,L|341:244,1,55,2|0,0:0|0:0,0:0:0:0:
414,215,184023,2,0,L|418:269,1,55,0|0,0:0|0:0,0:0:0:0:
454,143,184712,1,2,0:0:0:0:
450,139,184755,2,0,P|427:132|403:132,1,48.125,0|0,0:0|0:0,0:0:0:0:
340,178,185402,1,0,0:0:0:0:
454,143,186092,1,2,0:0:0:0:
450,139,186135,2,0,P|426:132|402:132,1,48.125,0|0,0:0|0:0,0:0:0:0:
336,177,186781,2,0,L|331:121,1,55,0|0,0:0|0:0,0:0:0:0:
219,92,187471,5,2,0:0:0:0:
223,88,187514,2,0,P|245:80|270:80,1,48.125,0|2,0:0|0:0,0:0:0:0:
331,122,188161,2,0,L|335:176,1,55,0|0,0:0|0:0,0:0:0:0:
454,143,188850,1,2,0:0:0:0:
450,139,188893,2,0,P|427:132|403:132,1,48.125,0|0,0:0|0:0,0:0:0:0:
407,136,189540,1,0,0:0:0:0:
229,316,190230,6,0,P|304:296|272:272,1,165,2|0,0:0|0:0,0:0:0:0:
220,201,191609,2,0,L|387:186,1,165,2|0,0:0|0:0,0:0:0:0:
331,265,192988,2,0,P|289:197|321:124,1,165,2|0,0:0|0:0,0:0:0:0:
335,269,194367,2,0,B|411:307|418:228|494:282,1,165,2|0,0:0|0:0,0:0:0:0:
405,150,195747,2,0,P|371:127|386:194,1,165,2|0,0:0|0:0,0:0:0:0:
321,50,197126,6,0,L|145:65,1,165,2|0,0:0|0:0,0:0:0:0:
241,153,198505,2,0,L|65:168,1,165,2|0,0:0|0:0,0:0:0:0:
0,264,199885,2,0,L|167:249,1,165,2|0,0:0|0:0,0:0:0:0:
254,206,201264,2,0,P|277:196|264:222,1,66,2|0,0:0|0:0,0:0:0:0:
265,87,202471,1,0,1:0:0:0:
265,87,202557,1,0,1:0:0:0:
265,87,202643,6,0,P|212:88|154:99,1,110,12|0,1:0|0:0,0:0:0:0:
113,178,204712,1,2,0:0:0:0:
140,260,205057,1,2,0:0:0:0:
123,341,205402,2,0,L|117:273,1,66,0|0,0:0|0:0,0:0:0:0:
224,294,206781,2,0,L|218:359,1,66,2|2,0:0|0:0,0:0:0:0:
266,219,208161,6,0,P|295:204|327:199,1,66,2|0,0:0|0:0,0:0:0:0:
390,141,209540,2,0,P|360:125|328:120,1,66,2|0,0:0|0:0,0:0:0:0:
86,206,210919,6,0,B|152:171|220:196|203:218|271:239|331:203|331:203|319:258|348:298,1,352,2|8,0:0|0:3,0:0:0:0:
439,48,217816,6,0,B|473:48|469:84|433:93|405:68|405:68|377:52|343:72|343:72|318:42|292:49,1,206.25,4|0,1:3|0:0,0:0:0:0:
223,97,218161,2,0,P|281:73|317:126,1,137.5,8|2,0:0|1:2,0:0:0:0:
76,96,218419,1,0,1:0:0:0:
72,92,218505,2,0,B|112:70|112:70|134:73,1,68.75,2|0,0:0|0:0,0:0:0:0:
165,168,218678,1,4,1:3:0:0:
281,69,218850,1,8,0:0:0:0:
375,304,219023,1,2,1:2:0:0:
379,300,219109,1,0,1:0:0:0:
398,260,219195,6,0,P|348:220|301:262,1,137.5,4|0,1:3|0:0,0:0:0:0:
455,149,219540,2,0,B|442:105|442:105|423:91,1,68.75,8|0,0:0|0:0,0:0:0:0:
266,148,219712,1,2,1:2:0:0:
262,152,219798,1,0,1:0:0:0:
258,156,219885,1,2,1:3:0:0:
463,157,220057,2,0,B|450:113|450:113|431:99,1,68.75,4|0,1:3|0:0,0:0:0:0:
262,206,220230,2,0,B|274:162|274:162|293:148,1,68.75,8|0,0:0|0:0,0:0:0:0:
363,49,220402,1,2,1:2:0:0:
359,45,220488,1,0,1:0:0:0:
355,41,220574,6,0,B|333:41|335:37|313:27|313:27|299:29|296:23|284:26|284:26|257:13|257:13|231:30|254:52|254:52|250:51|208:58|208:58|174:84|174:84|143:72|143:72|130:46|130:46|96:45,1,330.000012588501,4|8,1:3|0:0,0:0:0:0:
30,147,221092,1,2,1:2:0:0:
34,151,221178,1,0,1:0:0:0:
38,155,221264,5,2,0:0:0:0:
58,226,221379,1,2,0:0:0:0:
32,295,221494,1,0,1:0:0:0:
3,364,221609,1,10,0:0:0:0:
46,354,221724,1,2,0:0:0:0:
90,362,221839,1,0,1:0:0:0:
153,313,221954,6,0,B|183:322|173:360|117:373|55:325|46:239,1,206.25,8|0,1:3|0:0,0:0:0:0:
222,155,222298,2,0,B|231:183|214:214|214:214|210:208,1,68.75,8|0,0:0|0:0,0:0:0:0:
98,46,222471,1,2,1:3:0:0:
102,42,222557,1,0,1:0:0:0:
106,38,222643,2,0,P|137:26|199:34,1,91.6666666666667,2|0,0:0|0:0,0:0:0:0:
278,71,222873,5,2,0:0:0:0:
342,124,222988,1,10,0:0:0:0:
361,198,223103,1,2,0:0:0:0:
344,240,223218,1,0,0:0:0:0:
327,257,223333,6,0,B|351:230|385:213|417:225|447:243|447:243|441:214|457:192|457:192|462:213|480:225,1,206.25,4|0,1:3|0:0,0:0:0:0:
434,28,223678,2,0,B|458:78|434:118|434:118|456:110|497:123,1,137.5,8|2,0:0|1:2,0:0:0:0:
377,186,223936,1,0,1:0:0:0:
373,190,224023,2,0,P|283:190|243:147,2,137.5,2|4|8,0:0|1:3|0:0,0:0:0:0:
208,86,224540,1,2,1:2:0:0:
204,90,224626,1,0,1:0:0:0:
158,151,224712,6,0,B|183:126|215:136|215:136|222:191|257:198|250:187,1,137.5,4|2,1:3|1:2,0:0:0:0:
389,234,224971,1,0,1:0:0:0:
393,238,225057,2,0,B|364:228|333:245|333:245|340:249,1,68.75,8|0,0:0|0:0,0:0:0:0:
403,347,225230,1,2,1:2:0:0:
407,351,225316,1,0,1:0:0:0:
411,355,225402,2,0,P|411:330|401:303,5,45.8333333333333,2|2|0|4|2|0,0:0|0:0|0:0|1:3|0:0|0:0,0:0:0:0:
425,275,225747,1,10,0:0:0:0:
342,245,225862,1,2,0:0:0:0:
262,227,225977,1,0,0:0:0:0:
239,350,226092,6,0,B|228:317|261:276|261:276|190:263|181:217|181:217|229:249,1,206.25,4|0,1:3|0:0,0:0:0:0:
271,145,226436,2,0,B|262:170|278:198,1,44,8|0,0:0|0:0,0:0:0:0:
187,37,226695,1,2,0:0:0:0:
183,33,226781,2,0,B|159:83|183:123|183:123|161:115|120:128,1,137.5,2|4,1:0|1:3,0:0:0:0:
227,283,227126,2,0,P|162:212|170:321,1,247.500009441376,8|0,0:0|1:0,0:0:0:0:
327,274,227471,6,0,B|299:264|299:264|233:286|254:362,1,137.5,4|0,1:3|1:0,0:0:0:0:
481,317,227816,2,0,P|489:284|485:250,1,68.75,8|0,0:0|0:0,0:0:0:0:
416,137,227988,1,2,1:3:0:0:
419,134,228074,1,0,1:0:0:0:
422,131,228161,2,0,P|426:164|417:197,1,68.75,8|0,0:0|0:0,0:0:0:0:
365,256,228333,1,4,1:3:0:0:
315,255,228419,1,4,1:3:0:0:
274,217,228505,1,8,1:2:0:0:
267,195,228592,1,8,1:2:0:0:
264,176,228678,1,8,1:3:0:0:
290,129,228764,1,8,1:3:0:0:
271,52,228850,6,0,B|287:23|321:42|322:100|261:150|175:139,1,206.25,12|0,1:0|0:0,0:0:0:0:
70,38,229195,2,0,B|76:71|108:102|108:102|123:72|152:60,1,137.5,8|2,0:0|1:2,0:0:0:0:
255,124,229454,1,0,1:0:0:0:
259,128,229540,2,0,B|269:172|269:172|260:193,1,68.75,2|0,0:0|0:0,0:0:0:0:
199,269,229712,2,0,B|188:313|188:313|197:334,1,68.75,4|0,1:3|0:0,0:0:0:0:
166,178,229885,1,8,0:0:0:0:
430,340,230057,2,0,B|408:350|408:350|364:339,1,68.75,2|0,1:2|1:0,0:0:0:0:
311,258,230230,6,0,P|249:231|190:261,1,137.5,4|2,1:3|0:0,0:0:0:0:
434,298,230574,2,0,B|457:276|448:247|448:247|400:238|394:207|394:207|408:213,1,137.5,8|2,0:0|1:2,0:0:0:0:
457,92,230833,1,0,1:0:0:0:
461,96,230919,2,0,B|471:140|471:140|462:161,1,68.75,2|0,0:0|0:0,0:0:0:0:
319,250,231092,2,0,B|309:206|309:206|318:185,1,68.75,4|0,1:3|0:0,0:0:0:0:
504,291,231264,2,0,B|454:315|414:291|414:291|422:313|409:354,1,137.5,8|2,0:0|1:2,0:0:0:0:
289,316,231523,1,0,1:0:0:0:
285,312,231609,6,0,P|326:261|390:272,1,137.5,4|2,1:3|0:0,0:0:0:0:
92,146,231954,2,0,B|116:138|145:149|145:149|169:135,1,68.75,8|0,0:0|0:0,0:0:0:0:
290,220,232126,2,0,B|266:212|237:223|237:223|213:209,1,68.75,2|0,1:2|0:0,0:0:0:0:
61,326,232298,5,2,0:0:0:0:
48,233,232413,1,2,0:0:0:0:
125,267,232528,1,0,0:0:0:0:
53,312,232643,1,10,0:0:0:0:
123,254,232758,1,2,0:0:0:0:
199,313,232873,1,0,0:0:0:0:
290,303,232988,5,8,1:3:0:0:
347,139,233161,2,0,B|339:163|344:182|344:182|352:197|343:234,1,68.75,2|0,1:2|0:0,0:0:0:0:
279,310,233333,2,0,B|287:286|282:266|282:266|274:252|283:215,1,68.75,8|0,0:0|0:0,0:0:0:0:
242,100,233505,1,4,1:3:0:0:
246,96,233592,1,2,0:0:0:0:
250,92,233678,2,0,P|277:71|310:62,1,68.75,2|0,1:2|0:0,0:0:0:0:
427,164,233850,1,4,1:3:0:0:
431,168,233936,1,4,1:3:0:0:
429,244,234023,2,0,P|463:166|512:235,1,206.25,8|0,0:0|0:0,0:0:0:0:
424,336,234367,6,0,B|376:364|315:342|349:323|274:300|227:325,1,206.25,4|0,1:3|0:0,0:0:0:0:
147,247,234712,2,0,B|177:259|192:301|192:301|224:275|277:278,1,137.5,8|2,0:0|1:2,0:0:0:0:
316,178,234971,1,0,1:0:0:0:
320,182,235057,2,0,B|328:206|317:235|317:235|331:259,1,68.75,2|0,0:0|0:0,0:0:0:0:
371,328,235230,1,4,1:3:0:0:
506,260,235402,1,8,0:0:0:0:
444,38,235574,1,2,1:2:0:0:
440,34,235661,1,0,1:0:0:0:
436,30,235747,6,0,B|430:55|447:67|447:67|446:90|473:107|473:107|462:118|459:140|459:140|454:160|454:160|468:176|468:176|429:195|429:195|403:192|388:202|388:202|357:182|357:182|368:154|349:139,1,330.000012588501,4|8,1:3|0:0,0:0:0:0:
292,65,236264,1,2,1:2:0:0:
288,61,236350,1,0,1:0:0:0:
284,57,236436,2,0,P|218:40|155:65,1,137.5,2|4,0:0|1:3,0:0:0:0:
89,131,236695,1,0,1:0:0:0:
85,135,236781,5,8,0:0:0:0:
51,206,236896,1,2,0:0:0:0:
100,267,237011,1,0,0:0:0:0:
163,191,237126,6,0,B|203:172|246:177|246:177|276:195|281:215,2,137.5,4|2|8,1:3|0:0|0:0,0:0:0:0:
308,338,237643,1,2,1:2:0:0:
304,334,237730,1,0,0:0:0:0:
300,330,237816,2,0,L|304:279,5,45.8333333333333,2|2|0|4|2|0,0:0|0:0|0:0|1:3|0:0|0:0,0:0:0:0:
324,238,238161,2,0,B|347:240|347:240|363:249|363:249|395:244,1,68.75,10|0,0:0|0:0,0:0:0:0:
252,151,238333,2,0,B|228:153|228:153|212:162|212:162|180:157,1,68.75,2|0,1:2|1:0,0:0:0:0:
422,97,238505,6,0,B|390:128|385:190|385:190|397:207|400:238,1,137.5,4|2,1:3|0:0,0:0:0:0:
467,353,238850,2,0,P|472:316|462:281,1,68.75,8|0,0:0|0:0,0:0:0:0:
307,178,239023,2,0,P|302:215|312:250,1,68.75,2|0,1:2|0:0,0:0:0:0:
374,348,239195,1,2,1:3:0:0:
467,271,239367,1,8,1:3:0:0:
341,52,239540,1,8,1:2:0:0:
323,55,239626,1,2,3:3:0:0:
305,58,239712,1,8,1:2:0:0:
288,62,239798,1,2,3:3:0:0:
242,140,239885,5,8,1:0:0:0:
256,192,239971,12,0,244023,0:0:0:0:
207,57,245402,6,0,P|165:102|94:140,1,82.5000031471254,12|0,1:0|0:0,0:0:0:0:
68,134,245574,2,0,L|129:146,1,41.2500015735627,2|0,1:3|0:0,0:0:0:0:
24,154,245747,2,0,L|122:173,1,82.5000031471254,8|0,1:2|0:0,0:0:0:0:
219,246,245919,1,2,1:2:0:0:
209,278,246005,1,0,1:0:0:0:
190,307,246092,1,0,3:0:0:0:
184,295,246178,1,0,1:0:0:0:
258,331,246264,1,4,1:3:0:0:
20,384,246436,1,8,1:2:0:0:
385,329,246609,1,2,1:2:0:0:
430,343,246695,1,0,1:0:0:0:
344,346,246781,2,0,P|353:290|424:230,1,82.5000031471254,4|0,1:3|0:0,0:0:0:0:
476,89,246954,6,0,B|441:80|426:66|426:66|403:78|380:78|380:78|366:118,1,110,2|0,1:2|0:0,0:0:0:0:
311,15,247126,2,0,B|279:33|259:34|259:34|251:58|235:75|235:75|253:113,1,110,8|0,1:2|0:0,0:0:0:0:
102,40,247298,2,0,B|93:75|79:90|79:90|91:113|91:136|91:136|130:150,1,110,2|0,1:2|0:0,0:0:0:0:
282,176,247471,2,0,P|241:240|139:251,1,110,2|0,3:2|0:0,0:0:0:0:
59,231,247643,6,0,P|43:249|72:243,1,55,8|0,1:3|0:0,0:0:0:0:
215,330,247816,2,0,P|213:354|197:329,1,55,8|0,1:2|0:0,0:0:0:0:
29,365,247988,6,0,P|89:342|121:333,1,82.5000031471254,2|0,1:2|0:0,0:0:0:0:
318,358,248161,2,0,P|335:312|341:249,1,82.5000031471254,8|0,1:3|0:0,0:0:0:0:
429,279,248333,6,0,L|410:210,1,41.2500015735627,4|0,1:3|0:0,0:0:0:0:
467,311,248505,2,0,L|441:210,1,82.5000031471254,8|0,1:2|0:0,0:0:0:0:
392,158,248678,1,2,1:2:0:0:
396,122,248764,1,0,1:0:0:0:
418,90,248850,1,0,3:3:0:0:
423,101,248936,1,0,1:0:0:0:
349,58,249023,1,4,1:3:0:0:
506,333,249195,1,8,1:2:0:0:
260,136,249367,1,2,1:2:0:0:
218,117,249454,1,0,1:0:0:0:
300,127,249540,2,0,P|268:214|231:227,1,82.5000031471254,4|0,1:3|0:0,0:0:0:0:
60,114,249712,6,0,B|93:92|99:70|99:70|117:72|130:72|130:72|147:89|165:87,1,110,8|0,1:3|0:0,0:0:0:0:
194,1,249885,2,0,B|230:15|252:7|252:7|261:23|268:34|268:34|264:57|276:71,1,110,8|0,1:2|0:0,0:0:0:0:
349,58,250057,2,0,B|358:96|377:109|377:109|368:125|364:138|364:138|342:148|338:165,1,110,2|0,1:2|0:0,0:0:0:0:
483,136,250230,2,0,P|456:71|411:37,1,110,8|0,1:3|0:0,0:0:0:0:
256,194,250402,6,0,P|265:222|308:264,1,82.5000031471254,8|0,1:3|0:0,0:0:0:0:
477,227,250574,2,0,P|459:286|436:303,1,82.5000031471254,4|0,1:2|0:0,0:0:0:0:
245,223,250747,6,0,P|258:249|308:282,1,82.5000031471254,8|0,1:3|0:0,0:0:0:0:
490,263,250919,2,0,P|457:315|430:325,1,82.5000031471254,4|0,1:3|0:0,0:0:0:0:
233,328,251092,6,0,L|174:335,1,41.2500015735627,2|0,1:3|0:0,0:0:0:0:
284,355,251264,2,0,L|173:368,1,82.5000031471254,8|0,1:2|0:0,0:0:0:0:
103,315,251436,1,2,1:2:0:0:
76,312,251523,1,0,1:0:0:0:
45,326,251609,1,0,3:3:0:0:
53,332,251695,1,0,1:0:0:0:
27,252,251781,1,4,1:3:0:0:
369,366,251954,1,8,1:2:0:0:
73,193,252126,1,2,1:2:0:0:
42,162,252212,1,0,1:0:0:0:
115,196,252298,2,0,P|169:197|208:174,1,82.5000031471254,4|0,1:3|0:0,0:0:0:0:
433,178,252471,6,0,B|407:177|395:173|395:173|391:190|379:205|379:205|384:226|380:246,1,110,8|0,1:3|0:0,0:0:0:0:
346,72,252643,2,0,B|322:82|309:83|309:83|313:100|308:119|308:119|321:136|326:156,1,110,8|0,1:2|0:0,0:0:0:0:
222,17,252816,2,0,B|204:36|193:42|193:42|204:56|207:75|207:75|227:85|240:101,1,110,2|0,1:2|0:0,0:0:0:0:
115,196,252988,2,0,P|127:102|156:66,1,110,8|0,1:3|0:0,0:0:0:0:
253,176,253161,5,4,1:3:0:0:
306,232,253247,1,4,1:3:0:0:
380,240,253333,2,0,P|376:295|369:330,1,55,8|0,1:2|0:0,0:0:0:0:
216,368,253505,6,0,P|206:297|209:264,1,82.5000031471254,8|0,1:3|0:0,0:0:0:0:
366,376,253678,2,0,P|376:305|373:272,1,82.5000031471254,4|0,1:3|0:0,0:0:0:0:
127,313,253850,2,0,L|80:352,1,41.2500015735627,2|0,1:3|0:0,0:0:0:0:
134,266,254023,2,0,L|49:338,1,82.5000031471254,8|0,1:2|0:0,0:0:0:0:
0,242,254195,1,2,1:2:0:0:
26,220,254281,1,0,1:0:0:0:
60,208,254367,1,0,3:0:0:0:
50,228,254454,1,0,1:0:0:0:
19,148,254540,1,4,1:3:0:0:
253,176,254712,1,8,1:2:0:0:
86,66,254885,1,2,1:2:0:0:
49,35,254971,1,0,1:0:0:0:
125,61,255057,6,2,L|178:138,2,82.5000031471254,4|4|8,1:3|0:3|1:2,0:1:0:0:
215,34,255574,1,2,1:3:0:0:
215,34,255661,1,6,1:3:0:0:
215,34,255747,1,2,1:3:0:0:
242,50,255833,1,8,1:3:0:0:
269,53,255919,1,4,1:3:0:0:
301,43,256005,1,2,1:2:0:0:
331,28,256092,2,0,L|334:56,1,20.6250007867813,10|0,1:2|0:0,0:0:0:0:
374,26,256178,2,0,L|371:54,1,20.6250007867813,2|0,0:0|0:0,0:0:0:0:
408,37,256264,2,0,L|398:57,1,20.6250007867813,8|0,1:3|0:0,0:0:0:0:
440,62,256350,2,0,L|419:74,1,20.6250007867813,2|0,0:0|0:0,0:0:0:0:
479,125,256436,6,0,B|482:171|461:209|413:238,1,123.750004720688,12|0,1:0|0:0,0:0:0:0:
510,99,256781,2,2,B|503:253|398:317|266:300,1,330,8|0,1:2|0:0,0:1:0:0:
139,304,257126,2,0,L|66:342,1,55,2|0,1:3|0:0,0:0:0:0:
169,305,257298,2,0,L|72:355,1,68.75,4|0,1:3|0:0,0:0:0:0:
241,184,257471,2,0,L|131:243,1,82.5000031471254,8|0,1:2|0:0,0:0:0:0:
0,260,257643,1,2,1:2:0:0:
0,260,257730,1,0,1:0:0:0:
29,284,257816,6,0,B|39:246|39:246|22:209|22:209|32:160,1,123.750004720688,4|0,1:3|0:0,0:0:0:0:
28,381,258161,2,2,B|55:278|55:278|9:178|9:178|36:45,1,330,8|0,1:2|0:0,0:1:0:0:
165,23,258505,2,0,L|100:49,1,55,2|0,1:3|0:0,0:0:0:0:
198,37,258678,2,0,L|127:65,1,68.75,4|0,1:3|0:0,0:0:0:0:
333,49,258850,2,0,B|277:70|277:70|230:111,1,96.2500009179115,8|0,1:2|0:0,0:0:0:0:
267,268,259023,1,2,1:2:0:0:
267,268,259109,1,0,1:0:0:0:
232,244,259195,6,0,B|242:182|293:153|331:146,1,123.750004720688,4|0,1:3|0:0,0:0:0:0:
201,270,259540,2,2,B|216:162|301:95|479:115,1,330,8|0,1:2|0:0,0:1:0:0:
478,238,259885,2,0,L|418:287,1,55,2|0,1:3|0:0,0:0:0:0:
488,203,260057,2,0,L|428:252,1,68.75,4|0,1:3|0:0,0:0:0:0:
267,268,260230,2,0,L|144:364,1,82.5000031471254,8|0,1:2|0:0,0:0:0:0:
71,339,260402,1,2,1:2:0:0:
71,339,260488,1,0,1:0:0:0:
43,316,260574,6,0,B|51:273|51:273|77:245|77:245|88:191,1,123.750004720688,4|0,1:3|0:0,0:0:0:0:
4,365,260919,2,2,B|21:266|21:266|57:236|57:236|68:170|68:170|112:130|112:130|127:60|127:60|204:6,1,387.749994083405,8|0,1:2|0:0,0:1:0:0:
60,2,261264,2,0,L|41:102,1,82.5000031471254,4|0,1:3|0:0,0:0:0:0:
186,151,261436,2,0,L|195:102,1,41.2500015735627,8|0,1:3|0:0,0:0:0:0:
302,18,261609,1,8,1:2:0:0:
302,18,261695,1,2,1:3:0:0:
371,58,261781,1,8,1:2:0:0:
371,58,261867,1,2,1:3:0:0:
440,108,261954,6,0,P|436:160|459:236,1,123.750004720688,8|0,1:0|0:0,0:0:0:0:
417,76,262298,2,2,P|408:194|521:392,1,330,8|0,1:2|0:0,0:1:0:0:
199,359,262643,2,0,L|129:384,1,55,2|0,1:3|0:0,0:0:0:0:
220,326,262816,2,0,L|150:351,1,68.75,4|0,1:3|0:0,0:0:0:0:
358,361,262988,2,0,L|244:388,1,82.5000031471254,8|0,1:2|0:0,0:0:0:0:
73,325,263161,1,2,1:2:0:0:
73,325,263247,1,0,1:0:0:0:
47,300,263333,6,0,B|58:259|58:259|87:235|87:235|100:168,1,123.750004720688,4|0,1:3|0:0,0:0:0:0:
13,384,263678,2,2,B|30:282|30:282|110:217|110:217|140:31,1,330,8|0,1:2|0:0,0:1:0:0:
225,29,264023,2,0,L|302:12,1,55,2|0,1:3|0:0,0:0:0:0:
206,62,264195,2,0,L|291:42,1,68.75,4|0,1:3|0:0,0:0:0:0:
71,29,264367,2,0,L|186:-2,1,82.5000031471254,8|0,1:2|0:0,0:0:0:0:
373,44,264540,1,2,1:2:0:0:
373,44,264626,1,0,1:0:0:0:
350,53,264712,6,0,P|337:107|377:199,1,123.750004720688,4|0,1:3|0:0,0:0:0:0:
346,16,265057,2,2,B|282:150|358:258|470:309,1,330,8|0,1:2|0:0,0:1:0:0:
512,208,265402,2,0,L|435:220,1,55,2|0,1:3|0:0,0:0:0:0:
342,314,265574,1,4,1:3:0:0:
305,321,265661,1,4,1:3:0:0:
231,368,265747,2,0,L|127:305,1,82.5000031471254,8|0,1:2|0:0,0:0:0:0:
73,284,265919,1,2,1:2:0:0:
73,284,266005,1,0,1:0:0:0:
31,299,266092,1,8,1:0:0:0:
31,299,267126,5,4,3:2:0:0:
35,295,267212,1,4,3:2:0:0:
39,291,267298,1,4,1:2:0:0:
43,287,267385,1,4,1:2:0:0:
76,304,267471,6,0,B|109:331|145:333|145:333|150:289|177:260,1,137.5,4|2,1:3|0:0,0:0:0:0:
299,115,267816,2,0,B|250:127|203:87|203:87|206:113|202:120,1,137.5,8|2,0:0|1:2,0:0:0:0:
217,204,268074,1,0,1:0:0:0:
221,208,268161,1,2,0:0:0:0:
248,363,268333,2,0,L|255:291,1,68.75,4|0,1:3|0:0,0:0:0:0:
361,193,268505,2,0,B|331:223|333:274|333:274|325:242|307:223,1,137.5,8|2,0:0|0:2,0:0:0:0:
144,86,268850,6,0,B|168:113|202:130|234:118|264:100|264:100|258:129|274:151|274:151|279:130|297:118,1,206.25,4|0,1:3|0:0,0:0:0:0:
406,178,269195,2,0,B|381:153|349:163|349:163|342:218|307:225|314:214,1,137.5,8|2,0:0|1:2,0:0:0:0:
180,243,269454,1,0,1:0:0:0:
176,239,269540,2,0,P|207:226|229:200,1,68.75,2|0,0:0|0:0,0:0:0:0:
115,302,269712,2,0,P|141:323|175:328,1,68.75,4|0,1:3|0:0,0:0:0:0:
123,86,269885,2,0,B|118:110|118:110|124:162|124:162|88:228,1,137.5,8|2,0:0|1:2,0:0:0:0:
26,347,270143,1,0,1:0:0:0:
30,351,270230,6,0,P|62:323|117:316,1,68.75,4|0,1:3|0:0,0:0:0:0:
193,316,270402,1,2,0:0:0:0:
91,184,270574,2,0,P|131:197|164:241,1,68.75,8|0,0:0|0:0,0:0:0:0:
201,308,270746,1,2,0:0:0:0:
364,252,270919,2,0,B|339:251|306:264|306:264|320:246,1,68.75,2|2,1:2|0:0,0:0:0:0:
372,260,271092,2,0,B|347:259|314:272|314:272|328:254,1,68.75,4|2,1:3|0:0,0:0:0:0:
380,268,271264,2,0,B|355:267|322:280|322:280|336:262,1,68.75,8|0,0:0|0:0,0:0:0:0:
388,276,271436,1,2,0:0:0:0:
442,158,271609,6,0,B|470:187|435:214|435:214|467:241|468:272|468:272|473:303|501:298|501:298|487:265,1,206.25,4|0,1:3|0:0,0:0:0:0:
292,304,271954,2,0,B|341:316|388:276|388:276|385:302|389:309,1,137.5,8|2,0:0|1:2,0:0:0:0:
312,218,272212,1,0,1:0:0:0:
308,214,272298,2,0,B|260:221|260:221|227:246,1,68.75,8|0,0:0|0:0,0:0:0:0:
181,332,272471,1,4,1:3:0:0:
177,336,272557,1,2,1:3:0:0:
173,340,272643,2,0,P|175:305|168:272,1,68.75,8|0,0:0|0:0,0:0:0:0:
98,141,272816,1,8,0:0:0:0:
447,71,272988,6,0,B|477:62|467:24|411:11|349:59|340:145,1,206.25,4|0,1:3|0:0,0:0:0:0:
400,202,273333,2,0,P|349:161|285:178,1,137.5,8|2,0:0|1:2,0:0:0:0:
227,343,273678,2,0,B|249:298|249:298|246:279,1,68.75,2|0,0:0|0:0,0:0:0:0:
201,198,273850,1,4,1:3:0:0:
377,228,274023,2,0,B|347:198|296:201|296:201|328:192|347:174,1,137.5,8|2,0:0|1:2,0:0:0:0:
458,129,274281,1,0,1:0:0:0:
462,133,274367,6,0,B|442:177|442:177|469:215|455:264,1,137.5,4|2,1:3|0:0,0:0:0:0:
326,336,274712,2,0,B|343:320|343:320|388:322,1,68.75,8|0,0:0|0:0,0:0:0:0:
265,263,274885,1,2,1:2:0:0:
261,267,274971,1,0,1:0:0:0:
257,271,275057,2,0,B|236:259|236:259|193:274,1,68.75,2|0,0:0|0:0,0:0:0:0:
97,350,275230,1,4,1:3:0:0:
48,146,275402,2,0,B|64:176|49:207|49:207|68:247|100:255,1,137.5,8|2,0:0|1:2,0:0:0:0:
105,46,275747,6,0,B|136:59|113:82|144:111|144:111|202:68|241:93|241:93|185:106,1,206.25,4|0,1:3|0:0,0:0:0:0:
305,159,276092,2,0,B|354:100|309:36|309:36|367:41|394:11,1,206.25,8|0,0:0|0:0,0:0:0:0:
482,106,276436,2,0,P|448:97|415:105,1,68.75,2|0,0:0|0:0,0:0:0:0:
310,196,276609,1,4,1:3:0:0:
314,200,276695,1,0,1:0:0:0:
318,204,276781,2,0,P|351:195|384:203,1,68.75,8|0,0:0|0:0,0:0:0:0:
465,292,276954,1,2,1:2:0:0:
461,296,277040,1,0,1:0:0:0:
457,300,277126,6,0,P|423:291|390:299,1,68.75,8|0,0:0|0:0,0:0:0:0:
313,339,277298,1,4,1:3:0:0:
309,343,277385,1,8,0:0:0:0:
260,258,277557,1,4,1:3:0:0:
252,266,277644,1,8,0:0:0:0:
211,173,277816,1,4,1:3:0:0:
191,192,277903,1,8,0:0:0:0:
157,87,278074,5,4,1:3:0:0:
144,96,278161,1,8,0:0:0:0:
116,111,278247,1,2,1:3:0:0:
73,123,278333,1,8,0:0:0:0:
31,97,278419,1,2,1:3:0:0:
86,45,278505,6,0,B|52:77|64:119|64:119|135:132|144:178|144:178|129:168,1,206.25,12|0,1:0|0:0,0:0:0:0:
115,267,278850,2,0,P|159:203|192:299,1,206.25,8|0,0:0|0:0,0:0:0:0:
19,334,279195,2,0,B|10:286|10:286|17:242,1,68.75,2|0,1:3|0:0,0:0:0:0:
37,357,279367,1,4,1:3:0:0:
9,98,279540,2,0,B|43:100|61:130|61:130|105:136|129:113,1,137.5,8|2,0:0|1:2,0:0:0:0:
204,13,279798,1,0,1:0:0:0:
208,9,279885,6,0,B|218:53|218:53|209:74,1,68.75,4|0,1:3|0:0,0:0:0:0:
154,209,280057,1,2,0:0:0:0:
373,178,280230,2,0,B|344:194|305:209|258:188|241:156|241:156|262:178|299:176,1,206.25,8|0,0:0|0:0,0:0:0:0:
463,173,280574,2,0,B|471:199|464:227|464:227|470:244,1,68.75,2|0,0:0|1:0,0:0:0:0:
451,143,280747,1,4,1:3:0:0:
278,186,280919,2,0,B|270:212|277:240|277:240|271:257,1,68.75,8|0,0:0|0:0,0:0:0:0:
260,345,281092,1,2,0:0:0:0:
357,88,281264,6,0,B|406:147|361:211|361:211|419:206|446:236,1,206.25,4|0,1:3|0:0,0:0:0:0:
498,289,281609,2,0,B|472:262|440:255|440:255|416:283|372:290,1,137.5,8|2,0:0|1:2,0:0:0:0:
273,299,281867,1,0,1:0:0:0:
269,295,281954,2,0,B|259:251|259:251|268:230,1,68.75,2|0,0:0|0:0,0:0:0:0:
329,361,282126,1,4,1:3:0:0:
401,116,282298,2,0,P|338:94|283:130,1,137.5,8|2,0:0|1:2,0:0:0:0:
48,264,282557,1,0,1:0:0:0:
41,269,282643,6,0,B|7:269|11:305|47:314|75:289|75:289|103:273|137:293|137:293|162:263|188:270,1,206.25,4|0,1:3|0:0,0:0:0:0:
281,207,282988,2,0,P|265:232|271:298,1,68.75,8|0,0:0|0:0,0:0:0:0:
357,159,283161,1,4,1:3:0:0:
361,155,283247,1,0,1:0:0:0:
365,151,283333,2,0,P|381:176|375:242,1,68.75,8|0,0:0|0:0,0:0:0:0:
244,77,283505,1,4,1:3:0:0:
240,73,283591,1,2,1:3:0:0:
236,69,283677,2,0,P|220:94|226:160,1,68.75,8|0,0:0|0:0,0:0:0:0:
409,16,283850,2,0,P|425:41|419:107,1,68.75,8|0,0:0|0:0,0:0:0:0:
272,233,284023,6,0,P|265:316|333:259,1,206.25,4|0,1:3|0:0,0:0:0:0:
410,191,284367,2,0,B|362:181|362:181|331:202,1,68.75,8|0,0:0|0:0,0:0:0:0:
418,199,284540,2,0,B|370:189|370:189|339:210,1,68.75,2|0,1:2|1:0,0:0:0:0:
488,327,284712,2,0,B|456:310|408:310|424:347|375:356|349:335,1,137.5,2|4,0:0|1:3,0:0:0:0:
176,270,285057,2,0,B|224:260|224:260|255:281,1,68.75,8|0,0:0|0:0,0:0:0:0:
168,278,285230,2,0,B|216:268|216:268|247:289,1,68.75,2|0,1:2|1:0,0:0:0:0:
76,292,285402,6,0,B|65:259|98:218|98:218|27:205|18:159|18:159|66:191,1,206.25,4|0,1:3|0:0,0:0:0:0:
74,41,285747,2,0,B|48:49|20:42|20:42|3:48,1,68.75,8|0,0:0|0:0,0:0:0:0:
98,126,285919,2,0,B|124:118|152:125|152:125|169:119,1,68.75,2|0,1:2|1:0,0:0:0:0:
251,57,286092,2,0,B|257:93|257:93|266:110|264:132|264:132|253:150|246:174|246:174|252:188,1,137.5,2|4,0:0|1:3,0:0:0:0:
404,83,286436,2,0,B|430:75|458:82|458:82|475:76,1,68.75,8|0,0:0|0:0,0:0:0:0:
424,170,286609,2,0,B|398:178|370:171|370:171|353:177,1,68.75,2|0,1:2|1:0,0:0:0:0:
176,180,286781,6,0,B|206:163|252:188|252:188|253:116|296:99|296:99|273:152,1,206.25,4|0,1:3|0:0,0:0:0:0:
353,241,287126,2,0,P|356:207|343:175,1,68.75,8|0,0:0|0:0,0:0:0:0:
387,327,287298,1,4,1:3:0:0:
383,331,287385,1,0,1:0:0:0:
379,335,287471,2,0,P|410:321|431:294,1,68.75,2|0,1:2|0:0,0:0:0:0:
268,282,287643,1,4,1:3:0:0:
264,286,287730,1,2,1:3:0:0:
260,290,287816,2,0,P|254:323|264:356,1,68.75,8|0,0:0|0:0,0:0:0:0:
406,101,287988,1,2,1:2:0:0:
402,97,288074,1,0,1:0:0:0:
363,34,288161,6,0,L|295:28,3,65.9999979858399,4|0|0|0,1:3|0:0|0:0|0:0,0:0:0:0:
280,256,289540,6,0,L|280:344,1,88,8|0,0:1|0:0,0:0:0:0:
360,256,292298,2,0,L|360:344,1,88,2|0,0:0|0:0,0:0:0:0:
280,256,295057,2,0,L|280:344,1,88,2|0,0:0|0:0,0:0:0:0:
440,256,297816,2,0,L|440:344,1,88,2|0,0:0|0:0,0:0:0:0:
280,256,300574,6,0,L|280:344,1,88,2|0,0:0|0:0,0:0:0:0:
360,256,303333,2,0,L|360:344,1,88,2|0,0:0|0:0,0:0:0:0:
200,256,306092,2,0,L|200:344,1,88,2|0,0:0|0:0,0:0:0:0:
0,256,308850,5,2,0:0:0:0:
256,192,308936,12,0,315747,0:0:0:0:
