osu file format v14

[General]
AudioFilename: audio.mp3
AudioLeadIn: 0
PreviewTime: 1732
Countdown: 0
SampleSet: None
StackLeniency: 0.2
Mode: 0
LetterboxInBreaks: 0
WidescreenStoryboard: 1

[Editor]
Bookmarks: 13732,25732,37732,49732,64732,78232,90232,102232,118357,129232,134107
DistanceSpacing: 1.1
BeatDivisor: 4
GridSize: 32
TimelineZoom: 8

[Metadata]
Title:Metamorphose
TitleUnicode:Metamorphose
Artist:Laur
ArtistUnicode:Laur
Creator:KogumaX
Version:misho's Extra
Source:WACCA
Tags:electronic instrumental ethnic psytrance rawstyle orchestral HARDCORE TANO*C rhythm game too misho15_701_4_0 Lavila rrtyui
BeatmapID:3755372
BeatmapSetID:1823749

[Difficulty]
HPDrainRate:5
CircleSize:3.7
OverallDifficulty:8
ApproachRate:9.3
SliderMultiplier:2.2
SliderTickRate:1

[Events]
//Background and Video events
0,0,"metam.png",0,0
//Break Periods
2,1932,3869
2,7932,9869
2,78432,81119
//Storyboard Layer 0 (Background)
//Storyboard Layer 1 (Fail)
//Storyboard Layer 2 (Pass)
//Storyboard Layer 3 (Foreground)
//Storyboard Layer 4 (Overlay)
//Storyboard Sound Samples

[TimingPoints]
232,375,4,2,1,80,1,0
1075,-58.8235294117647,4,2,1,80,0,0
1732,-333.333333333333,4,2,1,80,0,0
13919,-100,4,2,1,80,0,0
14294,-133.333333333333,4,2,1,80,0,0
14482,-200,4,2,1,80,0,0
14669,-400,4,2,1,80,0,0
14857,-100,4,2,1,80,0,0
15044,-76.9230769230769,4,2,1,80,0,0
15419,-133.333333333333,4,2,1,80,0,0
15982,-83.3333333333333,4,2,1,80,0,0
18607,-100,4,2,1,80,0,0
20294,-133.333333333333,4,2,1,80,0,0
20482,-200,4,2,1,80,0,0
20669,-400,4,2,1,80,0,0
20857,-75.187969924812,4,2,1,80,0,0
22544,-181.818181818181,4,2,1,80,0,0
22732,-83.3333333333333,4,2,1,80,0,0
26107,-100,4,2,1,80,0,0
28732,-76.9230769230769,4,2,1,80,0,0
30607,-133.333333333333,4,2,1,80,0,0
30982,-76.9230769230769,4,2,1,80,0,0
32107,-100,4,2,1,80,0,0
33982,-133.333333333333,4,2,1,80,0,0
34732,-66.6666666666667,4,2,1,80,0,0
35482,-54.054054054054,4,2,1,80,0,0
37732,-100,4,2,1,80,0,0
40732,-83.3333333333333,4,2,1,80,0,0
43005,-83.3333333333333,4,2,0,5,0,0
43357,-83.3333333333333,4,2,1,80,0,0
43544,-83.3333333333333,4,2,0,5,0,0
43732,-83.3333333333333,4,2,1,80,0,0
45607,-86.9565217391304,4,2,1,80,0,0
46732,-133.333333333333,4,2,1,80,0,0
47482,-100,4,2,1,80,0,0
49732,-55.5555555555556,4,2,1,80,0,0
50482,-333.333333333333,4,2,1,100,0,1
50607,-250,4,2,1,100,0,1
50732,-200,4,2,1,100,0,1
50857,-166.666666666667,4,2,1,100,0,1
50982,-142.857142857143,4,2,1,100,0,1
51107,-125,4,2,1,100,0,1
51232,-111.111111111111,4,2,1,100,0,1
51357,-100,4,2,1,100,0,1
51482,-90.9090909090909,4,2,1,100,0,1
51607,-83.3333333333333,4,2,1,100,0,1
51732,-76.9230769230769,4,2,1,100,0,1
51857,-71.4285714285714,4,2,1,100,0,1
51982,-66.6666666666667,4,2,1,100,0,1
52107,-62.5,4,2,1,100,0,1
52232,-58.8235294117647,4,2,1,100,0,1
52357,-55.5555555555556,4,2,1,100,0,1
52482,-52.6315789473684,4,2,1,100,0,1
52607,-50,4,2,1,100,0,1
53857,-50,4,2,1,80,0,0
54232,-55.5555555555556,4,2,0,40,0,1
54325,-55.5555555555556,4,2,1,5,0,1
54513,-50,4,2,1,5,0,0
54607,-153.846153846153,4,2,1,80,0,0
55357,-200,4,2,1,80,0,0
56482,-83.3333333333333,4,2,1,80,0,0
56763,-83.3333333333333,4,2,1,80,0,0
56857,-200,4,2,1,80,0,0
57982,-66.6666666666667,4,2,1,80,0,0
58357,-100,4,2,1,80,0,0
60794,-66.6666666666667,4,2,1,80,0,0
61357,-100,4,2,1,80,0,0
63232,-66.6666666666667,4,2,1,80,0,0
63607,-100,4,2,1,80,0,0
66232,-55.5555555555556,4,2,0,60,0,1
66325,-50,4,2,1,5,0,1
66513,-50,4,2,1,5,0,0
66607,-66.6666666666667,4,2,1,80,0,0
66982,-181.818181818181,4,2,1,80,0,0
67357,-66.6666666666667,4,2,1,80,0,0
68857,-57.1428571428571,4,2,1,80,0,0
69232,-64.5161290322581,4,2,1,80,0,0
69982,-57.1428571428571,4,2,1,80,0,0
70825,-100,4,2,1,80,0,0
74669,-181.818181818182,4,2,1,80,0,0
75044,-333.333333333333,4,2,1,80,0,0
75982,-100,4,2,1,80,0,0
76169,-66.6666666666667,4,2,1,80,0,0
76357,-50,4,2,1,80,0,0
82919,-50,4,2,1,5,0,0
84232,-100,4,2,1,80,0,0
87982,-83.3333333333333,4,2,1,80,0,0
90232,-83.3333333333333,4,2,2,95,0,0
90794,-250,4,2,2,95,0,0
90982,-66.6666666666667,4,2,2,95,0,0
91169,-66.6666666666667,4,2,2,5,0,0
91263,-133.333333333333,4,2,2,95,0,0
94263,-133.333333333333,4,2,2,5,0,0
94357,-133.333333333333,4,2,1,95,0,0
95200,-133.333333333333,4,2,1,5,0,0
95294,-133.333333333333,4,2,1,95,0,0
96138,-133.333333333333,4,2,1,5,0,0
96232,-133.333333333333,4,2,2,95,0,0
96982,-66.6666666666667,4,2,2,95,0,0
97169,-66.6666666666667,4,2,2,5,0,0
97263,-200,4,2,2,95,0,0
98669,-100,4,2,2,95,0,0
100263,-100,4,2,2,5,0,0
100357,-100,4,2,2,95,0,0
100638,-100,4,2,2,5,0,0
100732,-285.714285714286,4,2,1,95,0,0
101857,-100,4,2,1,80,0,0
105232,-83.3333333333333,4,2,1,80,0,0
106732,-100,4,2,1,80,0,0
108232,-125,4,2,1,80,0,0
111982,-125,4,2,1,80,0,0
114232,-83.3333333333333,4,2,1,80,0,0
114982,-60.2409638554217,4,2,1,80,0,0
116107,-25,4,2,1,80,0,0
117232,-66.6666666666667,4,2,1,80,0,0
117607,-111.111111111111,4,2,1,80,0,0
118357,-200,4,2,1,100,0,1
118450,-166.666666666667,4,2,1,100,0,1
118544,-142.857142857143,4,2,1,100,0,1
118638,-125,4,2,1,100,0,1
118732,-111.111111111111,4,2,1,100,0,1
118825,-100,4,2,1,100,0,1
118919,-90.9090909090909,4,2,1,100,0,1
119013,-83.3333333333333,4,2,1,100,0,1
119107,-76.9230769230769,4,2,1,100,0,1
119200,-71.4285714285714,4,2,1,100,0,1
119294,-66.6666666666667,4,2,1,100,0,1
119388,-62.5,4,2,1,100,0,1
119482,-58.8235294117647,4,2,1,100,0,1
119575,-55.5555555555556,4,2,1,100,0,1
119669,-52.6315789473684,4,2,1,100,0,1
119763,-50,4,2,1,100,0,1
119857,-47.6190476190476,4,2,1,100,0,1
119950,-45.4545454545455,4,2,1,100,0,1
120044,-43.4782608695652,4,2,1,100,0,1
120138,-40,4,2,1,100,0,1
120232,-38.4615384615385,4,2,1,100,0,1
120325,-37.037037037037,4,2,1,100,0,1
120419,-35.7142857142857,4,2,1,100,0,1
120513,-34.4827586206897,4,2,1,100,0,1
120607,-33.3333333333333,4,2,1,100,0,1
120700,-32.258064516129,4,2,1,100,0,1
120794,-31.25,4,2,1,100,0,1
120888,-30.3030303030303,4,2,1,100,0,1
120982,-29.4117647058824,4,2,1,100,0,0
121357,-29.4117647058824,4,2,1,100,0,1
121450,-30.3030303030304,4,2,1,100,0,1
121544,-31.2500000000001,4,2,1,100,0,1
121638,-32.2580645161291,4,2,1,100,0,1
121732,-33.3333333333334,4,2,1,100,0,1
121825,-34.4827586206898,4,2,1,100,0,1
121919,-35.7142857142858,4,2,1,100,0,1
122013,-37.0370370370372,4,2,1,100,0,1
122107,-38.4615384615386,4,2,1,100,0,1
122200,-40.0000000000002,4,2,1,100,0,1
122294,-41.6666666666668,4,2,1,100,0,1
122388,-43.4782608695654,4,2,1,100,0,1
122482,-43.4782608695654,4,2,1,80,0,1
123232,-58.8235294117647,4,2,1,80,0,0
124357,-33.3333333333333,4,2,1,100,0,1
125107,-37.037037037037,4,2,1,100,0,1
125482,-142.857142857143,4,2,1,100,0,1
125575,-111.111111111111,4,2,1,100,0,1
125669,-90.909090909091,4,2,1,100,0,1
125763,-76.9230769230769,4,2,1,100,0,1
125857,-66.6666666666667,4,2,1,100,0,1
125950,-58.8235294117647,4,2,1,100,0,1
126044,-52.6315789473684,4,2,1,100,0,1
126138,-47.6190476190476,4,2,1,100,0,1
126232,-50,4,2,1,100,0,1
126325,-55.5555555555556,4,2,1,100,0,1
126419,-62.5,4,2,1,100,0,1
126513,-71.4285714285714,4,2,1,100,0,1
126607,-83.3333333333333,4,2,1,100,0,1
126700,-100,4,2,1,100,0,1
126794,-125,4,2,1,100,0,1
126888,-166.666666666667,4,2,1,100,0,1
126982,-57.1428571428571,4,2,1,100,0,1
127005,-57.1428571428571,4,2,0,5,0,1
127122,-57.1428571428571,4,2,1,100,0,1
127357,-100,4,2,1,100,0,1
127732,-66.6666666666667,4,2,1,80,0,0
128857,-133.333333333333,4,2,1,80,0,0
129232,-66.6666666666667,4,2,1,80,0,0
130357,-112.359550561798,4,2,1,80,0,0
131107,-133.333333333333,4,2,1,80,0,0
132232,-66.6666666666667,4,2,1,80,0,0
133357,-100,4,2,1,80,0,0
135232,-62.5,4,2,1,80,0,0
136357,-41.6666666666667,4,2,1,80,0,0
136450,-83.3333333333333,4,2,1,80,0,0
136732,-66.6666666666667,4,2,1,80,0,0
137294,-100,4,2,1,80,0,0
137669,-250,4,2,1,80,0,0
138232,-133.333333333333,4,2,1,80,0,0
138607,-117.647058823529,4,2,1,80,0,0
139169,-100,4,2,1,80,0,0
139357,-200,4,2,1,80,0,0
139919,-333.333333333333,4,2,1,80,0,0
140482,-100,4,2,1,80,0,0
140950,-100,4,2,1,5,0,0
141232,-100,4,2,1,80,0,0

[Colours]
Combo1 : 86,224,255
Combo2 : 79,255,162
Combo3 : 238,255,253
Combo4 : 255,144,0
Combo5 : 255,249,15
Combo6 : 255,19,8
Combo7 : 0,88,44
Combo8 : 8,5,129

[HitObjects]
414,264,232,37,2,0:3:0:0:
353,313,325,2,0,B|350:325|350:325|395:337,1,55
448,384,513,21,8,0:2:0:0:
509,335,606,2,0,B|512:323|512:323|467:311,1,55,0|0,1:0|0:0,0:0:0:0:
299,247,794,1,0,3:0:0:0:
276,219,888,1,0,3:0:0:0:
303,195,982,1,0,3:0:0:0:
325,223,1075,2,0,B|264:287|254:188|137:235|167:331|242:317|215:240,1,187.000003566742,8|0,0:2|0:0,0:0:0:0:
257,356,1357,70,0,B|243:310|243:310|255:277|255:277|264:162|156:110,1,280.500005350113,8|0,0:1|0:0,0:0:0:0:
12,161,1732,1,4,3:2:0:0:
137,175,5669,85,0,0:0:0:0:
49,144,5857,1,0,0:0:0:0:
49,50,6044,1,0,0:0:0:0:
139,22,6232,1,0,0:0:0:0:
194,98,6419,1,0,0:0:0:0:
137,175,6794,5,0,0:0:0:0:
49,144,7169,5,0,0:0:0:0:
49,50,7357,1,0,0:0:0:0:
139,22,7732,85,0,0:0:0:0:
396,63,11669,5,0,0:0:0:0:
477,91,11857,1,0,0:0:0:0:
477,178,12044,1,0,0:0:0:0:
394,203,12232,1,0,0:0:0:0:
343,133,12419,1,0,0:0:0:0:
396,63,12794,5,0,0:0:0:0:
477,91,12982,2,0,L|491:84,3,16.49999949646,8|0|8|0,0:3|0:0|0:3|0:0,0:0:0:0:
420,145,13357,85,2,0:3:0:0:
414,176,13450,1,0,0:0:0:0:
456,244,13544,5,0,0:0:0:0:
449,275,13637,1,0,0:0:0:0:
388,328,13732,6,0,L|384:346,1,16.49999949646,0|0,3:0|0:0,0:0:0:0:
459,372,13919,2,0,L|512:384,2,55
330,269,14294,86,0,L|277:281,1,41.2500015735627
231,329,14482,2,0,L|183:339,1,27.5,0|0,1:0|0:0,0:0:0:0:
165,323,14669,2,0,L|141:328,1,13.75
75,327,14857,6,0,P|65:347|87:367,1,55,4|0,3:1|0:0,0:0:0:0:
180,371,15044,6,0,P|181:274|81:249,1,214.49999018097,2|0,0:0|0:0,0:0:0:0:
11,286,15419,2,0,L|22:353,2,41.2500015735627,0|0|0,0:0|0:0|3:0,0:0:0:0:
82,248,15794,85,0,0:0:0:0:
41,126,15982,2,0,P|38:94|75:63,1,65.9999979858399,0|0,1:0|0:0,0:0:0:0:
166,0,16169,5,0,0:0:0:0:
166,0,16357,2,0,L|179:69,1,65.9999979858399
134,185,16545,2,0,L|121:116,1,65.9999979858399
254,23,16732,2,0,B|319:44|319:44|325:41|325:41|384:61|384:61|427:74|416:109,1,197.99999395752,2|0,3:2|0:0,0:0:0:0:
375,167,17107,2,0,P|354:153|356:138,2,32.99999899292
459,16,17294,2,0,P|483:37|493:68,1,65.9999979858399,2|0,0:0|0:0,0:0:0:0:
506,149,17482,5,0,1:0:0:0:
451,205,17669,1,2,0:2:0:0:
484,277,17857,1,2,3:2:0:0:
429,333,18044,1,2,3:2:0:0:
512,384,18232,85,0,0:0:0:0:
512,384,18325,1,0,3:0:0:0:
512,384,18419,1,2,3:2:0:0:
285,267,18607,2,0,L|271:320,1,55,0|0,3:0|0:0,0:0:0:0:
346,338,18794,2,0,L|359:284,1,55,2|0,3:2|0:0,0:0:0:0:
341,209,18982,5,0,1:0:0:0:
118,367,19169,2,0,L|113:339,2,27.5,8|0|8,0:3|0:0|0:3,0:0:0:0:
196,354,19357,2,0,L|191:326,2,27.5,4|0|4,0:3|0:0|0:3,0:0:0:0:
45,291,19544,5,4,0:3:0:0:
7,243,19638,1,4,0:3:0:0:
38,190,19732,2,0,B|128:147|145:255|249:201,1,220,2|0,3:2|0:0,0:0:0:0:
512,22,20294,86,0,L|459:34,1,41.2500015735627
413,82,20482,2,0,L|365:92,1,27.5,0|0,1:0|0:0,0:0:0:0:
347,76,20669,2,0,L|323:81,1,13.75
258,99,20857,6,0,B|242:94|242:94|261:23,1,73.149996986313,4|0,3:1|0:0,0:0:0:0:
316,153,21044,2,0,B|338:246|338:246|281:262,2,146.299993972626,2|0|0,0:2|0:0|0:0,0:0:0:0:
334,78,21607,1,0,3:0:0:0:
191,0,21794,5,0,0:0:0:0:
161,21,21888,1,0,0:0:0:0:
177,53,21982,1,0,1:0:0:0:
245,116,22169,85,0,0:0:0:0:
300,232,22357,1,0,0:0:0:0:
246,382,22544,2,0,L|250:352,1,30.2500009231568
233,326,22732,6,0,B|231:294|288:230|348:289|343:347|325:380,1,197.99999395752,2|0,3:2|0:0,0:0:0:0:
171,372,23107,2,0,L|139:362,2,32.99999899292
329,372,23294,5,2,0:2:0:0:
417,304,23482,1,0,1:0:0:0:
489,333,23669,1,2,0:2:0:0:
439,260,23857,86,0,L|364:274,1,65.9999979858399,2|0,3:2|0:0,0:0:0:0:
349,255,24044,2,0,L|284:267,1,65.9999979858399,2|0,3:2|0:0,0:0:0:0:
149,320,24232,1,0,0:0:0:0:
149,320,24325,2,0,L|116:325,2,32.99999899292,0|0|2,3:0|3:0|3:2,0:0:0:0:
48,279,24607,5,0,3:0:0:0:
233,342,24794,1,2,3:2:0:0:
185,166,24982,2,0,P|175:140|121:124,1,65.9999979858399,0|0,1:0|0:0,0:0:0:0:
81,67,25169,1,8,0:3:0:0:
47,71,25263,1,8,0:3:0:0:
25,95,25357,1,4,0:3:0:0:
46,173,25450,5,4,0:3:0:0:
62,171,25544,1,4,0:3:0:0:
73,160,25638,1,4,0:3:0:0:
143,121,25732,38,2,B|165:127|165:127|223:69|303:90|303:90|314:65,1,197.99999395752,4|0,3:1|0:0,0:1:0:0:
369,15,26107,1,8,0:3:0:0:
468,117,26294,69,4,0:3:0:0:
463,140,26388,1,8,0:3:0:0:
385,120,26482,5,4,0:3:0:0:
390,97,26576,1,8,0:3:0:0:
512,228,26763,2,0,L|447:241,3,55,4|8|4|8,0:3|0:3|0:3|0:3,0:0:0:0:
268,376,27232,21,8,0:3:0:0:
275,340,27325,1,4,0:3:0:0:
283,304,27419,1,8,0:3:0:0:
290,268,27513,1,4,0:3:0:0:
325,274,27607,69,8,0:3:0:0:
361,282,27700,1,4,0:3:0:0:
397,289,27794,1,8,0:3:0:0:
190,319,27982,5,8,0:3:0:0:
154,326,28076,1,4,0:3:0:0:
118,334,28169,1,8,0:3:0:0:
83,340,28263,1,4,0:3:0:0:
0,350,28357,22,0,L|18:284,1,55,8|0,0:3|0:0,0:0:0:0:
84,254,28544,70,0,L|102:188,1,55,4|8,0:3|0:3,0:0:0:0:
193,102,28732,6,2,B|146:22|239:62|194:-71|82:15|177:32|90:65,1,214.49999018097,4|0,3:1|0:0,0:1:0:0:
0,130,29107,2,0,L|227:79,1,214.49999018097,4|0,0:2|0:0,0:0:0:0:
93,64,29482,22,0,B|81:99|36:84|72:-30|117:-15|95:65,1,142.99999345398,2|0,0:1|0:0,0:0:0:0:
144,127,29732,1,2,0:1:0:0:
92,195,29857,1,2,0:1:0:0:
74,174,29982,69,2,0:1:0:0:
166,237,30107,1,2,0:1:0:0:
94,276,30232,2,0,B|108:329|220:292|139:254|249:219|272:278,1,214.49999018097,4|0,0:2|0:0,0:0:0:0:
225,342,30607,2,0,B|186:379|248:393|226:342,1,82.5000031471254,4|0,0:1|0:0,0:0:0:0:
350,378,30982,6,0,B|415:280|399:168|399:168|437:236|437:236|499:270|499:270|427:268|373:299,1,500.499977088929,4|0,3:2|0:0,0:0:0:0:
361,283,31732,2,2,B|293:217|401:194|362:283,1,142.99999345398,4|0,3:1|0:0,0:1:0:0:
480,151,32107,21,8,0:3:0:0:
470,114,32200,1,4,0:3:0:0:
442,88,32294,1,8,0:3:0:0:
405,81,32388,1,4,0:3:0:0:
332,114,32482,70,0,L|296:106,3,36.6666666666667,8|4|8|4,0:3|0:3|0:3|0:3,0:0:0:0:
477,12,32857,2,0,L|513:3,3,36.6666666666667,8|4|8|4,0:3|0:3|0:3|0:3,0:0:0:0:
277,32,33232,5,8,0:3:0:0:
223,89,33325,2,0,L|197:183,1,55,4|0,0:3|0:0,0:0:0:0:
216,222,33513,1,4,0:3:0:0:
202,262,33606,1,8,0:3:0:0:
166,286,33700,1,0,0:0:0:0:
123,282,33794,1,8,0:3:0:0:
92,253,33888,1,4,0:3:0:0:
49,186,33982,22,0,L|67:120,2,55.0000020980836,8|4|4,0:3|0:3|0:3,0:0:0:0:
18,300,34357,2,0,L|3:353,2,55.0000020980836,8|4|4,0:3|0:3|0:3,0:0:0:0:
92,253,34732,70,2,P|202:214|335:172,1,247.500009441376,4|0,3:1|0:0,0:1:0:0:
377,108,35107,2,0,B|425:86|478:200|356:345|379:147|471:133,1,247.500009441376,4|0,0:2|0:0,0:0:0:0:
500,219,35482,6,0,B|437:155|455:27|455:27|414:147|320:176,2,406.999998447418,2|0|0,0:0|0:0|1:2,0:0:0:0:
256,192,36325,12,8,37544,0:1:0:0:
9,13,37732,102,0,P|35:15|57:36,1,55,12|0,3:1|0:0,0:0:0:0:
69,109,37919,1,8,0:1:0:0:
145,86,38107,6,0,P|166:101|175:130,1,55,10|0,3:1|0:0,0:0:0:0:
148,199,38294,1,8,0:1:0:0:
220,239,38482,102,0,P|230:262|224:293,1,55,8|0,3:1|0:0,0:0:0:0:
166,338,38669,1,10,0:1:0:0:
256,384,38857,5,8,3:1:0:0:
256,384,39044,1,8,0:1:0:0:
346,338,39232,101,10,3:1:0:0:
286,290,39326,2,0,P|281:263|292:239,1,55,0|8,0:0|0:1,0:0:0:0:
364,199,39607,5,8,3:1:0:0:
336,127,39701,2,0,P|345:102|367:86,1,55,0|10,0:0|0:1,0:0:0:0:
443,109,39982,101,8,3:1:0:0:
455,33,40076,2,0,P|476:16|503:13,1,55,0|8,0:0|0:1,0:0:0:0:
478,248,40357,5,10,3:1:0:0:
463,244,40450,1,8,0:1:0:0:
449,241,40544,1,8,0:1:0:0:
435,237,40638,1,8,0:1:0:0:
364,199,40732,102,0,L|347:278,1,65.9999979858399,8|0,3:1|0:0,0:0:0:0:
373,365,40919,1,8,0:1:0:0:
270,337,41107,6,0,L|191:320,1,65.9999979858399,10|0,3:1|0:0,0:0:0:0:
104,346,41294,1,8,0:1:0:0:
136,239,41482,102,0,L|153:160,1,65.9999979858399,8|0,3:1|0:0,0:0:0:0:
127,73,41669,1,10,0:1:0:0:
230,100,41857,6,0,L|309:117,1,65.9999979858399,8|0,3:1|0:0,0:0:0:0:
396,91,42044,1,8,0:1:0:0:
257,218,42232,101,10,3:1:0:0:
257,218,42419,1,8,0:1:0:0:
243,133,42607,5,10,3:1:0:0:
176,208,42794,1,10,0:1:0:0:
163,128,42982,2,2,B|144:82|92:55|144:197|-19:165|-58:22|14:-27|90:-10|169:34|122:135,1,395.999987915039,2|0,3:1|0:0,0:1:0:0:
102,229,43732,101,12,3:1:0:0:
96,254,43825,1,8,0:1:0:0:
90,280,43919,1,8,3:1:0:0:
84,305,44013,1,8,0:1:0:0:
34,372,44107,2,0,L|99:384,3,65.9999979858399,8|8|8|8,3:1|0:1|3:1|0:1,0:0:0:0:
192,367,44482,5,8,3:1:0:0:
242,350,44575,1,8,0:1:0:0:
242,297,44669,1,8,3:1:0:0:
192,281,44763,1,8,0:1:0:0:
160,324,44857,102,0,L|176:250,1,65.9999979858399,8|8,3:1|0:1,0:0:0:0:
352,224,45044,2,0,L|336:150,1,65.9999979858399,8|8,3:1|0:1,0:0:0:0:
263,97,45232,5,8,3:1:0:0:
206,78,45325,1,8,3:1:0:0:
206,19,45419,1,8,3:1:0:0:
263,0,45513,1,8,3:1:0:0:
297,48,45607,102,0,L|272:134,1,63.250001206398,8|8,3:1|3:1,0:0:0:0:
222,164,45794,2,0,L|247:250,1,63.250001206398,8|8,3:1|3:1,0:0:0:0:
292,352,45982,1,0,3:0:0:0:
292,352,46732,6,0,L|300:316,6,20.6250007867813,10|0|0|0|8|0|0,3:2|0:0|0:0|0:2|0:2|0:0|0:0,0:0:0:0:
375,348,47107,2,0,L|369:375,6,20.6250007867813,10|0|0|0|8|0|0,3:2|0:0|0:0|0:0|0:2|0:0|0:0,0:0:0:0:
353,268,47482,102,0,L|342:222,2,27.5,10|0|0,0:2|0:0|0:0,0:0:0:0:
258,213,47669,6,0,L|267:249,2,27.5,10|0|0,0:2|0:0|0:0,0:0:0:0:
200,308,47857,102,0,L|189:262,2,27.5,10|0|0,0:2|0:0|0:0,0:0:0:0:
105,253,48044,6,0,L|113:288,2,27.5,10|0|0,0:2|0:0|0:0,0:0:0:0:
108,172,48232,101,2,1:2:0:0:
144,92,48607,5,2,1:2:0:0:
259,16,48982,101,2,1:2:0:0:
382,190,49357,2,0,B|437:222|437:222|449:205|449:205|407:131,1,165,8|0,0:2|0:0,0:0:0:0:
349,87,49732,6,0,B|339:68|339:68|333:39|333:39|396:52|396:52|348:19|348:19|316:140|316:140|319:146|319:146|310:162|310:162|289:248,1,395.999987915039,2|0,3:1|0:0,0:0:0:0:
230,284,50200,6,0,B|262:371|262:371|327:333|327:333|333:285,1,197.99999395752
293,232,50482,6,0,L|277:220,1,10.9999996643067,8|0,0:1|0:0,0:0:0:0:
293,232,50607,86,0,L|282:216,1,14.6666666666667,2|0,0:2|0:0,0:0:0:0:
293,232,50732,6,0,L|288:213,1,18.3333333333333,2|0,0:2|0:0,0:0:0:0:
293,232,50857,6,0,L|294:210,1,21.9999993286133,2|0,0:1|0:0,0:0:0:0:
293,232,50982,86,0,L|305:205,1,25.6666658833822,2|0,0:2|0:0,0:0:0:0:
293,232,51107,6,0,L|312:211,1,29.3333333333333,2|0,0:2|0:0,0:0:0:0:
293,232,51232,6,0,L|325:215,1,32.99999899292,2|0,0:1|0:0,0:0:0:0:
293,232,51357,86,0,L|329:228,1,36.6666666666667,2|0,0:2|0:0,0:0:0:0:
293,232,51482,6,0,L|335:242,1,40.333334564209,2|0,0:2|0:0,0:0:0:0:
293,232,51607,6,0,L|329:256,1,43.9999986572266,2|0,0:1|0:0,0:0:0:0:
293,232,51732,86,0,L|321:271,1,47.6666644846599,2|0,0:2|0:0,0:0:0:0:
293,232,51857,6,0,L|307:284,1,51.3333317667644,2|0,0:2|0:0,0:0:0:0:
277,240,51982,6,0,L|272:293,1,55.0000020980836,2|0,0:1|0:0,0:0:0:0:
257,242,52107,86,0,L|232:297,1,58.6666666666667,2|0,0:2|0:0,0:0:0:0:
239,239,52232,6,0,L|194:284,1,62.3333345222473,2|0,0:2|0:0,0:0:0:0:
223,228,52357,6,0,L|160:257,1,65.9999979858399,2|0,0:1|0:0,0:0:0:0:
212,213,52482,86,0,L|142:219,1,69.666664806366,2|0,0:2|0:0,0:0:0:0:
205,196,52607,6,0,L|133:176,1,73.3333333333333,2|0,0:2|0:0,0:0:0:0:
256,192,52732,12,0,53857,0:0:0:0:
32,356,54232,6,0,B|40:351|39:340|39:340|-18:324|44:159|240:242|148:413|33:293|44:159,1,296.99999093628,6|0,0:1|0:0,0:0:0:0:
110,187,54607,2,0,L|111:134,1,35.749998363495,0|0,3:0|0:0,0:0:0:0:
113,6,54794,2,0,L|77:5,5,35.749998363495,2|0|2|0|0|0,0:2|0:0|3:2|0:0|0:0|0:0,0:0:0:0:
148,80,55357,2,0,L|176:80,3,27.5,2|0|0|0,3:2|0:0|0:0|0:0,0:0:0:0:
290,69,55732,70,0,L|290:96,3,27.5,0|0|0|0,3:0|0:0|0:0|0:0,0:0:0:0:
288,176,56107,2,0,L|288:224,3,27.5,0|0|0|0,3:0|0:0|0:0|0:0,0:0:0:0:
224,256,56482,70,0,B|184:347|409:164|185:341|405:163|356:260,1,197.99999395752,2|0,3:0|0:0,0:0:0:0:
320,336,56857,2,0,L|368:336,1,27.5,0|0,3:0|0:0,0:0:0:0:
448,304,57044,2,0,L|400:304,1,27.5,0|0,3:0|0:0,0:0:0:0:
357,256,57232,2,0,L|357:208,3,27.5,0|0|0|0,3:0|0:0|0:0|0:0,0:0:0:0:
420,331,57607,102,0,L|420:303,1,27.5,0|0,3:0|0:0,0:0:0:0:
421,128,57794,2,0,L|421:96,1,27.5,2|0,0:2|0:0,0:0:0:0:
510,39,57982,2,0,B|384:-17|442:204|370:-14|305:130,1,247.500009441376,2|0,3:2|0:0,0:0:0:0:
231,148,58357,54,0,P|236:177|260:191,1,55,2|0,3:2|0:0,0:0:0:0:
383,107,58544,2,0,P|378:78|354:64,1,55
288,16,58732,1,2,3:2:0:0:
256,16,58825,1,2,0:2:0:0:
224,16,58919,1,2,0:2:0:0:
224,48,59013,1,2,3:2:0:0:
192,48,59107,1,2,0:2:0:0:
192,80,59200,1,2,0:2:0:0:
160,80,59294,2,0,L|112:80,3,27.5,2|2|2|2,0:1|0:1|0:1|0:1,0:0:0:0:
256,192,59482,12,4,60232,3:2:0:0:
69,276,60607,70,0,L|137:292,1,55,2|0,3:0|0:0,0:0:0:0:
133,306,60794,2,0,L|25:280,1,82.5000031471254,2|0,0:2|0:0,0:0:0:0:
8,363,60982,102,0,P|88:335|74:189,1,247.500009441376,0|0,3:0|0:0,0:0:0:0:
57,197,61357,2,0,P|43:119|118:110,1,165.000006294251,2|0,3:0|0:0,0:0:0:0:
187,160,61732,53,0,3:0:0:0:
195,190,61825,1,0,0:0:0:0:
203,221,61919,1,0,0:0:0:0:
211,252,62013,1,0,0:0:0:0:
243,245,62107,1,2,3:0:0:0:
235,214,62201,1,0,0:0:0:0:
227,183,62295,1,0,0:0:0:0:
219,153,62388,1,0,0:0:0:0:
212,120,62482,2,0,B|187:103|187:103|232:22|232:22|188:-6,1,165,0|0,3:0|0:0,0:0:0:0:
288,98,62857,70,0,L|363:81,1,55,2|0,3:0|0:0,0:0:0:0:
424,64,63044,2,0,L|461:55,2,27.5,2|2|2,0:1|0:1|0:1,0:0:0:0:
510,5,63232,102,0,P|430:33|444:179,1,247.500009441376,2|0,3:2|0:0,0:0:0:0:
461,171,63607,2,0,P|475:249|400:258,1,165.000006294251,2|0,3:0|0:0,0:0:0:0:
342,221,63982,54,0,B|295:269|362:268|308:327,1,110,0|0,3:0|0:0,0:0:0:0:
354,384,64263,1,0,0:0:0:0:
430,368,64357,2,0,B|497:346|439:314|504:296,2,110,2|2|8,3:0|3:0|0:1,0:0:0:0:
430,368,65107,1,8,0:1:0:0:
430,368,65482,1,0,1:2:0:0:
414,364,65575,1,0,1:2:0:0:
381,356,65669,1,0,1:2:0:0:
332,344,65763,1,0,1:2:0:0:
267,329,65857,1,0,1:2:0:0:
187,311,66044,69,8,2:0:0:0:
38,193,66232,102,0,B|130:217|130:217|170:227|156:276|156:276|90:266|50:333,1,296.99999093628,6|0,0:1|0:0,0:0:0:0:
32,345,66607,54,2,B|10:313|10:313|23:263,1,82.5000031471254,2|0,3:1|0:0,0:1:0:0:
125,186,66794,2,2,P|117:154|80:101,1,82.5000031471254,2|0,0:1|0:0,0:1:0:0:
34,57,66982,2,0,L|40:33,6,15.1250004615784,2|0|0|0|0|0|0,3:1|0:0|0:0|0:0|0:0|0:0|0:0,0:0:0:0:
115,25,67357,5,2,3:1:0:0:
106,104,67450,2,2,B|127:175|171:192|243:134,1,165.000006294251,2|2,0:1|0:1,0:1:0:0:
236,64,67732,2,0,P|274:58|291:93,3,82.5000031471254,2|2|2|2,3:1|0:1|0:1|0:1,0:0:0:0:
347,18,68107,22,0,P|444:45|428:123,1,165.000006294251,0|2,3:0|0:2,0:0:0:0:
489,171,68388,1,2,0:2:0:0:
489,171,68482,2,0,P|454:205|437:244,2,82.5000031471254,2|2|0,3:1|0:2|0:0,0:0:0:0:
501,355,68857,70,2,B|497:346|497:346|493:362|493:362|490:344|490:344|487:361|487:361|484:343|484:343|479:359|479:359|476:342|476:342|471:358|471:358|420:349|420:349|422:358|422:358|424:350|424:350|321:332,1,288.750002753735,2|0,3:2|0:0,0:1:0:0:
282,281,69232,1,2,3:1:0:0:
217,328,69325,2,2,P|206:353|248:381,1,85.2500006504059,2|0,0:1|0:0,0:1:0:0:
337,335,69513,5,2,0:1:0:0:
400,292,69606,2,2,P|410:266|368:239,1,85.2500006504059,2|0,3:1|0:0,0:1:0:0:
312,184,69794,21,2,0:1:0:0:
312,184,69888,1,2,0:1:0:0:
232,199,69982,2,2,B|161:130|266:108|172:26,1,192.500001835823,2|2,3:2|0:2,0:1:0:0:
63,198,70357,2,0,B|-8:267|87:298|5:368,1,192.500001835823,0|2,3:0|0:2,0:0:0:0:
36,119,70732,69,2,3:1:0:0:
104,74,70825,2,2,P|147:64|185:116,1,110,2|2,0:1|0:1,0:1:0:0:
239,169,71107,1,2,0:1:0:0:
250,187,71200,1,2,0:1:0:0:
232,199,71294,1,2,0:1:0:0:
220,180,71388,1,2,0:1:0:0:
256,192,71482,12,0,72232,3:2:0:0:
256,368,72607,5,0,3:0:0:0:
280,342,72982,21,2,3:1:0:0:
211,293,73357,69,2,3:1:0:0:
326,238,73732,5,0,3:0:0:0:
174,166,74107,21,2,3:1:0:0:
364,87,74482,69,4,3:0:0:0:
301,34,74669,2,0,L|312:-1,2,30.2500009231568,8|8|8,0:2|0:2|0:1,0:0:0:0:
223,58,75044,6,0,L|220:44,2,8.24999974822999,0|0|8,0:0|0:0|0:2,0:0:0:0:
285,109,75232,1,4,3:2:0:0:
316,181,75419,1,0,0:0:0:0:
299,258,75607,1,0,3:0:0:0:
236,305,75794,1,0,0:0:0:0:
172,230,75982,22,0,B|168:220|168:220|135:213|135:213|127:220,1,55,2|2,3:1|0:1,0:0:0:0:
62,286,76169,70,0,B|67:300|67:300|116:310|116:310|128:299,1,82.5000031471254,2|2,0:1|0:1,0:0:0:0:
90,150,76357,6,0,B|82:130|82:130|17:117|17:117|0:131,4,110,2|2|2|2|2,3:1|0:1|0:1|0:1|0:0,0:0:0:0:
236,305,76919,21,0,0:0:0:0:
301,258,77107,69,2,0:0:0:0:
316,181,77294,5,0,0:0:0:0:
260,113,77482,21,8,0:3:0:0:
249,73,77575,1,8,0:3:0:0:
264,36,77669,1,4,0:3:0:0:
300,17,77763,1,4,0:3:0:0:
339,23,77857,1,4,0:3:0:0:
380,231,78232,69,4,3:2:0:0:
256,192,82919,12,2,84138,0:0:0:0:
504,319,84232,70,0,L|436:301,1,55,4|0,3:1|0:0,0:0:0:0:
394,248,84419,1,0,0:0:0:0:
412,235,84513,1,0,0:0:0:0:
388,234,84607,1,4,0:3:0:0:
249,331,84794,102,0,P|239:353|268:374,1,55,4|0,0:3|0:0,0:0:0:0:
323,333,84982,2,0,P|315:289|252:256,1,110,2|0,0:0|0:0,0:0:0:0:
130,375,85357,53,2,0:0:0:0:
56,352,85544,1,2,0:0:0:0:
116,283,85732,2,0,L|134:217,1,55,8|0,0:3|0:0,0:0:0:0:
174,85,85919,2,0,L|192:19,2,55,2|2|2,0:0|0:0|0:0,0:0:0:0:
99,103,86294,69,4,0:3:0:0:
151,159,86482,1,8,0:3:0:0:
226,143,86669,1,2,0:0:0:0:
189,32,86857,101,8,0:3:0:0:
189,32,87044,1,4,0:3:0:0:
294,15,87232,2,0,B|352:33|343:39|404:64,1,110,2|2,0:0|0:0,0:0:0:0:
431,129,87513,1,2,0:0:0:0:
493,81,87607,2,0,P|505:44|457:0,1,110,0|0,0:3|0:3,0:0:0:0:
293,240,87982,54,0,B|267:260|267:260|302:256,1,65.9999979858399
371,224,88169,2,0,L|453:199,2,65.9999979858399,4|0|0,0:3|0:0|0:0,0:0:0:0:
405,379,88544,2,0,P|484:360|489:252,1,197.99999395752,4|0,0:3|0:0,0:0:0:0:
434,204,88919,69,0,0:0:0:0:
417,192,89013,1,0,0:0:0:0:
424,173,89107,1,0,0:3:0:0:
493,120,89294,1,4,0:3:0:0:
508,344,89482,101,8,0:3:0:0:
405,379,89669,1,2,0:0:0:0:
405,379,89763,1,2,0:0:0:0:
405,379,89857,1,2,0:0:0:0:
339,292,90044,1,0,0:0:0:0:
206,296,90232,37,0,3:0:0:0:
238,224,90325,1,0,3:0:0:0:
233,215,90513,69,0,3:0:0:0:
195,300,90606,1,0,3:0:0:0:
154,230,90794,2,0,L|132:223,1,22,0|0,3:0|0:0,0:0:0:0:
29,190,90982,54,2,B|-18:175|14:53|69:69,1,165.000006294251,4|0,1:1|0:0,0:1:0:0:
192,75,91263,2,0,L|208:123,3,41.2500015735627,8|4|4|4,2:3|0:3|0:3|0:3,0:0:0:0:
340,26,91732,2,0,L|359:19,2,20.6250007867813,4|4|4,0:3|0:3|0:3,0:0:0:0:
113,49,92013,101,4,0:3:0:0:
108,64,92106,1,4,0:3:0:0:
286,136,92294,1,4,0:3:0:0:
367,166,92482,2,0,L|386:173,2,20.6250007867813,4|4|4,0:3|0:3|0:3,0:0:0:0:
207,221,92763,69,4,0:3:0:0:
126,251,92857,1,4,0:3:0:0:
5,294,93044,1,4,0:3:0:0:
218,380,93232,53,0,3:0:0:0:
186,308,93325,1,0,3:0:0:0:
191,299,93513,101,0,3:0:0:0:
229,384,93606,1,0,3:0:0:0:
270,314,93794,2,0,L|320:328,1,41.2500015735627,0|0,3:0|0:0,0:0:0:0:
410,378,93982,2,2,B|452:389|462:345|422:334|433:286|478:297,1,123.750004720688,4|0,1:0|0:0,0:1:0:0:
487,319,94357,1,4,3:2:0:0:
256,192,94450,12,0,96138,0:0:0:0:
191,170,96232,69,0,3:0:0:0:
117,144,96325,1,0,3:0:0:0:
108,150,96513,53,0,3:0:0:0:
196,180,96606,1,0,3:0:0:0:
176,93,96794,1,0,3:0:0:0:
42,4,96982,102,2,B|-41:32|-12:117|85:74,1,165.000006294251,4|0,1:1|0:0,0:1:0:0:
121,24,97263,2,0,L|155:16,3,27.5,8|4|4|4,0:3|0:3|0:3|0:3,0:0:0:0:
326,85,97732,70,0,L|329:63,2,13.75,4|4|4,0:3|0:3|0:3,0:0:0:0:
312,161,97919,1,4,0:3:0:0:
298,236,98013,1,4,0:3:0:0:
376,212,98107,54,0,L|396:215,2,13.75,4|4|4,0:3|0:3|0:3,0:0:0:0:
236,185,98294,2,0,L|198:178,1,27.5,4|0,0:3|0:0,0:0:0:0:
134,163,98482,2,0,L|114:159,2,13.75,4|4|4,0:3|0:3|0:3,0:0:0:0:
158,239,98669,102,0,P|174:267|185:305,1,55,4|4,0:3|0:3,0:0:0:0:
258,317,98857,2,0,P|248:352|230:384,2,73.3333333333333,4|4|4,0:3|0:3|0:3,0:0:0:0:
295,134,99232,69,0,3:0:0:0:
279,92,99325,1,0,3:0:0:0:
414,167,99513,53,0,3:0:0:0:
370,174,99606,1,0,3:0:0:0:
377,67,99794,101,0,3:0:0:0:
230,21,99982,2,2,P|147:40|93:121,1,165,4|0,1:1|0:0,0:1:0:0:
97,177,100357,2,0,B|70:216|-16:155|12:77,1,165
38,12,100732,70,0,L|57:16,5,12.8333329416911,0|0|0|0|0|0,1:2|1:2|1:2|1:2|3:0|3:0,0:0:0:0:
80,45,101107,2,0,L|99:49,5,12.8333329416911,8|8|8|8|0|0,0:3|0:3|0:3|0:3|3:0|3:0,0:0:0:0:
130,27,101482,2,0,L|149:31,5,12.8333329416911,4|4|4|4|0|0,0:3|0:3|0:3|0:3|3:0|3:0,0:0:0:0:
180,65,101857,54,0,L|236:76,2,55,8|0|8,0:1|0:0|0:1,0:0:0:0:
9,371,102232,6,0,P|35:369|57:348,1,55,12|0,3:1|0:0,0:0:0:0:
69,275,102419,1,8,0:1:0:0:
145,298,102607,102,0,P|166:283|175:254,1,55,10|0,3:1|0:0,0:0:0:0:
148,185,102794,1,8,0:1:0:0:
220,145,102982,6,0,P|230:122|224:91,1,55,8|0,3:1|0:0,0:0:0:0:
166,46,103169,1,10,0:1:0:0:
256,0,103357,101,8,3:1:0:0:
256,0,103544,1,8,0:1:0:0:
346,46,103732,5,10,3:1:0:0:
286,94,103826,2,0,P|281:121|292:145,1,55,0|8,0:0|0:1,0:0:0:0:
364,185,104107,101,8,3:1:0:0:
336,257,104201,2,0,P|345:282|367:298,1,55,0|10,0:0|0:1,0:0:0:0:
443,275,104482,5,8,3:1:0:0:
455,351,104576,2,0,P|476:368|503:371,1,55,0|8,0:0|0:1,0:0:0:0:
478,136,104857,101,10,3:1:0:0:
463,140,104950,1,8,0:1:0:0:
449,143,105044,1,8,0:1:0:0:
435,147,105138,1,8,0:1:0:0:
364,185,105232,6,0,L|347:106,1,65.9999979858399,8|0,3:1|0:0,0:0:0:0:
373,19,105419,1,8,0:1:0:0:
270,47,105607,102,0,L|191:64,1,65.9999979858399,10|0,3:1|0:0,0:0:0:0:
104,38,105794,1,8,0:1:0:0:
136,145,105982,6,0,L|153:224,1,65.9999979858399,8|0,3:1|0:0,0:0:0:0:
127,311,106169,1,10,0:1:0:0:
230,284,106357,102,0,L|309:267,1,65.9999979858399,8|0,3:1|0:0,0:0:0:0:
396,293,106544,1,8,0:1:0:0:
277,159,106732,6,0,B|306:197|237:214|289:115|218:130|244:187,3,110,4|0|0|0,3:2|0:0|0:0|0:0,0:0:0:0:
166,134,107482,2,0,L|161:160,7,27.5,8|8|8|8|8|8|8|0,2:2|2:2|2:2|2:2|2:2|2:2|2:2|0:0,0:0:0:0:
81,162,107857,2,0,L|90:107,1,55,0|0,1:2|1:2,0:0:0:0:
323,39,108232,101,12,3:1:0:0:
346,43,108325,1,8,0:1:0:0:
362,62,108419,1,8,3:1:0:0:
361,88,108513,1,8,0:1:0:0:
310,148,108607,2,0,L|302:200,1,44,8|8,3:1|0:1,0:0:0:0:
334,308,108794,2,0,L|341:265,1,44,8|8,3:1|0:1,0:0:0:0:
407,193,108982,6,0,L|450:200,3,44,8|8|8|8,3:1|0:1|3:1|0:1,0:0:0:0:
447,217,109357,2,0,L|395:208,1,44,8|8,3:1|0:1,0:0:0:0:
303,192,109544,2,0,L|251:183,1,44,8|8,3:1|0:1,0:0:0:0:
161,162,109732,102,0,L|109:153,3,44,8|8|8|8,3:1|3:1|3:1|3:1,0:0:0:0:
199,236,110107,1,8,3:1:0:0:
205,258,110200,1,8,3:1:0:0:
194,281,110294,1,8,3:1:0:0:
170,291,110388,1,8,3:1:0:0:
304,134,111232,6,0,L|296:166,6,22,10|0|0|0|8|0|0,3:2|0:0|0:0|0:0|0:2|0:0|0:0,0:0:0:0:
210,250,111607,2,0,L|217:217,6,22,10|0|0|0|8|0|0,3:2|0:0|0:0|0:0|0:2|0:0|0:0,0:0:0:0:
213,127,111982,102,0,L|175:119,2,22,10|0|0,0:2|0:0|0:0,0:0:0:0:
300,257,112169,6,0,L|337:264,2,22,10|0|0,0:2|0:0|0:0,0:0:0:0:
187,270,112357,102,0,L|194:232,2,22,10|0|0,0:2|0:0|0:0,0:0:0:0:
327,114,112543,6,0,L|319:151,2,22,10|0|0,0:2|0:0|0:0,0:0:0:0:
256,192,112732,101,2,1:2:0:0:
256,192,113107,1,2,1:2:0:0:
256,192,113482,1,2,1:2:0:0:
454,136,113857,5,8,0:1:0:0:
427,125,113950,1,8,0:1:0:0:
401,115,114044,1,0,3:0:0:0:
501,363,114232,102,0,B|457:408|385:343|410:248,1,197.99999395752,4|0,3:2|0:0,0:0:0:0:
397,212,114607,2,0,P|462:177|471:279,1,197.99999395752,0|0,3:0|0:0,0:0:0:0:
328,360,114982,6,0,B|255:410|260:177|129:372|97:265,1,273.900003970413,0|0,3:0|0:0,0:0:0:0:
33,315,115357,2,0,B|3:309|15:266|15:266|7:233|30:214|30:214|39:177|80:185,1,182.600002646942,0|0,3:0|0:0,0:0:0:0:
231,157,115732,102,0,B|267:154|266:198|215:171|247:113,3,91.3000013234711,0|0|0|0,3:0|3:0|3:0|3:0,0:0:0:0:
256,43,116107,2,0,B|293:23|304:63|299:58|294:55|300:96|344:72,8,110,2|2|2|2|2|2|2|2|0,0:1|0:1|0:1|0:1|0:1|0:1|0:1|0:1|0:0,0:0:0:0:
479,370,116857,5,8,0:1:0:0:
475,349,116951,1,8,0:3:0:0:
471,328,117045,1,8,0:3:0:0:
467,307,117138,1,8,0:3:0:0:
414,243,117232,102,0,P|411:195|503:135,1,165.000006294251,4|2,3:2|0:3,0:0:0:0:
512,154,117513,1,2,0:3:0:0:
494,166,117607,2,0,B|420:176|429:126|342:149,1,148.49999546814,8|2,0:2|0:3,0:0:0:0:
256,192,117982,5,8,0:1:0:0:
256,192,118357,6,0,B|262:189|259:186|267:184,1,13.75,6|0,3:1|0:0,0:0:0:0:
256,192,118450,6,0,B|262:186|258:183|265:178,1,16.49999949646
256,192,118544,86,0,B|260:183|255:182|261:173,1,19.2499994125366
256,192,118638,6,0,B|258:181|251:182|254:171,1,22
256,192,118732,6,0,B|254:180|247:183|246:170,1,24.74999924469
256,192,118825,86,0,B|249:180|243:186|237:172,1,27.5
256,192,118919,6,0,B|244:182|240:190|229:178,1,30.2500009231568
256,192,119013,6,0,B|240:186|240:196|224:188,1,32.99999899292
256,192,119107,86,0,B|237:191|241:202|223:203,1,35.749998363495,2|0,3:1|0:0,0:0:0:0:
256,192,119200,6,0,B|237:198|245:207|226:215,1,38.4999988250733
256,192,119294,6,0,B|240:204|250:211|235:225,1,41.2500015735627
256,192,119388,86,0,B|244:211|258:214|247:234,1,44
256,192,119482,6,0,B|251:215|266:213|262:236,1,46.7500008916855,10|0,0:1|0:0,0:0:0:0:
256,192,119575,6,0,B|259:216|273:209|278:233,1,49.4999984893799
256,192,119669,86,0,B|269:215|280:203|294:226,1,52.2499986047745
256,192,119763,6,0,B|276:210|283:194|305:211,1,55
256,192,119857,6,0,B|283:202|284:184|312:193,1,57.7499982376099
256,192,119950,86,0,B|287:192|281:173|313:172,1,60.5000018463135
256,192,120044,6,0,B|286:181|273:165|303:153,1,63.250001206398
256,192,120138,6,0,B|282:169|263:157|289:134,1,68.75
256,192,120232,86,0,B|270:158|247:155|261:122,1,71.4999967269899,2|0,3:1|0:0,0:0:0:0:
256,192,120325,6,0,B|251:154|229:164|225:126,1,74.2500002832413
256,192,120419,6,0,B|230:162|216:184|191:155,1,76.9999976501466,2|0,0:1|0:0,0:0:0:0:
256,192,120513,86,0,B|215:186|219:211|179:205,1,79.7500024337769
256,192,120607,6,0,B|219:214|239:231|203:253,1,82.5000031471254,2|0,0:1|0:0,0:0:0:0:
256,192,120700,6,0,B|242:233|269:234|255:275,1,85.2500006504059
256,192,120794,86,0,B|272:234|294:216|311:258,1,88,2|0,0:1|0:0,0:0:0:0:
256,192,120888,6,0,B|298:214|303:185|345:208,1,90.7500008654595
256,192,120982,6,0,B|304:181|290:155|337:145,1,93.500001783371,8|0,0:1|0:0,0:0:0:0:
334,145,121357,86,0,B|290:155|304:181|256:192,1,93.500001783371,2|0,3:1|0:0,0:0:0:0:
343,207,121450,6,0,B|303:185|298:214|256:192,1,90.7500008654595
311,258,121544,6,0,B|294:216|272:234|256:192,1,88,2|0,0:1|0:0,0:0:0:0:
255,275,121638,86,0,B|269:234|242:233|256:192,1,85.2500006504059
203,253,121732,6,0,B|239:231|219:214|256:192,1,82.5000031471254,2|0,0:1|0:0,0:0:0:0:
179,205,121825,6,0,B|219:211|215:186|256:192,1,79.7500024337769
191,155,121919,86,0,B|216:184|230:162|256:192,1,76.9999976501466,2|0,0:1|0:0,0:0:0:0:
225,126,122013,6,0,B|229:164|251:154|256:192,1,74.2500002832413
261,122,122107,6,0,B|247:155|270:158|256:192,1,71.4999967269899,2|0,3:1|0:0,0:0:0:0:
289,134,122200,86,0,B|263:157|282:169|256:192,1,68.75,2|0,0:1|0:0,0:0:0:0:
306,151,122294,6,0,B|274:163|288:180|257:191,1,65.9999979858399,0|0,0:1|0:0,0:0:0:0:
315,171,122388,6,0,B|283:172|290:191|257:191,1,63.250001206398
256,192,122482,12,0,123138,0:0:0:0:
24,211,123232,86,0,B|4:231|17:258|17:258|181:286|16:262|177:290|177:290|217:297|209:346,1,280.500005350113,4|0,3:3|0:0,0:0:0:0:
130,319,123607,2,0,B|35:305|130:314|39:300,2,93.500001783371,8|8|10,0:2|0:2|0:2,0:0:0:0:
281,384,123982,6,0,B|328:376|320:326|320:326|282:128|325:333|287:127,1,280.500005350113,8|2,0:1|0:2,0:0:0:0:
315,50,124357,2,0,B|291:6|270:72|247:26,14,82.5000031471254,6|0|0|0|0|0|0|0|0|0|0|0|0|0|0,3:1|0:0|0:0|0:0|0:0|0:0|0:0|0:0|0:0|0:0|0:0|0:0|0:0|0:0|0:0,0:0:0:0:
395,77,125107,2,0,B|436:63|408:117|452:103,6,74.2500002832413,2|0|0|0|0|0|0,3:1|0:0|0:0|0:0|0:0|0:0|0:0,0:0:0:0:
317,206,125482,6,0,L|310:227,1,19.2499994125366,10|0,0:1|0:0,0:0:0:0:
317,206,125575,2,0,L|299:224,1,24.74999924469
317,206,125669,2,0,L|289:216,1,30.2500009231568
317,206,125763,2,0,L|280:203,1,35.749998363495
317,206,125857,2,0,L|280:186,1,41.2500015735627,0|0,0:1|0:0,0:0:0:0:
317,206,125950,2,0,L|288:167,1,46.7500008916855
317,206,126044,2,0,L|306:153,1,52.2499986047745
317,206,126138,2,0,L|330:148,1,57.7499982376099
397,228,126232,86,0,L|384:285,1,55,2|0,3:1|0:0,0:0:0:0:
397,228,126325,2,0,L|409:285,1,49.4999984893799
397,228,126419,2,0,L|432:273,1,44,0|0,0:1|0:0,0:0:0:0:
397,228,126513,2,0,L|448:253,1,38.4999988250733
397,228,126607,2,0,L|454:229,1,32.99999899292,0|0,0:1|0:0,0:0:0:0:
397,228,126700,2,0,L|436:210,1,27.5
397,228,126794,2,0,L|420:200,1,22,0|0,0:1|0:0,0:0:0:0:
397,228,126888,2,0,L|402:205,1,16.49999949646
380,117,126982,6,2,L|337:308,1,192.500001835823,10|0,0:1|0:0,0:1:0:0:
451,384,127357,2,0,P|487:380|479:311,2,110,2|0|2,3:1|0:0|3:1,0:0:0:0:
128,349,128107,5,0,3:2:0:0:
52,333,128200,1,2,1:1:0:0:
44,256,128294,1,2,1:1:0:0:
115,225,128388,1,2,1:1:0:0:
168,283,128482,2,0,B|163:308|163:308|173:283|173:283|169:309|169:309|178:283|178:283|175:310|175:310|257:325|257:325|266:278,1,247.500009441376,2|0,0:3|0:0,0:0:0:0:
312,233,128857,2,0,B|319:195|319:195|323:169|302:150,1,82.5000031471254,2|0,0:1|0:0,0:0:0:0:
129,42,129232,38,0,P|68:12|65:90,1,165.000006294251,4|0,3:1|0:0,0:0:0:0:
127,118,129513,1,0,0:0:0:0:
197,152,129607,2,0,P|191:222|126:195,1,165.000006294251,2|0,3:1|0:0,0:0:0:0:
208,11,129982,5,2,3:1:0:0:
292,36,130107,5,2,0:1:0:0:
376,61,130232,85,2,0:1:0:0:
448,14,130357,6,0,B|516:67|441:96|494:154,1,146.850000112038,2|0,3:1|0:0,0:0:0:0:
489,229,130732,2,0,P|407:220|423:160,1,146.850000112038,4|0,3:1|0:0,0:0:0:0:
487,146,131107,6,0,L|502:126,2,20.6250007867813,2|0|0,3:2|0:0|0:0,0:0:0:0:
414,281,131294,1,2,3:2:0:0:
409,257,131388,1,2,3:2:0:0:
512,370,131575,1,2,3:2:0:0:
508,349,131669,2,0,L|503:327,4,20.6250007867813,2|2|2|2|0,0:1|0:1|0:1|0:1|3:1,0:0:0:0:
386,370,131950,86,0,L|427:362,2,41.2500015735627,2|2|8,0:3|0:3|0:2,0:0:0:0:
337,306,132232,2,0,P|266:261|185:285,1,165.000006294251,6|0,3:2|0:0,0:0:0:0:
88,365,132607,2,0,P|12:350|54:286,1,165.000006294251,2|0,3:1|0:0,0:0:0:0:
192,279,132982,5,2,3:1:0:0:
226,198,133107,5,2,0:1:0:0:
163,135,133232,85,2,0:1:0:0:
202,56,133357,6,0,B|217:54|229:39|229:39|315:58|231:45|317:62|317:62|328:43|357:34,1,165,2|0,3:1|0:0,0:0:0:0:
381,108,133732,1,4,3:2:0:0:
25,108,134482,5,8,0:2:0:0:
102,80,134575,1,0,1:0:0:0:
87,161,134669,2,0,L|105:216,1,55,4|0,0:3|0:0,0:0:0:0:
33,4,134857,85,8,0:1:0:0:
176,238,135044,2,0,L|183:212,1,27.5,0|0,3:1|0:0,0:0:0:0:
252,256,135138,2,0,L|259:230,1,27.5,0|0,3:1|0:0,0:0:0:0:
327,274,135232,70,0,B|348:189|348:189|349:166|349:166|355:163|355:163|372:92|372:92|383:44|344:20,1,264,4|0,3:1|0:0,0:0:0:0:
214,25,135607,2,0,B|142:1|102:80|102:80|152:30|185:103|223:25,1,264,2|0,3:1|0:0,0:0:0:0:
512,17,135982,70,0,P|384:42|272:110,1,264,2|0,3:1|0:0,0:0:0:0:
216,188,136357,2,0,P|186:178|179:147,1,65.9999979858399,2|0,3:1|0:0,0:0:0:0:
204,150,136450,2,0,P|206:166|221:170,2,32.99999899292,2|0|0,3:1|0:0|0:0,0:0:0:0:
496,384,136732,6,0,B|503:352|503:352|508:348|508:348|505:343|505:343|511:308|511:308|437:267|421:329|346:282,1,247.500009441376,2|0,3:1|0:0,0:0:0:0:
205,355,137107,2,0,B|182:350|182:350|196:288,1,82.5000031471254,2|0,3:1|0:0,0:0:0:0:
263,251,137294,2,0,B|278:253|278:253|270:300,1,55,2|0,3:1|0:0,0:0:0:0:
285,371,137482,1,2,3:1:0:0:
285,371,137669,2,0,L|315:359,2,22,8|8|8,0:2|0:2|0:1,0:0:0:0:
99,240,138044,21,8,0:3:0:0:
112,378,138232,70,0,L|119:337,1,41.2500015735627,4|4,3:1|3:3,0:0:0:0:
39,341,138419,2,0,L|46:300,1,41.2500015735627,4|4,3:3|3:3,0:0:0:0:
177,210,138607,6,0,L|184:169,2,23.3750004458428,8|0|2,0:3|0:0|3:1,0:0:0:0:
231,313,138794,2,0,L|238:266,1,46.7500008916855,4|4,3:3|3:3,0:0:0:0:
281,194,138982,21,4,3:3:0:0:
294,117,139075,1,4,3:3:0:0:
308,39,139169,2,0,L|345:43,2,27.5,4|0|2,0:3|0:0|3:1,0:0:0:0:
229,67,139357,70,0,L|231:54,2,13.75,2|0|2,0:1|0:0|0:1,0:0:0:0:
157,29,139544,2,0,L|152:56,1,27.5,2|2,0:1|0:1,0:0:0:0:
80,23,139732,85,2,0:2:0:0:
80,23,139919,2,0,L|44:16,2,32.99999899292,0|2|0,0:0|0:2|0:0,0:0:0:0:
178,130,140482,6,0,L|165:192,1,55,8|0,0:2|1:0,0:0:0:0:
198,257,140669,2,0,P|222:246|234:222,1,55,4|0,0:3|0:0,0:0:0:0:
31,296,140857,6,0,P|21:367|90:353,1,165,8|0,0:1|0:0,0:0:0:0:
109,278,141232,1,4,3:2:0:0:
