osu file format v14

[General]
AudioFilename: audio.mp3
AudioLeadIn: 0
PreviewTime: 1732
Countdown: 0
SampleSet: Soft
StackLeniency: 0.2
Mode: 0
LetterboxInBreaks: 0
WidescreenStoryboard: 1

[Editor]
Bookmarks: 13732,25732,37732,49732,66606,78232,78607,78982,79357,79732,80107,80482,80857,81232,81607,81982,82357,82732,90232,102232,118357,129232
DistanceSpacing: 1.1
BeatDivisor: 8
GridSize: 32
TimelineZoom: 5.1

[Metadata]
Title:Metamorphose
TitleUnicode:Metamorphose
Artist:Laur
ArtistUnicode:Laur
Creator:KogumaX
Version:Collab Insane
Source:WACCA
Tags:electronic instrumental ethnic psytrance rawstyle orchestral HARDCORE TANO*C rhythm game too misho15_701_4_0 Lavila rrtyui
BeatmapID:3783960
BeatmapSetID:1823749

[Difficulty]
HPDrainRate:5
CircleSize:2.5
OverallDifficulty:7
ApproachRate:9
SliderMultiplier:2
SliderTickRate:1

[Events]
//Background and Video events
0,0,"metam.png",0,0
//Break Periods
2,1931,5069
2,7557,11069
2,78432,82319
//Storyboard Layer 0 (Background)
//Storyboard Layer 1 (Fail)
//Storyboard Layer 2 (Pass)
//Storyboard Layer 3 (Foreground)
//Storyboard Layer 4 (Overlay)
//Storyboard Sound Samples

[TimingPoints]
232,375,4,2,1,80,1,0
232,-83.3333333333333,4,2,1,80,0,0
5669,-100,4,2,1,80,0,0
14294,-71.4285714285714,4,2,1,80,0,0
15044,-55.5555555555556,4,2,1,80,0,0
15982,-71.4285714285714,4,2,1,80,0,0
21044,-55.5555555555556,4,2,1,80,0,0
21982,-71.4285714285714,4,2,1,80,0,0
23107,-71.4285714285714,4,2,1,80,0,0
24325,-100,4,2,1,80,0,0
24982,-71.4285714285714,4,2,1,80,0,0
25357,-125,4,2,1,80,0,0
25732,-50,4,2,1,80,0,0
26107,-100,4,2,1,80,0,0
28732,-50,4,2,1,80,0,0
29732,-100,4,2,1,80,0,0
30232,-50,4,2,1,80,0,0
30607,-100,4,2,1,80,0,0
31732,-50,4,2,1,80,0,0
32107,-100,4,2,1,80,0,0
34732,-50,4,2,1,80,0,0
35107,-100,4,2,1,80,0,0
35482,-83.3333333333333,4,2,1,80,0,0
37732,-166.666666666667,4,2,1,80,0,0
37919,-62.5,4,2,1,80,0,0
38107,-500,4,2,1,80,0,0
38482,-83.3333333333333,4,2,1,80,0,0
38669,-62.5,4,2,1,80,0,0
39794,-52.6315789473684,4,2,1,80,0,0
40919,-62.5,4,2,1,80,0,0
41107,-500,4,2,1,80,0,0
41482,-83.3333333333333,4,2,1,80,0,0
41669,-55.5555555555556,4,2,1,80,0,0
42794,-50,4,2,1,80,0,0
42982,-45.4545454545455,4,2,1,80,0,0
43005,-45.4545454545455,4,2,0,5,0,0
43357,-45.4545454545455,4,2,1,80,0,0
43544,-45.4545454545455,4,2,0,5,0,0
43732,-45.4545454545455,4,2,1,80,0,0
44107,-125,4,2,1,80,0,0
46732,-100,4,2,1,80,0,0
46919,-80,4,2,1,80,0,0
47107,-66.6666666666667,4,2,1,80,0,0
47294,-57.1428571428571,4,2,1,80,0,0
47482,-50,4,2,1,80,0,0
47669,-44.4444444444445,4,2,1,80,0,0
47857,-40,4,2,1,80,0,0
48044,-36.3636363636364,4,2,1,80,0,0
49357,-50,4,2,1,80,0,0
49732,-40,4,2,1,80,0,0
50200,-50,4,2,1,80,0,0
50482,-90.9090909090909,4,2,1,100,0,0
50857,-50,4,2,1,100,0,0
51107,-133.333333333333,4,2,1,100,0,0
51982,-50,4,2,1,100,0,0
52107,-57.1428571428571,4,2,1,100,0,0
52232,-66.6666666666667,4,2,1,100,0,0
52357,-80,4,2,1,100,0,0
52482,-111.111111111111,4,2,1,100,0,0
52607,-166.666666666667,4,2,1,100,0,0
53669,-166.666666666667,4,2,1,5,0,0
53763,-40,4,2,1,100,0,0
53857,-40,4,2,1,80,0,0
54232,-200,4,2,0,40,0,0
54325,-50,4,2,1,5,0,0
54513,-66.6666666666667,4,2,1,80,0,0
54607,-66.6666666666667,4,2,1,80,0,0
54982,-100,4,2,1,80,0,0
55357,-66.6666666666667,4,2,1,80,0,0
55732,-100,4,2,1,80,0,0
56294,-79.9999999999999,4,2,1,80,0,0
56482,-66.6666666666667,4,2,1,80,0,0
56857,-50,4,2,1,80,0,0
57044,-66.6666666666667,4,2,1,80,0,0
57232,-80,4,2,1,80,0,0
57794,-100,4,2,1,80,0,0
57982,-50,4,2,1,80,0,0
59294,-66.6666666666667,4,2,1,80,0,0
60607,-66.6666666666667,4,2,1,80,0,0
60794,-50,4,2,1,80,0,0
60982,-66.6666666666667,4,2,1,80,0,0
61357,-50,4,2,1,80,0,0
61732,-100,4,2,1,80,0,0
62107,-200,4,2,1,80,0,0
62294,-50,4,2,1,80,0,0
62857,-133.333333333333,4,2,1,80,0,0
63044,-40,4,2,1,80,0,0
63232,-100,4,2,1,80,0,0
63794,-66.6666666666667,4,2,1,80,0,0
63982,-50,4,2,1,80,0,0
64357,-66.6666666666667,4,2,1,80,0,0
64544,-200,4,2,1,80,0,0
64732,-133.333333333333,4,2,1,80,0,0
65857,-66.6666666666667,4,2,1,80,0,0
66044,-66.6666666666667,4,2,1,80,0,0
66232,-200,4,2,0,60,0,0
66325,-200,4,2,1,5,0,0
66607,-58.8235294117647,4,2,1,80,0,0
66794,-100,4,2,1,80,0,0
66982,-37.037037037037,4,2,1,80,0,0
67732,-50,4,2,1,80,0,0
68107,-76.9230769230769,4,2,1,80,0,0
68482,-37.037037037037,4,2,1,80,0,0
68857,-43.4782608695652,4,2,1,80,0,0
69325,-50,4,2,1,80,0,0
69607,-43.4782608695652,4,2,1,80,0,0
69982,-37.037037037037,4,2,1,80,0,0
70169,-50,4,2,1,80,0,0
70544,-40,4,2,1,80,0,0
70825,-37.037037037037,4,2,1,80,0,0
71200,-66.6666666666667,4,2,1,80,0,0
71482,-50,4,2,1,80,0,0
71857,-100,4,2,1,80,0,0
74482,-43.4782608695652,4,2,1,80,0,0
74857,-50,4,2,1,80,0,0
75232,-58.8235294117647,4,2,1,80,0,0
75607,-47.6190476190476,4,2,1,80,0,0
75982,-100,4,2,1,80,0,0
76357,-76.9230769230769,4,2,1,80,0,0
76732,-71.4285714285714,4,2,1,80,0,0
77857,-43.4782608695652,4,2,1,80,0,0
82919,-43.4782608695652,4,2,1,5,0,0
84232,-100,4,2,1,80,0,0
90232,-100,4,2,2,95,0,0
90607,-50,4,2,2,95,0,0
90794,-57.1428571428571,4,2,2,95,0,0
90982,-57.1428571428571,4,2,2,95,0,0
91169,-57.1428571428571,4,2,2,5,0,0
91263,-57.1428571428571,4,2,2,95,0,0
91357,-100,4,2,2,95,0,0
91544,-66.6666666666667,4,2,2,95,0,0
91825,-66.6666666666667,4,2,2,95,0,0
92294,-200,4,2,2,95,0,0
92482,-66.6666666666667,4,2,2,95,0,0
93419,-66.6666666666667,4,2,2,95,0,0
93607,-50,4,2,2,95,0,0
93794,-66.6666666666667,4,2,2,95,0,0
93982,-57.1428571428571,4,2,2,95,0,0
94263,-57.1428571428571,4,2,2,5,0,0
94357,-57.1428571428571,4,2,1,95,0,0
95200,-57.1428571428571,4,2,1,5,0,0
95294,-66.6666666666667,4,2,1,95,0,0
95857,-133.333333333333,4,2,1,95,0,0
96138,-133.333333333333,4,2,1,5,0,0
96232,-133.333333333333,4,2,2,95,0,0
96607,-50,4,2,2,95,0,0
96794,-66.6666666666667,4,2,2,95,0,0
97169,-66.6666666666667,4,2,2,5,0,0
97263,-66.6666666666667,4,2,2,95,0,0
97357,-100,4,2,2,95,0,0
97732,-66.6666666666667,4,2,2,95,0,0
98107,-50,4,2,2,95,0,0
98294,-200,4,2,2,95,0,0
98482,-66.6666666666667,4,2,2,95,0,0
98950,-66.6666666666667,4,2,2,95,0,0
99607,-50,4,2,2,95,0,0
99794,-57.1428571428571,4,2,2,95,0,0
99982,-71.4285714285714,4,2,1,95,0,0
100263,-71.4285714285714,4,2,2,5,0,0
100357,-71.4285714285714,4,2,2,95,0,0
100638,-71.4285714285714,4,2,2,5,0,0
100732,-100,4,2,1,95,0,0
102419,-62.5,4,2,1,80,0,0
102607,-500,4,2,1,80,0,0
102982,-83.3333333333333,4,2,1,80,0,0
103169,-62.5,4,2,1,80,0,0
104294,-52.6315789473684,4,2,1,80,0,0
105419,-62.5,4,2,1,80,0,0
105607,-500,4,2,1,80,0,0
105982,-83.3333333333333,4,2,1,80,0,0
106169,-55.5555555555556,4,2,1,80,0,0
106732,-83.3333333333333,4,2,1,80,0,0
108607,-125,4,2,1,80,0,0
111232,-100,4,2,1,80,0,0
111419,-80,4,2,1,80,0,0
111607,-66.6666666666667,4,2,1,80,0,0
111794,-57.1428571428571,4,2,1,80,0,0
111982,-50,4,2,1,80,0,0
112169,-44.4444444444445,4,2,1,80,0,0
112357,-40,4,2,1,80,0,0
112544,-36.3636363636364,4,2,1,80,0,0
112732,-50,4,2,1,80,0,0
113107,-43.4782608695652,4,2,1,80,0,0
113482,-58.8235294117647,4,2,1,80,0,0
113950,-50,4,2,1,80,0,0
114232,-58.8235294117647,4,2,1,80,0,0
114607,-47.6190476190476,4,2,1,80,0,0
114982,-50,4,2,1,80,0,0
116107,-58.8235294117647,4,2,1,80,0,0
116857,-50,4,2,1,80,0,0
117232,-40,4,2,1,80,0,0
117607,-200,4,2,1,80,0,0
117982,-43.4782608695652,4,2,1,80,0,0
118357,-100,4,2,1,100,0,0
118732,-33.3333333333333,4,2,1,100,0,0
119107,-50,4,2,1,100,0,0
119482,-33.3333333333333,4,2,1,100,0,0
120232,-133.333333333333,4,2,1,100,0,0
120607,-50,4,2,1,100,0,0
120982,-40,4,2,1,100,0,0
121357,-133.333333333333,4,2,1,100,0,0
122107,-44.4444444444445,4,2,1,100,0,0
122482,-50,4,2,1,80,0,0
122857,-500,4,2,1,80,0,0
123232,-40,4,2,1,80,0,0
123607,-57.1428571428571,4,2,1,80,0,0
123888,-133.333333333333,4,2,1,80,0,0
124169,-50,4,2,1,80,0,0
124357,-40,4,2,1,100,0,0
125107,-100,4,2,1,100,0,0
125294,-57.1428571428571,4,2,1,100,0,0
125482,-100,4,2,1,100,0,0
125575,-80,4,2,1,100,0,0
125669,-66.6666666666667,4,2,1,100,0,0
125763,-57.1428571428571,4,2,1,100,0,0
125857,-50,4,2,1,100,0,0
125950,-44.4444444444445,4,2,1,100,0,0
126044,-66.6666666666667,4,2,1,100,0,0
126232,-100,4,2,1,100,0,0
126982,-40,4,2,1,100,0,0
127005,-40,4,2,0,5,0,0
127122,-40,4,2,1,100,0,0
127357,-100,4,2,1,100,0,0
127732,-133.333333333333,4,2,1,80,0,0
128482,-66.6666666666667,4,2,1,80,0,0
128857,-80,4,2,1,80,0,0
129044,-200,4,2,1,80,0,0
129232,-66.6666666666667,4,2,1,80,0,0
129607,-40,4,2,1,80,0,0
129982,-100,4,2,1,80,0,0
130357,-66.6666666666667,4,2,1,80,0,0
130732,-50,4,2,1,80,0,0
131107,-66.6666666666667,4,2,1,80,0,0
132232,-50,4,2,1,80,0,0
132982,-100,4,2,1,80,0,0
133357,-66.6666666666667,4,2,1,80,0,0
135232,-40,4,2,1,80,0,0
135607,-50,4,2,1,80,0,0
135982,-66.6666666666667,4,2,1,80,0,0
136732,-40,4,2,1,80,0,0
137107,-33.3333333333333,4,2,1,80,0,0
137482,-40,4,2,1,80,0,0
138044,-100,4,2,1,80,0,0
138232,-40,4,2,1,80,0,0
138607,-50,4,2,1,80,0,0
138794,-66.6666666666667,4,2,1,80,0,0
139169,-40,4,2,1,80,0,0
139732,-66.6666666666667,4,2,1,80,0,0
140482,-100,4,2,1,80,0,0
140950,-100,4,2,1,5,0,0
141232,-100,4,2,1,80,0,0

[Colours]
Combo1 : 86,224,255
Combo2 : 79,255,162
Combo3 : 238,255,253
Combo4 : 255,144,0
Combo5 : 255,249,15
Combo6 : 255,19,8
Combo7 : 0,88,44
Combo8 : 8,5,129

[HitObjects]
16,85,232,37,2,0:3:0:0:
16,85,325,2,0,B|28:104|45:108|45:108|79:90|127:87,1,119.999996337891,0|8,0:0|0:2,0:0:0:0:
120,122,607,2,0,B|124:165|107:152|101:179,1,59.9999981689454,0|0,1:0|0:0,0:0:0:0:
200,161,794,2,0,B|204:204|187:191|181:218,1,59.9999981689454,0|0,3:0|3:0,0:0:0:0:
300,200,982,1,0,3:0:0:0:
277,218,1075,2,0,B|284:234|284:234|339:232|366:286,1,119.999996337891,8|0,0:2|0:0,0:0:0:0:
400,187,1357,22,0,B|349:164|258:203|270:270|313:229|338:315|259:332,1,239.999992675781,8|4,0:1|3:2,0:0:0:0:
77,322,5669,38,0,P|35:348|-12:369,2,100
144,267,6232,1,0,0:0:0:0:
226,243,6419,1,0,0:0:0:0:
226,243,6794,1,0,0:0:0:0:
226,243,7169,1,0,0:0:0:0:
226,243,7357,1,0,0:0:0:0:
435,62,11669,6,0,P|477:36|524:15,2,100
368,117,12232,5,0,0:0:0:0:
286,141,12419,1,0,0:0:0:0:
286,141,12794,1,0,0:0:0:0:
286,141,12982,86,0,P|263:153|242:169,3,50,8|8|4|4,0:3|0:3|0:3|0:3,0:0:0:0:
174,218,13357,2,0,P|163:225|152:231,6,25,2|0|0|0|0|0|0,0:3|0:0|0:0|0:0|0:0|0:0|0:0,0:0:0:0:
3,196,13732,5,0,3:0:0:0:
3,196,14294,6,0,B|9:209|9:209|46:211|46:211|68:232,1,69.9999978637696
55,239,14482,2,0,B|56:259|56:259|92:298,1,69.9999978637696,0|0,1:0|0:0,0:0:0:0:
217,264,14669,2,0,L|183:256,2,34.9999989318848
301,344,14857,85,4,3:1:0:0:
146,125,15044,6,0,B|69:180|55:279|158:289|190:113|285:129|447:285|258:238|200:265|215:321,1,449.99998626709,2|0,0:0|0:0,0:0:0:0:
301,344,15607,5,0,3:0:0:0:
12,346,15982,86,0,B|-13:357|-13:357|23:329,1,69.9999978637696,0|0,1:0|0:0,0:0:0:0:
128,352,16169,6,0,L|101:400,2,34.9999989318848
116,318,16357,2,0,L|135:272,2,34.9999989318848
214,317,16544,5,0,0:0:0:0:
214,317,16732,86,0,B|225:302|225:302|266:295|266:295|294:276,1,69.9999978637696,2|0,3:2|0:0,0:0:0:0:
374,327,16919,2,0,B|388:324|388:324|402:301|402:301|444:279,1,69.9999978637696
461,188,17107,6,0,L|494:175,2,34.9999989318848
512,187,17294,1,2,0:0:0:0:
360,124,17482,6,0,B|339:115|339:115|379:163,1,69.9999978637696,0|0,1:0|0:0,0:0:0:0:
506,373,17857,85,2,3:2:0:0:
512,368,18044,1,2,3:2:0:0:
419,286,18232,5,0,0:0:0:0:
422,280,18325,1,0,3:0:0:0:
427,287,18419,1,2,3:2:0:0:
310,242,18607,5,0,3:0:0:0:
313,232,18794,1,2,3:2:0:0:
192,251,18982,86,0,B|183:277|183:277|217:234,1,69.9999978637696,0|0,1:0|0:0,0:0:0:0:
169,110,19169,6,0,L|140:144,2,34.9999989318848,8|0|8,0:3|0:0|0:3,0:0:0:0:
153,161,19357,2,0,L|111:176,2,34.9999989318848,8|0|8,0:3|0:0|0:3,0:0:0:0:
113,197,19544,2,0,L|68:189,2,34.9999989318848,8|0|8,0:3|0:0|0:3,0:0:0:0:
5,126,19732,5,2,3:2:0:0:
512,352,20294,86,0,B|498:348|498:348|489:332|489:332|443:315,1,69.9999978637696
456,299,20482,2,0,B|452:276|452:276|406:233,1,69.9999978637696,0|0,1:0|0:0,0:0:0:0:
322,272,20669,2,0,L|290:255,2,34.9999989318848
252,157,20857,5,4,3:1:0:0:
493,42,21044,6,0,B|534:126|493:272|359:296|114:206|396:260|430:121|304:124,1,449.99998626709,2|0,0:2|0:0,0:0:0:0:
252,157,21607,85,0,3:0:0:0:
475,123,21982,6,0,B|492:138|492:138|446:124,1,69.9999978637696,0|0,1:0|0:0,0:0:0:0:
340,129,22169,6,0,L|364:179,2,34.9999989318848
354,82,22357,2,0,L|339:32,2,34.9999989318848
253,60,22544,85,0,0:0:0:0:
253,60,22732,6,0,B|241:64|241:64|222:42|222:42|167:22,1,69.9999978637696,2|0,3:2|0:0,0:0:0:0:
97,153,22919,2,0,B|154:140|154:140|174:111,1,69.9999978637696
52,59,23107,6,0,L|-3:41,2,34.9999989318848
0,61,23294,1,2,0:2:0:0:
195,32,23482,86,0,B|199:3|199:3|173:57,1,69.9999978637696,0|0,1:0|0:0,0:0:0:0:
9,207,23857,5,2,3:2:0:0:
3,198,24044,1,2,3:2:0:0:
44,308,24232,5,0,0:0:0:0:
44,308,24325,2,0,L|71:317,2,25,0|0|2,3:0|3:0|3:2,0:0:0:0:
157,267,24607,85,0,3:0:0:0:
157,255,24794,1,2,3:2:0:0:
257,200,24982,6,0,B|286:214|286:214|291:254,1,69.9999978637696,0|0,1:0|0:0,0:0:0:0:
255,349,25169,5,8,0:3:0:0:
255,349,25263,1,8,0:3:0:0:
255,349,25357,2,0,L|293:379,3,40,4|4|4|4,0:3|0:3|0:3|0:3,0:0:0:0:
369,321,25732,38,2,B|394:382|488:168|654:408|384:473|490:272,1,300,4|0,3:1|0:0,0:1:0:0:
478,220,26107,1,8,0:3:0:0:
329,184,26294,69,4,0:3:0:0:
317,204,26388,1,8,0:3:0:0:
303,201,26482,1,4,0:3:0:0:
292,216,26575,2,0,B|333:158|219:216|246:168,1,100,8|4,0:3|0:3,0:0:0:0:
238,299,26857,2,0,B|258:270|201:299|215:274,2,50,8|4|8,0:3|0:3|0:3,0:0:0:0:
512,0,27232,6,0,B|474:-15|467:15|500:36,1,50,8|4,0:3|0:3,0:0:0:0:
423,78,27419,2,0,B|406:40|380:56|389:94,1,50,8|4,0:3|0:3,0:0:0:0:
331,154,27607,2,0,B|346:116|316:108|295:141,1,50,8|4,0:3|0:3,0:0:0:0:
240,223,27794,2,0,B|277:206|261:179|223:188,1,50,8|0,0:3|0:0,0:0:0:0:
163,285,27982,22,0,B|183:276|167:254|90:257|7:328|53:339|114:325|101:376,1,200,8|8,0:3|0:3,0:0:0:0:
20,231,28544,1,4,0:3:0:0:
0,16,28732,70,2,B|9:54|9:54|121:34|191:140|191:140|242:125,1,300,4|0,3:1|0:0,0:1:0:0:
218,34,29107,2,0,B|252:-1|205:-9|83:-18|-20:181|109:118,1,300,4|0,0:2|0:0,0:0:0:0:
206,198,29482,6,0,B|280:159|288:93|137:89|200:191,1,200,2|0,0:1|0:0,0:0:0:0:
265,267,29732,21,2,0:1:0:0:
346,229,29857,70,0,P|371:250|394:274,2,66.6666666666667,2|2|2,0:1|0:1|0:1,0:0:0:0:
261,309,30232,6,0,B|324:338|437:290|422:207|369:258|338:152|435:131,1,300,4|0,0:2|0:0,0:0:0:0:
492,184,30607,2,0,B|581:159|531:66|417:66|542:87|496:169,2,200,4|4|0,0:1|3:2|0:0,0:0:0:0:
477,382,31732,22,2,B|451:304|567:357|543:216|498:285|498:285|432:224|387:312,1,300,4|0,3:1|0:0,0:1:0:0:
356,275,32107,1,8,0:3:0:0:
367,265,32200,1,4,0:3:0:0:
324,256,32294,2,0,B|344:228|289:256|302:233,1,50,8|4,0:3|0:3,0:0:0:0:
255,198,32482,70,0,B|268:179|231:198|240:182,3,33.3333333333333,8|4|8|4,0:3|0:3|0:3|0:3,0:0:0:0:
210,88,32857,2,0,B|223:69|186:88|195:72,3,33.3333333333333,8|4|8|4,0:3|0:3|0:3|0:3,0:0:0:0:
19,23,33232,5,8,0:3:0:0:
21,35,33325,2,0,B|-6:39|8:80|44:14|81:63,1,100,4|4,0:3|0:3,0:0:0:0:
103,91,33607,1,8,0:3:0:0:
105,117,33700,1,0,0:0:0:0:
100,146,33794,2,0,B|133:132|151:147|150:174,1,50,8|4,0:3|0:3,0:0:0:0:
222,199,33982,22,0,B|253:199|229:205|285:225,2,66.6666666666667,8|4|4,0:3|0:3|0:3,0:0:0:0:
216,211,34357,2,0,B|187:221|211:219|164:255,2,66.6666666666667,8|4|4,0:3|0:3|0:3,0:0:0:0:
81,232,34732,70,2,B|50:318|-82:199|-45:434|114:414|91:333,1,300,4|0,3:1|0:0,0:1:0:0:
202,350,35107,2,0,B|201:397|228:362|257:317|211:328|286:291,1,100,4|0,0:2|0:0,0:0:0:0:
397,140,35482,6,0,B|416:67|299:32|153:92|368:297|201:377|119:363|133:307,1,479.999985351563,2|0,0:0|1:2,0:0:0:0:
256,192,36294,12,0,37544,0:0:0:0:
103,227,37732,101,12,3:1:0:0:
103,227,37919,6,0,P|136:207|118:149,1,80,8|0,0:1|0:0,0:0:0:0:
25,129,38107,2,0,L|-1:147,1,30,10|0,3:1|0:0,0:0:0:0:
0,146,38482,102,0,P|28:147|49:91,1,59.9999981689454,8|0,3:1|0:0,0:0:0:0:
153,9,38669,2,0,P|213:51|226:144,2,160,10|8|8,0:1|3:1|0:1,0:0:0:0:
263,273,39232,5,10,3:1:0:0:
259,281,39325,1,0,0:0:0:0:
267,283,39419,1,8,0:1:0:0:
506,345,39607,1,8,3:1:0:0:
325,211,39794,2,0,B|269:324|385:267|396:383,1,189.999994926453,10|8,0:1|3:1,0:0:0:0:
392,363,40075,1,0,0:0:0:0:
392,363,40169,1,8,0:1:0:0:
466,164,40357,101,10,3:1:0:0:
473,138,40450,1,8,0:1:0:0:
478,115,40544,1,8,0:1:0:0:
485,93,40638,1,8,0:1:0:0:
491,71,40732,1,8,3:1:0:0:
512,255,40919,6,0,P|486:283|446:270,1,80,8|0,0:1|0:0,0:0:0:0:
337,168,41107,2,0,L|374:178,1,30,10|0,3:1|0:0,0:0:0:0:
366,176,41482,102,0,P|338:184|325:217,1,59.9999981689454,8|0,3:1|0:0,0:0:0:0:
219,304,41669,2,0,P|137:257|177:154,2,179.999994506836,10|8|8,0:1|3:1|0:1,0:0:0:0:
48,12,42232,6,0,P|77:50|83:111,2,89.9999972534181,10|0|8,3:1|0:0|0:1,0:0:0:0:
0,183,42607,1,10,3:1:0:0:
0,183,42794,2,0,B|-2:170|-14:151|-14:151|17:165|31:205,1,100,10|0,0:1|0:0,0:0:0:0:
133,355,42982,102,2,B|84:253|12:355|-21:409|78:422|-56:451|3:213|143:374|65:179|211:176|163:275|163:275|113:398|331:370|351:118|277:194,1,770.000023498536,2|0,3:1|0:0,0:1:0:0:
339,297,43732,5,12,3:1:0:0:
334,286,43825,1,8,0:1:0:0:
346,287,43919,1,8,3:1:0:0:
330,296,44013,1,8,0:1:0:0:
349,300,44107,2,0,L|398:314,3,40,8|8|8|8,3:1|0:1|3:1|0:1,0:0:0:0:
464,225,44482,101,8,3:1:0:0:
459,236,44575,1,8,0:1:0:0:
471,235,44669,1,8,3:1:0:0:
455,226,44763,1,8,0:1:0:0:
474,224,44857,2,0,L|529:209,3,40,8|8|8|8,3:1|0:1|3:1|0:1,0:0:0:0:
406,100,45232,5,8,3:1:0:0:
413,74,45325,1,8,3:1:0:0:
419,49,45419,1,8,3:1:0:0:
426,26,45513,1,8,3:1:0:0:
432,0,45607,101,8,3:1:0:0:
390,26,45700,1,8,3:1:0:0:
345,49,45794,1,8,3:1:0:0:
367,97,45888,1,8,3:1:0:0:
389,146,45982,5,0,3:0:0:0:
389,146,46732,102,0,B|394:158|361:173,2,25,10|0|0,3:2|0:0|0:0,0:0:0:0:
380,184,46919,6,0,B|375:203|327:200,2,31.25,8|0|0,0:2|0:0|0:0,0:0:0:0:
343,221,47107,102,0,B|331:235|291:202,2,37.5000014305115,10|0|0,3:2|0:0|0:0,0:0:0:0:
281,224,47294,6,0,B|256:224|248:175,2,43.7500004172325,8|0|0,0:2|0:0|0:0,0:0:0:0:
241,164,47482,102,0,B|224:146|193:171,2,50,10|0|0,0:2|0:0|0:0,0:0:0:0:
159,137,47669,6,0,B|130:129|126:179,2,56.2500021457673,10|0|0,0:2|0:0|0:0,0:0:0:0:
71,164,47857,102,0,B|45:174|73:218,2,62.5,10|0|0,0:2|0:0|0:0,0:0:0:0:
35,260,48044,6,0,B|21:286|77:304,2,68.7500006556511,10|0|0,0:2|0:0|0:0,0:0:0:0:
199,299,48232,101,2,1:2:0:0:
188,296,48607,1,2,1:2:0:0:
191,306,48982,1,2,1:2:0:0:
440,348,49357,6,0,B|462:320|462:320|405:354,2,100,8|0|0,0:2|0:0|0:0,0:0:0:0:
191,302,49732,6,0,B|176:327|192:352|192:352|155:316|154:262|211:251|198:284|246:290|284:242|297:150|150:30|-3:122|18:238|0:197|91:191|125:212|111:291,1,500,2|0,3:1|0:0,0:0:0:0:
0,333,50200,6,0,B|41:321|57:285|57:285|179:250,1,200
408,155,50482,86,0,B|395:160|395:160|390:187|390:187|368:210,2,73.3333355712891,8|2|2,0:1|0:2|0:2,0:0:0:0:
491,334,50857,6,0,P|445:285|384:259,1,133.333333333333,2|2,0:1|0:2,0:0:0:0:
256,88,51107,6,0,B|256:49,13,25.0000009536744,2|0|2|0|2|0|2|0|2|0|2|0|2|0,0:2|0:0|0:1|0:0|0:0|0:0|0:0|0:0|0:1|0:0|0:0|0:0|0:0|0:0,0:0:0:0:
266,85,51982,86,0,B|241:146,1,66.6666666666667,2|0,0:1|0:0,0:0:0:0:
241,147,52107,2,0,B|274:194,1,58.3333338896433,2|0,0:2|0:0,0:0:0:0:
274,194,52232,2,0,B|238:228,1,50.0000019073487,2|0,0:2|0:0,0:0:0:0:
237,228,52357,2,0,B|276:251,1,41.6666666666667,2|0,0:1|0:0,0:0:0:0:
272,249,52482,2,0,B|247:264,1,29.9999990844727,2|0,0:2|0:0,0:0:0:0:
246,264,52607,2,0,B|264:271,1,19.9999993896485,2|0,0:2|0:0,0:0:0:0:
256,192,52732,12,0,53669,0:0:0:0:
243,246,53857,6,0,B|364:227|191:124|174:298|166:214|247:31|335:-16|359:89|239:86|257:158,1,375
262,159,54232,2,0,L|269:187,1,25,6|0,0:1|0:0,0:0:0:0:
216,350,54513,5,0,0:0:0:0:
207,347,54607,2,0,B|184:355|178:379|187:382|181:389|76:379|65:291|65:291|55:280|42:274,1,225.000008583069,0|0,3:0|0:0,0:0:0:0:
72,261,54982,2,0,B|63:248|63:248|30:237,2,50,2|0|0,3:2|0:0|0:0,0:0:0:0:
143,177,55357,2,0,B|157:153|190:146|185:118,2,75.0000028610231,2|0|0,3:2|0:0|0:0,0:0:0:0:
31,35,55732,69,0,3:0:0:0:
26,24,55825,1,0,0:0:0:0:
20,32,55919,2,0,L|37:79,1,50
92,89,56107,1,0,3:0:0:0:
106,91,56200,1,0,0:0:0:0:
106,91,56294,2,0,B|111:103|111:103|139:104|161:125,1,62.5
240,98,56482,70,0,B|302:146|318:184|310:242|376:271,1,225.000008583069,2|0,3:0|0:0,0:0:0:0:
403,240,56857,2,0,B|410:272|444:277|477:314,1,100,0|0,3:0|0:0,0:0:0:0:
315,252,57044,2,0,B|328:279|316:293|334:324,1,75.0000028610231,0|0,3:0|0:0,0:0:0:0:
479,282,57232,102,0,P|386:250|255:220,1,187.5,0|0,3:0|0:0,0:0:0:0:
214,255,57607,1,0,3:0:0:0:
204,256,57700,1,0,0:0:0:0:
206,249,57794,2,0,B|192:200,1,50,2|0,0:2|0:0,0:0:0:0:
106,189,57982,54,2,B|100:239|61:230|77:160|-64:270|56:347|75:313|75:313|183:292|181:394|212:346|251:306|251:306|241:288|259:279|259:279|214:184|357:61,1,700,2|0,3:2|0:0,0:1:0:0:
435,26,58732,69,2,3:2:0:0:
438,37,58825,1,2,0:2:0:0:
450,17,58919,1,2,0:2:0:0:
455,41,59013,1,2,3:2:0:0:
467,13,59107,1,2,0:2:0:0:
471,30,59200,1,2,0:2:0:0:
480,22,59294,2,0,P|500:18|517:10,4,37.5000014305115,2|2|2|2|0,0:1|0:1|0:1|0:1|3:0,0:0:0:0:
256,192,59575,12,0,60232,0:0:0:0:
489,251,60607,102,0,P|481:213|464:180,1,75.0000028610231,2|0,3:0|0:0,0:0:0:0:
493,202,60794,2,2,B|502:208|498:228|464:228|434:231|433:287,1,100,2|0,0:2|0:0,0:1:0:0:
472,349,60982,2,2,B|444:341|444:341|382:220|271:204,1,225.000008583069,0|0,3:0|0:0,0:1:0:0:
193,85,61357,2,2,B|139:121|161:191|224:244|288:219|315:153|260:94|222:90,1,300,2|0,3:0|0:0,0:1:0:0:
321,47,61732,54,0,B|311:52|311:52|296:87,1,50,0|0,3:0|0:0,0:0:0:0:
115,161,62107,2,0,L|91:168,1,25,2|0,3:0|0:0,0:0:0:0:
112,188,62294,70,0,B|166:204|136:224|192:243,1,100
198,341,62482,2,0,B|217:267|128:287|62:271|183:168|294:163|318:196|288:208,1,300,0|0,3:0|0:0,0:0:0:0:
213,363,62857,2,0,B|171:359,1,37.5000014305115,2|0,3:0|0:0,0:0:0:0:
289,317,63044,2,0,B|296:334|334:323|343:342,2,62.5,2|2|2,0:1|0:1|0:1,0:0:0:0:
158,368,63232,102,0,B|95:383|125:351|9:373,1,150,2|0,3:2|0:0,0:0:0:0:
2,361,63607,1,2,3:0:0:0:
60,258,63794,2,0,B|28:234|-14:240,1,75.0000028610231,2|0,0:2|0:0,0:0:0:0:
17,269,63982,54,2,B|67:92|144:207|196:44,1,300,0|0,3:0|0:0,0:1:0:0:
238,32,64357,2,2,B|165:13,1,75.0000028610231,2|0,3:0|0:0,0:1:0:0:
74,116,64544,2,0,L|69:92,1,25,2|2,3:1|0:1,0:0:0:0:
1,16,64732,70,0,B|39:3|75:20|100:78,1,112.500004291535,8|0,0:1|0:0,0:0:0:0:
206,126,65107,2,0,B|191:155|145:194|102:151,1,112.500004291535,8|0,0:1|0:0,0:0:0:0:
285,207,65482,101,0,1:2:0:0:
289,217,65575,1,0,1:2:0:0:
300,224,65669,1,0,1:2:0:0:
314,226,65763,1,0,1:2:0:0:
324,218,65857,2,0,B|339:208|367:210|389:243,1,75.0000028610231,0|0,1:2|0:0,0:0:0:0:
492,367,66044,2,0,B|472:374|455:361|431:333,1,75.0000028610231,8|0,2:0|0:0,0:0:0:0:
256,320,66232,54,0,L|256:288,1,25,6|0,0:1|0:0,0:0:0:0:
25,11,66607,6,2,B|31:34|31:34|48:43|63:90,1,85.0000016212464,2|0,3:1|0:0,0:1:0:0:
145,158,66794,2,2,B|149:147|145:137|145:137|159:102,1,50,2|0,0:1|0:0,0:1:0:0:
58,231,66982,2,0,B|-100:315|23:72|251:73|282:128,1,405.000001544952,2|0,3:1|0:0,0:0:0:0:
415,215,67357,21,2,3:1:0:0:
416,223,67450,2,2,B|404:252|424:284|424:284|331:251|330:184|330:184|368:165|360:103,1,270.000001029968,2|2,0:1|0:1,0:1:0:0:
334,46,67732,2,0,B|314:49|299:19|302:-12|358:-7|323:32|336:48,3,100,2|2|2|2,3:1|0:1|0:1|0:1,0:0:0:0:
466,130,68107,2,0,B|486:131|486:131|490:157|527:172,3,64.9999970245363,0|2|2|2,3:0|0:2|0:2|0:2,0:0:0:0:
435,0,68482,69,2,3:1:0:0:
430,7,68575,2,2,B|357:55|360:137|360:137|438:162|411:246,1,270.000001029968,2|2,0:2|0:1,0:1:0:0:
297,236,68857,6,2,B|284:248|269:244|267:226|247:224|247:224|221:228|200:256|200:256|205:288|180:285|203:334|203:334|233:326|241:337|241:337|253:359|282:350|282:350|293:326|333:334|308:278,1,345.000006580353,2|0,3:2|0:0,0:1:0:0:
428,332,69232,21,2,3:1:0:0:
437,325,69325,2,2,B|481:320|456:355|512:381,1,100,2|0,0:1|0:0,0:1:0:0:
316,303,69513,1,2,0:1:0:0:
305,303,69607,2,2,B|281:294|268:270|268:270|197:249,1,115.000002193451,2|0,3:1|0:0,0:1:0:0:
80,128,69794,69,2,0:1:0:0:
70,123,69888,1,2,0:1:0:0:
77,114,69982,2,2,B|131:113|147:175|147:175|125:192|124:224,1,135.000000514984,2|0,3:2|0:0,0:1:0:0:
106,367,70169,2,2,B|87:375|87:375|73:348|53:339|53:339|62:311,2,100,2|0|0,0:2|0:0|3:0,0:1:0:0:
210,128,70544,6,0,B|208:156|208:156|145:158|120:218,1,125,2|0,0:2|0:0,0:0:0:0:
0,226,70732,1,2,3:1:0:0:
15,228,70825,2,2,B|127:248|234:318|234:318|303:299,1,270.000001029968,2|2,0:1|0:1,0:1:0:0:
398,336,71107,21,2,0:1:0:0:
383,335,71200,2,0,B|351:339|322:385|371:402|390:358|350:367,2,75.0000028610231,2|2|2,0:1|0:1|0:1,0:0:0:0:
286,223,71482,70,0,P|270:195|264:162,4,66.6666666666667,0|0|0|0|0,1:0|1:0|1:0|1:0|3:0,0:0:0:0:
193,238,71857,2,0,P|180:229|172:214,4,33.3333333333333,8|8|8|8|0,0:3|0:3|0:3|0:3|3:0,0:0:0:0:
55,324,72232,5,0,3:2:0:0:
45,336,72607,21,0,3:0:0:0:
26,353,72982,69,2,3:1:0:0:
0,373,73357,5,2,3:1:0:0:
78,302,73732,21,0,3:0:0:0:
217,257,74107,69,2,3:1:0:0:
424,276,74482,6,0,B|521:243|531:177|493:174|444:291|374:266,1,230.000004386902,4|8,3:0|0:2,0:0:0:0:
364,234,74763,1,8,0:2:0:0:
360,241,74857,2,0,L|346:293,6,50,8|0|0|0|0|0|8,0:1|0:0|0:0|0:0|0:0|0:0|0:2,0:0:0:0:
392,382,75232,22,0,B|373:254|206:404|273:178,1,255.000004863739,4|0,3:2|0:0,0:0:0:0:
270,77,75607,2,0,B|304:-13|156:-18|57:148|141:194|183:177,1,314.999990386963,0|0,3:0|0:0,0:0:0:0:
264,212,75982,70,0,P|277:184|292:167,3,50,2|2|2|2,3:1|0:1|0:1|0:1,0:0:0:0:
171,179,76357,2,0,P|173:143|187:110,3,64.9999970245363,2|2|2|2,3:1|0:1|0:1|0:1,0:0:0:0:
15,179,76732,6,0,B|-31:179|-4:254|80:264|44:194,3,139.999995727539,2|0|2|0,0:2|0:0|0:2|0:0,0:0:0:0:
229,312,77482,21,8,0:3:0:0:
233,321,77575,1,8,0:3:0:0:
241,314,77669,1,4,0:3:0:0:
64,229,77857,70,0,B|94:211|94:211|155:212|155:212|162:201|162:201|411:152,1,345.000006580353,4|0,0:3|0:0,0:0:0:0:
421,124,78232,1,4,3:2:0:0:
256,192,82919,12,2,84138,0:0:0:0:
283,236,84232,70,0,B|219:172|280:204|225:152,1,100,4|0,3:1|0:0,0:0:0:0:
144,32,84607,1,4,0:3:0:0:
219,71,84794,1,4,0:3:0:0:
204,279,84982,2,0,B|329:154|210:216|318:115,2,200,2|2|8,0:0|0:0|0:3,0:0:0:0:
37,357,85919,102,0,P|58:345|68:323,2,50,2|2|2,0:0|0:0|0:0,0:0:0:0:
66,384,86294,1,4,0:3:0:0:
257,352,86482,2,0,P|286:311|292:262,1,100,8|2,0:3|0:0,0:0:0:0:
428,144,86857,2,0,P|435:94|417:48,2,100,8|4|2,0:3|0:3|0:0,0:0:0:0:
512,384,87419,53,2,0:0:0:0:
496,368,87513,1,2,0:0:0:0:
474,368,87607,2,0,B|453:378|482:334|442:345,1,50,0|0,0:3|0:0,0:0:0:0:
435,329,87794,2,0,B|369:342|322:284|406:247|437:306|391:372|337:367,2,200,0|4|4,0:3|0:3|0:3,0:0:0:0:
512,0,88732,70,0,B|248:46|552:10|281:81|322:54|322:54|515:120|426:117|403:114|410:131|436:142,1,400,4|8,0:3|0:3,0:0:0:0:
352,188,89669,101,2,0:0:0:0:
310,147,89763,1,2,0:0:0:0:
332,154,89857,2,0,B|333:188|302:242|286:183|275:243,1,100,2|0,0:0|0:0,0:0:0:0:
195,271,90232,37,0,3:0:0:0:
200,278,90325,1,0,3:0:0:0:
49,342,90513,1,0,3:0:0:0:
42,340,90607,2,0,B|23:333|23:333|9:249,1,100,0|0,3:0|0:0,0:0:0:0:
42,289,90794,2,0,L|87:213,1,87.500000834465,0|0,3:0|0:0,0:0:0:0:
13,127,90982,70,2,B|72:140|72:140|86:165|86:165|170:141|170:141|213:215,1,262.500002503395,4|8,1:1|2:3,0:1:0:0:
213,215,91357,2,0,B|218:225|218:225|215:233|215:233|224:265,2,50,4|4|4,0:3|0:3|0:3,0:0:0:0:
148,325,91732,53,4,0:3:0:0:
142,329,91825,2,0,B|95:384|255:406|290:292|283:261,1,225.000008583069,4|4,0:3|0:3,0:0:0:0:
369,210,92294,2,0,L|338:203,1,25,4|0,0:3|0:0,0:0:0:0:
218,30,92482,102,0,B|180:60|180:135|180:135|230:86|313:95,1,225.000008583069,4|4,0:3|0:3,0:0:0:0:
300,57,92857,2,0,B|308:81|308:81|317:87|317:87|315:115|315:115|348:218,1,150.000005722046,4|4,0:3|0:3,0:0:0:0:
283,311,93232,69,0,3:0:0:0:
281,319,93325,1,0,3:0:0:0:
465,227,93513,1,0,3:0:0:0:
471,232,93607,2,0,B|495:255|495:255|448:303,1,100,0|0,3:0|0:0,0:0:0:0:
495,298,93794,2,0,L|423:274,1,75.0000028610231,0|0,3:0|0:0,0:0:0:0:
300,279,93982,54,2,B|292:292|292:292|312:317|312:317|364:315|364:315|437:362|437:362|396:277,1,262.500002503395,4|0,1:0|0:0,0:1:0:0:
348,183,94357,102,0,B|360:216|398:190|391:144|358:116|329:106|329:106|334:98|334:98|299:92|305:50|336:21|336:21|229:81|213:161|269:153|240:193|240:193|273:195|229:264|155:288|100:271|75:155|143:171|160:147|160:147|138:176|140:207,1,787.500007510185,4|0,3:2|0:0,0:0:0:0:
45,376,95294,70,0,B|71:291|120:383|229:317|195:280|160:252|43:213|125:241|13:269|-8:184,1,375.000014305115
0,181,95857,2,0,B|54:158|-24:124|-5:68,1,112.500004291535,2|0,0:0|0:0,0:0:0:0:
66,30,96232,53,0,3:0:0:0:
73,33,96325,1,0,3:0:0:0:
228,65,96513,1,0,3:0:0:0:
235,62,96607,2,0,B|257:2|257:2|245:4|245:4|219:43,1,100,0|0,3:0|0:0,0:0:0:0:
204,99,96794,2,0,B|218:84|218:84|252:89|252:89|273:71,1,75.0000028610231,0|0,3:0|0:0,0:0:0:0:
431,47,96982,102,2,B|451:66|451:66|258:109,1,225.000008583069,4|8,1:1|0:3,0:1:0:0:
258,109,97357,2,0,B|252:119|252:119|212:127,2,50,4|4|4,0:3|0:3|0:3,0:0:0:0:
43,307,97732,70,0,B|231:381|90:249|143:196,1,225.000008583069,4|4,0:3|0:3,0:0:0:0:
93,212,98107,2,0,B|88:202|88:202|101:189|105:168,2,50,4|4|4,0:3|0:3|0:3,0:0:0:0:
175,239,98294,2,0,L|195:211,1,25,4|0,0:3|0:0,0:0:0:0:
318,131,98482,53,4,0:3:0:0:
318,131,98575,2,0,B|393:43|463:148|327:101|291:188,1,225.000008583069,4|4,0:3|0:3,0:0:0:0:
268,173,98982,2,0,B|271:191|271:191|280:205|280:205|275:211|275:211|289:270,1,100.000003814697,4|4,0:3|0:3,0:0:0:0:
308,351,99232,101,0,3:0:0:0:
316,353,99325,1,0,3:0:0:0:
512,217,99513,1,0,3:0:0:0:
510,210,99607,2,0,B|492:195|492:195|426:250,1,100,0|0,3:0|0:0,0:0:0:0:
448,266,99794,2,0,L|464:180,1,87.500000834465,0|0,3:0|0:0,0:0:0:0:
406,49,99982,70,2,B|367:84|367:84|425:226|425:226|506:253|506:253|474:46|474:46|418:25,1,559.999982910157,4|0,1:1|1:2,0:1:0:0:
256,192,100794,12,8,102044,0:1:0:0:
396,0,102232,53,12,3:1:0:0:
396,0,102419,6,0,P|369:28|403:79,1,80,8|0,0:1|0:0,0:0:0:0:
502,114,102607,2,0,L|512:84,1,30,10|0,3:1|0:0,0:0:0:0:
512,86,102982,102,0,P|484:92|480:152,1,59.9999981689454,8|0,3:1|0:0,0:0:0:0:
382,220,103169,2,0,P|312:196|292:100,2,160,10|8|8,0:1|3:1|0:1,0:0:0:0:
160,168,103732,5,10,3:1:0:0:
168,167,103825,1,0,0:0:0:0:
161,161,103919,1,8,0:1:0:0:
369,199,104107,1,8,3:1:0:0:
183,260,104294,2,0,B|64:283|141:335|40:370,1,189.999994926453,10|8,0:1|3:1,0:0:0:0:
41,370,104575,1,0,0:0:0:0:
41,370,104669,1,8,0:1:0:0:
244,356,104857,101,10,3:1:0:0:
270,364,104950,1,8,0:1:0:0:
293,369,105044,1,8,0:1:0:0:
315,376,105138,1,8,0:1:0:0:
337,382,105232,1,8,3:1:0:0:
45,237,105419,6,0,P|57:272|104:284,1,80,8|0,0:1|0:0,0:0:0:0:
209,195,105607,2,0,L|178:205,1,30,10|0,3:1|0:0,0:0:0:0:
181,205,105982,102,0,P|198:183|202:149,1,59.9999981689454,8|0,3:1|0:0,0:0:0:0:
96,0,106169,2,0,P|53:80|129:152,2,179.999994506836,10|8|8,0:1|3:1|0:1,0:0:0:0:
417,141,106732,6,0,B|444:157|440:174|440:174|483:194|477:268|364:303|296:246|221:117|306:63,1,419.999987182618,4|0,3:2|0:0,0:0:0:0:
326,62,107482,102,0,L|318:94,6,29.9999990844727,8|8|8|8|8|8|8,2:2|2:2|2:2|2:2|2:2|2:2|2:2,0:0:0:0:
401,12,107857,5,0,1:2:0:0:
401,12,107950,1,0,1:2:0:0:
367,291,108232,101,12,3:1:0:0:
372,280,108325,1,8,0:1:0:0:
360,281,108419,1,8,3:1:0:0:
376,290,108513,1,8,0:1:0:0:
357,294,108607,2,0,L|308:308,3,40,8|8|8|8,3:1|0:1|3:1|0:1,0:0:0:0:
225,361,108982,5,12,3:1:0:0:
230,372,109075,1,8,0:1:0:0:
218,371,109169,1,8,3:1:0:0:
234,362,109263,1,8,0:1:0:0:
215,358,109357,2,0,L|166:344,3,40,8|8|8|8,3:1|0:1|3:1|0:1,0:0:0:0:
28,329,109732,101,8,3:1:0:0:
21,303,109825,1,8,3:1:0:0:
15,278,109919,1,8,3:1:0:0:
8,255,110013,1,8,3:1:0:0:
2,229,110107,5,8,3:1:0:0:
44,255,110200,1,8,3:1:0:0:
89,279,110294,1,8,3:1:0:0:
67,326,110388,1,8,3:1:0:0:
45,375,110482,101,0,3:0:0:0:
45,375,111232,6,0,B|37:362|65:340,2,25,10|0|0,3:2|0:0|0:0,0:0:0:0:
45,334,111419,102,0,B|45:314|93:305,2,31.25,8|0|0,0:2|0:0|0:0,0:0:0:0:
73,287,111607,6,0,B|81:269|126:293,2,37.5000014305115,10|0|0,3:2|0:0|0:0,0:0:0:0:
132,271,111794,102,0,B|155:263|175:310,2,43.7500004172325,8|0|0,0:2|0:0|0:0,0:0:0:0:
185,318,111982,6,0,B|204:330|228:299,2,50,10|0|0,0:2|0:0|0:0,0:0:0:0:
272,328,112169,102,0,B|301:327|294:279,2,56.2500021457673,10|0|0,0:2|0:0|0:0,0:0:0:0:
352,282,112357,6,0,B|374:264|336:228,2,62.5,10|0|0,0:2|0:0|0:0,0:0:0:0:
366,182,112544,102,0,B|372:151|315:147,2,68.7500006556511,10|0|0,0:2|0:0|0:0,0:0:0:0:
220,100,112732,6,0,B|206:130|206:130|242:152|241:202|241:202|272:177|330:191,1,200,2|0,1:2|1:0,0:0:0:0:
436,0,113107,2,0,B|350:110|328:334|480:285|370:293|437:185,1,345.000006580353,2|0,1:2|1:0,0:0:0:0:
445,134,113482,2,0,B|500:133|485:150|475:168|520:174,2,85.0000016212464,2|0|0,1:2|1:0|1:0,0:0:0:0:
220,100,113857,101,8,0:1:0:0:
240,118,113950,2,0,B|244:77|219:66|207:26,1,100,8|0,0:1|3:0,0:0:0:0:
481,314,114232,6,0,B|493:348|546:375|368:451|338:179|443:235,1,255.000004863739,4|0,3:2|0:0,0:0:0:0:
344,333,114607,2,0,B|266:299|221:283|305:230|117:182|117:182|77:198,1,314.999990386963,0|0,3:0|0:0,0:0:0:0:
99,349,114982,102,0,B|44:308|-70:413|-58:383|26:293|148:311,1,300,0|0,3:0|0:0,0:0:0:0:
215,382,115357,2,0,B|137:213|344:307|280:89,1,300,0|0,3:0|0:0,0:0:0:0:
382,92,115732,5,0,3:0:0:0:
385,69,115825,1,0,3:0:0:0:
410,88,115919,1,0,3:0:0:0:
406,70,116013,1,0,3:0:0:0:
421,75,116107,102,0,L|487:45,8,42.5000008106232,2|0|0|0|0|0|0|0|0,0:1|0:0|0:0|0:0|0:0|0:0|0:0|0:0|0:0,0:0:0:0:
71,206,116857,6,0,B|62:221|49:234|49:234|83:224|101:164,1,100,8|8,0:1|0:3,0:0:0:0:
37,20,117044,1,8,0:3:0:0:
34,12,117138,1,8,0:3:0:0:
30,24,117232,2,0,B|119:-8|186:73|186:73|183:110|221:140,1,250,4|2,3:2|0:3,0:0:0:0:
353,105,117513,101,2,0:3:0:0:
355,79,117607,2,0,B|325:71|308:58|308:58|286:79,1,75,8|2,0:2|0:3,0:0:0:0:
218,137,117982,6,0,B|221:158|221:158|271:169|309:230,1,115.000002193451,8|0,0:1|0:0,0:0:0:0:
357,309,118169,1,0,0:0:0:0:
357,309,118357,6,0,L|363:333,14,25,6|0|0|0|0|0|0|0|0|0|0|0|0|0|0,3:1|0:0|0:0|0:0|0:0|0:0|0:0|0:0|0:0|0:0|0:0|0:0|0:0|0:0|0:0,0:0:0:0:
296,212,119107,6,0,B|232:210|189:254|189:254|179:249|179:249|269:241|310:300|310:300|332:311,1,300,2|0,3:1|0:0,0:0:0:0:
390,231,119482,86,0,B|391:223|391:223|388:218|388:218|394:221|394:221|393:216|393:216|405:158,14,75.0000028610231,10|0|0|0|0|0|0|0|0|0|0|0|0|0|0,0:1|0:0|0:0|0:0|0:0|0:0|0:0|0:0|0:0|0:0|0:0|0:0|0:0|0:0|0:0,0:0:0:0:
326,127,120232,2,0,L|327:108,6,18.7500007152558,2|0|0|0|2|0|0,3:1|0:0|0:0|0:0|0:1|0:0|0:0,0:0:0:0:
316,121,120607,2,0,L|305:65,2,50,2|0|0,0:1|0:0|0:0,0:0:0:0:
306,117,120794,2,0,L|287:70,2,50,2|0|0,0:1|0:0|0:0,0:0:0:0:
330,310,120982,6,0,B|368:306|428:353|392:380|320:373|490:420|303:404|540:362|437:275|385:200|321:297|274:269|258:228,1,375,8|0,0:1|0:0,0:0:0:0:
187,137,121357,6,0,L|175:123,14,18.7500007152558,2|0|0|0|2|0|0|0|2|0|0|0|2|0|0,3:1|0:0|0:0|0:0|0:1|0:0|0:0|0:0|0:1|0:0|0:0|0:0|0:1|0:0|0:0,0:0:0:0:
332,153,122107,2,0,L|276:131,6,56.2500021457673,2|0|2|0|0|0|0,3:1|0:0|0:1|0:0|0:1|0:0|0:0,0:0:0:0:
363,287,122482,86,0,B|349:288|349:288|336:284|336:284|303:321|303:321|181:361,1,200,10|0,0:1|0:0,0:0:0:0:
76,345,122763,5,8,0:2:0:0:
71,339,122857,2,0,L|77:320,1,20,8|0,0:2|0:0,0:0:0:0:
84,233,123232,6,0,B|57:264|-47:188|-1:80|52:61|131:136|21:240|152:281|181:273,1,375,4|0,3:3|0:0,0:0:0:0:
260,368,123607,2,0,B|253:342|218:330|218:330|223:270|288:246,1,175.00000166893,8|10,0:2|0:2,0:0:0:0:
353,189,123888,85,2,0:2:0:0:
355,183,123982,2,0,L|366:142,1,37.5000014305115,8|0,0:1|0:0,0:0:0:0:
370,1,124169,2,0,B|352:9|352:9|344:49|311:77,1,100,8|2,0:2|0:2,0:0:0:0:
499,99,124357,6,0,B|483:102|483:102|481:106|481:106|471:104|471:104|440:110,14,62.5,6|0|0|0|0|0|0|0|0|0|0|0|0|0|0,3:1|0:0|0:0|0:0|0:0|0:0|0:0|0:0|0:0|0:0|0:0|0:0|0:0|0:0|0:0,0:0:0:0:
355,85,125107,2,0,L|331:98,6,25,2|0|0|0|0|0|0,3:1|0:0|0:0|0:0|0:0|0:0|0:0,0:0:0:0:
230,145,125482,2,0,L|224:118,1,25,10|0,0:1|0:0,0:0:0:0:
217,141,125575,2,0,L|202:113,1,31.25
203,138,125669,2,0,L|174:101,1,37.5000014305115
188,139,125763,2,0,L|150:108,1,43.7500004172325
174,144,125857,2,0,L|113:119,1,50,0|0,0:1|0:0,0:0:0:0:
164,156,125950,2,0,L|108:147,1,56.2500021457673
162,170,126044,6,0,B|148:184|148:184|119:183|93:195,1,75.0000028610231
0,57,126232,86,0,L|13:89,1,25,2|0,3:1|0:0,0:0:0:0:
31,83,126325,2,0,L|43:127,1,25
53,119,126419,2,0,L|55:151,1,25,0|0,0:1|0:0,0:0:0:0:
70,155,126513,2,0,L|64:196,1,25
75,193,126607,2,0,L|63:232,1,25,0|0,0:1|0:0,0:0:0:0:
76,223,126700,2,0,L|58:253,1,25
72,248,126794,2,0,L|54:268,1,25,0|0,0:1|0:0,0:0:0:0:
63,270,126888,2,0,L|37:294,1,25
71,290,126982,6,2,B|73:333|52:372|52:372|40:380|40:380|106:284|235:202|248:316|179:318,1,375,10|0,0:1|0:0,0:1:0:0:
143,232,127357,6,0,B|121:219|141:201|92:200,2,50,2|0|0,3:1|0:0|0:0,0:0:0:0:
302,318,127732,2,0,B|307:330|307:330|366:345,1,75.0000028610231,2|0,3:1|0:0,0:0:0:0:
462,172,128107,85,0,3:2:0:0:
480,167,128200,1,2,1:1:0:0:
512,170,128294,1,2,1:1:0:0:
469,202,128388,1,2,1:1:0:0:
441,258,128482,6,0,B|430:211|430:211|436:200|436:200|419:168|419:168|390:35,1,225.000008583069,2|0,0:3|0:0,0:0:0:0:
360,55,128857,2,0,B|421:70,1,62.5,2|0,0:1|0:0,0:0:0:0:
268,85,129044,2,0,L|274:60,1,25.0000009536744,2|2,0:0|0:0,0:0:0:0:
123,6,129232,54,0,B|203:6|244:51|255:173|167:134,1,225.000008583069,4|0,3:1|0:0,0:0:0:0:
57,59,129607,6,0,B|36:10|-46:74|-60:172|18:243|13:137|47:155|47:155|71:134|162:108|131:299|33:248|52:177,1,375,2|0,3:1|0:0,0:0:0:0:
19,200,129982,2,0,B|5:192|5:192|13:227|-6:250,2,66.6666666666667,2|2|2,3:1|0:1|0:1,0:0:0:0:
87,265,130357,2,0,B|100:314|39:302|-3:315|79:382|155:382|170:359|150:352,1,200.000007629395,2|0,3:1|0:0,0:0:0:0:
175,261,130732,6,0,B|167:290|219:299|325:249|189:119|281:80|356:103|344:146,1,300,4|0,3:1|0:0,0:0:0:0:
368,255,131107,2,0,B|348:304|366:309|395:256,1,75.0000028610231,2|0,3:2|0:0,0:0:0:0:
503,237,131294,1,2,3:2:0:0:
510,223,131388,2,0,B|529:173|511:168|482:221,1,75.0000028610231,2|0,3:2|0:0,0:0:0:0:
440,46,131575,1,2,3:2:0:0:
451,78,131669,2,0,B|441:103|450:105|465:79,2,37.5000014305115,2|2|2,0:1|0:1|0:1,0:0:0:0:
338,26,131857,85,0,3:1:0:0:
310,72,131950,1,2,0:3:0:0:
310,72,132044,1,2,0:3:0:0:
310,72,132138,1,8,0:2:0:0:
310,72,132232,6,0,B|381:70|607:176|254:182|305:266|305:266|389:154|346:63|175:46|184:122|160:158,1,700,6|0,3:2|0:0,0:0:0:0:
184,252,132982,6,0,B|204:248|204:248|216:209|257:180,2,66.6666666666667,2|2|2,3:1|0:1|0:1,0:0:0:0:
71,240,133357,2,0,B|65:264|65:264|235:288|155:405|218:365,1,200.000007629395,2|0,3:1|0:0,0:0:0:0:
289,307,133732,1,4,3:2:0:0:
69,71,135044,85,0,3:1:0:0:
69,71,135138,1,0,3:1:0:0:
44,76,135232,70,0,B|-72:150|34:-35|167:-31|140:27|162:59|132:53|33:137|166:146,1,375,4|0,3:1|0:0,0:0:0:0:
252,173,135607,2,0,B|172:372|419:92|423:251,1,300,2|0,3:1|0:0,0:0:0:0:
483,326,135982,2,0,B|593:349|420:426|577:367|521:293|443:289,1,150.000005722046,2|0,3:1|0:0,0:0:0:0:
367,342,136357,70,0,B|366:350|366:350|380:364|374:375,1,37.5000014305115,2|0,3:1|0:0,0:0:0:0:
342,350,136450,2,0,B|341:358|341:358|355:372|349:383,1,37.5000014305115,2|0,3:1|0:0,0:0:0:0:
44,357,136732,6,0,B|144:329|39:314|88:298|88:298|152:280|184:128|-13:113|-6:234,1,375,2|0,3:1|0:0,0:0:0:0:
32,347,137107,2,0,B|37:281|134:269|129:308|104:311|106:296|106:296|66:283|13:341|24:357,1,150.000005722046,2|0,3:1|0:0,0:0:0:0:
185,343,137294,2,0,B|218:286|310:318|289:351|265:343|273:329|273:329|243:301|170:329|173:348,1,150.000005722046,2|0,3:1|0:0,0:0:0:0:
310,171,137482,22,0,B|254:189|224:232|224:232|201:207,1,125,2|0,3:1|0:0,0:0:0:0:
324,132,137669,2,0,B|292:27|317:59|365:96|346:187,1,125,8|8,0:2|0:2,0:0:0:0:
314,208,137857,1,8,0:1:0:0:
165,41,138045,70,0,B|179:74|195:51|164:30,1,50,8|0,0:3|0:0,0:0:0:0:
32,15,138232,5,4,3:1:0:0:
32,15,138326,1,4,3:3:0:0:
57,44,138419,2,0,B|74:59|127:36|-28:105|55:124,1,125,4|4,3:3|3:3,0:0:0:0:
167,144,138607,2,0,B|174:163|227:165|72:160|133:208,1,100,8|2,0:3|3:1,0:0:0:0:
197,265,138794,2,0,B|196:280|230:298|129:245|153:297,1,75.0000028610231,4|4,3:3|3:3,0:0:0:0:
271,374,138982,21,4,3:3:0:0:
315,384,139075,1,4,3:3:0:0:
296,368,139169,2,0,B|218:280|355:303|315:272,1,125,4|2,0:3|3:1,0:0:0:0:
447,270,139357,1,2,0:1:0:0:
403,260,139450,1,2,0:1:0:0:
422,276,139544,2,0,B|500:364|363:341|403:372,1,125,2|2,0:1|0:1,0:0:0:0:
256,192,139732,38,0,B|375:69|301:16|283:17|254:59|274:10|384:24|287:112|415:73|380:134|359:126|359:126|269:90|275:141|275:141|274:186|384:211,1,525.000020027161,2|0,0:2|0:0,0:0:0:0:
427,184,140482,2,0,B|463:196|463:142|509:172,1,50,8|0,0:2|1:0,0:0:0:0:
502,136,140669,1,4,0:3:0:0:
438,23,140857,5,8,0:1:0:0:
256,192,141232,5,4,3:2:0:0:
