osu file format v14

[General]
AudioFilename: audio.ogg
AudioLeadIn: 0
PreviewTime: 6005
Countdown: 0
SampleSet: Soft
StackLeniency: 0.7
Mode: 3
LetterboxInBreaks: 0
SpecialStyle: 0
WidescreenStoryboard: 1

[Editor]
DistanceSpacing: 0.8
BeatDivisor: 3
GridSize: 32
TimelineZoom: 2.5

[Metadata]
Title:Laur-chan Taisou Daiichi
TitleUnicode:らうるちゃん体操第一
Artist:Laur
ArtistUnicode:Laur
Creator:Carpihat
Version:Vincus' Insane
Source:
Tags:electronic instrumental japanese edm piano classical uplifting trance hardstyle hardcore psy psytrance psychedelic metal speedcore chiptune vincus alptraum chordjack chordstream bracket みしゃも m1shamo 0youmu workout gym song
BeatmapID:4519876
BeatmapSetID:2134496

[Difficulty]
HPDrainRate:7.7
CircleSize:7
OverallDifficulty:7.5
ApproachRate:5
SliderMultiplier:1.4
SliderTickRate:1

[Events]
//Background and Video events
0,0,"BG.jpg",0,0
//Break Periods
//Storyboard Layer 0 (Background)
//Storyboard Layer 1 (Fail)
//Storyboard Layer 2 (Pass)
//Storyboard Layer 3 (Foreground)
//Storyboard Layer 4 (Overlay)
//Storyboard Sound Samples

[TimingPoints]
3005,500,4,2,1,20,1,0
23005,461.538461538462,4,2,1,20,1,0
23005,-108.695652173913,4,2,1,20,0,0
37774,428.571428571429,4,2,1,42,1,0
37774,-116.279069767442,4,2,1,42,0,0
51488,375,4,2,1,42,1,0
51488,-133.333333333333,4,2,1,42,0,0
63488,333.333333333333,4,2,1,42,1,0
63488,-149.253731343284,4,2,1,42,0,0
68821,300,4,2,1,42,1,0
68821,-166.666666666667,4,2,1,42,0,0
73621,272.727272727273,4,2,1,42,1,0
73621,-181.818181818182,4,2,1,42,0,0
77984,250,4,2,1,42,1,0
77984,-200,4,2,1,42,0,0
81984,230.769230769231,4,2,1,42,1,0
81984,-217.391304347826,4,2,1,42,0,0
85676,214.285714285714,4,2,1,42,1,0
85676,-232.558139534884,4,2,1,42,0,0
89104,200,4,2,1,42,1,0
89104,-250,4,2,1,42,0,0
92304,187.5,4,2,1,42,1,0
92304,-263.157894736842,4,2,1,42,0,0
95304,171.428571428571,4,2,1,42,1,0
95304,-294.117647058824,4,2,1,42,0,0
98046,150,4,2,1,42,1,0
98046,-333.333333333333,4,2,1,42,0,0
100446,133.333333333333,4,2,1,42,1,0
100446,-370.37037037037,4,2,1,42,0,0
102579,125,4,2,1,42,1,0
102579,-400,4,2,1,42,0,0
103579,115.384615384615,4,2,1,42,1,0
103579,-434.782608695652,4,2,1,42,0,0
104502,500,4,2,1,20,1,0

[HitObjects]
109,192,2963,5,0,0:0:0:0:
256,192,3005,1,0,0:0:0:0:
402,192,3046,1,0,0:0:0:0:
329,192,3255,1,0,0:0:0:0:
256,192,3505,1,0,0:0:0:0:
182,192,3755,1,0,0:0:0:0:
36,192,4005,1,0,0:0:0:0:
402,192,4005,1,0,0:0:0:0:
109,192,4255,1,0,0:0:0:0:
182,192,4505,1,0,0:0:0:0:
475,192,4755,1,0,0:0:0:0:
402,192,5005,1,0,0:0:0:0:
109,192,5046,1,0,0:0:0:0:
182,192,5255,1,0,0:0:0:0:
182,192,5505,1,0,0:0:0:0:
329,192,5713,1,0,0:0:0:0:
475,192,6005,1,0,0:0:0:0:
109,192,6505,1,0,0:0:0:0:
329,192,7005,1,0,0:0:0:0:
475,192,7046,1,0,0:0:0:0:
256,192,7505,1,0,0:0:0:0:
109,192,7755,1,0,0:0:0:0:
109,192,8005,1,0,0:0:0:0:
329,192,8005,1,0,0:0:0:0:
36,192,8505,1,0,0:0:0:0:
402,192,8505,1,0,0:0:0:0:
329,192,8755,1,0,0:0:0:0:
256,192,9005,1,0,0:0:0:0:
36,192,9046,1,0,0:0:0:0:
182,192,9505,1,0,0:0:0:0:
475,192,9755,1,0,0:0:0:0:
109,192,10005,1,0,0:0:0:0:
329,192,10005,1,0,0:0:0:0:
182,192,10505,1,0,0:0:0:0:
36,192,11005,1,0,0:0:0:0:
402,192,11005,1,0,0:0:0:0:
36,192,11255,1,0,0:0:0:0:
256,192,11505,1,0,0:0:0:0:
475,192,11755,1,0,0:0:0:0:
402,192,12005,1,0,0:0:0:0:
109,192,12005,1,0,0:0:0:0:
329,192,12255,1,0,0:0:0:0:
256,192,12505,1,0,0:0:0:0:
36,192,12505,1,0,0:0:0:0:
182,192,12755,1,0,0:0:0:0:
109,192,13005,1,0,0:0:0:0:
475,192,13005,1,0,0:0:0:0:
256,192,13505,1,0,0:0:0:0:
329,192,13755,1,0,0:0:0:0:
36,192,14005,1,0,0:0:0:0:
402,192,14005,1,0,0:0:0:0:
182,192,14505,1,0,0:0:0:0:
329,192,14505,1,0,0:0:0:0:
256,192,15005,1,0,0:0:0:0:
182,192,15255,1,0,0:0:0:0:
256,192,15442,1,0,0:0:0:0:
36,192,15505,1,0,0:0:0:0:
475,192,15755,1,0,0:0:0:0:
182,192,16005,1,0,0:0:0:0:
402,192,16005,1,0,0:0:0:0:
109,192,16255,1,0,0:0:0:0:
109,192,16505,1,0,0:0:0:0:
329,192,16505,1,0,0:0:0:0:
475,192,16755,1,0,0:0:0:0:
256,192,16942,1,0,0:0:0:0:
402,192,17005,1,0,0:0:0:0:
109,192,17255,1,0,0:0:0:0:
36,192,17505,1,0,0:0:0:0:
256,192,17755,1,0,0:0:0:0:
182,192,18005,1,0,0:0:0:0:
475,192,18005,1,0,0:0:0:0:
109,192,18505,1,0,0:0:0:0:
402,192,18755,1,0,0:0:0:0:
182,192,19005,1,0,0:0:0:0:
329,192,19046,1,0,0:0:0:0:
36,192,19255,1,0,0:0:0:0:
256,192,19505,1,0,0:0:0:0:
402,192,19755,1,0,0:0:0:0:
402,192,20005,1,0,0:0:0:0:
109,192,20005,1,0,0:0:0:0:
475,192,20505,1,0,0:0:0:0:
182,192,20505,1,0,0:0:0:0:
329,192,20755,1,0,0:0:0:0:
256,192,21005,1,0,0:0:0:0:
36,192,21005,1,0,0:0:0:0:
475,192,21046,1,0,0:0:0:0:
182,192,21255,1,0,0:0:0:0:
329,192,21505,1,0,0:0:0:0:
182,192,21505,1,0,0:0:0:0:
329,192,21755,1,0,0:0:0:0:
402,192,21755,1,0,0:0:0:0:
475,192,22005,1,0,0:0:0:0:
109,192,22005,1,0,0:0:0:0:
256,192,22505,1,0,0:0:0:0:
36,192,22505,1,0,0:0:0:0:
109,192,23005,1,0,0:0:0:0:
329,192,23005,1,0,0:0:0:0:
402,192,23043,1,0,0:0:0:0:
182,192,23120,1,0,0:0:0:0:
475,192,23235,1,0,0:0:0:0:
36,192,23351,1,0,0:0:0:0:
329,192,23466,1,0,0:0:0:0:
182,192,23581,1,0,0:0:0:0:
475,192,23697,1,0,0:0:0:0:
256,192,23697,1,0,0:0:0:0:
109,192,23812,1,0,0:0:0:0:
36,192,23928,1,0,0:0:0:0:
329,192,23928,1,0,0:0:0:0:
402,192,24043,1,0,0:0:0:0:
182,192,24158,1,0,0:0:0:0:
256,192,24274,1,0,0:0:0:0:
109,192,24389,1,0,0:0:0:0:
402,192,24389,1,0,0:0:0:0:
475,192,24620,1,0,0:0:0:0:
182,192,24620,1,0,0:0:0:0:
402,192,24812,1,0,0:0:0:0:
256,192,24851,1,0,0:0:0:0:
36,192,24851,1,0,0:0:0:0:
109,192,24966,1,0,0:0:0:0:
329,192,25081,1,0,0:0:0:0:
182,192,25197,1,0,0:0:0:0:
402,192,25312,1,0,0:0:0:0:
109,192,25428,1,0,0:0:0:0:
329,192,25543,1,0,0:0:0:0:
36,192,25543,1,0,0:0:0:0:
256,192,25658,1,0,0:0:0:0:
109,192,25774,1,0,0:0:0:0:
475,192,25774,1,0,0:0:0:0:
329,192,25889,1,0,0:0:0:0:
36,192,26005,1,0,0:0:0:0:
256,192,26120,1,0,0:0:0:0:
182,192,26235,1,0,0:0:0:0:
402,192,26235,1,0,0:0:0:0:
109,192,26466,1,0,0:0:0:0:
475,192,26466,1,0,0:0:0:0:
402,192,26697,1,0,0:0:0:0:
182,192,26697,1,0,0:0:0:0:
256,192,26735,1,0,0:0:0:0:
36,192,26812,1,0,0:0:0:0:
329,192,26928,1,0,0:0:0:0:
109,192,27043,1,0,0:0:0:0:
402,192,27158,1,0,0:0:0:0:
182,192,27274,1,0,0:0:0:0:
475,192,27389,1,0,0:0:0:0:
329,192,27389,1,0,0:0:0:0:
109,192,27505,1,0,0:0:0:0:
182,192,27620,1,0,0:0:0:0:
402,192,27620,1,0,0:0:0:0:
256,192,27735,1,0,0:0:0:0:
36,192,27851,1,0,0:0:0:0:
402,192,27889,1,0,0:0:0:0:
109,192,27966,1,0,0:0:0:0:
182,192,28081,1,0,0:0:0:0:
329,192,28081,1,0,0:0:0:0:
256,192,28312,1,0,0:0:0:0:
402,192,28312,1,0,0:0:0:0:
109,192,28543,1,0,0:0:0:0:
475,192,28543,1,0,0:0:0:0:
329,192,28658,1,0,0:0:0:0:
182,192,28774,1,0,0:0:0:0:
402,192,28889,1,0,0:0:0:0:
256,192,29005,1,0,0:0:0:0:
36,192,29005,1,0,0:0:0:0:
475,192,29120,1,0,0:0:0:0:
182,192,29235,1,0,0:0:0:0:
402,192,29351,1,0,0:0:0:0:
109,192,29351,1,0,0:0:0:0:
256,192,29466,1,0,0:0:0:0:
475,192,29466,1,0,0:0:0:0:
36,192,29505,1,0,0:0:0:0:
329,192,29668,1,0,0:0:0:0:
475,192,29783,1,0,0:0:0:0:
256,192,29899,1,0,0:0:0:0:
36,192,29899,1,0,0:0:0:0:
182,192,29985,1,0,0:0:0:0:
475,192,30101,1,0,0:0:0:0:
329,192,30216,1,0,0:0:0:0:
256,192,30389,1,0,0:0:0:0:
109,192,30389,1,0,0:0:0:0:
402,192,30620,1,0,0:0:0:0:
109,192,30735,1,0,0:0:0:0:
182,192,30851,1,0,0:0:0:0:
36,192,30851,1,0,0:0:0:0:
329,192,30908,1,0,0:0:0:0:
475,192,30966,1,0,0:0:0:0:
256,192,31081,1,0,0:0:0:0:
36,192,31197,1,0,0:0:0:0:
329,192,31312,1,0,0:0:0:0:
475,192,31312,1,0,0:0:0:0:
109,192,31543,1,0,0:0:0:0:
256,192,31543,1,0,0:0:0:0:
36,192,31658,1,0,0:0:0:0:
182,192,31774,1,0,0:0:0:0:
329,192,31774,1,0,0:0:0:0:
256,192,32005,1,0,0:0:0:0:
402,192,32005,1,0,0:0:0:0:
109,192,32197,1,0,0:0:0:0:
182,192,32235,1,0,0:0:0:0:
329,192,32235,1,0,0:0:0:0:
475,192,32351,1,0,0:0:0:0:
36,192,32466,1,0,0:0:0:0:
256,192,32581,1,0,0:0:0:0:
402,192,32697,1,0,0:0:0:0:
109,192,32812,1,0,0:0:0:0:
256,192,32928,1,0,0:0:0:0:
475,192,32928,1,0,0:0:0:0:
36,192,33043,1,0,0:0:0:0:
329,192,33158,1,0,0:0:0:0:
109,192,33158,1,0,0:0:0:0:
475,192,33274,1,0,0:0:0:0:
182,192,33389,1,0,0:0:0:0:
402,192,33505,1,0,0:0:0:0:
256,192,33620,1,0,0:0:0:0:
109,192,33620,1,0,0:0:0:0:
182,192,33851,1,0,0:0:0:0:
329,192,33851,1,0,0:0:0:0:
475,192,34081,1,0,0:0:0:0:
256,192,34120,1,0,0:0:0:0:
182,192,35235,1,0,0:0:0:0:
36,192,35466,1,0,0:0:0:0:
182,192,35697,1,0,0:0:0:0:
329,192,35889,1,0,0:0:0:0:
475,192,35928,1,0,0:0:0:0:
109,192,36158,1,0,0:0:0:0:
182,192,36235,1,0,0:0:0:0:
256,192,36312,1,0,0:0:0:0:
329,192,36389,1,0,0:0:0:0:
402,192,36466,1,0,0:0:0:0:
475,192,36543,1,0,0:0:0:0:
182,192,36620,1,0,0:0:0:0:
109,192,36697,1,0,0:0:0:0:
36,192,36774,1,0,0:0:0:0:
329,192,36851,1,0,0:0:0:0:
256,192,36928,1,0,0:0:0:0:
182,192,37005,1,0,0:0:0:0:
402,192,37081,1,0,0:0:0:0:
475,192,37081,1,0,0:0:0:0:
256,192,37197,1,0,0:0:0:0:
109,192,37312,1,0,0:0:0:0:
36,192,37312,1,0,0:0:0:0:
256,192,37428,1,0,0:0:0:0:
329,192,37543,1,0,0:0:0:0:
402,192,37543,1,0,0:0:0:0:
256,192,37658,1,0,0:0:0:0:
182,192,37774,1,0,0:0:0:0:
475,192,37774,1,0,0:0:0:0:
36,192,37774,1,0,0:0:0:0:
329,192,37988,1,0,0:0:0:0:
182,192,38095,1,0,0:0:0:0:
109,192,38095,1,0,0:0:0:0:
475,192,38202,1,0,0:0:0:0:
402,192,38202,1,0,0:0:0:0:
256,192,38202,1,0,0:0:0:0:
182,192,38309,1,0,0:0:0:0:
109,192,38416,1,0,0:0:0:0:
329,192,38416,1,0,0:0:0:0:
402,192,38524,1,0,0:0:0:0:
182,192,38631,1,0,0:0:0:0:
475,192,38631,1,0,0:0:0:0:
36,192,38631,1,0,0:0:0:0:
109,192,38845,1,0,0:0:0:0:
329,192,38845,1,0,0:0:0:0:
182,192,38952,1,0,0:0:0:0:
475,192,39059,1,0,0:0:0:0:
36,192,39059,1,0,0:0:0:0:
256,192,39059,1,0,0:0:0:0:
109,192,39274,1,0,0:0:0:0:
329,192,39274,1,0,0:0:0:0:
402,192,39274,1,0,0:0:0:0:
256,192,39488,1,0,0:0:0:0:
475,192,39488,1,0,0:0:0:0:
36,192,39488,1,0,0:0:0:0:
109,192,39702,1,0,0:0:0:0:
182,192,39809,1,0,0:0:0:0:
329,192,39809,1,0,0:0:0:0:
256,192,39916,1,0,0:0:0:0:
475,192,39916,1,0,0:0:0:0:
36,192,39916,1,0,0:0:0:0:
402,192,40024,1,0,0:0:0:0:
329,192,40131,1,0,0:0:0:0:
182,192,40131,1,0,0:0:0:0:
402,192,40345,1,0,0:0:0:0:
109,192,40345,1,0,0:0:0:0:
256,192,40345,1,0,0:0:0:0:
182,192,40452,1,0,0:0:0:0:
329,192,40559,1,0,0:0:0:0:
475,192,40666,1,0,0:0:0:0:
109,192,40666,1,0,0:0:0:0:
182,192,40774,1,0,0:0:0:0:
402,192,40774,1,0,0:0:0:0:
36,192,40774,1,0,0:0:0:0:
256,192,40881,1,0,0:0:0:0:
475,192,40988,1,0,0:0:0:0:
329,192,40988,1,0,0:0:0:0:
109,192,40988,1,0,0:0:0:0:
256,192,41202,1,0,0:0:0:0:
402,192,41202,1,0,0:0:0:0:
36,192,41202,1,0,0:0:0:0:
182,192,41416,1,0,0:0:0:0:
402,192,41524,1,0,0:0:0:0:
36,192,41524,1,0,0:0:0:0:
475,192,41631,1,0,0:0:0:0:
329,192,41631,1,0,0:0:0:0:
109,192,41631,1,0,0:0:0:0:
256,192,41738,1,0,0:0:0:0:
182,192,41845,1,0,0:0:0:0:
36,192,41845,1,0,0:0:0:0:
329,192,41952,1,0,0:0:0:0:
402,192,42059,1,0,0:0:0:0:
109,192,42059,1,0,0:0:0:0:
475,192,42059,1,0,0:0:0:0:
182,192,42166,1,0,0:0:0:0:
256,192,42274,1,0,0:0:0:0:
402,192,42274,1,0,0:0:0:0:
36,192,42274,1,0,0:0:0:0:
109,192,42488,1,0,0:0:0:0:
329,192,42488,1,0,0:0:0:0:
475,192,42488,1,0,0:0:0:0:
256,192,42595,1,0,0:0:0:0:
182,192,42702,1,0,0:0:0:0:
402,192,42702,1,0,0:0:0:0:
36,192,42702,1,0,0:0:0:0:
329,192,42916,1,0,0:0:0:0:
475,192,42916,1,0,0:0:0:0:
109,192,42916,1,0,0:0:0:0:
256,192,43131,1,0,0:0:0:0:
329,192,43238,1,0,0:0:0:0:
36,192,43238,1,0,0:0:0:0:
475,192,43345,1,0,0:0:0:0:
402,192,43345,1,0,0:0:0:0:
109,192,43345,1,0,0:0:0:0:
182,192,43452,1,0,0:0:0:0:
256,192,43559,1,0,0:0:0:0:
475,192,43559,1,0,0:0:0:0:
402,192,43666,1,0,0:0:0:0:
329,192,43774,1,0,0:0:0:0:
36,192,43774,1,0,0:0:0:0:
109,192,43774,1,0,0:0:0:0:
182,192,43881,1,0,0:0:0:0:
256,192,43988,1,0,0:0:0:0:
329,192,44095,1,0,0:0:0:0:
36,192,44095,1,0,0:0:0:0:
402,192,44202,1,0,0:0:0:0:
475,192,44202,1,0,0:0:0:0:
109,192,44202,1,0,0:0:0:0:
182,192,44416,1,0,0:0:0:0:
329,192,44416,1,0,0:0:0:0:
36,192,44416,1,0,0:0:0:0:
475,192,44631,1,0,0:0:0:0:
182,192,44631,1,0,0:0:0:0:
256,192,44631,1,0,0:0:0:0:
109,192,44845,1,0,0:0:0:0:
402,192,44845,1,0,0:0:0:0:
329,192,44952,1,0,0:0:0:0:
256,192,45059,1,0,0:0:0:0:
36,192,45059,1,0,0:0:0:0:
475,192,45059,1,0,0:0:0:0:
182,192,45166,1,0,0:0:0:0:
109,192,45274,1,0,0:0:0:0:
182,192,45381,1,0,0:0:0:0:
402,192,45381,1,0,0:0:0:0:
256,192,45488,1,0,0:0:0:0:
475,192,45488,1,0,0:0:0:0:
36,192,45488,1,0,0:0:0:0:
182,192,45702,1,0,0:0:0:0:
329,192,45702,1,0,0:0:0:0:
402,192,45809,1,0,0:0:0:0:
256,192,45916,1,0,0:0:0:0:
475,192,45916,1,0,0:0:0:0:
36,192,45916,1,0,0:0:0:0:
182,192,46131,1,0,0:0:0:0:
402,192,46131,1,0,0:0:0:0:
109,192,46238,1,0,0:0:0:0:
256,192,46345,1,0,0:0:0:0:
36,192,46345,1,0,0:0:0:0:
475,192,46345,1,0,0:0:0:0:
109,192,46559,1,0,0:0:0:0:
402,192,46666,1,0,0:0:0:0:
475,192,46666,1,0,0:0:0:0:
182,192,46774,1,0,0:0:0:0:
36,192,46774,1,0,0:0:0:0:
256,192,46774,1,0,0:0:0:0:
329,192,46881,1,0,0:0:0:0:
402,192,46988,1,0,0:0:0:0:
109,192,46988,1,0,0:0:0:0:
182,192,47095,1,0,0:0:0:0:
256,192,47202,1,0,0:0:0:0:
329,192,47202,1,0,0:0:0:0:
475,192,47202,1,0,0:0:0:0:
182,192,47416,1,0,0:0:0:0:
329,192,47524,1,0,0:0:0:0:
36,192,47524,1,0,0:0:0:0:
256,192,47631,1,0,0:0:0:0:
475,192,47631,1,0,0:0:0:0:
109,192,47631,1,0,0:0:0:0:
36,192,47845,1,0,0:0:0:0:
182,192,47845,1,0,0:0:0:0:
402,192,47952,1,0,0:0:0:0:
109,192,48059,1,0,0:0:0:0:
182,192,48059,1,0,0:0:0:0:
329,192,48059,1,0,0:0:0:0:
475,192,48274,1,0,0:0:0:0:
402,192,48381,1,0,0:0:0:0:
182,192,48381,1,0,0:0:0:0:
329,192,48488,1,0,0:0:0:0:
109,192,48488,1,0,0:0:0:0:
36,192,48488,1,0,0:0:0:0:
402,192,48595,1,0,0:0:0:0:
475,192,48702,1,0,0:0:0:0:
182,192,48702,1,0,0:0:0:0:
256,192,48809,1,0,0:0:0:0:
109,192,48916,1,0,0:0:0:0:
329,192,48916,1,0,0:0:0:0:
402,192,48916,1,0,0:0:0:0:
182,192,49131,1,0,0:0:0:0:
475,192,49131,1,0,0:0:0:0:
109,192,49238,1,0,0:0:0:0:
182,192,49345,1,0,0:0:0:0:
36,192,49345,1,0,0:0:0:0:
256,192,49345,1,0,0:0:0:0:
402,192,49452,1,0,0:0:0:0:
475,192,49559,1,0,0:0:0:0:
329,192,49559,1,0,0:0:0:0:
182,192,49666,1,0,0:0:0:0:
109,192,49774,1,0,0:0:0:0:
402,192,49774,1,0,0:0:0:0:
256,192,49774,1,0,0:0:0:0:
182,192,49988,1,0,0:0:0:0:
256,192,50095,1,0,0:0:0:0:
329,192,50202,1,0,0:0:0:0:
329,192,50416,1,0,0:0:0:0:
182,192,50416,1,0,0:0:0:0:
36,192,50631,1,0,0:0:0:0:
475,192,50631,1,0,0:0:0:0:
109,192,51059,1,0,0:0:0:0:
402,192,51059,1,0,0:0:0:0:
182,192,51274,1,0,0:0:0:0:
256,192,51274,1,0,0:0:0:0:
329,192,51274,1,0,0:0:0:0:
182,192,51488,1,0,0:0:0:0:
36,192,51488,1,0,0:0:0:0:
402,192,51488,1,0,0:0:0:0:
329,192,51863,1,0,0:0:0:0:
475,192,51863,1,0,0:0:0:0:
36,192,51863,1,0,0:0:0:0:
329,192,52050,1,0,0:0:0:0:
109,192,52050,1,0,0:0:0:0:
256,192,52238,1,0,0:0:0:0:
36,192,52238,1,0,0:0:0:0:
182,192,52238,1,0,0:0:0:0:
109,192,52613,1,0,0:0:0:0:
329,192,52613,1,0,0:0:0:0:
475,192,52613,1,0,0:0:0:0:
109,192,52800,1,0,0:0:0:0:
402,192,52800,1,0,0:0:0:0:
256,192,52988,1,0,0:0:0:0:
182,192,52988,1,0,0:0:0:0:
475,192,52988,1,0,0:0:0:0:
402,192,53363,1,0,0:0:0:0:
475,192,53363,1,0,0:0:0:0:
109,192,53363,1,0,0:0:0:0:
402,192,53550,1,0,0:0:0:0:
182,192,53550,1,0,0:0:0:0:
256,192,53738,1,0,0:0:0:0:
36,192,53738,1,0,0:0:0:0:
109,192,53738,1,0,0:0:0:0:
402,192,54113,1,0,0:0:0:0:
329,192,54113,1,0,0:0:0:0:
182,192,54113,1,0,0:0:0:0:
475,192,54300,1,0,0:0:0:0:
182,192,54300,1,0,0:0:0:0:
36,192,54300,1,0,0:0:0:0:
475,192,54488,1,0,0:0:0:0:
109,192,54488,1,0,0:0:0:0:
329,192,54488,1,0,0:0:0:0:
256,192,54863,1,0,0:0:0:0:
402,192,54863,1,0,0:0:0:0:
36,192,54863,1,0,0:0:0:0:
256,192,55050,1,0,0:0:0:0:
329,192,55050,1,0,0:0:0:0:
109,192,55238,1,0,0:0:0:0:
402,192,55238,1,0,0:0:0:0:
475,192,55238,1,0,0:0:0:0:
109,192,55425,1,0,0:0:0:0:
36,192,55425,1,0,0:0:0:0:
182,192,55613,1,0,0:0:0:0:
329,192,55613,1,0,0:0:0:0:
475,192,55613,1,0,0:0:0:0:
402,192,55800,1,0,0:0:0:0:
109,192,55800,1,0,0:0:0:0:
182,192,55894,1,0,0:0:0:0:
329,192,55894,1,0,0:0:0:0:
256,192,55988,1,0,0:0:0:0:
475,192,55988,1,0,0:0:0:0:
36,192,55988,1,0,0:0:0:0:
182,192,56363,1,0,0:0:0:0:
329,192,56363,1,0,0:0:0:0:
109,192,56363,1,0,0:0:0:0:
182,192,56550,1,0,0:0:0:0:
256,192,56644,1,0,0:0:0:0:
36,192,56738,1,0,0:0:0:0:
329,192,56738,1,0,0:0:0:0:
475,192,56738,1,0,0:0:0:0:
182,192,57113,1,0,0:0:0:0:
36,192,57113,1,0,0:0:0:0:
475,192,57113,1,0,0:0:0:0:
329,192,57300,1,0,0:0:0:0:
402,192,57300,1,0,0:0:0:0:
182,192,57394,1,0,0:0:0:0:
109,192,57394,1,0,0:0:0:0:
256,192,57488,1,0,0:0:0:0:
475,192,57488,1,0,0:0:0:0:
36,192,57488,1,0,0:0:0:0:
109,192,57863,1,0,0:0:0:0:
402,192,57863,1,0,0:0:0:0:
475,192,57863,1,0,0:0:0:0:
182,192,58238,1,0,0:0:0:0:
402,192,58238,1,0,0:0:0:0:
475,192,58238,1,0,0:0:0:0:
182,192,58425,1,0,0:0:0:0:
36,192,58425,1,0,0:0:0:0:
402,192,58613,1,0,0:0:0:0:
475,192,58613,1,0,0:0:0:0:
256,192,58613,1,0,0:0:0:0:
256,192,58800,1,0,0:0:0:0:
109,192,58800,1,0,0:0:0:0:
109,192,58988,1,0,0:0:0:0:
36,192,58988,1,0,0:0:0:0:
329,192,58988,1,0,0:0:0:0:
109,192,59363,1,0,0:0:0:0:
36,192,59363,1,0,0:0:0:0:
402,192,59363,1,0,0:0:0:0:
402,192,59550,1,0,0:0:0:0:
475,192,59550,1,0,0:0:0:0:
109,192,59738,1,0,0:0:0:0:
36,192,59738,1,0,0:0:0:0:
256,192,59738,1,0,0:0:0:0:
109,192,60113,1,0,0:0:0:0:
36,192,60113,1,0,0:0:0:0:
329,192,60113,1,0,0:0:0:0:
329,192,60300,1,0,0:0:0:0:
182,192,60300,1,0,0:0:0:0:
256,192,60300,1,0,0:0:0:0:
182,192,60488,1,0,0:0:0:0:
402,192,60488,1,0,0:0:0:0:
475,192,60488,1,0,0:0:0:0:
109,192,60863,1,0,0:0:0:0:
36,192,60863,1,0,0:0:0:0:
256,192,60863,1,0,0:0:0:0:
182,192,61238,1,0,0:0:0:0:
109,192,61238,1,0,0:0:0:0:
329,192,61238,1,0,0:0:0:0:
109,192,61425,1,0,0:0:0:0:
475,192,61425,1,0,0:0:0:0:
256,192,61613,1,0,0:0:0:0:
182,192,61613,1,0,0:0:0:0:
402,192,61613,1,0,0:0:0:0:
402,192,61800,1,0,0:0:0:0:
182,192,61800,1,0,0:0:0:0:
36,192,61800,1,0,0:0:0:0:
329,192,61988,1,0,0:0:0:0:
475,192,61988,1,0,0:0:0:0:
109,192,61988,1,0,0:0:0:0:
475,192,62363,1,0,0:0:0:0:
36,192,62363,1,0,0:0:0:0:
182,192,62363,1,0,0:0:0:0:
109,192,62738,1,0,0:0:0:0:
402,192,62738,1,0,0:0:0:0:
256,192,62738,1,0,0:0:0:0:
36,192,62925,1,0,0:0:0:0:
475,192,62925,1,0,0:0:0:0:
182,192,63019,1,0,0:0:0:0:
329,192,63019,1,0,0:0:0:0:
36,192,63113,1,0,0:0:0:0:
256,192,63113,1,0,0:0:0:0:
475,192,63113,1,0,0:0:0:0:
109,192,63300,1,0,0:0:0:0:
402,192,63300,1,0,0:0:0:0:
329,192,63300,1,0,0:0:0:0:
36,192,63488,1,0,0:0:0:0:
182,192,63488,1,0,0:0:0:0:
402,192,63488,1,0,0:0:0:0:
182,192,63654,1,0,0:0:0:0:
329,192,63821,1,0,0:0:0:0:
109,192,63821,1,0,0:0:0:0:
475,192,63821,1,0,0:0:0:0:
256,192,63988,1,0,0:0:0:0:
182,192,64154,1,0,0:0:0:0:
402,192,64154,1,0,0:0:0:0:
36,192,64154,1,0,0:0:0:0:
402,192,64321,1,0,0:0:0:0:
109,192,64488,1,0,0:0:0:0:
329,192,64488,1,0,0:0:0:0:
256,192,64488,1,0,0:0:0:0:
182,192,64654,1,0,0:0:0:0:
402,192,64654,1,0,0:0:0:0:
36,192,64821,1,0,0:0:0:0:
329,192,64821,1,0,0:0:0:0:
475,192,64821,1,0,0:0:0:0:
36,192,64988,1,0,0:0:0:0:
402,192,65154,1,0,0:0:0:0:
329,192,65154,1,0,0:0:0:0:
182,192,65154,1,0,0:0:0:0:
109,192,65321,1,0,0:0:0:0:
475,192,65488,1,0,0:0:0:0:
36,192,65488,1,0,0:0:0:0:
256,192,65488,1,0,0:0:0:0:
475,192,65654,1,0,0:0:0:0:
329,192,65821,1,0,0:0:0:0:
109,192,65821,1,0,0:0:0:0:
182,192,65821,1,0,0:0:0:0:
402,192,65988,1,0,0:0:0:0:
109,192,66154,1,0,0:0:0:0:
475,192,66154,1,0,0:0:0:0:
256,192,66154,1,0,0:0:0:0:
109,192,66321,1,0,0:0:0:0:
182,192,66488,1,0,0:0:0:0:
475,192,66488,1,0,0:0:0:0:
402,192,66488,1,0,0:0:0:0:
329,192,66654,1,0,0:0:0:0:
256,192,66821,1,0,0:0:0:0:
36,192,66821,1,0,0:0:0:0:
109,192,66821,1,0,0:0:0:0:
182,192,66988,1,0,0:0:0:0:
402,192,66988,1,0,0:0:0:0:
36,192,67154,1,0,0:0:0:0:
256,192,67154,1,0,0:0:0:0:
329,192,67154,1,0,0:0:0:0:
182,192,67321,1,0,0:0:0:0:
402,192,67321,1,0,0:0:0:0:
109,192,67488,1,0,0:0:0:0:
475,192,67488,1,0,0:0:0:0:
329,192,67488,1,0,0:0:0:0:
329,192,67654,1,0,0:0:0:0:
182,192,67821,1,0,0:0:0:0:
402,192,67821,1,0,0:0:0:0:
475,192,67821,1,0,0:0:0:0:
329,192,67988,1,0,0:0:0:0:
109,192,67988,1,0,0:0:0:0:
36,192,68154,1,0,0:0:0:0:
256,192,68154,1,0,0:0:0:0:
182,192,68154,1,0,0:0:0:0:
256,192,68321,1,0,0:0:0:0:
109,192,68488,1,0,0:0:0:0:
329,192,68488,1,0,0:0:0:0:
475,192,68488,1,0,0:0:0:0:
182,192,68654,1,0,0:0:0:0:
256,192,68738,1,0,0:0:0:0:
329,192,68821,1,0,0:0:0:0:
475,192,68821,1,0,0:0:0:0:
402,192,68821,1,0,0:0:0:0:
182,192,68921,1,0,0:0:0:0:
36,192,68921,1,0,0:0:0:0:
329,192,69021,1,0,0:0:0:0:
475,192,69021,1,0,0:0:0:0:
36,192,69121,1,0,0:0:0:0:
256,192,69121,1,0,0:0:0:0:
109,192,69121,1,0,0:0:0:0:
182,192,69221,1,0,0:0:0:0:
329,192,69321,1,0,0:0:0:0:
402,192,69321,1,0,0:0:0:0:
475,192,69421,1,0,0:0:0:0:
109,192,69421,1,0,0:0:0:0:
36,192,69421,1,0,0:0:0:0:
182,192,69621,1,0,0:0:0:0:
109,192,69621,1,0,0:0:0:0:
329,192,69721,1,0,0:0:0:0:
475,192,69721,1,0,0:0:0:0:
402,192,69721,1,0,0:0:0:0:
256,192,69821,1,0,0:0:0:0:
36,192,69921,1,0,0:0:0:0:
109,192,69921,1,0,0:0:0:0:
475,192,70021,1,0,0:0:0:0:
402,192,70021,1,0,0:0:0:0:
182,192,70021,1,0,0:0:0:0:
329,192,70221,1,0,0:0:0:0:
402,192,70221,1,0,0:0:0:0:
182,192,70321,1,0,0:0:0:0:
36,192,70321,1,0,0:0:0:0:
109,192,70321,1,0,0:0:0:0:
256,192,70421,1,0,0:0:0:0:
329,192,70421,1,0,0:0:0:0:
402,192,70521,1,0,0:0:0:0:
256,192,70621,1,0,0:0:0:0:
182,192,70621,1,0,0:0:0:0:
475,192,70621,1,0,0:0:0:0:
182,192,70821,1,0,0:0:0:0:
109,192,70821,1,0,0:0:0:0:
256,192,70921,1,0,0:0:0:0:
329,192,70921,1,0,0:0:0:0:
402,192,70921,1,0,0:0:0:0:
109,192,71021,1,0,0:0:0:0:
36,192,71021,1,0,0:0:0:0:
256,192,71121,1,0,0:0:0:0:
329,192,71221,1,0,0:0:0:0:
402,192,71221,1,0,0:0:0:0:
475,192,71221,1,0,0:0:0:0:
182,192,71321,1,0,0:0:0:0:
36,192,71321,1,0,0:0:0:0:
329,192,71421,1,0,0:0:0:0:
256,192,71521,1,0,0:0:0:0:
109,192,71521,1,0,0:0:0:0:
36,192,71521,1,0,0:0:0:0:
402,192,71621,1,0,0:0:0:0:
475,192,71621,1,0,0:0:0:0:
182,192,71721,1,0,0:0:0:0:
256,192,71821,1,0,0:0:0:0:
329,192,71821,1,0,0:0:0:0:
475,192,71821,1,0,0:0:0:0:
36,192,71921,1,0,0:0:0:0:
109,192,71921,1,0,0:0:0:0:
402,192,72021,1,0,0:0:0:0:
109,192,72121,1,0,0:0:0:0:
182,192,72121,1,0,0:0:0:0:
36,192,72121,1,0,0:0:0:0:
329,192,72221,1,0,0:0:0:0:
475,192,72221,1,0,0:0:0:0:
256,192,72321,1,0,0:0:0:0:
182,192,72421,1,0,0:0:0:0:
36,192,72421,1,0,0:0:0:0:
402,192,72421,1,0,0:0:0:0:
109,192,73321,1,0,0:0:0:0:
36,192,73321,1,0,0:0:0:0:
256,192,73396,1,0,0:0:0:0:
182,192,73396,1,0,0:0:0:0:
475,192,73471,1,0,0:0:0:0:
329,192,73471,1,0,0:0:0:0:
182,192,73621,1,0,0:0:0:0:
256,192,73621,1,0,0:0:0:0:
402,192,73621,1,0,0:0:0:0:
109,192,73689,1,0,0:0:0:0:
36,192,73757,1,0,0:0:0:0:
475,192,73893,1,0,0:0:0:0:
182,192,73893,1,0,0:0:0:0:
402,192,73961,1,0,0:0:0:0:
109,192,74030,1,0,0:0:0:0:
329,192,74030,1,0,0:0:0:0:
36,192,74166,1,0,0:0:0:0:
475,192,74166,1,0,0:0:0:0:
182,192,74166,1,0,0:0:0:0:
329,192,74302,1,0,0:0:0:0:
109,192,74439,1,0,0:0:0:0:
402,192,74439,1,0,0:0:0:0:
256,192,74439,1,0,0:0:0:0:
329,192,74575,1,0,0:0:0:0:
182,192,74575,1,0,0:0:0:0:
36,192,74711,1,0,0:0:0:0:
402,192,74711,1,0,0:0:0:0:
475,192,74711,1,0,0:0:0:0:
109,192,74780,1,0,0:0:0:0:
182,192,74848,1,0,0:0:0:0:
329,192,74984,1,0,0:0:0:0:
36,192,74984,1,0,0:0:0:0:
402,192,75052,1,0,0:0:0:0:
475,192,75121,1,0,0:0:0:0:
109,192,75121,1,0,0:0:0:0:
36,192,75257,1,0,0:0:0:0:
182,192,75257,1,0,0:0:0:0:
329,192,75257,1,0,0:0:0:0:
475,192,75325,1,0,0:0:0:0:
109,192,75393,1,0,0:0:0:0:
256,192,75461,1,0,0:0:0:0:
402,192,75530,1,0,0:0:0:0:
475,192,75530,1,0,0:0:0:0:
109,192,75666,1,0,0:0:0:0:
36,192,75666,1,0,0:0:0:0:
182,192,75802,1,0,0:0:0:0:
402,192,75802,1,0,0:0:0:0:
475,192,75802,1,0,0:0:0:0:
329,192,75871,1,0,0:0:0:0:
256,192,75939,1,0,0:0:0:0:
109,192,76075,1,0,0:0:0:0:
36,192,76075,1,0,0:0:0:0:
182,192,76143,1,0,0:0:0:0:
256,192,76211,1,0,0:0:0:0:
475,192,76211,1,0,0:0:0:0:
36,192,76348,1,0,0:0:0:0:
109,192,76348,1,0,0:0:0:0:
329,192,76348,1,0,0:0:0:0:
182,192,76484,1,0,0:0:0:0:
475,192,76484,1,0,0:0:0:0:
402,192,76621,1,0,0:0:0:0:
329,192,76621,1,0,0:0:0:0:
36,192,76757,1,0,0:0:0:0:
182,192,76757,1,0,0:0:0:0:
256,192,76893,1,0,0:0:0:0:
109,192,76893,1,0,0:0:0:0:
329,192,76893,1,0,0:0:0:0:
402,192,76961,1,0,0:0:0:0:
475,192,76961,1,0,0:0:0:0:
182,192,77030,1,0,0:0:0:0:
329,192,77166,1,0,0:0:0:0:
475,192,77234,1,0,0:0:0:0:
256,192,77302,1,0,0:0:0:0:
182,192,77302,1,0,0:0:0:0:
109,192,77371,1,0,0:0:0:0:
36,192,77371,1,0,0:0:0:0:
402,192,77439,1,0,0:0:0:0:
329,192,77575,1,0,0:0:0:0:
256,192,77643,1,0,0:0:0:0:
182,192,77711,1,0,0:0:0:0:
36,192,77711,1,0,0:0:0:0:
402,192,77848,1,0,0:0:0:0:
256,192,77984,1,0,0:0:0:0:
36,192,77984,1,0,0:0:0:0:
475,192,77984,1,0,0:0:0:0:
402,192,78234,1,0,0:0:0:0:
109,192,78234,1,0,0:0:0:0:
256,192,78234,1,0,0:0:0:0:
475,192,78359,1,0,0:0:0:0:
329,192,78359,1,0,0:0:0:0:
182,192,78484,1,0,0:0:0:0:
402,192,78484,1,0,0:0:0:0:
36,192,78484,1,0,0:0:0:0:
256,192,78609,1,0,0:0:0:0:
109,192,78609,1,0,0:0:0:0:
182,192,78734,1,0,0:0:0:0:
329,192,78734,1,0,0:0:0:0:
475,192,78734,1,0,0:0:0:0:
402,192,78859,1,0,0:0:0:0:
36,192,78859,1,0,0:0:0:0:
109,192,78984,1,0,0:0:0:0:
475,192,78984,1,0,0:0:0:0:
329,192,78984,1,0,0:0:0:0:
182,192,79046,1,0,0:0:0:0:
256,192,79109,1,0,0:0:0:0:
329,192,79171,1,0,0:0:0:0:
36,192,79234,1,0,0:0:0:0:
109,192,79234,1,0,0:0:0:0:
402,192,79234,1,0,0:0:0:0:
256,192,79359,1,0,0:0:0:0:
329,192,79484,1,0,0:0:0:0:
36,192,79484,1,0,0:0:0:0:
182,192,79484,1,0,0:0:0:0:
256,192,79734,1,0,0:0:0:0:
402,192,79734,1,0,0:0:0:0:
475,192,79734,1,0,0:0:0:0:
182,192,79859,1,0,0:0:0:0:
109,192,79859,1,0,0:0:0:0:
402,192,79984,1,0,0:0:0:0:
36,192,79984,1,0,0:0:0:0:
256,192,79984,1,0,0:0:0:0:
182,192,80109,1,0,0:0:0:0:
329,192,80109,1,0,0:0:0:0:
109,192,80234,1,0,0:0:0:0:
256,192,80234,1,0,0:0:0:0:
475,192,80234,1,0,0:0:0:0:
402,192,80359,1,0,0:0:0:0:
182,192,80484,1,0,0:0:0:0:
36,192,80484,1,0,0:0:0:0:
329,192,80484,1,0,0:0:0:0:
109,192,80609,1,0,0:0:0:0:
256,192,80609,1,0,0:0:0:0:
182,192,80734,1,0,0:0:0:0:
402,192,80734,1,0,0:0:0:0:
475,192,80734,1,0,0:0:0:0:
329,192,80859,1,0,0:0:0:0:
256,192,80859,1,0,0:0:0:0:
109,192,80984,1,0,0:0:0:0:
36,192,80984,1,0,0:0:0:0:
182,192,80984,1,0,0:0:0:0:
329,192,81234,1,0,0:0:0:0:
402,192,81234,1,0,0:0:0:0:
475,192,81234,1,0,0:0:0:0:
256,192,81359,1,0,0:0:0:0:
182,192,81359,1,0,0:0:0:0:
475,192,81484,1,0,0:0:0:0:
109,192,81484,1,0,0:0:0:0:
36,192,81484,1,0,0:0:0:0:
329,192,81609,1,0,0:0:0:0:
182,192,81609,1,0,0:0:0:0:
402,192,81671,1,0,0:0:0:0:
475,192,81734,1,0,0:0:0:0:
256,192,81734,1,0,0:0:0:0:
36,192,81984,1,0,0:0:0:0:
182,192,81984,1,0,0:0:0:0:
475,192,81984,1,0,0:0:0:0:
256,192,82060,1,0,0:0:0:0:
329,192,82137,1,0,0:0:0:0:
109,192,82214,1,0,0:0:0:0:
402,192,82214,1,0,0:0:0:0:
182,192,82291,1,0,0:0:0:0:
256,192,82368,1,0,0:0:0:0:
36,192,82445,1,0,0:0:0:0:
109,192,82445,1,0,0:0:0:0:
475,192,82445,1,0,0:0:0:0:
329,192,82560,1,0,0:0:0:0:
256,192,82676,1,0,0:0:0:0:
182,192,82676,1,0,0:0:0:0:
402,192,82676,1,0,0:0:0:0:
109,192,82791,1,0,0:0:0:0:
475,192,82791,1,0,0:0:0:0:
36,192,82907,1,0,0:0:0:0:
329,192,82907,1,0,0:0:0:0:
256,192,83022,1,0,0:0:0:0:
182,192,83080,1,0,0:0:0:0:
475,192,83137,1,0,0:0:0:0:
109,192,83137,1,0,0:0:0:0:
329,192,83253,1,0,0:0:0:0:
256,192,83310,1,0,0:0:0:0:
182,192,83368,1,0,0:0:0:0:
36,192,83368,1,0,0:0:0:0:
402,192,83368,1,0,0:0:0:0:
182,192,83599,1,0,0:0:0:0:
475,192,83599,1,0,0:0:0:0:
109,192,83657,1,0,0:0:0:0:
402,192,83657,1,0,0:0:0:0:
36,192,83714,1,0,0:0:0:0:
329,192,83714,1,0,0:0:0:0:
256,192,83772,1,0,0:0:0:0:
182,192,83830,1,0,0:0:0:0:
475,192,83830,1,0,0:0:0:0:
329,192,83945,1,0,0:0:0:0:
109,192,84060,1,0,0:0:0:0:
402,192,84060,1,0,0:0:0:0:
182,192,84137,1,0,0:0:0:0:
256,192,84214,1,0,0:0:0:0:
36,192,84291,1,0,0:0:0:0:
475,192,84291,1,0,0:0:0:0:
402,192,84368,1,0,0:0:0:0:
329,192,84445,1,0,0:0:0:0:
182,192,84522,1,0,0:0:0:0:
109,192,84522,1,0,0:0:0:0:
256,192,84599,1,0,0:0:0:0:
329,192,84676,1,0,0:0:0:0:
402,192,84753,1,0,0:0:0:0:
475,192,84753,1,0,0:0:0:0:
36,192,84753,1,0,0:0:0:0:
36,192,84926,1,0,0:0:0:0:
402,192,84926,1,0,0:0:0:0:
475,192,84926,1,0,0:0:0:0:
109,192,85099,1,0,0:0:0:0:
329,192,85099,1,0,0:0:0:0:
256,192,85099,1,0,0:0:0:0:
182,192,85214,1,0,0:0:0:0:
402,192,85214,1,0,0:0:0:0:
475,192,85214,1,0,0:0:0:0:
36,192,85291,1,0,0:0:0:0:
256,192,85368,1,0,0:0:0:0:
475,192,85445,1,0,0:0:0:0:
109,192,85676,1,0,0:0:0:0:
329,192,85676,1,0,0:0:0:0:
182,192,85783,1,0,0:0:0:0:
402,192,85890,1,0,0:0:0:0:
475,192,85890,1,0,0:0:0:0:
329,192,85997,1,0,0:0:0:0:
182,192,86104,1,0,0:0:0:0:
36,192,86104,1,0,0:0:0:0:
256,192,86211,1,0,0:0:0:0:
109,192,86318,1,0,0:0:0:0:
475,192,86318,1,0,0:0:0:0:
402,192,86426,1,0,0:0:0:0:
36,192,86533,1,0,0:0:0:0:
256,192,86533,1,0,0:0:0:0:
109,192,86640,1,0,0:0:0:0:
329,192,86747,1,0,0:0:0:0:
475,192,86747,1,0,0:0:0:0:
256,192,86854,1,0,0:0:0:0:
109,192,86961,1,0,0:0:0:0:
36,192,86961,1,0,0:0:0:0:
182,192,87068,1,0,0:0:0:0:
402,192,87176,1,0,0:0:0:0:
475,192,87176,1,0,0:0:0:0:
256,192,87390,1,0,0:0:0:0:
36,192,87390,1,0,0:0:0:0:
402,192,87390,1,0,0:0:0:0:
182,192,87497,1,0,0:0:0:0:
329,192,87497,1,0,0:0:0:0:
109,192,87604,1,0,0:0:0:0:
182,192,87711,1,0,0:0:0:0:
329,192,87711,1,0,0:0:0:0:
402,192,87818,1,0,0:0:0:0:
36,192,87818,1,0,0:0:0:0:
109,192,87926,1,0,0:0:0:0:
475,192,88033,1,0,0:0:0:0:
256,192,88033,1,0,0:0:0:0:
402,192,88140,1,0,0:0:0:0:
182,192,88140,1,0,0:0:0:0:
329,192,88247,1,0,0:0:0:0:
109,192,88247,1,0,0:0:0:0:
36,192,89104,1,0,0:0:0:0:
402,192,89104,1,0,0:0:0:0:
256,192,89104,1,0,0:0:0:0:
182,192,89204,1,0,0:0:0:0:
329,192,89304,1,0,0:0:0:0:
109,192,89304,1,0,0:0:0:0:
402,192,89354,1,0,0:0:0:0:
475,192,89404,1,0,0:0:0:0:
182,192,89504,1,0,0:0:0:0:
36,192,89504,1,0,0:0:0:0:
329,192,89604,1,0,0:0:0:0:
475,192,89704,1,0,0:0:0:0:
256,192,89704,1,0,0:0:0:0:
402,192,89704,1,0,0:0:0:0:
36,192,89804,1,0,0:0:0:0:
109,192,89804,1,0,0:0:0:0:
329,192,89904,1,0,0:0:0:0:
475,192,89904,1,0,0:0:0:0:
182,192,89904,1,0,0:0:0:0:
109,192,90054,1,0,0:0:0:0:
256,192,90054,1,0,0:0:0:0:
402,192,90054,1,0,0:0:0:0:
182,192,90204,1,0,0:0:0:0:
36,192,90204,1,0,0:0:0:0:
329,192,90304,1,0,0:0:0:0:
475,192,90304,1,0,0:0:0:0:
402,192,90304,1,0,0:0:0:0:
256,192,90354,1,0,0:0:0:0:
182,192,90404,1,0,0:0:0:0:
36,192,90504,1,0,0:0:0:0:
109,192,90504,1,0,0:0:0:0:
329,192,90604,1,0,0:0:0:0:
182,192,90604,1,0,0:0:0:0:
402,192,90654,1,0,0:0:0:0:
36,192,90704,1,0,0:0:0:0:
475,192,90704,1,0,0:0:0:0:
256,192,90804,1,0,0:0:0:0:
109,192,90804,1,0,0:0:0:0:
329,192,90904,1,0,0:0:0:0:
475,192,90904,1,0,0:0:0:0:
36,192,91004,1,0,0:0:0:0:
109,192,91029,1,0,0:0:0:0:
182,192,91054,1,0,0:0:0:0:
402,192,91104,1,0,0:0:0:0:
475,192,91104,1,0,0:0:0:0:
329,192,91204,1,0,0:0:0:0:
256,192,91204,1,0,0:0:0:0:
36,192,91304,1,0,0:0:0:0:
109,192,91304,1,0,0:0:0:0:
402,192,91404,1,0,0:0:0:0:
329,192,91404,1,0,0:0:0:0:
36,192,91504,1,0,0:0:0:0:
182,192,91504,1,0,0:0:0:0:
109,192,91504,1,0,0:0:0:0:
402,192,91654,1,0,0:0:0:0:
256,192,91704,1,0,0:0:0:0:
182,192,91704,1,0,0:0:0:0:
329,192,91704,1,0,0:0:0:0:
36,192,91804,1,0,0:0:0:0:
402,192,91904,1,0,0:0:0:0:
475,192,91904,1,0,0:0:0:0:
256,192,91904,1,0,0:0:0:0:
182,192,91954,1,0,0:0:0:0:
109,192,92004,1,0,0:0:0:0:
475,192,92104,1,0,0:0:0:0:
402,192,92137,1,0,0:0:0:0:
329,192,92170,1,0,0:0:0:0:
36,192,92204,1,0,0:0:0:0:
109,192,92237,1,0,0:0:0:0:
182,192,92270,1,0,0:0:0:0:
475,192,92304,1,0,0:0:0:0:
256,192,92304,1,0,0:0:0:0:
109,192,92491,1,0,0:0:0:0:
402,192,92491,1,0,0:0:0:0:
329,192,92491,1,0,0:0:0:0:
182,192,92585,1,0,0:0:0:0:
256,192,92679,1,0,0:0:0:0:
475,192,92679,1,0,0:0:0:0:
36,192,92679,1,0,0:0:0:0:
402,192,92772,1,0,0:0:0:0:
109,192,92772,1,0,0:0:0:0:
182,192,92866,1,0,0:0:0:0:
329,192,92866,1,0,0:0:0:0:
36,192,92960,1,0,0:0:0:0:
109,192,93054,1,0,0:0:0:0:
256,192,93054,1,0,0:0:0:0:
402,192,93054,1,0,0:0:0:0:
182,192,93241,1,0,0:0:0:0:
475,192,93241,1,0,0:0:0:0:
329,192,93241,1,0,0:0:0:0:
36,192,93335,1,0,0:0:0:0:
475,192,93429,1,0,0:0:0:0:
256,192,93429,1,0,0:0:0:0:
402,192,93429,1,0,0:0:0:0:
109,192,93522,1,0,0:0:0:0:
475,192,93616,1,0,0:0:0:0:
329,192,93616,1,0,0:0:0:0:
256,192,93663,1,0,0:0:0:0:
182,192,93710,1,0,0:0:0:0:
109,192,93757,1,0,0:0:0:0:
36,192,93804,1,0,0:0:0:0:
402,192,93804,1,0,0:0:0:0:
329,192,93804,1,0,0:0:0:0:
109,192,93991,1,0,0:0:0:0:
182,192,93991,1,0,0:0:0:0:
475,192,93991,1,0,0:0:0:0:
256,192,94085,1,0,0:0:0:0:
329,192,94179,1,0,0:0:0:0:
402,192,94179,1,0,0:0:0:0:
36,192,94179,1,0,0:0:0:0:
109,192,94272,1,0,0:0:0:0:
182,192,94272,1,0,0:0:0:0:
475,192,94366,1,0,0:0:0:0:
256,192,94366,1,0,0:0:0:0:
109,192,94460,1,0,0:0:0:0:
329,192,94460,1,0,0:0:0:0:
182,192,94554,1,0,0:0:0:0:
36,192,94554,1,0,0:0:0:0:
402,192,94554,1,0,0:0:0:0:
329,192,94741,1,0,0:0:0:0:
402,192,94741,1,0,0:0:0:0:
36,192,94835,1,0,0:0:0:0:
109,192,94835,1,0,0:0:0:0:
256,192,94929,1,0,0:0:0:0:
475,192,94929,1,0,0:0:0:0:
182,192,94929,1,0,0:0:0:0:
402,192,95022,1,0,0:0:0:0:
36,192,95022,1,0,0:0:0:0:
329,192,95116,1,0,0:0:0:0:
256,192,95163,1,0,0:0:0:0:
182,192,95210,1,0,0:0:0:0:
109,192,95257,1,0,0:0:0:0:
36,192,95304,1,0,0:0:0:0:
402,192,95304,1,0,0:0:0:0:
475,192,95304,1,0,0:0:0:0:
329,192,95475,1,0,0:0:0:0:
182,192,95475,1,0,0:0:0:0:
109,192,95561,1,0,0:0:0:0:
36,192,95561,1,0,0:0:0:0:
402,192,95646,1,0,0:0:0:0:
475,192,95646,1,0,0:0:0:0:
256,192,95646,1,0,0:0:0:0:
329,192,95818,1,0,0:0:0:0:
109,192,95818,1,0,0:0:0:0:
402,192,95904,1,0,0:0:0:0:
182,192,95904,1,0,0:0:0:0:
256,192,95989,1,0,0:0:0:0:
475,192,95989,1,0,0:0:0:0:
36,192,95989,1,0,0:0:0:0:
329,192,96161,1,0,0:0:0:0:
182,192,96161,1,0,0:0:0:0:
109,192,96246,1,0,0:0:0:0:
402,192,96246,1,0,0:0:0:0:
256,192,96332,1,0,0:0:0:0:
36,192,96332,1,0,0:0:0:0:
475,192,96332,1,0,0:0:0:0:
402,192,96504,1,0,0:0:0:0:
329,192,96504,1,0,0:0:0:0:
109,192,96589,1,0,0:0:0:0:
182,192,96589,1,0,0:0:0:0:
256,192,96675,1,0,0:0:0:0:
475,192,96675,1,0,0:0:0:0:
36,192,96675,1,0,0:0:0:0:
109,192,96846,1,0,0:0:0:0:
402,192,96846,1,0,0:0:0:0:
182,192,96932,1,0,0:0:0:0:
256,192,96932,1,0,0:0:0:0:
475,192,97018,1,0,0:0:0:0:
329,192,97018,1,0,0:0:0:0:
402,192,97018,1,0,0:0:0:0:
36,192,97104,1,0,0:0:0:0:
109,192,97104,1,0,0:0:0:0:
182,192,97189,1,0,0:0:0:0:
256,192,97232,1,0,0:0:0:0:
329,192,97275,1,0,0:0:0:0:
402,192,97318,1,0,0:0:0:0:
475,192,97361,1,0,0:0:0:0:
36,192,97361,1,0,0:0:0:0:
109,192,97361,1,0,0:0:0:0:
329,192,97532,1,0,0:0:0:0:
402,192,97532,1,0,0:0:0:0:
256,192,97575,1,0,0:0:0:0:
182,192,97618,1,0,0:0:0:0:
109,192,97661,1,0,0:0:0:0:
36,192,97704,1,0,0:0:0:0:
475,192,97704,1,0,0:0:0:0:
402,192,97704,1,0,0:0:0:0:
109,192,97875,1,0,0:0:0:0:
36,192,97875,1,0,0:0:0:0:
182,192,97918,1,0,0:0:0:0:
256,192,97961,1,0,0:0:0:0:
329,192,98004,1,0,0:0:0:0:
402,192,98046,1,0,0:0:0:0:
475,192,98046,1,0,0:0:0:0:
36,192,98046,1,0,0:0:0:0:
109,192,98121,1,0,0:0:0:0:
182,192,98196,1,0,0:0:0:0:
475,192,98196,1,0,0:0:0:0:
256,192,98196,1,0,0:0:0:0:
109,192,98346,1,0,0:0:0:0:
36,192,98346,1,0,0:0:0:0:
329,192,98346,1,0,0:0:0:0:
182,192,98421,1,0,0:0:0:0:
402,192,98421,1,0,0:0:0:0:
256,192,98496,1,0,0:0:0:0:
475,192,98496,1,0,0:0:0:0:
36,192,98571,1,0,0:0:0:0:
329,192,98571,1,0,0:0:0:0:
402,192,98646,1,0,0:0:0:0:
109,192,98646,1,0,0:0:0:0:
182,192,98646,1,0,0:0:0:0:
256,192,98796,1,0,0:0:0:0:
329,192,98796,1,0,0:0:0:0:
182,192,98871,1,0,0:0:0:0:
36,192,98946,1,0,0:0:0:0:
109,192,98946,1,0,0:0:0:0:
402,192,99021,1,0,0:0:0:0:
475,192,99021,1,0,0:0:0:0:
256,192,99096,1,0,0:0:0:0:
329,192,99096,1,0,0:0:0:0:
182,192,99171,1,0,0:0:0:0:
109,192,99171,1,0,0:0:0:0:
36,192,99246,1,0,0:0:0:0:
402,192,99246,1,0,0:0:0:0:
475,192,99246,1,0,0:0:0:0:
109,192,99396,1,0,0:0:0:0:
329,192,99396,1,0,0:0:0:0:
256,192,99546,1,0,0:0:0:0:
36,192,99546,1,0,0:0:0:0:
329,192,99621,1,0,0:0:0:0:
109,192,99621,1,0,0:0:0:0:
182,192,99696,1,0,0:0:0:0:
402,192,99696,1,0,0:0:0:0:
475,192,99771,1,0,0:0:0:0:
256,192,99771,1,0,0:0:0:0:
36,192,99846,1,0,0:0:0:0:
329,192,99846,1,0,0:0:0:0:
109,192,99846,1,0,0:0:0:0:
475,192,100446,1,0,0:0:0:0:
329,192,100446,1,0,0:0:0:0:
109,192,100446,1,0,0:0:0:0:
329,192,100579,1,0,0:0:0:0:
182,192,100712,1,0,0:0:0:0:
36,192,100712,1,0,0:0:0:0:
402,192,100712,1,0,0:0:0:0:
182,192,100846,1,0,0:0:0:0:
329,192,100979,1,0,0:0:0:0:
475,192,100979,1,0,0:0:0:0:
256,192,100979,1,0,0:0:0:0:
475,192,101112,1,0,0:0:0:0:
36,192,101246,1,0,0:0:0:0:
109,192,101246,1,0,0:0:0:0:
329,192,101246,1,0,0:0:0:0:
36,192,101379,1,0,0:0:0:0:
402,192,101446,1,0,0:0:0:0:
475,192,101512,1,0,0:0:0:0:
182,192,101512,1,0,0:0:0:0:
256,192,101579,1,0,0:0:0:0:
329,192,101646,1,0,0:0:0:0:
36,192,101646,1,0,0:0:0:0:
402,192,101712,1,0,0:0:0:0:
475,192,101779,1,0,0:0:0:0:
109,192,101779,1,0,0:0:0:0:
182,192,101846,1,0,0:0:0:0:
256,192,101912,1,0,0:0:0:0:
36,192,101912,1,0,0:0:0:0:
402,192,102046,1,0,0:0:0:0:
109,192,102046,1,0,0:0:0:0:
329,192,102112,1,0,0:0:0:0:
256,192,102179,1,0,0:0:0:0:
182,192,102246,1,0,0:0:0:0:
109,192,102312,1,0,0:0:0:0:
475,192,102312,1,0,0:0:0:0:
402,192,102379,1,0,0:0:0:0:
329,192,102446,1,0,0:0:0:0:
256,192,102512,1,0,0:0:0:0:
36,192,102579,1,0,0:0:0:0:
109,192,102610,1,0,0:0:0:0:
182,192,102641,1,0,0:0:0:0:
475,192,102704,1,0,0:0:0:0:
402,192,102735,1,0,0:0:0:0:
329,192,102766,1,0,0:0:0:0:
36,192,102829,1,0,0:0:0:0:
109,192,102860,1,0,0:0:0:0:
182,192,102891,1,0,0:0:0:0:
475,192,102954,1,0,0:0:0:0:
402,192,102985,1,0,0:0:0:0:
329,192,103016,1,0,0:0:0:0:
36,192,103079,1,0,0:0:0:0:
109,192,103110,1,0,0:0:0:0:
182,192,103141,1,0,0:0:0:0:
475,192,103204,1,0,0:0:0:0:
402,192,103235,1,0,0:0:0:0:
329,192,103266,1,0,0:0:0:0:
36,192,103329,1,0,0:0:0:0:
109,192,103360,1,0,0:0:0:0:
182,192,103391,1,0,0:0:0:0:
475,192,103454,1,0,0:0:0:0:
402,192,103485,1,0,0:0:0:0:
329,192,103516,1,0,0:0:0:0:
36,192,103579,1,0,0:0:0:0:
109,192,103607,1,0,0:0:0:0:
182,192,103636,1,0,0:0:0:0:
329,192,103694,1,0,0:0:0:0:
402,192,103723,1,0,0:0:0:0:
475,192,103752,1,0,0:0:0:0:
36,192,103809,1,0,0:0:0:0:
109,192,103838,1,0,0:0:0:0:
182,192,103867,1,0,0:0:0:0:
475,192,103925,1,0,0:0:0:0:
402,192,103954,1,0,0:0:0:0:
329,192,103982,1,0,0:0:0:0:
182,192,104040,1,0,0:0:0:0:
109,192,104069,1,0,0:0:0:0:
36,192,104098,1,0,0:0:0:0:
475,192,104155,1,0,0:0:0:0:
402,192,104184,1,0,0:0:0:0:
329,192,104213,1,0,0:0:0:0:
182,192,104271,1,0,0:0:0:0:
109,192,104300,1,0,0:0:0:0:
36,192,104329,1,0,0:0:0:0:
475,192,104386,1,0,0:0:0:0:
402,192,104415,1,0,0:0:0:0:
329,192,104444,1,0,0:0:0:0:
256,192,104502,1,0,0:0:0:0:
109,192,104543,1,0,0:0:0:0:
256,192,105002,1,0,0:0:0:0:
402,192,105252,1,0,0:0:0:0:
402,192,105502,1,0,0:0:0:0:
182,192,105502,1,0,0:0:0:0:
475,192,106002,1,0,0:0:0:0:
109,192,106002,1,0,0:0:0:0:
182,192,106252,1,0,0:0:0:0:
256,192,106502,1,0,0:0:0:0:
475,192,106543,1,0,0:0:0:0:
329,192,107002,1,0,0:0:0:0:
36,192,107252,1,0,0:0:0:0:
402,192,107502,1,0,0:0:0:0:
182,192,107502,1,0,0:0:0:0:
329,192,108002,1,0,0:0:0:0:
475,192,108502,1,0,0:0:0:0:
109,192,108543,1,0,0:0:0:0:
256,192,109002,1,0,0:0:0:0:
36,192,109252,1,0,0:0:0:0:
36,192,109502,1,0,0:0:0:0:
402,192,109502,1,0,0:0:0:0:
256,192,110002,1,0,0:0:0:0:
475,192,110002,1,0,0:0:0:0:
329,192,110252,1,0,0:0:0:0:
182,192,110502,1,0,0:0:0:0:
36,192,110543,1,0,0:0:0:0:
329,192,110752,1,0,0:0:0:0:
475,192,110752,1,0,0:0:0:0:
182,192,111002,1,0,0:0:0:0:
36,192,111002,1,0,0:0:0:0:
256,192,111252,1,0,0:0:0:0:
402,192,111252,1,0,0:0:0:0:
329,192,111502,1,0,0:0:0:0:
109,192,111502,1,0,0:0:0:0:
256,192,112002,1,0,0:0:0:0:
475,192,112002,1,0,0:0:0:0:
36,192,112002,1,0,0:0:0:0:
