osu file format v14

[General]
AudioFilename: audio.mp3
AudioLeadIn: 0
PreviewTime: 46324
Countdown: 0
SampleSet: Normal
StackLeniency: 0.7
Mode: 1
LetterboxInBreaks: 0
WidescreenStoryboard: 0

[Editor]
Bookmarks: 102039
DistanceSpacing: 1
BeatDivisor: 4
GridSize: 32
TimelineZoom: 2.799999

[Metadata]
Title:KILL KILL KILL KILL KILL
TitleUnicode:KILL KILL KILL KILL KILL
Artist:Laur
ArtistUnicode:Laur
Creator:maziari1105
Version:KILL
Source:
Tags:Breakcore TSUGIHAGI RECORDS KILL5 tasuke912 Backfire
BeatmapID:1044869
BeatmapSetID:477119

[Difficulty]
HPDrainRate:5
CircleSize:4
OverallDifficulty:7
ApproachRate:5
SliderMultiplier:1.4
SliderTickRate:1

[Events]
//Background and Video events
0,0,"bg.jpg",0,0
//Break Periods
//Storyboard Layer 0 (Background)
//Storyboard Layer 1 (Fail)
//Storyboard Layer 2 (Pass)
//Storyboard Layer 3 (Foreground)
//Storyboard Sound Samples

[TimingPoints]
5182,214.285714285714,4,1,0,100,1,0
18842,-100,4,1,0,80,0,0
20556,-100,4,1,0,100,0,0
22298,-100,4,1,0,80,0,0
23985,-100,4,1,0,100,0,0
25726,-100,4,1,0,80,0,0
27414,-100,4,1,0,100,0,0
29155,-100,4,1,0,80,0,0
30842,-100,4,1,0,100,0,0
46324,-100,4,1,0,100,0,1
72842,-100,4,1,0,70,0,1
72896,-100,4,1,0,70,0,0
74556,-100,4,1,0,100,0,0
74610,-117.647058823529,4,1,0,100,0,0
98664,-117.647058823529,4,1,0,70,0,0
100271,-117.647058823529,4,1,0,40,0,0
101985,-117.647058823529,4,1,0,100,0,0
102039,-100,4,1,0,100,0,0
114949,-100,4,1,0,70,0,0
115485,-100,4,1,0,100,0,0
115753,-100,4,1,0,100,0,1
129467,360.36036036036,4,1,0,100,1,0
129467,-59.46428577375,4,1,0,100,0,0
129557,-59.46428577375,4,1,0,60,0,0
135186,-59.46428577375,4,1,0,90,0,0
135232,180.18018018018,4,1,0,100,1,0
145367,-100,4,1,0,50,0,0
146718,-100,4,1,0,90,0,0
146763,-100,4,1,0,100,0,1
157619,-100,4,1,0,60,0,1
158250,-100,4,1,0,100,0,1
168340,-100,4,1,0,80,0,1
169105,-100,4,1,0,100,0,1
169826,-100,4,1,0,100,0,0
169871,-100,4,1,0,50,0,0
172754,-100,4,1,0,60,0,0
174150,-100,4,1,0,70,0,1
174871,-100,4,1,0,80,0,1
175592,360.36036036036,4,1,0,100,1,0
175592,-25,4,1,0,100,0,0

[HitObjects]
256,192,18896,12,0,20396,0:0:0:0:
256,192,20610,5,0,0:0:0:0:
256,192,20717,1,0,0:0:0:0:
256,192,20824,5,2,0:0:0:0:
256,192,21039,5,0,0:0:0:0:
256,192,21146,1,0,0:0:0:0:
256,192,21253,5,2,0:0:0:0:
256,192,21467,5,0,0:0:0:0:
256,192,21574,1,0,0:0:0:0:
256,192,21681,5,2,0:0:0:0:
256,192,21896,5,0,0:0:0:0:
256,192,22003,1,0,0:0:0:0:
256,192,22056,1,0,0:0:0:0:
256,192,22110,5,2,0:0:0:0:
256,192,22217,1,2,0:0:0:0:
256,192,22271,1,2,0:0:0:0:
256,192,22324,12,0,23824,0:0:0:0:
256,192,24039,5,0,0:0:0:0:
256,192,24146,5,0,0:0:0:0:
256,192,24199,1,0,0:0:0:0:
256,192,24253,5,2,0:0:0:0:
256,192,24306,1,2,0:0:0:0:
256,192,24360,5,0,0:0:0:0:
256,192,24467,5,2,0:0:0:0:
256,192,24521,5,0,0:0:0:0:
256,192,24628,1,0,0:0:0:0:
256,192,24681,5,2,0:0:0:0:
256,192,24735,1,2,0:0:0:0:
256,192,24789,5,0,0:0:0:0:
256,192,24842,5,2,0:0:0:0:
256,192,24896,5,0,0:0:0:0:
256,192,25003,1,0,0:0:0:0:
256,192,25110,5,2,0:0:0:0:
256,192,25217,1,2,0:0:0:0:
256,192,25324,5,0,0:0:0:0:
256,192,25378,5,2,0:0:0:0:
256,192,25431,5,0,0:0:0:0:
256,192,25485,5,2,0:0:0:0:
256,192,25539,5,0,0:0:0:0:
256,192,25592,1,0,0:0:0:0:
256,192,25646,5,2,0:0:0:0:
256,192,25699,1,2,0:0:0:0:
256,192,25753,12,0,27253,0:0:0:0:
256,192,27467,5,0,0:0:0:0:
256,192,27574,5,0,0:0:0:0:
256,192,27681,5,2,0:0:0:0:
256,192,27896,5,0,0:0:0:0:
256,192,28003,1,0,0:0:0:0:
256,192,28110,5,2,0:0:0:0:
256,192,28324,5,0,0:0:0:0:
256,192,28431,1,0,0:0:0:0:
256,192,28539,5,2,0:0:0:0:
256,192,28753,5,0,0:0:0:0:
256,192,28860,1,0,0:0:0:0:
256,192,28914,1,0,0:0:0:0:
256,192,28967,5,2,0:0:0:0:
256,192,29074,1,2,0:0:0:0:
256,192,29128,1,2,0:0:0:0:
256,192,29181,12,0,30681,0:0:0:0:
256,192,30896,5,2,0:0:0:0:
256,192,30949,1,2,0:0:0:0:
256,192,31003,1,2,0:0:0:0:
256,192,31056,1,2,0:0:0:0:
256,192,31110,5,0,0:0:0:0:
256,192,31164,1,0,0:0:0:0:
256,192,31217,1,2,0:0:0:0:
256,192,31271,1,0,0:0:0:0:
256,192,31324,5,2,0:0:0:0:
256,192,31378,1,2,0:0:0:0:
256,192,31431,5,0,0:0:0:0:
256,192,31485,5,2,0:0:0:0:
256,192,31539,5,0,0:0:0:0:
256,192,31592,1,0,0:0:0:0:
256,192,31646,1,2,0:0:0:0:
256,192,31699,1,0,0:0:0:0:
256,192,31753,5,2,0:0:0:0:
256,192,31806,1,2,0:0:0:0:
256,192,31860,5,0,0:0:0:0:
256,192,31914,5,2,0:0:0:0:
256,192,31967,1,2,0:0:0:0:
256,192,32021,1,0,0:0:0:0:
256,192,32074,5,0,0:0:0:0:
256,192,32128,1,0,0:0:0:0:
256,192,32181,5,2,0:0:0:0:
256,192,32610,5,0,0:0:0:0:
256,192,32717,1,0,0:0:0:0:
256,192,32824,1,0,0:0:0:0:
256,192,32931,1,0,0:0:0:0:
256,192,33039,5,2,0:0:0:0:
256,192,33253,1,2,0:0:0:0:
256,192,33360,1,2,0:0:0:0:
256,192,33467,5,0,0:0:0:0:
256,192,33574,5,2,0:0:0:0:
256,192,33681,5,0,0:0:0:0:
256,192,33789,1,0,0:0:0:0:
256,192,33896,5,2,0:0:0:0:
256,192,34110,1,2,0:0:0:0:
256,192,34217,1,2,0:0:0:0:
256,192,34324,5,0,0:0:0:0:
256,192,34431,1,0,0:0:0:0:
256,192,34539,5,2,0:0:0:0:
256,192,34646,5,0,0:0:0:0:
256,192,34753,5,2,0:0:0:0:
256,192,34860,1,2,0:0:0:0:
256,192,34967,5,0,0:0:0:0:
256,192,35074,5,2,0:0:0:0:
256,192,35181,5,0,0:0:0:0:
256,192,35289,1,0,0:0:0:0:
256,192,35396,5,2,0:0:0:0:
256,192,35503,1,2,0:0:0:0:
256,192,35610,5,0,0:0:0:0:
256,192,35717,5,2,0:0:0:0:
256,192,35824,1,2,0:0:0:0:
256,192,35878,1,2,0:0:0:0:
256,192,35931,1,2,0:0:0:0:
256,192,35985,1,2,0:0:0:0:
256,192,36039,5,0,0:0:0:0:
256,192,36146,1,0,0:0:0:0:
256,192,36253,1,0,0:0:0:0:
256,192,36360,1,0,0:0:0:0:
256,192,36467,5,2,0:0:0:0:
256,192,36681,1,2,0:0:0:0:
256,192,36789,1,2,0:0:0:0:
256,192,36896,5,0,0:0:0:0:
256,192,37003,5,2,0:0:0:0:
256,192,37110,5,0,0:0:0:0:
256,192,37217,1,0,0:0:0:0:
256,192,37324,5,2,0:0:0:0:
256,192,37539,1,2,0:0:0:0:
256,192,37646,1,2,0:0:0:0:
256,192,37753,5,0,0:0:0:0:
256,192,37860,1,0,0:0:0:0:
256,192,37967,5,2,0:0:0:0:
256,192,38074,5,0,0:0:0:0:
256,192,38181,5,2,0:0:0:0:
256,192,38289,1,2,0:0:0:0:
256,192,38396,5,0,0:0:0:0:
256,192,38503,5,2,0:0:0:0:
256,192,38610,5,0,0:0:0:0:
256,192,38717,1,0,0:0:0:0:
256,192,38824,5,2,0:0:0:0:
256,192,38931,5,0,0:0:0:0:
256,192,39039,5,2,0:0:0:0:
256,192,39146,1,2,0:0:0:0:
256,192,39253,1,2,0:0:0:0:
256,192,39360,1,2,0:0:0:0:
256,192,39467,5,4,0:0:0:0:
256,192,39574,1,0,0:0:0:0:
256,192,39681,1,0,0:0:0:0:
256,192,39789,1,0,0:0:0:0:
256,192,39896,5,6,0:0:0:0:
256,192,40110,1,2,0:0:0:0:
256,192,40217,1,2,0:0:0:0:
256,192,40324,5,4,0:0:0:0:
256,192,40431,5,2,0:0:0:0:
256,192,40539,5,0,0:0:0:0:
256,192,40646,1,0,0:0:0:0:
256,192,40753,5,6,0:0:0:0:
256,192,40967,1,2,0:0:0:0:
256,192,41074,1,2,0:0:0:0:
256,192,41181,5,4,0:0:0:0:
256,192,41289,5,2,0:0:0:0:
256,192,41396,1,2,0:0:0:0:
256,192,41503,1,2,0:0:0:0:
256,192,41610,5,4,0:0:0:0:
256,192,41717,5,2,0:0:0:0:
256,192,41824,1,2,0:0:0:0:
256,192,41932,1,2,0:0:0:0:
256,192,42039,5,4,0:0:0:0:
256,192,42146,1,0,0:0:0:0:
256,192,42253,1,2,0:0:0:0:
256,192,42360,1,0,0:0:0:0:
256,192,42467,1,2,0:0:0:0:
256,192,42574,1,0,0:0:0:0:
256,192,42682,1,0,0:0:0:0:
256,192,42735,1,0,0:0:0:0:
256,192,42789,1,0,0:0:0:0:
256,192,42842,1,0,0:0:0:0:
256,192,42896,1,0,0:0:0:0:
256,192,43003,1,0,0:0:0:0:
256,192,43110,5,2,0:0:0:0:
256,192,43217,1,2,0:0:0:0:
256,192,43324,5,0,0:0:0:0:
256,192,43432,1,0,0:0:0:0:
256,192,43539,5,2,0:0:0:0:
256,192,43646,1,2,0:0:0:0:
256,192,43753,5,0,0:0:0:0:
256,192,43860,5,2,0:0:0:0:
256,192,43914,1,2,0:0:0:0:
256,192,43967,5,0,0:0:0:0:
256,192,44074,5,2,0:0:0:0:
256,192,44182,5,0,0:0:0:0:
256,192,44235,1,0,0:0:0:0:
256,192,44289,5,2,0:0:0:0:
256,192,44342,1,2,0:0:0:0:
256,192,44396,5,0,0:0:0:0:
256,192,44503,5,2,0:0:0:0:
256,192,44610,5,4,0:0:0:0:
256,192,45467,1,0,0:0:0:0:
256,192,45521,1,0,0:0:0:0:
256,192,45574,5,2,0:0:0:0:
256,192,45628,5,0,0:0:0:0:
256,192,45682,5,2,0:0:0:0:
256,192,45735,1,2,0:0:0:0:
256,192,45789,5,0,0:0:0:0:
256,192,45842,5,2,0:0:0:0:
256,192,45896,5,0,0:0:0:0:
256,192,46110,5,6,0:0:0:0:
256,192,46324,5,0,0:0:0:0:
256,192,46539,1,0,0:0:0:0:
256,192,46646,5,2,0:0:0:0:
256,192,46753,5,0,0:0:0:0:
256,192,46807,1,0,0:0:0:0:
256,192,46860,1,0,0:0:0:0:
256,192,46914,5,2,0:0:0:0:
256,192,46967,5,0,0:0:0:0:
256,192,47074,5,2,0:0:0:0:
256,192,47182,5,0,0:0:0:0:
256,192,47235,1,0,0:0:0:0:
256,192,47289,5,2,0:0:0:0:
256,192,47396,5,0,0:0:0:0:
256,192,47449,1,0,0:0:0:0:
256,192,47503,5,2,0:0:0:0:
256,192,47610,5,0,0:0:0:0:
256,192,47717,5,2,0:0:0:0:
256,192,47824,1,2,0:0:0:0:
256,192,47878,1,2,0:0:0:0:
256,192,47932,1,2,0:0:0:0:
256,192,47985,1,2,0:0:0:0:
256,192,48039,5,0,0:0:0:0:
256,192,48253,1,0,0:0:0:0:
256,192,48360,5,2,0:0:0:0:
256,192,48467,5,0,0:0:0:0:
256,192,48521,1,0,0:0:0:0:
256,192,48574,5,2,0:0:0:0:
256,192,48682,5,0,0:0:0:0:
256,192,48735,1,0,0:0:0:0:
256,192,48789,5,2,0:0:0:0:
256,192,48842,1,2,0:0:0:0:
256,192,48896,5,0,0:0:0:0:
256,192,49003,1,0,0:0:0:0:
256,192,49110,1,0,0:0:0:0:
256,192,49164,5,2,0:0:0:0:
256,192,49217,5,0,0:0:0:0:
256,192,49324,5,2,0:0:0:0:
256,192,49432,1,2,0:0:0:0:
256,192,49539,1,2,0:0:0:0:
256,192,49574,1,2,0:0:0:0:
256,192,49610,1,2,0:0:0:0:
256,192,49646,1,2,0:0:0:0:
256,192,49682,1,2,0:0:0:0:
256,192,49717,1,2,0:0:0:0:
256,192,49753,5,0,0:0:0:0:
256,192,49967,1,0,0:0:0:0:
256,192,50074,5,2,0:0:0:0:
256,192,50182,5,0,0:0:0:0:
256,192,50235,1,0,0:0:0:0:
256,192,50289,1,0,0:0:0:0:
256,192,50342,5,2,0:0:0:0:
256,192,50396,5,0,0:0:0:0:
256,192,50503,5,2,0:0:0:0:
256,192,50610,5,0,0:0:0:0:
256,192,50664,5,2,0:0:0:0:
256,192,50717,5,0,0:0:0:0:
256,192,50824,1,0,0:0:0:0:
256,192,50878,5,2,0:0:0:0:
256,192,50932,5,0,0:0:0:0:
256,192,51039,5,2,0:0:0:0:
256,192,51146,1,2,0:0:0:0:
256,192,51253,5,0,0:0:0:0:
256,192,51307,5,2,0:0:0:0:
256,192,51360,1,2,0:0:0:0:
256,192,51414,1,2,0:0:0:0:
256,192,51467,5,0,0:0:0:0:
256,192,51574,1,0,0:0:0:0:
256,192,51682,5,2,0:0:0:0:
256,192,51789,1,2,0:0:0:0:
256,192,51896,5,0,0:0:0:0:
256,192,51949,5,2,0:0:0:0:
256,192,52003,1,2,0:0:0:0:
256,192,52110,5,0,0:0:0:0:
256,192,52164,5,2,0:0:0:0:
256,192,52217,5,0,0:0:0:0:
256,192,52271,5,2,0:0:0:0:
256,192,52324,5,0,0:0:0:0:
256,192,52753,1,4,0:0:0:0:
256,192,52967,5,6,0:0:0:0:
256,192,53074,1,6,0:0:0:0:
256,192,53182,5,0,0:0:0:0:
256,192,53396,1,0,0:0:0:0:
256,192,53503,5,2,0:0:0:0:
256,192,53610,5,0,0:0:0:0:
256,192,53664,1,0,0:0:0:0:
256,192,53717,5,2,0:0:0:0:
256,192,53771,1,2,0:0:0:0:
256,192,53824,5,0,0:0:0:0:
256,192,53932,5,2,0:0:0:0:
256,192,54039,5,0,0:0:0:0:
256,192,54092,1,0,0:0:0:0:
256,192,54146,5,2,0:0:0:0:
256,192,54199,1,0,0:0:0:0:
256,192,54253,5,0,0:0:0:0:
256,192,54307,1,0,0:0:0:0:
256,192,54360,5,2,0:0:0:0:
256,192,54467,5,0,0:0:0:0:
256,192,54574,5,2,0:0:0:0:
256,192,54682,1,2,0:0:0:0:
256,192,54735,1,2,0:0:0:0:
256,192,54789,1,2,0:0:0:0:
256,192,54842,1,2,0:0:0:0:
256,192,54896,5,0,0:0:0:0:
256,192,55003,5,2,0:0:0:0:
256,192,55110,5,0,0:0:0:0:
256,192,55217,5,2,0:0:0:0:
256,192,55324,5,0,0:0:0:0:
256,192,55378,1,0,0:0:0:0:
256,192,55432,5,2,0:0:0:0:
256,192,55485,1,0,0:0:0:0:
256,192,55539,1,2,0:0:0:0:
256,192,55592,1,2,0:0:0:0:
256,192,55646,5,0,0:0:0:0:
256,192,55699,5,2,0:0:0:0:
256,192,55753,5,0,0:0:0:0:
256,192,55860,1,0,0:0:0:0:
256,192,55967,5,2,0:0:0:0:
256,192,56021,1,2,0:0:0:0:
256,192,56074,5,0,0:0:0:0:
256,192,56182,1,0,0:0:0:0:
256,192,56289,5,2,0:0:0:0:
256,192,56396,1,2,0:0:0:0:
256,192,56432,1,2,0:0:0:0:
256,192,56467,1,2,0:0:0:0:
256,192,56503,1,2,0:0:0:0:
256,192,56539,1,2,0:0:0:0:
256,192,56574,1,2,0:0:0:0:
256,192,56610,5,0,0:0:0:0:
256,192,56824,1,0,0:0:0:0:
256,192,56932,5,2,0:0:0:0:
256,192,57039,5,0,0:0:0:0:
256,192,57092,1,0,0:0:0:0:
256,192,57146,5,2,0:0:0:0:
256,192,57199,1,2,0:0:0:0:
256,192,57253,5,0,0:0:0:0:
256,192,57360,5,2,0:0:0:0:
256,192,57467,5,0,0:0:0:0:
256,192,57521,5,2,0:0:0:0:
256,192,57574,5,0,0:0:0:0:
256,192,57628,1,0,0:0:0:0:
256,192,57682,1,0,0:0:0:0:
256,192,57735,5,2,0:0:0:0:
256,192,57789,5,0,0:0:0:0:
256,192,57896,5,2,0:0:0:0:
256,192,57932,1,2,0:0:0:0:
256,192,57967,1,2,0:0:0:0:
256,192,58003,5,0,0:0:0:0:
256,192,58110,1,0,0:0:0:0:
256,192,58217,5,2,0:0:0:0:
256,192,58324,5,0,0:0:0:0:
256,192,58378,5,2,0:0:0:0:
256,192,58432,5,0,0:0:0:0:
256,192,58485,5,2,0:0:0:0:
256,192,58539,5,0,0:0:0:0:
256,192,58753,1,0,0:0:0:0:
256,192,58807,5,2,0:0:0:0:
256,192,58860,5,0,0:0:0:0:
256,192,58914,5,2,0:0:0:0:
256,192,58967,5,0,0:0:0:0:
256,192,59182,1,4,0:0:0:0:
256,192,59610,1,4,0:0:0:0:
256,192,59824,5,6,0:0:0:0:
256,192,59932,1,6,0:0:0:0:
256,192,60039,5,0,0:0:0:0:
256,192,60253,1,0,0:0:0:0:
256,192,60360,5,2,0:0:0:0:
256,192,60396,1,2,0:0:0:0:
256,192,60432,1,2,0:0:0:0:
256,192,60467,5,0,0:0:0:0:
256,192,60574,5,2,0:0:0:0:
256,192,60628,1,2,0:0:0:0:
256,192,60682,5,0,0:0:0:0:
256,192,60789,5,2,0:0:0:0:
256,192,60896,5,0,0:0:0:0:
256,192,61003,1,0,0:0:0:0:
256,192,61057,1,0,0:0:0:0:
256,192,61110,5,2,0:0:0:0:
256,192,61217,5,0,0:0:0:0:
256,192,61324,1,0,0:0:0:0:
256,192,61378,1,0,0:0:0:0:
256,192,61432,5,2,0:0:0:0:
256,192,61539,1,2,0:0:0:0:
256,192,61592,1,2,0:0:0:0:
256,192,61646,5,0,0:0:0:0:
256,192,61699,5,2,0:0:0:0:
256,192,61753,5,0,0:0:0:0:
256,192,61967,1,0,0:0:0:0:
256,192,62074,5,2,0:0:0:0:
256,192,62110,1,2,0:0:0:0:
256,192,62146,1,2,0:0:0:0:
256,192,62182,5,0,0:0:0:0:
256,192,62289,5,2,0:0:0:0:
256,192,62342,1,2,0:0:0:0:
256,192,62396,5,0,0:0:0:0:
256,192,62432,1,0,0:0:0:0:
256,192,62467,1,0,0:0:0:0:
256,192,62503,5,2,0:0:0:0:
256,192,62557,1,2,0:0:0:0:
256,192,62610,5,0,0:0:0:0:
256,192,62717,1,0,0:0:0:0:
256,192,62824,5,2,0:0:0:0:
256,192,62932,5,0,0:0:0:0:
256,192,62985,1,0,0:0:0:0:
256,192,63039,5,2,0:0:0:0:
256,192,63092,5,0,0:0:0:0:
256,192,63146,5,2,0:0:0:0:
256,192,63199,1,0,0:0:0:0:
256,192,63253,1,2,0:0:0:0:
256,192,63307,1,2,0:0:0:0:
256,192,63360,5,0,0:0:0:0:
256,192,63414,5,2,0:0:0:0:
256,192,63467,5,0,0:0:0:0:
256,192,63682,1,0,0:0:0:0:
256,192,63789,1,0,0:0:0:0:
256,192,63824,5,2,0:0:0:0:
256,192,63860,1,2,0:0:0:0:
256,192,63896,5,0,0:0:0:0:
256,192,64003,5,2,0:0:0:0:
256,192,64057,1,2,0:0:0:0:
256,192,64110,5,0,0:0:0:0:
256,192,64217,5,2,0:0:0:0:
256,192,64324,5,0,0:0:0:0:
256,192,64432,1,0,0:0:0:0:
256,192,64485,1,0,0:0:0:0:
256,192,64539,5,2,0:0:0:0:
256,192,64646,5,0,0:0:0:0:
256,192,64753,5,2,0:0:0:0:
256,192,64807,5,0,0:0:0:0:
256,192,64860,5,2,0:0:0:0:
256,192,64967,1,6,0:0:0:0:
256,192,65074,1,6,0:0:0:0:
256,192,65182,5,0,0:0:0:0:
256,192,65289,1,2,0:0:0:0:
256,192,65396,1,0,0:0:0:0:
256,192,65503,1,0,0:0:0:0:
256,192,65539,5,2,0:0:0:0:
256,192,65574,1,2,0:0:0:0:
256,192,65610,5,0,0:0:0:0:
256,192,65717,5,2,0:0:0:0:
256,192,65771,1,2,0:0:0:0:
256,192,65824,5,0,0:0:0:0:
256,192,65860,5,2,0:0:0:0:
256,192,65896,1,2,0:0:0:0:
256,192,65932,5,0,0:0:0:0:
256,192,65985,5,2,0:0:0:0:
256,192,66039,5,0,0:0:0:0:
256,192,66146,1,0,0:0:0:0:
256,192,66253,5,2,0:0:0:0:
256,192,66360,5,0,0:0:0:0:
256,192,66467,5,2,0:0:0:0:
256,192,66521,5,0,0:0:0:0:
256,192,66574,5,2,0:0:0:0:
256,192,66682,1,6,0:0:0:0:
256,192,66789,1,6,0:0:0:0:
256,192,66896,5,0,0:0:0:0:
256,192,67110,1,0,0:0:0:0:
256,192,67217,5,2,0:0:0:0:
256,192,67271,1,2,0:0:0:0:
256,192,67324,5,0,0:0:0:0:
256,192,67378,5,2,0:0:0:0:
256,192,67432,5,0,0:0:0:0:
256,192,67539,5,2,0:0:0:0:
256,192,67592,1,2,0:0:0:0:
256,192,67646,5,0,0:0:0:0:
256,192,67753,1,0,0:0:0:0:
256,192,67860,1,2,0:0:0:0:
256,192,67967,1,0,0:0:0:0:
256,192,68074,5,2,0:0:0:0:
256,192,68182,1,2,0:0:0:0:
256,192,68235,1,2,0:0:0:0:
256,192,68289,5,0,0:0:0:0:
256,192,68324,1,0,0:0:0:0:
256,192,68360,1,0,0:0:0:0:
256,192,68396,5,2,0:0:0:0:
256,192,68503,1,2,0:0:0:0:
256,192,68610,5,0,0:0:0:0:
256,192,68824,1,0,0:0:0:0:
256,192,68932,5,2,0:0:0:0:
256,192,68985,1,2,0:0:0:0:
256,192,69039,5,0,0:0:0:0:
256,192,69092,5,2,0:0:0:0:
256,192,69146,5,0,0:0:0:0:
256,192,69253,5,2,0:0:0:0:
256,192,69307,1,2,0:0:0:0:
256,192,69360,5,0,0:0:0:0:
256,192,69467,1,0,0:0:0:0:
256,192,69574,1,2,0:0:0:0:
256,192,69682,1,0,0:0:0:0:
256,192,69789,5,2,0:0:0:0:
256,192,69896,1,2,0:0:0:0:
256,192,69949,1,2,0:0:0:0:
256,192,70003,5,0,0:0:0:0:
256,192,70039,1,0,0:0:0:0:
256,192,70074,1,0,0:0:0:0:
256,192,70110,5,2,0:0:0:0:
256,192,70164,1,2,0:0:0:0:
256,192,70217,5,0,0:0:0:0:
256,192,70271,5,2,0:0:0:0:
256,192,70324,5,0,0:0:0:0:
256,192,70432,1,0,0:0:0:0:
256,192,70539,1,0,0:0:0:0:
256,192,70646,1,0,0:0:0:0:
256,192,70753,1,0,0:0:0:0:
256,192,70807,5,2,0:0:0:0:
256,192,70860,5,0,0:0:0:0:
256,192,70967,1,0,0:0:0:0:
256,192,71074,1,0,0:0:0:0:
256,192,71182,1,0,0:0:0:0:
256,192,71235,5,2,0:0:0:0:
256,192,71289,5,0,0:0:0:0:
256,192,71342,1,0,0:0:0:0:
256,192,71396,1,2,0:0:0:0:
256,192,71432,5,2,0:0:0:0:
256,192,71467,1,2,0:0:0:0:
256,192,71503,5,0,0:0:0:0:
256,192,71610,1,2,0:0:0:0:
256,192,71646,5,2,0:0:0:0:
256,192,71682,1,2,0:0:0:0:
256,192,71717,5,0,0:0:0:0:
256,192,71824,1,0,0:0:0:0:
256,192,71860,5,2,0:0:0:0:
256,192,71896,1,2,0:0:0:0:
256,192,71932,5,0,0:0:0:0:
256,192,71967,5,2,0:0:0:0:
256,192,72003,1,2,0:0:0:0:
256,192,72039,5,0,0:0:0:0:
256,192,72896,12,0,74181,0:0:0:0:
256,192,74610,5,0,0:0:0:0:
256,192,74664,1,0,0:0:0:0:
256,192,74717,1,0,0:0:0:0:
256,192,74771,1,0,0:0:0:0:
256,192,74824,5,2,0:0:0:0:
256,192,75039,5,0,0:0:0:0:
256,192,75092,1,0,0:0:0:0:
256,192,75146,1,0,0:0:0:0:
256,192,75199,1,0,0:0:0:0:
256,192,75253,5,2,0:0:0:0:
256,192,75467,5,0,0:0:0:0:
256,192,75682,5,2,0:0:0:0:
256,192,75789,5,0,0:0:0:0:
256,192,76003,1,0,0:0:0:0:
256,192,76110,5,2,0:0:0:0:
256,192,76324,5,0,0:0:0:0:
256,192,76378,1,0,0:0:0:0:
256,192,76432,1,0,0:0:0:0:
256,192,76485,1,0,0:0:0:0:
256,192,76539,5,2,0:0:0:0:
256,192,76753,5,0,0:0:0:0:
256,192,76807,1,0,0:0:0:0:
256,192,76860,1,0,0:0:0:0:
256,192,76914,1,0,0:0:0:0:
256,192,76967,5,2,0:0:0:0:
256,192,77182,1,2,0:0:0:0:
256,192,77396,5,0,0:0:0:0:
256,192,77503,5,2,0:0:0:0:
256,192,77717,1,2,0:0:0:0:
256,192,77824,5,0,0:0:0:0:
256,192,78039,1,0,0:0:0:0:
256,192,78092,1,0,0:0:0:0:
256,192,78146,1,0,0:0:0:0:
256,192,78199,1,0,0:0:0:0:
256,192,78253,5,2,0:0:0:0:
256,192,78467,5,0,0:0:0:0:
256,192,78521,1,0,0:0:0:0:
256,192,78574,1,0,0:0:0:0:
256,192,78628,1,0,0:0:0:0:
256,192,78682,5,2,0:0:0:0:
256,192,78896,5,0,0:0:0:0:
256,192,79110,5,2,0:0:0:0:
256,192,79164,1,2,0:0:0:0:
256,192,79217,5,0,0:0:0:0:
256,192,79271,1,0,0:0:0:0:
256,192,79324,1,0,0:0:0:0:
256,192,79432,1,0,0:0:0:0:
256,192,79539,5,2,0:0:0:0:
256,192,79646,1,2,0:0:0:0:
256,192,79753,5,0,0:0:0:0:
256,192,79807,5,2,0:0:0:0:
256,192,79860,1,2,0:0:0:0:
256,192,79914,1,2,0:0:0:0:
256,192,79967,5,0,0:0:0:0:
256,192,80182,1,0,0:0:0:0:
256,192,80235,5,2,0:0:0:0:
256,192,80289,1,2,0:0:0:0:
256,192,80342,1,2,0:0:0:0:
256,192,80396,5,0,0:0:0:0:
256,192,80610,5,2,0:0:0:0:
256,192,80646,1,2,0:0:0:0:
256,192,80682,1,2,0:0:0:0:
256,192,80717,5,0,0:0:0:0:
256,192,80771,5,0,0:0:0:0:
256,192,80824,5,2,0:0:0:0:
256,192,80860,1,2,0:0:0:0:
256,192,80896,1,2,0:0:0:0:
256,192,80932,5,0,0:0:0:0:
256,192,80985,1,0,0:0:0:0:
256,192,81039,5,2,0:0:0:0:
256,192,81092,1,2,0:0:0:0:
256,192,81146,5,0,0:0:0:0:
256,192,81199,5,0,0:0:0:0:
256,192,81253,5,2,0:0:0:0:
256,192,81307,5,0,0:0:0:0:
256,192,81360,5,2,0:0:0:0:
256,192,81414,1,2,0:0:0:0:
256,192,81467,5,0,0:0:0:0:
256,192,81521,1,0,0:0:0:0:
256,192,81574,1,0,0:0:0:0:
256,192,81628,1,0,0:0:0:0:
256,192,81682,5,2,0:0:0:0:
256,192,81896,5,0,0:0:0:0:
256,192,81949,1,0,0:0:0:0:
256,192,82003,1,0,0:0:0:0:
256,192,82057,1,0,0:0:0:0:
256,192,82110,5,2,0:0:0:0:
256,192,82324,5,0,0:0:0:0:
256,192,82539,5,2,0:0:0:0:
256,192,82646,5,0,0:0:0:0:
256,192,82860,1,0,0:0:0:0:
256,192,82967,5,2,0:0:0:0:
256,192,83182,5,0,0:0:0:0:
256,192,83235,1,0,0:0:0:0:
256,192,83289,1,0,0:0:0:0:
256,192,83342,1,0,0:0:0:0:
256,192,83396,5,2,0:0:0:0:
256,192,83610,5,0,0:0:0:0:
256,192,83664,1,0,0:0:0:0:
256,192,83717,1,0,0:0:0:0:
256,192,83771,1,0,0:0:0:0:
256,192,83824,5,2,0:0:0:0:
256,192,84039,1,2,0:0:0:0:
256,192,84253,5,0,0:0:0:0:
256,192,84360,5,2,0:0:0:0:
256,192,84574,1,2,0:0:0:0:
256,192,84682,5,0,0:0:0:0:
256,192,84896,1,0,0:0:0:0:
256,192,84949,1,0,0:0:0:0:
256,192,85003,1,0,0:0:0:0:
256,192,85057,1,0,0:0:0:0:
256,192,85110,5,2,0:0:0:0:
256,192,85324,5,0,0:0:0:0:
256,192,85378,1,0,0:0:0:0:
256,192,85432,1,0,0:0:0:0:
256,192,85485,1,0,0:0:0:0:
256,192,85539,5,2,0:0:0:0:
256,192,85753,5,0,0:0:0:0:
256,192,85967,5,2,0:0:0:0:
256,192,86021,1,2,0:0:0:0:
256,192,86074,5,0,0:0:0:0:
256,192,86128,1,0,0:0:0:0:
256,192,86182,1,0,0:0:0:0:
256,192,86289,1,0,0:0:0:0:
256,192,86396,5,2,0:0:0:0:
256,192,86503,1,2,0:0:0:0:
256,192,86610,1,2,0:0:0:0:
256,192,86664,1,2,0:0:0:0:
256,192,86717,1,2,0:0:0:0:
256,192,86771,1,2,0:0:0:0:
256,192,86824,1,2,0:0:0:0:
256,192,86878,1,2,0:0:0:0:
256,192,86932,1,2,0:0:0:0:
256,192,86985,1,2,0:0:0:0:
256,192,87039,5,0,0:0:0:0:
256,192,87092,5,2,0:0:0:0:
256,192,87146,1,2,0:0:0:0:
256,192,87199,1,2,0:0:0:0:
256,192,87253,1,2,0:0:0:0:
256,192,87307,1,2,0:0:0:0:
256,192,87360,1,2,0:0:0:0:
256,192,87414,1,2,0:0:0:0:
256,192,87467,5,0,0:0:0:0:
256,192,87521,5,2,0:0:0:0:
256,192,87574,1,2,0:0:0:0:
256,192,87628,1,2,0:0:0:0:
256,192,87682,5,0,0:0:0:0:
256,192,87735,5,2,0:0:0:0:
256,192,87789,1,2,0:0:0:0:
256,192,87842,1,2,0:0:0:0:
256,192,87896,5,0,0:0:0:0:
256,192,87949,5,2,0:0:0:0:
256,192,88003,5,0,0:0:0:0:
256,192,88057,5,2,0:0:0:0:
256,192,88110,5,0,0:0:0:0:
256,192,88164,5,2,0:0:0:0:
256,192,88217,5,0,0:0:0:0:
256,192,88271,5,2,0:0:0:0:
256,192,88324,5,0,0:0:0:0:
256,192,92610,5,2,0:0:0:0:
256,192,92717,1,2,0:0:0:0:
256,192,92771,1,2,0:0:0:0:
256,192,92824,1,2,0:0:0:0:
256,192,92932,1,2,0:0:0:0:
256,192,93092,1,2,0:0:0:0:
256,192,93146,1,2,0:0:0:0:
256,192,93199,1,2,0:0:0:0:
256,192,93253,1,2,0:0:0:0:
256,192,93360,1,2,0:0:0:0:
256,192,93467,1,2,0:0:0:0:
256,192,93521,1,2,0:0:0:0:
256,192,93628,1,2,0:0:0:0:
256,192,93789,1,2,0:0:0:0:
256,192,93896,1,2,0:0:0:0:
256,192,93949,1,2,0:0:0:0:
256,192,94057,1,2,0:0:0:0:
256,192,94110,1,2,0:0:0:0:
256,192,94164,1,2,0:0:0:0:
256,192,94217,1,2,0:0:0:0:
256,192,94271,1,2,0:0:0:0:
256,192,94432,1,2,0:0:0:0:
256,192,94539,1,2,0:0:0:0:
256,192,94592,1,2,0:0:0:0:
256,192,94646,1,2,0:0:0:0:
256,192,94699,1,2,0:0:0:0:
256,192,94807,1,2,0:0:0:0:
256,192,94914,1,2,0:0:0:0:
256,192,94967,1,2,0:0:0:0:
256,192,95074,1,2,0:0:0:0:
256,192,95289,1,2,0:0:0:0:
256,192,95342,1,2,0:0:0:0:
256,192,95449,1,2,0:0:0:0:
256,192,95503,1,2,0:0:0:0:
256,192,95557,1,2,0:0:0:0:
256,192,95717,1,2,0:0:0:0:
256,192,95771,1,2,0:0:0:0:
256,192,95824,1,2,0:0:0:0:
256,192,95932,1,2,0:0:0:0:
256,192,95985,1,2,0:0:0:0:
256,192,96092,1,2,0:0:0:0:
256,192,96146,1,2,0:0:0:0:
256,192,96253,1,2,0:0:0:0:
256,192,96307,1,2,0:0:0:0:
256,192,96360,1,2,0:0:0:0:
256,192,96414,1,2,0:0:0:0:
256,192,96574,1,2,0:0:0:0:
256,192,96628,1,2,0:0:0:0:
256,192,96735,1,2,0:0:0:0:
256,192,96896,1,2,0:0:0:0:
256,192,97003,1,2,0:0:0:0:
256,192,97057,1,2,0:0:0:0:
256,192,97217,1,2,0:0:0:0:
256,192,97271,1,2,0:0:0:0:
256,192,97324,1,2,0:0:0:0:
256,192,97432,1,2,0:0:0:0:
256,192,97592,1,2,0:0:0:0:
256,192,97646,1,2,0:0:0:0:
256,192,97753,1,2,0:0:0:0:
256,192,97860,1,2,0:0:0:0:
256,192,97914,1,2,0:0:0:0:
256,192,97967,1,2,0:0:0:0:
256,192,98074,1,2,0:0:0:0:
256,192,98182,1,2,0:0:0:0:
256,192,98235,1,2,0:0:0:0:
256,192,98289,1,2,0:0:0:0:
256,192,98342,1,2,0:0:0:0:
256,192,98396,1,2,0:0:0:0:
256,192,98503,1,2,0:0:0:0:
256,192,98610,1,6,0:0:0:0:
256,192,100324,1,0,0:0:0:0:
256,192,102039,5,4,0:0:0:0:
256,192,102253,1,0,0:0:0:0:
256,192,102360,1,0,0:0:0:0:
256,192,102467,1,2,0:0:0:0:
256,192,102681,1,0,0:0:0:0:
256,192,102896,1,2,0:0:0:0:
256,192,103003,1,2,0:0:0:0:
256,192,103110,1,0,0:0:0:0:
256,192,103324,1,2,0:0:0:0:
256,192,103539,1,2,0:0:0:0:
256,192,103574,1,2,0:0:0:0:
256,192,103610,1,2,0:0:0:0:
256,192,103646,1,2,0:0:0:0:
256,192,103681,1,2,0:0:0:0:
256,192,103717,1,2,0:0:0:0:
256,192,103753,1,0,0:0:0:0:
256,192,103967,1,2,0:0:0:0:
256,192,104074,1,0,0:0:0:0:
256,192,104128,1,0,0:0:0:0:
256,192,104181,1,0,0:0:0:0:
256,192,104289,1,2,0:0:0:0:
256,192,104396,1,0,0:0:0:0:
256,192,104449,1,2,0:0:0:0:
256,192,104503,1,2,0:0:0:0:
256,192,104556,1,2,0:0:0:0:
256,192,104610,1,0,0:0:0:0:
256,192,104717,1,2,0:0:0:0:
256,192,104771,1,0,0:0:0:0:
256,192,104824,1,2,0:0:0:0:
256,192,104878,1,2,0:0:0:0:
256,192,104931,1,0,0:0:0:0:
256,192,104985,1,2,0:0:0:0:
256,192,105039,1,0,0:0:0:0:
256,192,105092,1,0,0:0:0:0:
256,192,105146,1,0,0:0:0:0:
256,192,105199,1,0,0:0:0:0:
256,192,105253,1,2,0:0:0:0:
256,192,105306,1,2,0:0:0:0:
256,192,105360,1,2,0:0:0:0:
256,192,105414,1,2,0:0:0:0:
256,192,105467,1,0,0:0:0:0:
256,192,105681,1,0,0:0:0:0:
256,192,105789,1,0,0:0:0:0:
256,192,105896,1,2,0:0:0:0:
256,192,106110,1,0,0:0:0:0:
256,192,106324,1,2,0:0:0:0:
256,192,106539,1,0,0:0:0:0:
256,192,106753,1,2,0:0:0:0:
256,192,106967,1,2,0:0:0:0:
256,192,107003,1,2,0:0:0:0:
256,192,107039,1,2,0:0:0:0:
256,192,107074,1,2,0:0:0:0:
256,192,107110,1,2,0:0:0:0:
256,192,107146,1,2,0:0:0:0:
256,192,107181,5,0,0:0:0:0:
256,192,107396,1,2,0:0:0:0:
256,192,107503,1,0,0:0:0:0:
256,192,107556,1,0,0:0:0:0:
256,192,107610,1,0,0:0:0:0:
256,192,107717,1,2,0:0:0:0:
256,192,107824,1,0,0:0:0:0:
256,192,107878,1,2,0:0:0:0:
256,192,107931,1,0,0:0:0:0:
256,192,107985,1,2,0:0:0:0:
256,192,108039,1,0,0:0:0:0:
256,192,108146,1,2,0:0:0:0:
256,192,108199,1,0,0:0:0:0:
256,192,108253,1,2,0:0:0:0:
256,192,108360,1,2,0:0:0:0:
256,192,108414,1,2,0:0:0:0:
256,192,108467,1,0,0:0:0:0:
256,192,108521,1,2,0:0:0:0:
256,192,108574,1,0,0:0:0:0:
256,192,108628,1,0,0:0:0:0:
256,192,108681,1,2,0:0:0:0:
256,192,108735,1,2,0:0:0:0:
256,192,108789,1,2,0:0:0:0:
256,192,108842,1,2,0:0:0:0:
256,192,108896,1,0,0:0:0:0:
256,192,109110,1,0,0:0:0:0:
256,192,109217,1,0,0:0:0:0:
256,192,109324,1,2,0:0:0:0:
256,192,109539,1,0,0:0:0:0:
256,192,109753,1,2,0:0:0:0:
256,192,109967,1,0,0:0:0:0:
256,192,110181,1,2,0:0:0:0:
256,192,110396,1,2,0:0:0:0:
256,192,110431,1,2,0:0:0:0:
256,192,110467,1,2,0:0:0:0:
256,192,110503,1,2,0:0:0:0:
256,192,110539,1,2,0:0:0:0:
256,192,110574,1,2,0:0:0:0:
256,192,110610,1,0,0:0:0:0:
256,192,110824,1,2,0:0:0:0:
256,192,110931,1,0,0:0:0:0:
256,192,110985,1,0,0:0:0:0:
256,192,111039,1,0,0:0:0:0:
256,192,111146,1,2,0:0:0:0:
256,192,111253,1,0,0:0:0:0:
256,192,111306,1,2,0:0:0:0:
256,192,111360,1,2,0:0:0:0:
256,192,111414,1,2,0:0:0:0:
256,192,111467,1,0,0:0:0:0:
256,192,111574,1,0,0:0:0:0:
256,192,111628,1,2,0:0:0:0:
256,192,111681,1,0,0:0:0:0:
256,192,111735,1,0,0:0:0:0:
256,192,111789,1,2,0:0:0:0:
256,192,111842,1,2,0:0:0:0:
256,192,111896,1,0,0:0:0:0:
256,192,111949,1,0,0:0:0:0:
256,192,112003,1,0,0:0:0:0:
256,192,112056,1,0,0:0:0:0:
256,192,112110,1,2,0:0:0:0:
256,192,112164,1,2,0:0:0:0:
256,192,112217,1,2,0:0:0:0:
256,192,112271,1,2,0:0:0:0:
256,192,112324,1,0,0:0:0:0:
256,192,112539,1,0,0:0:0:0:
256,192,112646,1,0,0:0:0:0:
256,192,112753,1,2,0:0:0:0:
256,192,112967,1,0,0:0:0:0:
256,192,113181,1,2,0:0:0:0:
256,192,113396,1,0,0:0:0:0:
256,192,113610,1,2,0:0:0:0:
256,192,113824,1,2,0:0:0:0:
256,192,113860,1,2,0:0:0:0:
256,192,113896,1,2,0:0:0:0:
256,192,113931,1,2,0:0:0:0:
256,192,113967,1,2,0:0:0:0:
256,192,114003,1,2,0:0:0:0:
256,192,114039,5,0,0:0:0:0:
256,192,114253,1,2,0:0:0:0:
256,192,114360,1,0,0:0:0:0:
256,192,114414,1,0,0:0:0:0:
256,192,114467,1,0,0:0:0:0:
256,192,114574,1,2,0:0:0:0:
256,192,114681,1,0,0:0:0:0:
256,192,114735,1,2,0:0:0:0:
256,192,114789,1,2,0:0:0:0:
256,192,114842,1,0,0:0:0:0:
256,192,114896,1,0,0:0:0:0:
256,192,115003,12,0,115431,0:0:0:0:
256,192,115539,5,6,0:0:0:0:
256,192,115753,5,4,0:0:0:0:
256,192,115860,1,0,0:0:0:0:
256,192,115914,1,0,0:0:0:0:
256,192,115967,1,2,0:0:0:0:
256,192,116074,1,2,0:0:0:0:
256,192,116181,1,0,0:0:0:0:
256,192,116235,1,2,0:0:0:0:
256,192,116289,1,0,0:0:0:0:
256,192,116342,1,0,0:0:0:0:
256,192,116396,1,2,0:0:0:0:
256,192,116503,1,2,0:0:0:0:
256,192,116539,1,2,0:0:0:0:
256,192,116574,1,2,0:0:0:0:
256,192,116610,1,0,0:0:0:0:
256,192,116717,1,0,0:0:0:0:
256,192,116771,1,0,0:0:0:0:
256,192,116824,1,2,0:0:0:0:
256,192,116931,1,0,0:0:0:0:
256,192,117039,1,2,0:0:0:0:
256,192,117092,1,0,0:0:0:0:
256,192,117146,1,0,0:0:0:0:
256,192,117199,1,0,0:0:0:0:
256,192,117253,1,2,0:0:0:0:
256,192,117306,1,0,0:0:0:0:
256,192,117360,1,2,0:0:0:0:
256,192,117467,1,0,0:0:0:0:
256,192,117574,1,0,0:0:0:0:
256,192,117628,1,0,0:0:0:0:
256,192,117681,1,2,0:0:0:0:
256,192,117789,1,2,0:0:0:0:
256,192,117842,1,2,0:0:0:0:
256,192,117896,1,0,0:0:0:0:
256,192,117949,1,2,0:0:0:0:
256,192,118003,1,0,0:0:0:0:
256,192,118056,1,0,0:0:0:0:
256,192,118110,1,2,0:0:0:0:
256,192,118164,1,0,0:0:0:0:
256,192,118217,1,0,0:0:0:0:
256,192,118271,1,2,0:0:0:0:
256,192,118324,1,0,0:0:0:0:
256,192,118431,1,2,0:0:0:0:
256,192,118485,1,0,0:0:0:0:
256,192,118539,1,2,0:0:0:0:
256,192,118592,1,2,0:0:0:0:
256,192,118646,1,0,0:0:0:0:
256,192,118699,1,0,0:0:0:0:
256,192,118753,1,2,0:0:0:0:
256,192,118806,1,2,0:0:0:0:
256,192,118860,1,2,0:0:0:0:
256,192,118914,1,2,0:0:0:0:
256,192,118967,1,0,0:0:0:0:
256,192,119021,1,2,0:0:0:0:
256,192,119074,1,2,0:0:0:0:
256,192,119128,1,2,0:0:0:0:
256,192,119181,5,0,0:0:0:0:
256,192,119289,1,0,0:0:0:0:
256,192,119342,1,0,0:0:0:0:
256,192,119396,1,2,0:0:0:0:
256,192,119503,1,2,0:0:0:0:
256,192,119610,1,0,0:0:0:0:
256,192,119664,1,2,0:0:0:0:
256,192,119717,1,0,0:0:0:0:
256,192,119771,1,0,0:0:0:0:
256,192,119824,1,2,0:0:0:0:
256,192,119931,1,2,0:0:0:0:
256,192,119967,1,2,0:0:0:0:
256,192,120003,1,2,0:0:0:0:
256,192,120039,1,0,0:0:0:0:
256,192,120146,1,0,0:0:0:0:
256,192,120199,1,0,0:0:0:0:
256,192,120253,1,2,0:0:0:0:
256,192,120360,1,0,0:0:0:0:
256,192,120467,1,2,0:0:0:0:
256,192,120521,1,0,0:0:0:0:
256,192,120574,1,0,0:0:0:0:
256,192,120628,1,0,0:0:0:0:
256,192,120681,1,2,0:0:0:0:
256,192,120735,1,0,0:0:0:0:
256,192,120789,1,2,0:0:0:0:
256,192,120842,1,2,0:0:0:0:
256,192,120896,1,0,0:0:0:0:
256,192,121003,1,0,0:0:0:0:
256,192,121056,1,0,0:0:0:0:
256,192,121110,1,2,0:0:0:0:
256,192,121217,1,2,0:0:0:0:
256,192,121271,1,2,0:0:0:0:
256,192,121324,1,0,0:0:0:0:
256,192,121378,1,2,0:0:0:0:
256,192,121431,1,0,0:0:0:0:
256,192,121467,1,0,0:0:0:0:
256,192,121503,1,0,0:0:0:0:
256,192,121539,1,2,0:0:0:0:
256,192,121646,1,2,0:0:0:0:
256,192,121699,1,2,0:0:0:0:
256,192,121753,1,0,0:0:0:0:
256,192,121860,1,0,0:0:0:0:
256,192,121967,1,2,0:0:0:0:
256,192,122021,1,0,0:0:0:0:
256,192,122074,1,0,0:0:0:0:
256,192,122181,1,2,0:0:0:0:
256,192,122235,1,0,0:0:0:0:
256,192,122289,1,0,0:0:0:0:
256,192,122396,1,2,0:0:0:0:
256,192,122503,1,2,0:0:0:0:
256,192,122610,1,4,0:0:0:0:
256,192,122717,1,0,0:0:0:0:
256,192,122771,1,0,0:0:0:0:
256,192,122824,1,2,0:0:0:0:
256,192,122931,1,2,0:0:0:0:
256,192,123039,1,0,0:0:0:0:
256,192,123092,1,2,0:0:0:0:
256,192,123146,1,0,0:0:0:0:
256,192,123199,1,0,0:0:0:0:
256,192,123253,1,2,0:0:0:0:
256,192,123360,1,2,0:0:0:0:
256,192,123396,1,2,0:0:0:0:
256,192,123431,1,2,0:0:0:0:
256,192,123467,1,0,0:0:0:0:
256,192,123574,1,0,0:0:0:0:
256,192,123628,1,0,0:0:0:0:
256,192,123681,1,2,0:0:0:0:
256,192,123789,1,0,0:0:0:0:
256,192,123896,1,2,0:0:0:0:
256,192,123949,1,0,0:0:0:0:
256,192,124003,1,0,0:0:0:0:
256,192,124056,1,0,0:0:0:0:
256,192,124110,1,2,0:0:0:0:
256,192,124164,1,0,0:0:0:0:
256,192,124217,1,2,0:0:0:0:
256,192,124324,1,0,0:0:0:0:
256,192,124431,1,0,0:0:0:0:
256,192,124485,1,0,0:0:0:0:
256,192,124538,1,2,0:0:0:0:
256,192,124646,1,2,0:0:0:0:
256,192,124699,1,2,0:0:0:0:
256,192,124753,1,0,0:0:0:0:
256,192,124806,1,2,0:0:0:0:
256,192,124860,1,0,0:0:0:0:
256,192,124913,1,0,0:0:0:0:
256,192,124967,1,2,0:0:0:0:
256,192,125021,1,0,0:0:0:0:
256,192,125074,1,0,0:0:0:0:
256,192,125128,1,2,0:0:0:0:
256,192,125181,1,0,0:0:0:0:
256,192,125288,1,2,0:0:0:0:
256,192,125342,1,0,0:0:0:0:
256,192,125396,1,2,0:0:0:0:
256,192,125449,1,2,0:0:0:0:
256,192,125503,1,0,0:0:0:0:
256,192,125556,1,0,0:0:0:0:
256,192,125610,1,2,0:0:0:0:
256,192,125663,1,2,0:0:0:0:
256,192,125717,1,2,0:0:0:0:
256,192,125771,1,2,0:0:0:0:
256,192,125824,1,0,0:0:0:0:
256,192,125878,1,2,0:0:0:0:
256,192,125931,1,2,0:0:0:0:
256,192,125985,1,2,0:0:0:0:
256,192,126038,5,0,0:0:0:0:
256,192,126146,1,0,0:0:0:0:
256,192,126199,1,0,0:0:0:0:
256,192,126253,1,2,0:0:0:0:
256,192,126360,1,2,0:0:0:0:
256,192,126467,1,0,0:0:0:0:
256,192,126521,1,2,0:0:0:0:
256,192,126574,1,0,0:0:0:0:
256,192,126628,1,0,0:0:0:0:
256,192,126681,1,2,0:0:0:0:
256,192,126788,1,2,0:0:0:0:
256,192,126824,1,2,0:0:0:0:
256,192,126860,1,2,0:0:0:0:
256,192,126896,1,0,0:0:0:0:
256,192,127003,1,0,0:0:0:0:
256,192,127056,1,0,0:0:0:0:
256,192,127110,1,2,0:0:0:0:
256,192,127217,1,0,0:0:0:0:
256,192,127324,1,2,0:0:0:0:
256,192,127378,1,0,0:0:0:0:
256,192,127431,1,0,0:0:0:0:
256,192,127485,1,0,0:0:0:0:
256,192,127538,1,2,0:0:0:0:
256,192,127592,1,0,0:0:0:0:
256,192,127646,1,2,0:0:0:0:
256,192,127699,1,2,0:0:0:0:
256,192,127753,1,0,0:0:0:0:
256,192,127860,1,0,0:0:0:0:
256,192,127914,1,0,0:0:0:0:
256,192,127967,1,2,0:0:0:0:
256,192,128003,1,2,0:0:0:0:
256,192,128039,1,2,0:0:0:0:
256,192,128074,1,0,0:0:0:0:
256,192,128128,1,0,0:0:0:0:
256,192,128181,1,2,0:0:0:0:
256,192,128217,1,2,0:0:0:0:
256,192,128253,1,2,0:0:0:0:
256,192,128289,1,0,0:0:0:0:
256,192,128342,1,0,0:0:0:0:
256,192,128396,1,2,0:0:0:0:
256,192,128504,1,2,0:0:0:0:
256,192,128556,1,2,0:0:0:0:
256,192,128610,1,0,0:0:0:0:
256,192,128646,1,0,0:0:0:0:
256,192,128681,1,0,0:0:0:0:
256,192,128717,1,2,0:0:0:0:
256,192,128771,1,2,0:0:0:0:
256,192,128824,1,0,0:0:0:0:
256,192,128860,1,0,0:0:0:0:
256,192,128896,1,0,0:0:0:0:
256,192,128931,1,2,0:0:0:0:
256,192,128985,1,2,0:0:0:0:
256,192,129039,1,0,0:0:0:0:
256,192,129092,1,2,0:0:0:0:
256,192,129146,1,0,0:0:0:0:
256,192,129199,1,0,0:0:0:0:
256,192,129253,1,2,0:0:0:0:
256,192,129306,1,2,0:0:0:0:
256,192,129360,1,2,0:0:0:0:
256,192,129414,1,2,0:0:0:0:
256,192,129467,1,0,0:0:0:0:
256,192,129647,12,0,134872,0:0:0:0:
256,192,135232,5,0,0:0:0:0:
256,192,135322,1,0,0:0:0:0:
256,192,135412,1,2,0:0:0:0:
256,192,135592,1,0,0:0:0:0:
256,192,135682,1,2,0:0:0:0:
256,192,135772,1,0,0:0:0:0:
256,192,135862,1,0,0:0:0:0:
256,192,135952,1,2,0:0:0:0:
256,192,136132,1,0,0:0:0:0:
256,192,136222,1,2,0:0:0:0:
256,192,136313,1,0,0:0:0:0:
256,192,136403,1,0,0:0:0:0:
256,192,136493,1,2,0:0:0:0:
256,192,136583,1,2,0:0:0:0:
256,192,136673,1,0,0:0:0:0:
256,192,136763,1,2,0:0:0:0:
256,192,136853,1,0,0:0:0:0:
256,192,136898,1,0,0:0:0:0:
256,192,136943,1,0,0:0:0:0:
256,192,137033,1,2,0:0:0:0:
256,192,137123,1,2,0:0:0:0:
256,192,137213,1,0,0:0:0:0:
256,192,137304,1,0,0:0:0:0:
256,192,137394,1,2,0:0:0:0:
256,192,137439,1,2,0:0:0:0:
256,192,137484,1,2,0:0:0:0:
256,192,137574,1,0,0:0:0:0:
256,192,137664,1,2,0:0:0:0:
256,192,137754,1,0,0:0:0:0:
256,192,137799,1,0,0:0:0:0:
256,192,137844,1,0,0:0:0:0:
256,192,137889,1,0,0:0:0:0:
256,192,137934,1,2,0:0:0:0:
256,192,137979,1,2,0:0:0:0:
256,192,138024,1,2,0:0:0:0:
256,192,138069,1,2,0:0:0:0:
256,192,138114,1,0,0:0:0:0:
256,192,138204,1,0,0:0:0:0:
256,192,138295,1,2,0:0:0:0:
256,192,138475,1,0,0:0:0:0:
256,192,138565,1,2,0:0:0:0:
256,192,138655,1,0,0:0:0:0:
256,192,138700,1,0,0:0:0:0:
256,192,138745,1,0,0:0:0:0:
256,192,138835,1,2,0:0:0:0:
256,192,139015,1,0,0:0:0:0:
256,192,139105,1,2,0:0:0:0:
256,192,139195,1,0,0:0:0:0:
256,192,139241,1,0,0:0:0:0:
256,192,139286,1,0,0:0:0:0:
256,192,139376,1,2,0:0:0:0:
256,192,139466,1,2,0:0:0:0:
256,192,139556,1,0,0:0:0:0:
256,192,139646,1,0,0:0:0:0:
256,192,139691,1,0,0:0:0:0:
256,192,139736,1,2,0:0:0:0:
256,192,139826,1,0,0:0:0:0:
256,192,139916,1,2,0:0:0:0:
256,192,139961,1,2,0:0:0:0:
256,192,140006,1,2,0:0:0:0:
256,192,140051,1,2,0:0:0:0:
256,192,140096,1,0,0:0:0:0:
256,192,140186,1,0,0:0:0:0:
256,192,140277,1,0,0:0:0:0:
256,192,140322,1,0,0:0:0:0:
256,192,140367,1,0,0:0:0:0:
256,192,140412,1,0,0:0:0:0:
256,192,140457,1,2,0:0:0:0:
256,192,140547,1,0,0:0:0:0:
256,192,140637,1,2,0:0:0:0:
256,192,140682,1,2,0:0:0:0:
256,192,140727,1,2,0:0:0:0:
256,192,140772,1,2,0:0:0:0:
256,192,140817,1,0,0:0:0:0:
256,192,140862,1,0,0:0:0:0:
256,192,140907,1,2,0:0:0:0:
256,192,140952,1,2,0:0:0:0:
256,192,140997,5,0,0:0:0:0:
256,192,141087,1,0,0:0:0:0:
256,192,141177,1,2,0:0:0:0:
256,192,141358,1,0,0:0:0:0:
256,192,141448,1,2,0:0:0:0:
256,192,141538,1,0,0:0:0:0:
256,192,141583,1,0,0:0:0:0:
256,192,141628,1,0,0:0:0:0:
256,192,141718,1,2,0:0:0:0:
256,192,141808,1,2,0:0:0:0:
256,192,141898,1,0,0:0:0:0:
256,192,141988,1,2,0:0:0:0:
256,192,142078,1,0,0:0:0:0:
256,192,142168,1,0,0:0:0:0:
256,192,142213,1,0,0:0:0:0:
256,192,142259,1,2,0:0:0:0:
256,192,142349,1,2,0:0:0:0:
256,192,142439,1,0,0:0:0:0:
256,192,142484,1,0,0:0:0:0:
256,192,142529,1,0,0:0:0:0:
256,192,142574,1,0,0:0:0:0:
256,192,142619,1,2,0:0:0:0:
256,192,142709,1,0,0:0:0:0:
256,192,142799,1,2,0:0:0:0:
256,192,142844,1,2,0:0:0:0:
256,192,142889,1,2,0:0:0:0:
256,192,142934,1,2,0:0:0:0:
256,192,142979,1,0,0:0:0:0:
256,192,143024,1,0,0:0:0:0:
256,192,143069,1,0,0:0:0:0:
256,192,143159,1,0,0:0:0:0:
256,192,143250,1,0,0:0:0:0:
256,192,143295,1,0,0:0:0:0:
256,192,143340,1,2,0:0:0:0:
256,192,143430,1,0,0:0:0:0:
256,192,143520,1,0,0:0:0:0:
256,192,143565,1,2,0:0:0:0:
256,192,143610,1,0,0:0:0:0:
256,192,143655,1,2,0:0:0:0:
256,192,143700,1,0,0:0:0:0:
256,192,143745,1,0,0:0:0:0:
256,192,143790,1,2,0:0:0:0:
256,192,143835,1,2,0:0:0:0:
256,192,143880,1,0,0:0:0:0:
256,192,143970,1,0,0:0:0:0:
256,192,144015,1,0,0:0:0:0:
256,192,144060,1,2,0:0:0:0:
256,192,144150,1,2,0:0:0:0:
256,192,144241,1,0,0:0:0:0:
256,192,144331,1,2,0:0:0:0:
256,192,144421,1,0,0:0:0:0:
256,192,144466,1,0,0:0:0:0:
256,192,144511,1,0,0:0:0:0:
256,192,144601,1,2,0:0:0:0:
256,192,144646,1,2,0:0:0:0:
256,192,144691,1,2,0:0:0:0:
256,192,144781,1,0,0:0:0:0:
256,192,144871,1,2,0:0:0:0:
256,192,144916,1,2,0:0:0:0:
256,192,144961,1,0,0:0:0:0:
256,192,145006,1,2,0:0:0:0:
256,192,145051,1,0,0:0:0:0:
256,192,145096,1,0,0:0:0:0:
256,192,145141,1,2,0:0:0:0:
256,192,145186,1,2,0:0:0:0:
256,192,145232,1,2,0:0:0:0:
256,192,145277,1,2,0:0:0:0:
256,192,145322,1,0,0:0:0:0:
256,192,145412,12,0,146042,0:0:0:0:
256,192,146763,5,0,0:0:0:0:
256,192,146808,1,0,0:0:0:0:
256,192,146853,1,0,0:0:0:0:
256,192,146898,1,0,0:0:0:0:
256,192,146943,1,2,0:0:0:0:
256,192,146988,1,2,0:0:0:0:
256,192,147033,1,2,0:0:0:0:
256,192,147078,1,2,0:0:0:0:
256,192,147123,1,0,0:0:0:0:
256,192,147213,1,0,0:0:0:0:
256,192,147259,1,0,0:0:0:0:
256,192,147304,1,2,0:0:0:0:
256,192,147394,1,0,0:0:0:0:
256,192,147484,1,2,0:0:0:0:
256,192,147529,1,2,0:0:0:0:
256,192,147574,1,2,0:0:0:0:
256,192,147619,1,2,0:0:0:0:
256,192,147664,1,0,0:0:0:0:
256,192,147709,1,0,0:0:0:0:
256,192,147754,1,2,0:0:0:0:
256,192,147799,1,2,0:0:0:0:
256,192,147844,1,0,0:0:0:0:
256,192,147934,1,0,0:0:0:0:
256,192,147979,1,0,0:0:0:0:
256,192,148024,1,2,0:0:0:0:
256,192,148114,1,2,0:0:0:0:
256,192,148204,1,0,0:0:0:0:
256,192,148250,1,0,0:0:0:0:
256,192,148295,1,0,0:0:0:0:
256,192,148340,1,0,0:0:0:0:
256,192,148385,1,2,0:0:0:0:
256,192,148430,1,2,0:0:0:0:
256,192,148475,1,0,0:0:0:0:
256,192,148520,1,0,0:0:0:0:
256,192,148565,1,2,0:0:0:0:
256,192,148610,1,2,0:0:0:0:
256,192,148655,1,2,0:0:0:0:
256,192,148700,1,2,0:0:0:0:
256,192,148745,1,0,0:0:0:0:
256,192,148790,1,0,0:0:0:0:
256,192,148835,1,2,0:0:0:0:
256,192,148880,1,2,0:0:0:0:
256,192,148925,1,0,0:0:0:0:
256,192,149015,1,0,0:0:0:0:
256,192,149105,1,2,0:0:0:0:
256,192,149150,1,0,0:0:0:0:
256,192,149195,1,0,0:0:0:0:
256,192,149286,1,2,0:0:0:0:
256,192,149331,1,0,0:0:0:0:
256,192,149376,1,0,0:0:0:0:
256,192,149466,1,2,0:0:0:0:
256,192,149556,1,2,0:0:0:0:
256,192,149646,5,0,0:0:0:0:
256,192,149691,1,0,0:0:0:0:
256,192,149736,1,0,0:0:0:0:
256,192,149781,1,0,0:0:0:0:
256,192,149826,1,2,0:0:0:0:
256,192,149871,1,0,0:0:0:0:
256,192,149916,1,2,0:0:0:0:
256,192,149961,1,2,0:0:0:0:
256,192,150006,1,0,0:0:0:0:
256,192,150096,1,0,0:0:0:0:
256,192,150141,1,0,0:0:0:0:
256,192,150186,1,2,0:0:0:0:
256,192,150277,1,0,0:0:0:0:
256,192,150367,1,2,0:0:0:0:
256,192,150412,1,0,0:0:0:0:
256,192,150457,1,2,0:0:0:0:
256,192,150502,1,2,0:0:0:0:
256,192,150547,1,0,0:0:0:0:
256,192,150592,1,0,0:0:0:0:
256,192,150637,1,2,0:0:0:0:
256,192,150682,1,2,0:0:0:0:
256,192,150727,1,0,0:0:0:0:
256,192,150817,1,0,0:0:0:0:
256,192,150862,1,0,0:0:0:0:
256,192,150907,1,2,0:0:0:0:
256,192,150952,1,2,0:0:0:0:
256,192,150997,1,2,0:0:0:0:
256,192,151087,1,0,0:0:0:0:
256,192,151132,1,2,0:0:0:0:
256,192,151177,1,2,0:0:0:0:
256,192,151222,1,2,0:0:0:0:
256,192,151268,1,0,0:0:0:0:
256,192,151313,1,0,0:0:0:0:
256,192,151358,1,2,0:0:0:0:
256,192,151403,1,2,0:0:0:0:
256,192,151448,1,0,0:0:0:0:
256,192,151493,1,2,0:0:0:0:
256,192,151538,1,0,0:0:0:0:
256,192,151583,1,0,0:0:0:0:
256,192,151628,1,2,0:0:0:0:
256,192,151673,1,2,0:0:0:0:
256,192,151718,1,0,0:0:0:0:
256,192,151763,1,0,0:0:0:0:
256,192,151808,1,0,0:0:0:0:
256,192,151898,1,0,0:0:0:0:
256,192,151988,1,2,0:0:0:0:
256,192,152033,1,0,0:0:0:0:
256,192,152078,1,0,0:0:0:0:
256,192,152168,1,2,0:0:0:0:
256,192,152213,1,0,0:0:0:0:
256,192,152259,1,0,0:0:0:0:
256,192,152349,1,2,0:0:0:0:
256,192,152379,1,2,0:0:0:0:
256,192,152439,1,2,0:0:0:0:
256,192,152469,1,2,0:0:0:0:
256,192,152529,1,0,0:0:0:0:
256,192,152619,1,0,0:0:0:0:
256,192,152709,1,2,0:0:0:0:
256,192,152754,1,2,0:0:0:0:
256,192,152799,1,2,0:0:0:0:
256,192,152844,1,2,0:0:0:0:
256,192,152889,1,0,0:0:0:0:
256,192,152934,1,0,0:0:0:0:
256,192,152979,1,0,0:0:0:0:
256,192,153024,1,0,0:0:0:0:
256,192,153069,1,2,0:0:0:0:
256,192,153159,1,0,0:0:0:0:
256,192,153250,1,2,0:0:0:0:
256,192,153295,1,2,0:0:0:0:
256,192,153340,1,2,0:0:0:0:
256,192,153385,1,2,0:0:0:0:
256,192,153430,1,0,0:0:0:0:
256,192,153475,1,0,0:0:0:0:
256,192,153520,1,2,0:0:0:0:
256,192,153565,1,2,0:0:0:0:
256,192,153610,1,0,0:0:0:0:
256,192,153655,1,2,0:0:0:0:
256,192,153700,1,0,0:0:0:0:
256,192,153745,1,0,0:0:0:0:
256,192,153790,1,2,0:0:0:0:
256,192,153835,1,0,0:0:0:0:
256,192,153880,1,2,0:0:0:0:
256,192,153925,1,2,0:0:0:0:
256,192,153970,1,0,0:0:0:0:
256,192,154060,1,2,0:0:0:0:
256,192,154105,1,2,0:0:0:0:
256,192,154150,1,0,0:0:0:0:
256,192,154195,1,2,0:0:0:0:
256,192,154241,1,2,0:0:0:0:
256,192,154286,1,0,0:0:0:0:
256,192,154331,1,0,0:0:0:0:
256,192,154376,1,2,0:0:0:0:
256,192,154421,1,0,0:0:0:0:
256,192,154466,1,0,0:0:0:0:
256,192,154511,1,2,0:0:0:0:
256,192,154556,1,0,0:0:0:0:
256,192,154601,1,2,0:0:0:0:
256,192,154646,1,2,0:0:0:0:
256,192,154691,1,0,0:0:0:0:
256,192,154781,1,0,0:0:0:0:
256,192,154871,1,2,0:0:0:0:
256,192,154916,1,0,0:0:0:0:
256,192,154961,1,0,0:0:0:0:
256,192,155051,1,2,0:0:0:0:
256,192,155096,1,0,0:0:0:0:
256,192,155141,1,0,0:0:0:0:
256,192,155231,1,2,0:0:0:0:
256,192,155322,1,2,0:0:0:0:
256,192,155412,1,0,0:0:0:0:
256,192,155457,1,0,0:0:0:0:
256,192,155502,1,0,0:0:0:0:
256,192,155547,1,0,0:0:0:0:
256,192,155592,1,2,0:0:0:0:
256,192,155637,1,2,0:0:0:0:
256,192,155682,1,2,0:0:0:0:
256,192,155727,1,2,0:0:0:0:
256,192,155772,1,0,0:0:0:0:
256,192,155817,1,0,0:0:0:0:
256,192,155862,1,2,0:0:0:0:
256,192,155907,1,2,0:0:0:0:
256,192,155952,1,0,0:0:0:0:
256,192,155997,1,2,0:0:0:0:
256,192,156042,1,0,0:0:0:0:
256,192,156087,1,0,0:0:0:0:
256,192,156132,1,2,0:0:0:0:
256,192,156177,1,0,0:0:0:0:
256,192,156222,1,2,0:0:0:0:
256,192,156268,1,2,0:0:0:0:
256,192,156313,1,0,0:0:0:0:
256,192,156358,1,0,0:0:0:0:
256,192,156403,1,2,0:0:0:0:
256,192,156448,1,0,0:0:0:0:
256,192,156493,1,0,0:0:0:0:
256,192,156538,1,2,0:0:0:0:
256,192,156583,1,0,0:0:0:0:
256,192,156628,1,0,0:0:0:0:
256,192,156673,1,2,0:0:0:0:
256,192,156718,1,2,0:0:0:0:
256,192,156763,1,2,0:0:0:0:
256,192,156853,1,0,0:0:0:0:
256,192,156898,1,0,0:0:0:0:
256,192,156943,1,2,0:0:0:0:
256,192,156988,1,0,0:0:0:0:
256,192,157033,1,2,0:0:0:0:
256,192,157078,1,2,0:0:0:0:
256,192,157123,1,0,0:0:0:0:
256,192,157168,1,2,0:0:0:0:
256,192,157213,1,0,0:0:0:0:
256,192,157259,1,0,0:0:0:0:
256,192,157304,1,2,0:0:0:0:
256,192,157349,1,2,0:0:0:0:
256,192,157394,1,0,0:0:0:0:
256,192,157439,1,2,0:0:0:0:
256,192,157484,1,0,0:0:0:0:
256,192,157529,1,0,0:0:0:0:
256,192,157574,1,2,0:0:0:0:
256,192,157664,12,0,158204,0:0:0:0:
256,192,158295,5,0,0:0:0:0:
256,192,158340,1,0,0:0:0:0:
256,192,158385,1,0,0:0:0:0:
256,192,158475,1,2,0:0:0:0:
256,192,158565,1,0,0:0:0:0:
256,192,158655,1,2,0:0:0:0:
256,192,158700,1,2,0:0:0:0:
256,192,158745,1,2,0:0:0:0:
256,192,158835,1,2,0:0:0:0:
256,192,158925,1,2,0:0:0:0:
256,192,159015,1,0,0:0:0:0:
256,192,159045,1,0,0:0:0:0:
256,192,159075,1,0,0:0:0:0:
256,192,159105,1,2,0:0:0:0:
256,192,159195,1,0,0:0:0:0:
256,192,159286,1,2,0:0:0:0:
256,192,159376,1,0,0:0:0:0:
256,192,159421,1,0,0:0:0:0:
256,192,159466,1,2,0:0:0:0:
256,192,159511,1,2,0:0:0:0:
256,192,159556,1,0,0:0:0:0:
256,192,159601,1,2,0:0:0:0:
256,192,159646,1,0,0:0:0:0:
256,192,159736,1,0,0:0:0:0:
256,192,159781,1,0,0:0:0:0:
256,192,159826,1,2,0:0:0:0:
256,192,159916,1,0,0:0:0:0:
256,192,160006,1,0,0:0:0:0:
256,192,160096,1,2,0:0:0:0:
256,192,160141,1,2,0:0:0:0:
256,192,160186,1,0,0:0:0:0:
256,192,160231,1,0,0:0:0:0:
256,192,160277,1,2,0:0:0:0:
256,192,160367,1,2,0:0:0:0:
256,192,160457,1,0,0:0:0:0:
256,192,160487,1,0,0:0:0:0:
256,192,160517,1,0,0:0:0:0:
256,192,160547,1,2,0:0:0:0:
256,192,160637,1,0,0:0:0:0:
256,192,160727,1,2,0:0:0:0:
256,192,160772,1,2,0:0:0:0:
256,192,160817,1,0,0:0:0:0:
256,192,160862,1,2,0:0:0:0:
256,192,160907,1,0,0:0:0:0:
256,192,160952,1,0,0:0:0:0:
256,192,160997,1,2,0:0:0:0:
256,192,161027,1,2,0:0:0:0:
256,192,161057,1,2,0:0:0:0:
256,192,161087,1,2,0:0:0:0:
256,192,161177,1,0,0:0:0:0:
256,192,161222,1,0,0:0:0:0:
256,192,161268,1,2,0:0:0:0:
256,192,161358,1,0,0:0:0:0:
256,192,161448,1,2,0:0:0:0:
256,192,161493,1,2,0:0:0:0:
256,192,161538,1,0,0:0:0:0:
256,192,161583,5,2,0:0:0:0:
256,192,161628,1,0,0:0:0:0:
256,192,161673,1,0,0:0:0:0:
256,192,161718,1,2,0:0:0:0:
256,192,161808,1,0,0:0:0:0:
256,192,161898,1,2,0:0:0:0:
256,192,161928,1,2,0:0:0:0:
256,192,161958,1,2,0:0:0:0:
256,192,161988,1,0,0:0:0:0:
256,192,162078,1,0,0:0:0:0:
256,192,162168,1,2,0:0:0:0:
256,192,162259,1,0,0:0:0:0:
256,192,162304,1,0,0:0:0:0:
256,192,162349,1,0,0:0:0:0:
256,192,162394,1,0,0:0:0:0:
256,192,162439,1,2,0:0:0:0:
256,192,162484,1,2,0:0:0:0:
256,192,162529,1,0,0:0:0:0:
256,192,162619,1,2,0:0:0:0:
256,192,162664,1,0,0:0:0:0:
256,192,162709,1,0,0:0:0:0:
256,192,162754,1,0,0:0:0:0:
256,192,162799,1,2,0:0:0:0:
256,192,162889,1,2,0:0:0:0:
256,192,162934,1,2,0:0:0:0:
256,192,162979,1,0,0:0:0:0:
256,192,163024,1,0,0:0:0:0:
256,192,163069,1,2,0:0:0:0:
256,192,163114,1,2,0:0:0:0:
256,192,163159,1,0,0:0:0:0:
256,192,163204,1,2,0:0:0:0:
256,192,163250,1,0,0:0:0:0:
256,192,163295,1,0,0:0:0:0:
256,192,163340,1,2,0:0:0:0:
256,192,163430,1,2,0:0:0:0:
256,192,163520,1,0,0:0:0:0:
256,192,163610,1,0,0:0:0:0:
256,192,163700,1,2,0:0:0:0:
256,192,163790,1,2,0:0:0:0:
256,192,163880,1,0,0:0:0:0:
256,192,164060,1,0,0:0:0:0:
256,192,164105,1,0,0:0:0:0:
256,192,164150,1,0,0:0:0:0:
256,192,164195,1,0,0:0:0:0:
256,192,164241,1,2,0:0:0:0:
256,192,164331,1,0,0:0:0:0:
256,192,164421,1,2,0:0:0:0:
256,192,164466,1,2,0:0:0:0:
256,192,164511,1,2,0:0:0:0:
256,192,164601,1,2,0:0:0:0:
256,192,164691,1,2,0:0:0:0:
256,192,164781,1,0,0:0:0:0:
256,192,164811,1,0,0:0:0:0:
256,192,164841,1,0,0:0:0:0:
256,192,164871,1,2,0:0:0:0:
256,192,164961,1,0,0:0:0:0:
256,192,165051,1,2,0:0:0:0:
256,192,165141,1,0,0:0:0:0:
256,192,165186,1,0,0:0:0:0:
256,192,165231,1,2,0:0:0:0:
256,192,165277,1,2,0:0:0:0:
256,192,165322,1,0,0:0:0:0:
256,192,165367,1,2,0:0:0:0:
256,192,165412,1,0,0:0:0:0:
256,192,165502,1,0,0:0:0:0:
256,192,165547,1,0,0:0:0:0:
256,192,165592,1,2,0:0:0:0:
256,192,165682,1,0,0:0:0:0:
256,192,165772,1,2,0:0:0:0:
256,192,165817,1,2,0:0:0:0:
256,192,165862,1,0,0:0:0:0:
256,192,165907,1,2,0:0:0:0:
256,192,165952,1,0,0:0:0:0:
256,192,165997,1,0,0:0:0:0:
256,192,166042,1,2,0:0:0:0:
256,192,166132,1,2,0:0:0:0:
256,192,166222,1,0,0:0:0:0:
256,192,166268,1,2,0:0:0:0:
256,192,166313,1,2,0:0:0:0:
256,192,166358,1,2,0:0:0:0:
256,192,166403,1,0,0:0:0:0:
256,192,166448,1,0,0:0:0:0:
256,192,166493,1,2,0:0:0:0:
256,192,166538,1,2,0:0:0:0:
256,192,166583,1,0,0:0:0:0:
256,192,166628,1,0,0:0:0:0:
256,192,166673,1,0,0:0:0:0:
256,192,166718,1,0,0:0:0:0:
256,192,166763,1,2,0:0:0:0:
256,192,166808,1,2,0:0:0:0:
256,192,166853,1,0,0:0:0:0:
256,192,166943,1,0,0:0:0:0:
256,192,166988,1,2,0:0:0:0:
256,192,167033,1,0,0:0:0:0:
256,192,167078,1,0,0:0:0:0:
256,192,167123,1,2,0:0:0:0:
256,192,167168,1,0,0:0:0:0:
256,192,167213,1,0,0:0:0:0:
256,192,167259,1,2,0:0:0:0:
256,192,167304,1,0,0:0:0:0:
256,192,167349,1,0,0:0:0:0:
256,192,167394,1,2,0:0:0:0:
256,192,167439,1,2,0:0:0:0:
256,192,167484,1,0,0:0:0:0:
256,192,167529,1,2,0:0:0:0:
256,192,167574,1,2,0:0:0:0:
256,192,167619,1,2,0:0:0:0:
256,192,167664,1,0,0:0:0:0:
256,192,167694,1,0,0:0:0:0:
256,192,167724,1,0,0:0:0:0:
256,192,167754,1,2,0:0:0:0:
256,192,167799,1,2,0:0:0:0:
256,192,167844,1,0,0:0:0:0:
256,192,167874,1,0,0:0:0:0:
256,192,167904,1,0,0:0:0:0:
256,192,167934,1,2,0:0:0:0:
256,192,167979,1,2,0:0:0:0:
256,192,168385,1,0,0:0:0:0:
256,192,168430,1,2,0:0:0:0:
256,192,168475,1,2,0:0:0:0:
256,192,168520,1,2,0:0:0:0:
256,192,168565,1,2,0:0:0:0:
256,192,168610,1,2,0:0:0:0:
256,192,168655,1,2,0:0:0:0:
256,192,168700,1,2,0:0:0:0:
256,192,168745,1,0,0:0:0:0:
256,192,168790,1,2,0:0:0:0:
256,192,168835,1,2,0:0:0:0:
256,192,168880,1,2,0:0:0:0:
256,192,168925,1,2,0:0:0:0:
256,192,168970,1,2,0:0:0:0:
256,192,169015,1,2,0:0:0:0:
256,192,169060,1,2,0:0:0:0:
256,192,169105,1,0,0:0:0:0:
256,192,169195,1,2,0:0:0:0:
256,192,169286,1,0,0:0:0:0:
256,192,169331,1,0,0:0:0:0:
256,192,169376,1,0,0:0:0:0:
256,192,169466,1,2,0:0:0:0:
256,192,169556,1,2,0:0:0:0:
256,192,169646,1,0,0:0:0:0:
256,192,169736,1,0,0:0:0:0:
256,192,169826,1,4,0:0:0:0:
256,192,169916,12,0,172709,0:0:0:0:
256,192,174150,5,0,0:0:0:0:
256,192,174195,1,0,0:0:0:0:
256,192,174241,1,0,0:0:0:0:
256,192,174286,1,0,0:0:0:0:
256,192,174331,1,0,0:0:0:0:
256,192,174376,1,0,0:0:0:0:
256,192,174421,1,0,0:0:0:0:
256,192,174466,1,0,0:0:0:0:
256,192,174511,1,0,0:0:0:0:
256,192,174556,1,0,0:0:0:0:
256,192,174601,1,0,0:0:0:0:
256,192,174646,1,0,0:0:0:0:
256,192,174691,1,0,0:0:0:0:
256,192,174736,1,0,0:0:0:0:
256,192,174781,1,0,0:0:0:0:
256,192,174826,1,0,0:0:0:0:
256,192,174871,1,2,0:0:0:0:
256,192,174916,1,2,0:0:0:0:
256,192,174961,1,2,0:0:0:0:
256,192,175006,1,2,0:0:0:0:
256,192,175051,1,2,0:0:0:0:
256,192,175096,1,2,0:0:0:0:
256,192,175141,1,2,0:0:0:0:
256,192,175186,1,2,0:0:0:0:
256,192,175231,1,2,0:0:0:0:
256,192,175277,1,2,0:0:0:0:
256,192,175322,1,2,0:0:0:0:
256,192,175367,1,2,0:0:0:0:
256,192,175412,1,2,0:0:0:0:
256,192,175457,1,2,0:0:0:0:
256,192,175502,1,2,0:0:0:0:
256,192,175592,5,4,0:0:0:0:
