osu file format v14

[General]
AudioFilename: audio.mp3
AudioLeadIn: 0
PreviewTime: 1173
Countdown: 0
SampleSet: Soft
StackLeniency: 0.7
Mode: 0
LetterboxInBreaks: 0
WidescreenStoryboard: 1

[Editor]
Bookmarks: 8673,15630,29543,36499,43456,57369,71282,85195,99108,100847,114760
DistanceSpacing: 0.3
BeatDivisor: 6
GridSize: 8
TimelineZoom: 3.399999

[Metadata]
Title:Fairy in Strasbourg
TitleUnicode:Fairy in Strasbourg
Artist:Laur
ArtistUnicode:Laur
Creator:Hishiro Chizuru
Version:Extra
Source:SOUND VOLTEX IV HEAVENLY HAVEN
Tags:amb1d3x blastthekidd konami electronic folk celtic bemani instrumental Straßburg Strassburg
BeatmapID:2457802
BeatmapSetID:1157195

[Difficulty]
HPDrainRate:5
CircleSize:5
OverallDifficulty:8
ApproachRate:9
SliderMultiplier:1.68999990463257
SliderTickRate:1

[Events]
//Background and Video events
0,0,"78887671_p0.jpg",0,0
//Break Periods
//Storyboard Layer 0 (Background)
//Storyboard Layer 1 (Fail)
//Storyboard Layer 2 (Pass)
//Storyboard Layer 3 (Foreground)
//Storyboard Layer 4 (Overlay)
//Storyboard Sound Samples

[TimingPoints]
1750,434.782608695652,4,2,1,30,1,0
1750,-200,4,2,1,30,0,0
8054,-200,4,2,1,5,0,0
8271,-200,4,2,1,30,0,0
8706,-133.333333333333,4,2,1,45,0,0
10445,-100,4,2,1,45,0,0
10880,-133.333333333333,4,2,1,45,0,0
12184,-66.6666666666667,4,2,1,52,0,0
13489,-133.333333333333,4,2,1,57,0,0
14304,-133.333333333333,4,2,1,5,0,0
14358,-133.333333333333,4,2,1,57,0,0
15663,-100,4,2,100,65,0,0
22619,-133.333333333333,4,2,100,65,0,0
24358,-100,4,2,100,65,0,0
26097,-133.333333333333,4,2,100,65,0,0
27836,-100,4,2,20,75,0,0
27891,-100,4,2,20,5,0,0
28271,-100,4,2,9,75,0,0
29576,-200,4,2,95,50,0,0
33108,-200,4,2,95,5,0,0
33380,-200,4,2,95,50,0,0
36532,-111.111111111111,4,2,10,55,0,0
40010,-111.111111111111,4,2,10,45,0,0
42021,-111.111111111111,4,2,10,5,0,0
42076,-111.111111111111,4,2,10,45,0,0
42347,-111.111111111111,4,2,10,5,0,0
42402,-111.111111111111,4,2,10,45,0,0
42619,-111.111111111111,4,2,10,55,0,0
43489,-66.6666666666667,4,2,100,75,0,0
46260,-66.6666666666667,4,2,100,5,0,0
46315,-66.6666666666667,4,2,100,75,0,0
49304,-66.6666666666667,4,2,100,5,0,0
49358,-66.6666666666667,4,2,100,75,0,0
53217,-66.6666666666667,4,2,100,5,0,0
53271,-66.6666666666667,4,2,100,75,0,0
57402,-62.5,4,2,100,85,0,0
60173,-62.5,4,2,100,5,0,0
60228,-62.5,4,2,100,85,0,0
63706,-62.5,4,2,100,85,0,0
67565,-62.5,4,2,100,5,0,0
67619,-62.5,4,2,100,85,0,0
68706,-100,4,2,100,85,0,0
68923,-62.5,4,2,100,85,0,0
70173,-62.5,4,2,100,5,0,0
70228,-62.5,4,2,100,85,0,0
71315,-133.333333333333,4,2,95,60,0,0
85228,-66.6666666666667,4,2,100,85,0,0
99141,-133.333333333333,4,2,100,75,0,0
100880,-100,4,2,100,65,0,0
107836,-133.333333333333,4,2,100,65,0,0
109575,-100,4,2,100,65,0,0
111315,-133.333333333333,4,2,100,65,0,0
112619,-100,4,2,100,65,0,0
112999,-100,4,2,100,5,0,0
113054,-100,4,2,20,75,0,0
113489,-100,4,2,100,75,0,0
114793,-100,4,2,9,65,0,0
114847,-100,4,2,9,5,0,0

[Colours]
Combo1 : 245,240,175
Combo2 : 168,249,166
Combo3 : 181,203,240
Combo4 : 179,247,238

[HitObjects]
491,369,1315,5,2,0:0:0:0:
442,298,1713,1,0,0:0:0:0:
442,298,1750,2,0,L|387:303,2,42.2499976158142,2|0|0,0:0|0:0|0:0,0:0:0:0:
348,236,2402,1,2,0:0:0:0:
335,249,2510,1,2,0:0:0:0:
323,261,2619,2,0,L|267:256,1,42.2499976158142,2|0,0:0|0:0,0:0:0:0:
226,311,3054,1,0,0:0:0:0:
226,311,3090,1,0,0:0:0:0:
22,228,3489,6,0,L|77:233,2,42.2499976158142,2|0|0,0:0|0:0|0:0,0:0:0:0:
81,321,4141,1,2,0:0:0:0:
94,334,4249,1,2,0:0:0:0:
106,346,4358,2,0,L|161:341,1,42.2499976158142,2|0,0:0|0:0,0:0:0:0:
207,288,4793,1,2,0:0:0:0:
341,114,5228,5,2,0:0:0:0:
341,114,5264,2,0,L|344:149,1,35.2083313465119,0|2,0:0|0:0,0:0:0:0:
354,218,5663,1,0,0:0:0:0:
430,276,5880,1,2,0:0:0:0:
426,298,5989,1,2,0:0:0:0:
423,321,6097,1,2,0:0:0:0:
266,272,6315,5,2,0:0:0:0:
263,259,6387,1,2,0:0:0:0:
260,248,6460,1,2,0:0:0:0:
256,236,6532,2,0,L|208:231,1,42.2499976158142,2|2,0:0|0:0,0:0:0:0:
121,268,6967,5,2,0:0:0:0:
47,224,7184,1,2,0:0:0:0:
41,244,7293,2,0,L|47:323,1,63.3749964237213,2|2,0:0|0:0,0:0:0:0:
106,364,7836,1,2,0:0:0:0:
106,364,7873,2,0,L|109:328,1,35.2083313465119
354,224,8271,5,2,0:0:0:0:
399,239,8380,5,2,0:0:0:0:
399,285,8489,5,2,0:0:0:0:
354,300,8597,5,2,0:0:0:0:
327,262,8706,6,0,B|308:215|348:215|319:158,2,95.0624982619284,2|0|0,1:2|0:0|0:0,0:0:0:0:
472,28,9793,5,2,0:0:0:0:
411,105,10010,1,2,0:0:0:0:
310,96,10228,1,2,0:0:0:0:
162,7,10445,6,0,P|120:2|81:18,1,84.4999952316283,2|2,1:2|0:0,0:0:0:0:
72,32,10735,1,2,0:0:0:0:
64,46,10807,1,2,0:0:0:0:
59,60,10880,2,0,L|65:130,1,63.3749988412856,2|2,0:0|0:0,0:0:0:0:
148,326,11532,5,2,0:0:0:0:
131,308,11641,1,2,0:0:0:0:
68,314,11749,2,0,L|147:307,1,63.3749988412856,6|2,1:2|0:0,0:0:0:0:
353,360,12184,6,0,P|391:284|300:315,2,190.124996523857,6|2|2,1:2|0:0|0:0,0:0:0:0:
353,360,13271,1,2,0:0:0:0:
319,212,13489,2,0,L|314:276,1,63.3749988412856,6|2,1:2|0:0,0:0:0:0:
153,78,13923,6,0,L|163:193,1,110.90624797225,6|0,1:2|0:0,0:0:0:0:
162,188,14358,2,0,L|122:184,3,31.6874994206428,2|0|0|0,0:0|0:0|0:0|0:0,0:0:0:0:
64,86,14793,6,0,P|108:67|153:78,1,95.0624982619284,2|0,0:0|0:0,0:0:0:0:
233,171,15228,2,0,P|270:159|260:99,1,95.0624982619284,2|0,0:0|0:0,0:0:0:0:
355,43,15663,5,12,0:0:0:0:
424,128,15880,2,0,L|419:175,1,42.2499976158143,2|0,0:3|0:0,0:0:0:0:
492,102,16097,1,8,0:2:0:0:
374,241,16315,2,0,L|378:288,1,42.2499976158143,2|0,0:3|0:0,0:0:0:0:
306,215,16532,1,8,0:2:0:0:
512,356,16749,6,0,P|493:350|472:346,1,42.2499976158143,2|0,0:3|0:0,0:0:0:0:
400,365,16967,2,0,P|345:373|287:351,1,84.4999952316285,10|2,0:0|0:3,0:0:0:0:
311,365,17239,1,2,0:0:0:0:
305,362,17293,1,2,0:0:0:0:
299,359,17347,1,0,0:0:0:0:
292,353,17402,5,8,0:0:0:0:
129,322,17619,2,0,L|124:274,1,42.2499976158143,2|0,0:3|0:0,0:0:0:0:
197,348,17836,1,8,0:0:0:0:
189,227,18054,2,0,L|193:179,1,42.2499976158143,2|0,0:3|0:0,0:0:0:0:
30,263,18271,5,8,0:0:0:0:
32,246,18343,1,2,0:0:0:0:
35,229,18416,1,2,0:0:0:0:
38,210,18489,2,0,L|0:206,2,28.1666650772095,2|0|0,0:3|0:0|0:0,0:0:0:0:
79,150,18706,2,0,L|113:146,2,28.1666650772095,8|2|2,0:0|0:0|0:0,0:0:0:0:
39,90,18923,1,2,0:3:0:0:
37,73,18995,1,0,0:0:0:0:
34,56,19068,1,0,0:0:0:0:
31,39,19141,5,8,0:0:0:0:
161,5,19358,2,0,L|208:9,1,42.2499976158143,2|0,0:3|0:0,0:0:0:0:
109,67,19576,1,8,0:0:0:0:
256,158,19793,2,0,L|303:153,1,42.2499976158143,2|0,0:3|0:0,0:0:0:0:
204,96,20011,1,8,0:0:0:0:
426,10,20228,6,0,P|431:36|430:65,1,42.2499976158143,2|0,0:3|0:0,0:0:0:0:
379,112,20445,2,0,P|375:153|384:195,1,84.4999952316285,10|2,0:0|0:3,0:0:0:0:
388,199,20717,1,2,0:0:0:0:
393,202,20771,1,2,0:0:0:0:
398,205,20826,1,2,0:0:0:0:
403,207,20880,5,8,0:0:0:0:
312,305,21097,2,0,L|248:299,1,42.2499976158143,2|0,0:3|0:0,0:0:0:0:
360,365,21315,1,8,0:0:0:0:
384,195,21532,2,0,L|447:189,1,42.2499976158143,2|0,0:3|0:0,0:0:0:0:
311,234,21749,1,8,0:0:0:0:
305,232,21804,1,2,0:0:0:0:
299,230,21858,1,2,0:0:0:0:
262,220,21967,5,2,0:3:0:0:
186,135,22184,2,0,L|177:230,1,84.4999952316285,8|2,0:0|0:3,0:0:0:0:
275,364,22510,1,2,0:0:0:0:
275,364,22619,6,0,L|268:277,1,63.3749988412857,4|2,3:1|0:3,0:0:0:0:
263,230,22945,1,0,0:0:0:0:
137,170,23054,2,0,L|215:208,1,63.3749988412857,8|2,3:1|0:3,0:0:0:0:
263,230,23380,1,0,0:0:0:0:
389,176,23489,2,0,L|306:206,1,63.3749988412857,0|2,3:0|0:3,0:0:0:0:
263,230,23815,1,0,0:0:0:0:
269,301,23923,2,0,L|274:365,1,63.3749988412857,8|2,3:1|0:3,0:0:0:0:
281,372,24195,1,2,0:0:0:0:
285,376,24249,1,2,0:0:0:0:
289,380,24304,1,2,0:0:0:0:
293,384,24358,6,0,L|300:297,1,84.4999952316285,0|2,3:0|0:3,0:0:0:0:
386,217,24684,1,0,0:0:0:0:
375,294,24793,2,0,L|368:207,1,84.4999952316285,8|2,3:1|0:3,0:0:0:0:
314,109,25119,1,0,0:0:0:0:
264,170,25227,1,0,3:0:0:0:
247,173,25300,1,2,0:0:0:0:
230,176,25373,1,2,0:0:0:0:
213,178,25445,2,0,L|169:184,2,28.1666650772095,2|0|0,2:3|0:0|0:0,0:0:0:0:
106,108,25663,2,0,L|153:113,2,28.1666650772095,8|2|2,3:1|0:0|0:0,0:0:0:0:
16,125,25880,5,2,0:3:0:0:
23,142,25952,1,0,0:0:0:0:
30,157,26025,1,0,0:0:0:0:
38,173,26097,2,0,B|69:166|69:166|104:183,1,63.3749988412857,0|2,3:0|0:3,0:0:0:0:
150,234,26423,1,0,0:0:0:0:
174,362,26532,2,0,B|153:339|153:339|150:300,1,63.3749988412857,8|2,3:1|0:3,0:0:0:0:
150,234,26858,1,0,0:0:0:0:
259,157,26967,2,0,B|250:188|250:188|218:210,1,63.3749988412857,0|2,3:0|0:3,0:0:0:0:
150,234,27293,1,0,0:0:0:0:
97,180,27402,2,0,B|68:166|68:166|37:173,1,63.3749988412857,8|2,3:1|0:3,0:0:0:0:
197,104,27836,6,0,L|198:126,1,21.1249988079071,4|0,1:2|0:0,0:0:0:0:
369,357,28271,6,0,P|386:229|448:342,1,337.999980926514,4|0,3:1|0:0,0:0:0:0:
180,17,29576,5,2,0:1:0:0:
154,105,29902,1,0,0:0:0:0:
271,184,30228,5,2,0:0:0:0:
265,155,30336,1,0,0:0:0:0:
257,123,30445,1,2,0:0:0:0:
301,50,30880,1,2,0:0:0:0:
151,217,31097,5,2,0:0:0:0:
146,232,31206,1,0,0:0:0:0:
141,249,31315,2,0,L|142:264,1,10.5624994039536,2|0,0:0|0:0,0:0:0:0:
171,341,31641,1,0,0:0:0:0:
244,276,31967,1,2,0:0:0:0:
35,293,32184,5,2,0:0:0:0:
26,311,32619,1,2,0:0:0:0:
55,170,32836,5,2,0:0:0:0:
89,177,32945,1,0,0:0:0:0:
126,184,33054,2,0,L|128:203,1,10.5624994039536,2|0,0:1|0:0,2:0:0:0:
187,108,33380,1,0,0:0:0:0:
243,222,33706,1,2,0:0:0:0:
348,73,33923,5,2,0:0:0:0:
348,73,33960,1,0,0:0:0:0:
439,157,34358,1,2,0:0:0:0:
495,337,34793,5,2,0:0:0:0:
420,296,35119,1,0,0:0:0:0:
414,318,35228,1,2,0:0:0:0:
315,373,35445,1,2,0:0:0:0:
310,351,35554,1,0,0:0:0:0:
306,327,35663,1,2,0:0:0:0:
236,274,35826,1,0,0:0:0:0:
236,274,35880,1,2,0:0:0:0:
173,329,36097,2,0,L|109:323,1,63.3749964237214,2|0,0:0|0:0,0:0:0:0:
19,193,36532,6,0,L|94:186,1,76.049993387604,2|0,1:1|0:0,0:0:0:0:
114,172,36858,1,0,3:0:0:0:
134,156,36967,1,2,3:2:0:0:
257,15,37184,5,0,3:0:0:0:
265,52,37293,1,0,3:2:0:0:
274,91,37402,2,0,L|267:166,1,76.049993387604,2|0,3:2|0:0,0:0:0:0:
253,189,37728,1,0,1:0:0:0:
241,211,37836,1,2,1:2:0:0:
455,121,38054,5,0,3:0:0:0:
467,183,38163,1,0,3:0:0:0:
479,246,38271,1,2,3:2:0:0:
383,371,38597,1,0,1:0:0:0:
235,337,38923,1,2,0:0:0:0:
392,197,39141,2,0,B|347:194|354:256|281:263,1,114.074990081406,2|0,3:2|3:0,0:0:0:0:
276,247,39576,1,2,0:0:0:0:
196,117,39793,1,2,3:2:0:0:
161,123,39902,1,2,0:0:0:0:
125,130,40010,6,0,L|119:164,1,19.012498346901,2|0,0:2|0:0,0:0:0:0:
10,81,40373,1,0,0:0:0:0:
113,232,40663,1,2,0:0:0:0:
279,146,40880,1,2,0:0:0:0:
282,166,40934,1,0,0:0:0:0:
466,240,41315,5,2,0:0:0:0:
279,66,41749,6,0,P|234:79|203:115,1,95.062491734505,2|0,0:0|0:0,0:0:0:0:
195,133,42076,2,0,P|205:87|189:42,1,95.062491734505,2|0,0:0|0:0,0:0:0:0:
194,30,42402,2,0,P|182:15|167:3,1,38.024996693802,2|0,0:0|0:0,0:0:0:0:
58,166,42619,6,0,B|150:160|133:287|264:284,1,228.149980162812,2|0,0:0|0:0,0:0:0:0:
474,376,43489,6,0,L|479:312,1,63.3749988412857,0|0,3:0|0:0,0:0:0:0:
497,105,43706,2,0,L|484:248,1,126.749997682571,2|8,0:3|0:0,0:0:0:0:
242,283,44141,1,2,0:3:0:0:
297,238,44249,1,2,0:0:0:0:
364,262,44358,2,0,B|313:263|318:326|233:323,1,126.749997682571,0|2,3:0|0:3,0:0:0:0:
108,263,44684,1,0,0:0:0:0:
66,201,44793,2,0,P|125:175|189:206,1,126.749997682571,8|2,3:2|0:3,0:0:0:0:
497,57,45228,6,0,B|441:49|441:101|371:78,1,126.749997682571,0|2,3:0|0:3,0:0:0:0:
215,46,45554,1,0,0:0:0:0:
281,14,45663,2,0,L|289:116,1,63.3749988412857,8|0,3:2|0:0,0:0:0:0:
338,206,45880,2,0,L|332:142,1,63.3749988412857,2|0,0:3|0:0,0:0:0:0:
205,37,46097,2,0,P|158:37|105:84,1,95.0624982619286,0|0,3:0|0:0,0:0:0:0:
115,74,46315,1,2,0:3:0:0:
5,185,46532,2,0,P|65:185|133:245,1,126.749997682571,8|2,3:2|0:3,0:0:0:0:
330,363,46967,5,0,3:0:0:0:
417,253,47184,1,2,0:3:0:0:
419,273,47257,1,2,0:0:0:0:
421,293,47329,1,2,0:0:0:0:
423,313,47402,1,8,3:2:0:0:
237,346,47619,1,2,0:3:0:0:
305,177,47836,2,0,B|359:173|358:245|433:235,1,126.749997682571,0|2,3:0|0:3,0:0:0:0:
512,59,48163,1,0,0:0:0:0:
467,8,48271,2,0,P|390:22|352:85,1,126.749997682571,8|2,3:2|0:3,0:0:0:0:
87,134,48706,6,0,P|147:123|192:164,1,126.749997682571,0|2,3:0|0:3,0:0:0:0:
291,318,49032,1,0,0:0:0:0:
323,251,49141,2,0,B|295:243|295:243|224:257,1,95.0624982619286,8|0,3:2|0:0,0:0:0:0:
217,260,49358,1,2,0:3:0:0:
71,381,49576,2,0,L|127:385,1,42.2499992275238,0|0,3:0|0:0,0:0:0:0:
164,333,49721,1,2,0:0:0:0:
186,330,49793,1,2,0:3:0:0:
370,326,50010,2,0,P|410:263|383:198,1,126.749997682571,10|2,3:1|0:3,0:0:0:0:
38,8,50445,6,0,L|33:72,1,63.3749988412857,0|0,3:0|0:0,0:0:0:0:
15,279,50662,2,0,L|28:136,1,126.749997682571,2|8,0:3|3:2,0:0:0:0:
270,101,51097,1,2,0:3:0:0:
215,146,51205,1,2,0:0:0:0:
146,118,51315,2,0,P|167:55|228:34,1,126.749997682571,0|2,3:0|0:3,0:0:0:0:
410,199,51641,1,0,0:0:0:0:
396,122,51749,2,0,B|347:122|343:188|286:183,1,126.749997682571,8|2,3:2|0:3,0:0:0:0:
0,212,52184,6,0,P|60:202|105:244,1,126.749997682571,0|2,3:0|0:3,0:0:0:0:
201,352,52510,1,0,0:0:0:0:
231,278,52619,2,0,L|151:284,1,63.3749988412857,8|0,3:2|0:0,0:0:0:0:
340,347,52836,2,0,L|260:340,1,63.3749988412857,2|0,0:3|0:0,0:0:0:0:
394,271,53054,2,0,P|349:226|357:173,1,95.0624982619286,0|0,3:0|0:0,0:0:0:0:
350,187,53271,1,2,0:3:0:0:
465,333,53489,1,8,3:2:0:0:
511,237,53706,1,2,0:3:0:0:
395,25,53923,6,0,B|336:16|330:97|258:90,1,126.749997682571,0|2,3:0|0:3,0:0:0:0:
273,85,54213,1,2,0:0:0:0:
257,82,54286,1,2,0:0:0:0:
242,80,54358,2,0,L|236:143,1,42.2499992275238,8|0,3:2|0:0,0:0:0:0:
161,15,54576,1,2,0:3:0:0:
6,194,54793,2,0,P|78:195|119:290,1,126.749997682571,0|2,3:0|0:3,0:0:0:0:
116,249,55083,1,2,0:0:0:0:
112,264,55156,1,2,0:0:0:0:
105,277,55228,2,0,L|168:283,1,42.2499992275238,8|0,3:2|0:0,0:0:0:0:
64,361,55445,1,2,0:3:0:0:
234,228,55663,6,0,B|285:229|283:292|350:295,1,126.749997682571,0|2,3:0|0:3,0:0:0:0:
501,150,55989,1,0,0:0:0:0:
456,88,56097,2,0,P|378:95|336:135,1,126.749997682571,8|2,3:2|0:3,0:0:0:0:
96,29,56532,2,0,L|167:35,1,63.3749988412857,0|0,3:0|0:0,0:0:0:0:
298,48,56749,2,0,L|234:42,1,63.3749988412857,2|0,0:2|0:0,0:0:0:0:
45,92,56967,2,0,B|63:128|63:128|48:231,1,126.749997682571,10|0,3:1|0:0,0:0:0:0:
348,328,57402,6,0,P|377:315|397:281,1,67.5999961853028,0|0,3:0|0:0,0:0:0:0:
175,296,57619,2,0,P|214:343|290:364,1,135.199992370606,2|8,0:3|3:2,0:0:0:0:
477,58,58054,1,2,0:3:0:0:
408,20,58163,1,2,0:0:0:0:
346,81,58271,2,0,P|295:50|348:53,1,135.199992370606,0|2,3:0|0:3,0:0:0:0:
476,218,58597,1,0,0:0:0:0:
450,146,58706,2,0,B|398:130|366:212|290:182,1,135.199992370606,8|2,3:2|0:3,0:0:0:0:
66,15,59141,6,0,L|54:149,1,135.199992370606,0|2,3:0|0:3,0:0:0:0:
123,297,59467,1,0,0:0:0:0:
165,233,59576,2,0,P|132:222|100:225,1,67.5999961853028,8|0,3:2|0:0,0:0:0:0:
280,288,59793,2,0,P|247:298|215:296,1,67.5999961853028,2|0,0:3|0:0,0:0:0:0:
358,217,60010,2,0,B|399:210|406:274|460:261,1,101.399994277954,0|0,3:0|0:0,0:0:0:0:
455,261,60228,1,2,0:3:0:0:
309,354,60445,1,8,3:2:0:0:
170,228,60663,1,2,0:3:0:0:
435,29,60880,6,0,P|369:26|329:77,1,135.199992370606,0|2,3:0|0:3,0:0:0:0:
330,92,61170,1,2,0:0:0:0:
335,105,61242,1,2,0:0:0:0:
342,117,61315,1,8,3:2:0:0:
459,136,61532,1,2,0:3:0:0:
327,278,61749,2,0,P|257:265|220:214,1,135.199992370606,0|2,3:0|0:3,0:0:0:0:
225,203,62039,1,2,0:0:0:0:
229,190,62112,1,2,0:0:0:0:
227,177,62184,1,8,3:2:0:0:
176,99,62402,1,2,0:3:0:0:
0,296,62619,6,0,L|143:283,1,135.199992370606,0|2,3:0|0:3,0:0:0:0:
335,359,62945,1,0,0:0:0:0:
364,285,63054,2,0,P|300:267|242:298,1,135.199992370606,8|2,3:2|0:3,0:0:0:0:
459,366,63380,1,0,0:0:0:0:
505,300,63489,2,0,L|496:213,1,45.0666641235352,0|0,3:0|0:0,0:0:0:0:
463,193,63634,1,2,0:0:0:0:
466,170,63706,1,2,0:2:0:0:
315,222,63923,1,10,3:1:0:0:
368,292,64141,1,2,0:3:0:0:
73,48,64358,6,0,P|44:61|24:95,1,67.5999961853028,0|0,3:0|0:0,0:0:0:0:
246,80,64575,2,0,P|207:33|131:12,1,135.199992370606,2|8,0:3|3:2,0:0:0:0:
79,223,65010,1,2,0:3:0:0:
93,291,65119,1,2,0:0:0:0:
114,361,65228,2,0,B|166:377|198:295|274:325,1,135.199992370606,0|2,3:0|0:3,0:0:0:0:
465,380,65554,1,0,0:0:0:0:
402,334,65663,2,0,B|406:286|406:286|401:253|401:253|407:181,1,135.199992370606,8|2,3:2|0:3,0:0:0:0:
461,27,66097,6,0,P|412:79|331:52,1,135.199992370606,0|2,3:0|0:3,0:0:0:0:
212,7,66423,1,0,0:0:0:0:
162,81,66532,2,0,L|233:74,1,67.5999961853028,8|0,3:2|0:0,0:0:0:0:
345,152,66749,2,0,L|273:145,1,67.5999961853028,2|0,0:3|0:0,0:0:0:0:
88,29,66967,2,0,B|34:113|117:120|52:244,1,202.799988555908,2|0,3:1|0:0,0:0:0:0:
16,339,67402,2,0,P|55:310|129:331,1,101.399994277954,8|0,3:2|0:0,0:0:0:0:
114,320,67619,1,2,0:2:0:0:
492,288,67836,5,0,3:0:0:0:
427,342,68054,1,2,0:3:0:0:
403,339,68126,1,2,0:0:0:0:
379,337,68199,1,2,0:0:0:0:
355,335,68271,1,8,3:2:0:0:
278,384,68489,1,2,0:3:0:0:
205,201,68706,6,0,L|232:198,1,28.1666650772095,0|0,3:0|0:0,0:0:0:0:
294,162,68851,1,2,0:0:0:0:
318,164,68923,1,2,0:3:0:0:
436,250,69141,2,0,P|432:159|495:146,1,135.199992370606,8|2,3:2|0:3,0:0:0:0:
295,17,69576,6,0,B|248:25|230:114|150:109,1,135.199992370606,0|2,3:0|0:3,0:0:0:0:
45,215,69902,1,0,0:0:0:0:
41,143,70010,2,0,P|106:148|141:197,1,101.399994277954,8|0,3:2|0:0,0:0:0:0:
136,182,70228,1,2,0:3:0:0:
207,339,70445,2,0,L|286:332,1,67.5999961853028,0|0,3:0|0:0,0:0:0:0:
400,275,70663,2,0,L|332:280,1,67.5999961853028,2|0,0:3|0:0,0:0:0:0:
131,371,70880,2,0,P|122:283|173:279,1,135.199992370606,8|2,3:1|0:3,0:0:0:0:
411,284,71315,5,6,1:2:0:0:
466,229,71532,2,0,L|497:231,2,31.6874994206429,0|0|2,0:0|0:0|0:0,0:0:0:0:
360,182,71967,1,2,0:0:0:0:
359,193,72040,1,0,0:0:0:0:
357,204,72112,1,0,0:0:0:0:
355,215,72184,1,2,0:0:0:0:
440,121,72402,1,2,0:0:0:0:
441,132,72475,1,0,0:0:0:0:
443,143,72547,1,0,0:0:0:0:
445,154,72619,1,2,0:0:0:0:
369,33,72836,1,2,0:0:0:0:
358,34,72909,1,0,0:0:0:0:
347,36,72981,1,0,0:0:0:0:
336,38,73054,5,2,1:2:0:0:
266,103,73271,2,0,L|263:134,2,31.6874994206429,0|0|2,0:0|0:0|0:0,0:0:0:0:
205,32,73706,1,2,0:0:0:0:
194,31,73779,1,0,0:0:0:0:
183,29,73851,1,0,0:0:0:0:
172,27,73924,1,2,0:0:0:0:
121,99,74141,1,2,0:0:0:0:
110,100,74214,1,0,0:0:0:0:
99,102,74286,1,0,0:0:0:0:
88,104,74359,1,2,0:0:0:0:
10,64,74576,6,0,L|12:32,2,31.6874994206429,0|0|2,0:0|0:0|1:2,0:0:0:0:
82,179,75010,2,0,L|79:210,2,31.6874994206429,0|0|2,0:0|0:0|0:0,0:0:0:0:
28,305,75445,1,2,0:0:0:0:
39,304,75518,1,0,0:0:0:0:
50,302,75590,1,0,0:0:0:0:
61,300,75663,1,2,0:0:0:0:
132,348,75880,1,2,0:0:0:0:
143,349,75953,1,0,0:0:0:0:
154,351,76025,1,0,0:0:0:0:
165,353,76098,1,2,0:0:0:0:
266,247,76315,1,2,0:0:0:0:
267,258,76388,1,0,0:0:0:0:
269,269,76460,1,0,0:0:0:0:
271,280,76533,5,2,1:2:0:0:
341,336,76749,2,0,L|372:338,2,31.6874994206429,0|0|2,0:0|0:0|0:0,0:0:0:0:
462,277,77184,1,2,0:0:0:0:
463,266,77257,1,0,0:0:0:0:
465,255,77329,1,0,0:0:0:0:
467,244,77402,1,2,0:0:0:0:
393,192,77619,1,2,0:0:0:0:
392,181,77692,1,0,0:0:0:0:
390,170,77764,1,0,0:0:0:0:
388,159,77837,1,2,0:0:0:0:
467,33,78054,1,2,0:0:0:0:
456,31,78127,1,0,0:0:0:0:
445,29,78199,1,0,0:0:0:0:
434,28,78272,5,2,1:2:0:0:
365,75,78489,2,0,L|333:77,2,31.6874994206429,0|0|2,0:0|0:0|0:0,0:0:0:0:
273,21,78923,1,2,0:0:0:0:
262,19,78996,1,0,0:0:0:0:
251,17,79068,1,0,0:0:0:0:
239,16,79141,1,2,0:0:0:0:
156,91,79358,1,2,0:0:0:0:
167,89,79431,1,0,0:0:0:0:
178,87,79503,1,0,0:0:0:0:
190,86,79576,1,2,1:2:0:0:
73,40,79793,1,2,0:0:0:0:
71,51,79866,1,0,0:0:0:0:
69,62,79938,1,0,0:0:0:0:
68,74,80011,5,2,1:2:0:0:
20,148,80228,2,0,L|22:179,2,31.6874994206429,0|0|2,0:0|0:0|0:0,0:0:0:0:
92,236,80663,1,2,0:0:0:0:
90,247,80736,1,0,0:0:0:0:
88,258,80808,1,0,0:0:0:0:
87,270,80881,1,2,0:0:0:0:
21,328,81097,1,2,0:0:0:0:
23,339,81170,1,0,0:0:0:0:
25,350,81242,1,0,0:0:0:0:
26,362,81315,1,2,0:0:0:0:
191,340,81532,1,2,0:0:0:0:
180,338,81605,1,0,0:0:0:0:
169,336,81677,1,0,0:0:0:0:
157,335,81750,5,2,1:2:0:0:
253,268,81967,2,0,L|292:264,2,31.6874994206429,0|0|2,0:0|0:0|0:0,0:0:0:0:
333,335,82402,1,2,0:0:0:0:
344,333,82475,1,0,0:0:0:0:
355,331,82547,1,0,0:0:0:0:
367,330,82620,1,2,0:0:0:0:
454,267,82836,1,2,0:0:0:0:
443,265,82909,1,0,0:0:0:0:
432,263,82981,1,0,0:0:0:0:
420,262,83054,1,2,0:0:0:0:
333,127,83271,1,2,0:0:0:0:
332,139,83344,1,0,0:0:0:0:
330,150,83416,1,0,0:0:0:0:
328,161,83489,5,2,1:2:0:0:
432,90,83706,1,2,0:2:0:0:
433,102,83779,1,0,0:0:0:0:
435,113,83851,1,0,0:0:0:0:
437,124,83924,1,2,1:2:0:0:
350,42,84141,1,2,1:2:0:0:
257,90,84358,1,2,1:2:0:0:
212,95,84467,1,0,3:0:0:0:
167,78,84576,1,0,3:0:0:0:
102,13,84793,1,0,3:2:0:0:
31,128,85010,1,2,0:0:0:0:
225,328,85228,5,6,3:1:0:0:
400,217,85445,1,2,0:3:0:0:
464,247,85554,1,2,0:0:0:0:
454,316,85663,2,0,B|397:312|402:364|337:360,1,126.749997682571,8|2,3:2|0:3,0:0:0:0:
176,205,86097,2,0,P|239:191|298:232,1,126.749997682571,0|2,3:0|0:3,0:0:0:0:
297,233,86387,1,2,0:0:0:0:
298,244,86460,1,2,0:0:0:0:
293,256,86532,1,8,3:2:0:0:
142,384,86749,1,2,0:3:0:0:
54,129,86967,5,0,3:0:0:0:
162,54,87184,1,2,0:3:0:0:
217,99,87292,1,2,0:0:0:0:
284,75,87401,2,0,B|233:74|238:11|153:14,1,126.749997682571,8|2,3:2|0:3,0:0:0:0:
339,204,87728,1,0,0:0:0:0:
400,166,87836,2,0,P|413:105|388:47,1,126.749997682571,0|2,3:0|0:3,0:0:0:0:
379,42,88126,1,2,0:0:0:0:
368,38,88199,1,2,0:0:0:0:
356,37,88271,1,8,3:2:0:0:
498,104,88489,1,2,0:3:0:0:
500,116,88561,1,2,0:0:0:0:
501,128,88634,1,2,0:0:0:0:
503,140,88706,5,0,3:0:0:0:
344,253,88923,1,2,0:3:0:0:
285,294,89032,1,2,0:0:0:0:
214,287,89141,2,0,P|190:230|219:164,1,126.749997682571,8|2,3:2|0:3,0:0:0:0:
52,48,89576,2,0,B|107:39|105:103|164:98,1,126.749997682571,0|2,3:0|0:3,0:0:0:0:
175,93,89865,1,2,0:0:0:0:
187,84,89938,1,2,0:0:0:0:
195,72,90010,1,8,3:2:0:0:
43,127,90228,1,2,0:3:0:0:
336,187,90445,5,0,3:0:0:0:
431,30,90663,1,2,0:3:0:0:
480,85,90771,1,2,0:0:0:0:
473,156,90880,2,0,P|461:176|456:279,1,126.749997682571,8|2,3:2|0:3,0:0:0:0:
305,340,91206,1,0,0:0:0:0:
376,376,91315,2,0,B|380:328|380:328|363:246,1,126.749997682571,0|2,3:0|0:3,0:0:0:0:
357,241,91605,1,2,0:0:0:0:
347,232,91677,1,2,0:0:0:0:
338,226,91749,1,8,3:2:0:0:
209,352,91967,1,2,0:3:0:0:
207,340,92039,1,2,0:0:0:0:
206,328,92112,1,2,0:0:0:0:
204,316,92184,5,4,3:1:0:0:
77,43,92402,1,2,0:3:0:0:
13,73,92511,1,2,0:0:0:0:
23,142,92620,2,0,B|80:138|75:190|140:186,1,126.749997682571,8|2,3:2|0:3,0:0:0:0:
356,42,93054,2,0,P|297:22|241:49,1,126.749997682571,0|2,3:0|0:3,0:0:0:0:
237,61,93344,1,2,0:0:0:0:
235,74,93416,1,2,0:0:0:0:
236,87,93489,1,8,3:2:0:0:
413,141,93706,1,2,0:3:0:0:
237,350,93923,5,0,3:0:0:0:
494,233,94141,1,2,0:3:0:0:
444,287,94249,1,2,0:0:0:0:
383,244,94358,2,0,B|321:231|325:282|246:261,1,126.749997682571,8|2,3:2|0:3,0:0:0:0:
250,261,94648,1,2,0:0:0:0:
238,257,94721,1,2,0:0:0:0:
228,250,94793,1,0,3:0:0:0:
100,325,95010,1,2,0:3:0:0:
117,323,95083,1,2,0:0:0:0:
134,320,95155,1,2,0:0:0:0:
151,319,95228,1,8,3:2:0:0:
0,218,95445,1,2,0:3:0:0:
17,220,95518,1,2,0:0:0:0:
34,223,95590,1,2,0:0:0:0:
51,224,95663,5,0,3:0:0:0:
270,101,95880,1,2,0:3:0:0:
215,146,95988,1,2,0:0:0:0:
146,118,96098,2,0,P|167:55|228:34,1,126.749997682571,8|2,3:2|0:3,0:0:0:0:
434,187,96532,2,0,B|377:182|388:248|311:246,1,126.749997682571,0|2,3:0|0:3,0:0:0:0:
315,243,96822,1,2,0:0:0:0:
304,239,96894,1,2,0:0:0:0:
294,232,96967,1,8,3:2:0:0:
170,356,97184,1,2,0:3:0:0:
73,222,97402,6,0,L|66:301,1,63.3749988412857,0|0,3:0|0:0,0:0:0:0:
94,212,97619,1,2,0:3:0:0:
212,129,97836,2,0,L|218:208,1,63.3749988412857,8|0,3:2|0:0,0:0:0:0:
191,119,98053,1,2,0:3:0:0:
116,10,98271,2,0,P|63:86|5:43,1,126.749997682571,0|2,3:0|0:3,0:0:0:0:
240,47,98706,2,0,B|297:42|286:108|363:106,1,126.749997682571,8|2,3:2|0:3,0:0:0:0:
500,255,99141,6,0,P|447:241|401:269,1,110.90624797225,4|0,3:1|0:0,0:0:0:0:
390,282,99576,2,0,L|358:279,6,21.1249996137619,2|0|0|0|0|0|2,0:0|0:0|0:0|0:0|0:0|0:0|0:0,0:0:0:0:
345,290,100445,5,0,0:0:0:0:
421,47,100880,5,8,0:1:0:0:
421,47,101097,2,0,L|416:94,1,42.2499976158143,2|0,1:3|0:0,0:0:0:0:
352,149,101314,1,8,0:1:0:0:
352,149,101532,2,0,L|356:196,1,42.2499976158143,2|0,1:3|0:0,0:0:0:0:
451,281,101749,1,8,0:1:0:0:
451,281,101967,6,0,P|432:275|411:271,1,42.2499976158143,2|0,1:3|0:0,0:0:0:0:
337,351,102184,2,0,P|282:359|224:337,1,84.4999952316285,8|2,0:1|0:3,0:0:0:0:
247,347,102474,5,2,0:0:0:0:
240,341,102547,1,2,0:0:0:0:
233,336,102619,1,8,0:1:0:0:
233,336,102836,2,0,L|238:288,1,42.2499976158143,2|0,1:3|0:0,0:0:0:0:
155,252,103053,1,8,0:1:0:0:
155,252,103271,2,0,L|151:204,1,42.2499976158143,2|0,1:3|0:0,0:0:0:0:
22,103,103489,5,8,0:1:0:0:
99,76,103634,1,2,0:0:0:0:
173,110,103778,1,2,0:0:0:0:
253,91,103923,2,0,L|255:111,4,14.0833325386048,8|0|2|0|0,1:1|0:0|0:0|0:0|0:0,0:0:0:0:
336,126,104213,1,2,0:0:0:0:
416,91,104358,5,8,0:1:0:0:
416,91,104575,2,0,L|463:95,1,42.2499976158143,2|0,1:3|0:0,0:0:0:0:
495,179,104793,1,8,0:1:0:0:
495,179,105010,2,0,L|448:184,1,42.2499976158143,2|0,1:3|0:0,0:0:0:0:
368,236,105228,1,8,0:1:0:0:
368,236,105445,6,0,P|373:262|372:291,1,42.2499976158143,2|0,1:3|0:0,0:0:0:0:
417,351,105662,2,0,P|376:355|334:346,1,84.4999952316285,8|2,0:1|0:3,0:0:0:0:
328,339,105952,5,2,0:0:0:0:
321,333,106025,1,2,0:0:0:0:
315,326,106097,1,8,0:1:0:0:
315,326,106314,2,0,L|251:320,1,42.2499976158143,2|0,1:3|0:0,0:0:0:0:
195,366,106532,1,8,0:1:0:0:
195,366,106749,2,0,L|132:372,1,42.2499976158143,2|0,1:3|0:0,0:0:0:0:
52,308,106967,1,8,0:0:0:0:
47,346,107075,1,2,0:0:0:0:
43,384,107184,1,2,1:3:0:0:
247,281,107401,2,0,L|152:272,1,84.4999952316285,8|2,0:1|0:3,0:0:0:0:
259,147,107728,1,0,0:0:0:0:
259,147,107837,6,0,L|252:234,1,63.3749988412857,0|2,3:0|1:3,0:0:0:0:
247,281,108163,1,0,0:0:0:0:
121,341,108272,2,0,L|199:303,1,63.3749988412857,8|2,3:2|1:3,0:0:0:0:
247,281,108598,1,0,0:0:0:0:
373,335,108707,2,0,L|290:305,1,63.3749988412857,0|2,3:0|1:3,0:0:0:0:
247,281,109033,1,0,0:0:0:0:
253,210,109141,2,0,L|258:146,1,63.3749988412857,8|2,3:2|1:3,0:0:0:0:
414,73,109466,5,0,0:0:0:0:
427,82,109575,2,0,L|434:169,1,84.4999952316285,0|2,3:0|1:3,0:0:0:0:
348,266,109901,1,0,0:0:0:0:
359,189,110010,2,0,L|366:276,1,84.4999952316285,8|2,3:2|1:3,0:0:0:0:
280,373,110336,1,0,0:0:0:0:
248,289,110445,5,0,3:0:0:0:
166,261,110590,1,2,0:0:0:0:
89,303,110735,1,2,0:0:0:0:
2,284,110880,2,0,L|0:308,4,14.0833325386048,8|0|2|0|0,1:1|0:0|0:0|0:0|0:0,0:0:0:0:
95,314,111170,5,2,0:0:0:0:
174,271,111315,2,0,B|191:244|188:205,1,63.3749988412857,0|2,3:0|1:3,0:0:0:0:
157,144,111641,1,0,0:0:0:0:
46,76,111750,2,0,B|59:103|95:120,1,63.3749988412857,8|2,3:2|1:3,0:0:0:0:
157,144,112076,1,0,0:0:0:0:
268,70,112185,2,0,B|235:67|203:89,1,63.3749988412857,0|2,3:2|1:3,0:0:0:0:
0,198,112619,2,0,B|66:186|64:264|129:269,1,147.87499165535,8|0,3:2|0:0,0:0:0:0:
122,268,113053,2,0,L|123:245,1,21.1249988079071,12|0,1:2|0:0,0:0:0:0:
398,219,113489,6,0,P|334:174|350:301,1,295.7499833107,4|0,0:1|0:0,0:0:0:0:
462,341,114358,5,2,0:0:0:0:
425,329,114467,5,2,0:0:0:0:
425,291,114576,5,2,0:0:0:0:
462,279,114684,5,2,0:0:0:0:
484,310,114793,6,0,L|486:333,1,21.1249988079071,4|0,3:1|0:0,0:0:0:0:
