osu file format v14

[General]
AudioFilename: audio.mp3
AudioLeadIn: 0
PreviewTime: -1
Countdown: 1
SampleSet: Normal
StackLeniency: 0.7
Mode: 0
LetterboxInBreaks: 0
WidescreenStoryboard: 0

[Editor]
DistanceSpacing: 0.8
BeatDivisor: 6
GridSize: 4
TimelineZoom: 2.799999

[Metadata]
Title:Experiment
TitleUnicode:Experiment
Artist:Laur
ArtistUnicode:Laur
Creator:Kerantina
Version:iMPractical
Source:
Tags:
BeatmapID:1920950
BeatmapSetID:919778

[Difficulty]
HPDrainRate:6
CircleSize:4.2
OverallDifficulty:7
ApproachRate:9.8
SliderMultiplier:1.4
SliderTickRate:1

[Events]
//Background and Video events
0,0,"military-horror-art-fantasy-wallpapers-hd-horror-wallpapers-download-creepy-4k-1920x1080.jpg",0,0
//Break Periods
2,97833,109833
//Storyboard Layer 0 (Background)
//Storyboard Layer 1 (Fail)
//Storyboard Layer 2 (Pass)
//Storyboard Layer 3 (Foreground)
//Storyboard Layer 4 (Overlay)
//Storyboard Sound Samples

[TimingPoints]
1633,400,4,1,0,100,1,0
2833,-125,4,1,0,100,0,0
10233,-100,4,1,0,100,0,0
11433,-142.857142857143,4,1,0,100,0,0
12233,-142.857142857143,4,1,0,100,0,0
12433,-125,4,1,0,100,0,0
30033,-200,4,1,0,100,0,0
30433,-125,4,1,0,100,0,0
35233,-83.3333333333333,4,1,0,100,0,0
36433,-166.666666666667,4,1,0,100,0,0
37033,-83.3333333333333,4,1,0,100,0,0
38633,-125,4,1,0,100,0,0
38833,-111.111111111111,4,1,0,100,0,0
39033,-100,4,1,0,100,0,0
39233,-166.666666666667,4,1,0,100,0,0
40033,-90.9090909090909,4,1,0,100,0,0
42833,-125,4,1,0,100,0,0
43233,-25,4,1,0,100,0,0
43633,-83.3333333333333,4,1,0,100,0,0
44033,-125,4,1,0,100,0,0
44833,-200,4,1,0,100,0,0
45233,-125,4,1,0,100,0,0
46433,-76.9230769230769,4,1,0,100,0,0
47233,-50,4,1,0,100,0,0
47633,-50,4,1,0,100,0,0
49233,-62.5,4,1,0,100,0,0
50433,-111.111111111111,6,1,0,100,0,0
53233,-28.5714285714286,6,1,0,100,0,0
53283,-28.5714285714286,6,1,0,11,0,0
53333,-28.5714285714286,6,1,0,100,0,0
53383,-28.5714285714286,6,1,0,11,0,0
53433,-28.5714285714286,6,1,0,100,0,0
53483,-28.5714285714286,6,1,0,11,0,0
53533,-28.5714285714286,6,1,0,100,0,0
53533,-28.5714285714286,6,1,0,100,0,0
53583,-28.5714285714286,6,1,0,11,0,0
53633,-15,6,1,0,100,0,0
55233,-62.5,6,1,0,100,0,0
56033,-20,6,1,0,100,0,0
56433,-66.6666666666667,6,1,0,100,0,0
56833,-15.6666666666667,6,1,0,100,0,0
57633,-66.6666666666667,6,1,0,100,0,0
57833,-18,6,1,0,100,0,0
58433,-100,6,1,0,100,0,0
59233,-58.8235294117647,6,1,0,100,0,0
59633,-111.111111111111,6,1,0,100,0,0
60033,-22.111111111111,6,1,0,100,0,0
60433,-83.3333333333333,6,1,0,100,0,0
61633,-111.111111111111,6,1,0,100,0,0
62033,-33.3333333333333,6,1,0,100,0,0
62433,-23.3333333333333,6,1,0,100,0,0
62833,-66.6666666666667,6,1,0,100,0,0
63233,-399.999999999997,6,1,0,100,0,0
67233,-100,6,1,0,100,0,0
70033,-25,6,1,0,100,0,0
72033,-181.818181818181,6,1,0,100,0,0
72433,-47.6190476190476,6,1,0,100,0,0
72833,-31.25,6,1,0,100,0,0
73233,-66.6666666666667,6,1,0,100,0,0
73633,-31.25,6,1,0,100,0,0
73983,-31.25,6,1,0,10,0,0
74033,-31.25,6,1,0,100,0,0
74083,-31.25,6,1,0,10,0,0
74133,-31.25,6,1,0,100,0,0
74183,-31.25,6,1,0,10,0,0
74233,-31.25,6,1,0,100,0,0
74283,-31.25,6,1,0,10,0,0
74333,-31.25,6,1,0,100,0,0
74383,-31.25,6,1,0,10,0,0
74433,-45.4545454545455,6,1,0,100,0,0
75633,-100,6,1,0,100,0,0
76433,-50,6,1,0,100,0,0
76833,-66.6666666666667,6,1,0,100,0,0
77233,-33.3333333333333,6,1,0,100,0,0
77833,-100,6,1,0,100,0,0
78433,-25,6,1,0,100,0,0
79233,-43.4782608695652,6,1,0,100,0,0
82033,-55.5555555555556,6,1,0,100,0,0
82458,-55.5555555555556,6,1,0,5,0,0
82833,-71.4285714285714,6,1,0,100,0,0
84833,-100000,6,1,0,100,0,0
85233,-100,6,1,0,100,0,0
85433,-66.6666666666667,6,1,0,100,0,0
85633,-333.333333333333,6,1,0,100,0,0
87233,-100,6,1,0,100,0,0
87433,-40,6,1,0,100,0,0
87633,-83.3333333333333,6,1,0,100,0,0
88033,-31.25,6,1,0,100,0,0
88433,-100,6,1,0,100,0,0
88833,-200,6,1,0,100,0,0
90233,-100,6,1,0,100,0,0
91233,-19,6,1,0,100,0,0
92033,-100,6,1,0,100,0,0
92433,-40,6,1,0,100,0,0
92633,-66.6666666666667,6,1,0,100,0,0
93033,-12.6666666666667,6,1,0,100,0,0
93633,-100,6,1,0,100,0,0
94433,-28.5714285714286,6,1,0,100,0,0
94833,-100,6,1,0,100,0,0
95233,-22,6,1,0,100,0,0
95833,-181.818181818181,6,1,0,100,0,0
110433,-100,6,1,0,100,0,0
114033,-83.3333333333333,6,1,0,100,0,0
114433,-133.333333333333,6,1,0,100,0,0
115233,-100,6,1,0,100,0,0
130633,-76.9230769230769,6,1,0,100,0,0
132433,-166.666666666667,6,1,0,100,0,0
134033,-100,6,1,0,100,0,0
136033,-500,6,1,0,100,0,0
136433,-25,6,1,0,100,0,0
136833,-43.4782608695652,6,1,0,100,0,0
138833,-27.027027027027,6,1,0,100,0,0
139033,-54.054054054054,6,1,0,100,0,0
139233,-100,6,1,0,100,0,0
140833,-45.4545454545455,6,1,0,100,0,0
142433,-166.666666666667,6,1,0,100,0,0
143233,-52.6315789473684,6,1,0,100,0,0
143633,-83.3333333333333,6,1,0,100,0,0
145233,-30.3030303030303,6,1,0,100,0,0
145633,-83.3333333333333,6,1,0,100,0,0
146433,-250,6,1,0,100,0,0
147233,-71.4285714285714,6,1,0,100,0,0
149233,-25,6,1,0,100,0,0
149633,-1E+99,6,1,0,100,0,0
151233,-50,6,1,0,100,0,0
152033,-33.3333333333333,6,1,0,100,0,0
152833,-100,6,1,0,100,0,0
153633,-50,6,1,0,100,0,0
155233,-12.5,6,1,0,100,0,0
155433,-25,6,1,0,100,0,0
155633,-200,6,1,0,100,0,0
156433,-31.25,6,1,0,100,0,0
157633,-62.5,6,1,0,100,0,0
158433,-142.857142857143,6,1,0,100,0,0
161233,-50,6,1,0,100,0,0
162433,-100,6,1,0,100,0,0
163633,-66.6666666666667,6,1,0,100,0,0
164434,-50,6,1,0,100,0,0
168033,-200,6,1,0,100,0,0
168433,-38.4615384615385,6,1,0,100,0,0
168633,-19.4615384615385,6,1,0,100,0,0
168833,-50,6,1,0,100,0,0
170433,-33.3333333333333,6,1,0,100,0,0
171033,-50,6,1,0,100,0,0
174833,-125,6,1,0,100,0,0
175233,-45.4545454545455,6,1,0,100,0,0
175633,-90.9090909090909,6,1,0,100,0,0
176033,-45.4545454545455,6,1,0,100,0,0
176833,-111.111111111111,6,1,0,100,0,0
177633,-71.4285714285714,6,1,0,100,0,0
178033,-58.8235294117647,6,1,0,100,0,0
178833,-38.4615384615385,6,1,0,100,0,0
180833,-166.666666666667,6,1,0,100,0,0
181233,-52.6315789473684,6,1,0,100,0,0
181433,-41.6666666666667,6,1,0,100,0,0
181633,-66.6666666666667,6,1,0,100,0,0
182433,-58.8235294117647,6,1,0,100,0,0
183233,-41.6666666666667,6,1,0,100,0,0
184033,-62.5,6,1,0,100,0,0
184433,-125,6,1,0,100,0,0
184833,-71.4285714285714,6,1,0,100,0,0
186433,-47.6190476190476,6,1,0,100,0,0
187233,-38.4615384615385,6,1,0,100,0,0
187633,-55.5555555555556,6,1,0,100,0,0
188033,-40,6,1,0,100,0,0
189633,-142.857142857143,6,1,0,100,0,0
190433,-58.8235294117647,6,1,0,100,0,0
190833,-40,6,1,0,100,0,0
191233,-76.9230769230769,6,1,0,100,0,0
191633,-34.4827586206897,6,1,0,100,0,0
193233,-71.4285714285714,6,1,0,100,0,0
193633,-100,6,1,0,100,0,0

[HitObjects]
75,147,1633,6,0,B|127:164|181:155|181:155|221:194,1,140
204,177,2433,1,0,0:0:0:0:
345,183,2833,2,0,B|355:243|355:243|388:299,1,112
214,230,3633,2,0,B|204:290|204:290|171:346,1,112
70,150,4433,5,0,0:0:0:0:
70,150,4633,1,0,0:0:0:0:
70,150,4833,2,0,P|91:107|93:82,1,56
151,57,5233,2,0,P|194:37|212:19,1,56
271,28,5633,2,0,P|315:45|340:44,1,56
355,117,6033,1,0,0:0:0:0:
103,190,6433,6,0,L|138:241,1,56
290,260,6833,2,0,L|255:209,1,56
45,180,7233,2,0,L|114:288,1,112
318,269,8033,5,0,0:0:0:0:
372,212,8233,2,0,L|371:142,1,56
370,62,8633,2,0,B|327:88|327:88|286:145,1,112
184,134,9233,1,0,0:0:0:0:
69,313,9633,6,0,B|129:291|129:291|184:292,1,112
366,310,10233,2,0,B|324:285|324:285|314:248,1,70
196,216,10633,1,0,0:0:0:0:
196,216,10833,2,0,L|196:68,1,140
312,144,11433,1,0,0:0:0:0:
312,144,11633,2,0,L|312:256,1,97.9999970092774
134,259,12233,2,0,L|159:259,1,24.4999992523194
84,256,12433,2,0,B|84:184|84:184|140:156,1,112
228,168,13033,5,0,0:0:0:0:
228,168,13233,2,0,B|296:168|296:168|336:144,1,112
384,52,13833,2,0,P|400:84|416:128,1,56
131,250,14433,6,0,P|144:203|144:127,1,112
252,129,15033,1,0,0:0:0:0:
252,129,15233,2,0,P|268:187|303:239,1,112
97,308,16033,6,0,P|115:273|123:239,1,56
69,165,16433,2,0,P|51:197|43:234,1,56
130,280,16833,1,0,0:0:0:0:
227,237,17033,1,0,0:0:0:0:
313,299,17233,1,0,0:0:0:0:
445,132,17633,6,0,P|434:201|441:262,1,112
341,195,18233,2,0,P|342:159|336:129,1,56
224,170,18633,2,0,P|220:197|221:225,1,56
71,67,19233,2,0,P|126:75|197:65,1,112
263,138,19833,1,0,0:0:0:0:
319,47,20033,2,0,P|356:165|280:236,1,224
129,265,21033,6,0,P|132:301|140:332,1,56
220,223,21433,1,0,0:0:0:0:
220,223,21633,2,0,P|211:173|200:155,1,56
76,156,22033,2,0,P|108:101|140:61,1,112
202,138,22633,1,0,0:0:0:0:
130,211,22833,2,0,P|174:245|213:285,1,112
298,216,23433,1,0,0:0:0:0:
202,138,23633,1,0,0:0:0:0:
309,328,24033,6,0,P|253:300|198:296,1,112
122,226,24633,1,0,0:0:0:0:
122,226,24833,2,0,P|147:188|156:162,1,56
263,129,25233,2,0,P|296:179|341:223,1,112
271,303,25833,2,0,P|230:288|199:285,1,56
117,249,26233,2,0,L|171:219,1,56
257,150,26633,1,0,0:0:0:0:
350,167,26833,1,0,0:0:0:0:
429,220,27033,1,0,0:0:0:0:
478,298,27233,5,0,0:0:0:0:
270,298,27633,1,0,0:0:0:0:
387,211,28033,1,0,0:0:0:0:
179,211,28433,1,0,0:0:0:0:
58,35,28833,5,0,0:0:0:0:
54,141,29033,1,0,0:0:0:0:
145,87,29233,1,0,0:0:0:0:
214,166,29433,5,0,0:0:0:0:
214,166,29533,1,0,0:0:0:0:
214,166,29633,2,0,P|249:162|283:158,1,56
349,226,30033,2,0,L|299:232,1,35
108,192,30433,1,0,0:0:0:0:
256,52,30833,1,0,0:0:0:0:
428,192,31233,1,0,0:0:0:0:
256,292,31633,1,0,0:0:0:0:
64,257,32033,5,0,0:0:0:0:
64,257,32133,1,0,0:0:0:0:
64,257,32233,1,0,0:0:0:0:
62,150,32433,1,0,0:0:0:0:
154,202,32633,2,0,L|188:170,1,28
214,147,32833,1,0,0:0:0:0:
265,237,33033,1,0,0:0:0:0:
322,147,33233,2,0,P|292:117|276:88,1,56
178,94,33633,5,0,0:0:0:0:
110,176,33833,1,0,0:0:0:0:
110,176,33933,1,0,0:0:0:0:
110,176,34033,1,0,0:0:0:0:
208,217,34233,1,0,0:0:0:0:
265,127,34433,2,0,P|293:100|329:88,1,56
338,219,34833,2,0,P|300:229|263:223,1,56
198,165,35233,6,0,P|184:211|166:243,1,83.9999974365235
149,265,35533,1,0,0:0:0:0:
149,265,35633,1,0,0:0:0:0:
57,197,35833,1,0,0:0:0:0:
131,113,36033,2,0,P|156:96|173:76,1,41.9999987182618
283,159,36233,2,0,P|258:142|241:122,1,41.9999987182618
145,182,36433,2,0,P|188:181|235:201,1,83.9999974365235
84,270,37033,5,0,0:0:0:0:
240,238,37233,1,0,0:0:0:0:
116,137,37433,1,0,0:0:0:0:
296,63,37633,1,0,0:0:0:0:
306,103,37733,1,0,0:0:0:0:
326,140,37833,1,0,0:0:0:0:
354,171,37933,1,0,0:0:0:0:
381,207,38033,2,0,L|361:216,1,20.9999993591309
393,246,38133,2,0,L|358:247,1,20.9999993591309
396,288,38233,2,0,L|371:288,1,20.9999993591309
390,330,38333,2,0,L|366:319,1,20.9999993591309
380,368,38433,1,0,0:0:0:0:
141,293,38633,6,0,L|120:253,1,28
200,253,38833,2,0,L|185:201,1,31.4999990386963
257,219,39033,2,0,L|260:167,1,35
332,202,39233,2,0,P|335:165|350:115,1,83.9999974365235
166,161,40033,6,0,P|132:128|187:149,1,154.000004699707
206,209,40533,1,0,0:0:0:0:
243,225,40633,1,0,0:0:0:0:
261,282,40733,1,0,0:0:0:0:
294,316,40833,2,0,L|337:304,1,38.5000011749268
376,34,41233,6,0,L|367:94,1,38.5000011749268
401,248,41433,2,0,L|392:308,1,38.5000011749268
216,273,41633,6,0,L|165:228,1,38.5000011749268
94,112,41833,2,0,L|161:103,1,38.5000011749268
368,78,42033,2,0,L|435:69,1,38.5000011749268
94,112,42233,2,0,L|163:136,1,38.5000011749268
359,221,42433,2,0,L|428:245,1,38.5000011749268
94,112,42633,2,0,L|136:174,1,38.5000011749268
205,284,42833,2,0,L|276:303,1,56
416,275,43233,6,0,B|418:240|398:228|398:228|403:203,4,70
256,286,43633,2,0,P|226:264|242:217,1,83.9999974365235
198,41,44033,6,0,P|201:59|210:80,1,28
323,304,44233,2,0,P|326:322|335:343,1,28
67,96,44433,2,0,P|78:109|97:123,1,28
436,249,44633,2,0,P|423:246|410:241,1,28
60,209,44833,2,0,P|76:215|104:218,1,35
419,129,45233,6,0,P|402:135|379:139,1,28
119,209,45433,2,0,P|102:215|79:219,1,28
446,222,45633,1,0,0:0:0:0:
408,192,45733,1,0,0:0:0:0:
372,212,45833,1,0,0:0:0:0:
339,183,45933,1,0,0:0:0:0:
290,203,46033,1,0,0:0:0:0:
245,232,46133,1,0,0:0:0:0:
217,277,46233,1,0,0:0:0:0:
174,309,46333,1,0,0:0:0:0:
120,312,46433,2,0,P|88:273|147:283,1,136.499993751526
281,313,46833,6,0,B|285:272|285:272|308:257|308:257|285:227|285:227|290:208,1,90.9999958343508
207,52,47233,2,0,P|211:122|246:40,1,210
142,52,47633,6,0,L|149:135,1,70
212,348,47833,2,0,L|219:265,1,70
264,31,48033,2,0,L|257:114,1,70
212,348,48233,2,0,L|202:264,1,70
63,52,48433,2,0,L|121:98,1,70
81,276,48633,2,0,L|159:254,1,70
321,347,48833,2,0,L|353:273,1,70
391,92,49033,2,0,L|451:56,1,70
86,166,49233,6,0,B|126:190|170:172|170:172|174:226|217:260,1,168
261,267,49633,2,0,B|298:195|298:195|352:189|352:189|336:151|336:151|359:101,1,224
115,100,50433,6,0,B|130:153|186:178|186:178|176:207|121:240|56:231,1,251.999992309571
162,299,51433,1,0,0:0:0:0:
182,297,51533,1,0,0:0:0:0:
201,290,51633,1,0,0:0:0:0:
253,228,51833,5,0,0:0:0:0:
313,289,52033,5,0,0:0:0:0:
337,296,52133,1,0,0:0:0:0:
363,297,52233,1,0,0:0:0:0:
394,292,52333,1,0,0:0:0:0:
416,282,52433,5,0,0:0:0:0:
396,221,52533,1,0,0:0:0:0:
385,160,52633,1,0,0:0:0:0:
395,100,52733,1,0,0:0:0:0:
418,39,52833,1,0,0:0:0:0:
156,88,53233,6,0,L|158:157,1,61.2500005841255
178,107,53333,6,0,L|176:45,1,61.2500005841255
201,124,53433,6,0,L|203:193,1,61.2500005841255
228,142,53533,6,0,L|226:80,1,61.2500005841255
257,159,53633,2,0,B|266:200|266:200|257:238|257:238|222:260,1,116.666666666667
257,159,53733,2,0,B|277:205|277:205|259:243|259:243|266:278,1,116.666666666667
257,159,53833,2,0,B|290:203|284:242|284:242|326:242,1,116.666666666667
257,159,53933,2,0,B|306:160|306:160|313:190|363:200,1,116.666666666667
257,159,54033,2,0,B|284:103|309:137|310:138|363:113,1,116.666666666667
257,159,54133,2,0,B|301:122|301:122|307:83|307:83|340:72,1,116.666666666667
156,269,54433,6,0,B|95:268|95:268|93:233|93:233|37:254,1,116.666666666667
156,269,54533,2,0,B|126:226|126:226|130:186|130:186|105:166,1,116.666666666667
156,269,54633,2,0,B|180:221|171:177|211:168,1,116.666666666667
156,269,54733,2,0,B|226:279|230:237|230:237|265:236,1,116.666666666667
156,269,54833,2,0,B|204:308|185:337|241:333|241:333|254:347,1,116.666666666667
156,269,54933,2,0,B|142:357|142:357|128:332|128:332|106:352,1,116.666666666667
156,269,55033,2,0,B|123:269|95:256|86:273|65:261|56:267|34:262,1,116.666666666667
113,120,55233,6,0,P|151:162|211:182,1,112
224,183,55433,2,0,L|223:136,3,28
297,198,55633,2,0,B|332:203|332:203|359:193,1,56
371,237,55833,2,0,B|355:234|355:234|316:236,1,56
437,264,56033,6,0,B|452:296|452:296|432:318|432:319|473:333|467:370,5,87.5
245,72,56433,6,0,B|193:79|193:79|160:65|160:65|122:84|122:84|95:83,1,157.500006008148
87,147,56833,6,0,B|112:196|112:196|101:257,1,111.702125393033
142,147,56933,2,0,B|132:213|132:213|103:260,1,111.702125393033
188,177,57033,2,0,B|138:228|138:228|95:257,1,111.702125393033
209,232,57133,2,0,L|99:255,1,111.702125393033
203,286,57233,2,0,L|92:253,1,111.702125393033
160,328,57333,2,0,B|135:275|135:275|86:251,1,111.702125393033
100,337,57433,2,0,B|131:268|131:268|77:246,1,111.702125393033
327,307,57633,6,0,P|326:244|326:222,1,78.7500030040742
326,197,57833,2,0,B|256:209|256:209|285:165,1,97.2222222222222
328,169,57933,2,0,B|398:181|398:181|369:137,1,97.2222222222222
327,146,58033,2,0,B|256:138|256:138|296:103,1,97.2222222222222
332,124,58133,2,0,B|402:119|402:119|364:83,1,97.2222222222222
332,105,58233,2,0,B|279:57|279:57|331:52,1,97.2222222222222
335,86,58333,2,0,B|389:41|389:41|337:34,1,97.2222222222222
257,119,58433,6,0,B|226:148|226:148|185:132|185:132,1,70
168,131,58733,1,0,0:0:0:0:
135,146,58833,1,0,0:0:0:0:
98,192,58933,1,0,0:0:0:0:
103,251,59033,1,0,0:0:0:0:
153,315,59133,1,0,0:0:0:0:
249,343,59233,2,0,L|262:248,1,59.5000011348725
311,42,59433,2,0,L|319:122,1,59.5000011348725
357,340,59633,2,0,L|331:259,1,62.9999980773926
231,221,60033,6,0,P|186:189|257:218,1,316.582920641548
110,312,60433,6,0,L|106:248,1,41.9999987182618
102,134,60633,1,0,0:0:0:0:
228,291,60833,2,0,L|261:340,1,41.9999987182618
299,329,61033,1,0,0:0:0:0:
312,295,61133,1,0,0:0:0:0:
358,279,61233,1,0,0:0:0:0:
384,212,61333,1,0,0:0:0:0:
371,141,61433,2,0,L|337:96,1,41.9999987182618
191,68,61633,2,0,L|254:117,1,62.9999980773926
308,176,62033,6,0,B|236:208|236:208|184:184|184:184|156:264|76:280,1,210.000008010865
64,144,62433,2,0,B|72:116|72:116|88:100,8,37.4999989782061
208,64,62833,2,0,B|180:104|180:104|216:120|184:160,1,105.000004005432
192,228,63133,1,0,0:0:0:0:
200,312,63233,2,0,P|232:328|272:336,1,70
220,80,65233,5,0,0:0:0:0:
200,136,65333,1,0,0:0:0:0:
252,196,65433,1,0,0:0:0:0:
200,260,65533,1,0,0:0:0:0:
224,344,65633,1,0,0:0:0:0:
96,100,67233,5,0,0:0:0:0:
160,148,67433,2,0,L|148:184,1,35
184,304,67633,2,0,L|216:228,1,70
367,227,68033,5,0,0:0:0:0:
302,179,68234,2,0,L|314:146,1,35
279,23,68433,2,0,L|252:88,1,70
256,232,68833,5,0,0:0:0:0:
213,189,68933,1,0,0:0:0:0:
256,147,69033,1,0,0:0:0:0:
298,189,69133,1,0,0:0:0:0:
256,232,69233,5,0,0:0:0:0:
186,162,69333,1,0,0:0:0:0:
256,93,69433,1,0,0:0:0:0:
325,162,69533,1,0,0:0:0:0:
256,232,69633,5,0,0:0:0:0:
169,145,69733,1,0,0:0:0:0:
256,58,69833,1,0,0:0:0:0:
342,145,69933,1,0,0:0:0:0:
256,232,70033,2,0,L|220:296,3,70
256,232,70233,2,0,L|292:296,3,70
112,68,70733,5,0,0:0:0:0:
112,92,70833,1,0,0:0:0:0:
276,144,71033,1,0,0:0:0:0:
276,112,71133,1,0,0:0:0:0:
276,88,71233,1,0,0:0:0:0:
112,172,71433,1,0,0:0:0:0:
280,212,71633,1,0,0:0:0:0:
100,276,72033,6,0,L|100:332,1,38.5000011749268
212,224,72433,2,0,L|264:276,1,73.4999977569581
396,324,72633,2,0,P|368:292|344:248,1,73.4999977569581
312,136,72833,6,0,B|256:136|256:136|176:96|76:148,1,224
72,232,73233,2,0,L|104:280,1,52.5000020027161
220,280,73433,2,0,L|172:320,1,52.5000020027161
320,308,73633,2,0,B|380:204|288:144|288:144|320:60,1,224
216,44,73933,2,0,L|228:112,1,56
216,44,74033,2,0,L|164:88,1,56
216,44,74133,2,0,L|276:72,1,56
216,44,74233,2,0,L|196:104,1,56
216,44,74333,2,0,L|248:104,1,56
80,60,74433,6,0,B|112:136|112:136|76:176|68:200|72:248,1,154.000004699707
156,288,74833,2,0,P|152:204|260:196,1,154.000004699707
320,80,75233,6,0,B|319:182,2,77.0000023498536
156,52,75633,2,0,L|240:52,1,70
144,192,76033,2,0,P|232:152|264:156,1,105
280,168,76433,2,0,P|228:232|216:304,1,140
384,76,76833,6,0,B|368:152|368:152|396:200|372:252,1,157.500006008148
340,256,77233,2,0,P|240:168|148:140,1,210.000008010865
64,72,77633,6,0,B|68:140|68:140|96:192,1,105.000004005432
144,208,77833,1,0,0:0:0:0:
212,240,77933,1,0,0:0:0:0:
276,272,78033,1,0,0:0:0:0:
340,304,78133,1,0,0:0:0:0:
408,336,78233,1,0,0:0:0:0:
428,232,78433,6,0,B|164:120|164:120|364:204|364:204,1,420
300,100,78833,2,0,L|392:140,4,70
92,72,79233,2,0,B|136:176|112:264|112:264|208:180|208:172,2,322.000006141663
192,120,80233,5,0,0:0:0:0:
248,152,80333,1,0,0:0:0:0:
256,196,80433,1,0,0:0:0:0:
200,244,80533,1,0,0:0:0:0:
232,308,80633,1,0,0:0:0:0:
252,344,80733,1,0,0:0:0:0:
336,304,80833,2,0,B|368:296|368:296|388:296,7,40.2500007677078
208,288,81233,2,0,B|200:288|200:288|168:280,7,40.2500007677078
316,216,81633,6,0,P|380:192|304:188,1,201.250003838539
184,164,82033,6,0,P|120:140|196:136,1,201.250003838539
308,164,82433,2,0,L|336:160,8,15.7499995193482
440,144,82833,1,0,0:0:0:0:
408,224,82933,1,0,0:0:0:0:
368,300,83033,2,0,L|248:304,1,97.9999970092774
72,208,84433,5,0,0:0:0:0:
182,223,84533,1,0,0:0:0:0:
262,141,84633,1,0,0:0:0:0:
370,188,84733,1,0,0:0:0:0:
418,284,84833,2,0,L|406:288,1,10.5
208,268,85233,6,0,L|152:268,1,35
34,172,85433,2,0,P|63:177|100:173,1,52.5000020027161
229,97,85633,2,0,P|258:108|270:114,1,41.9999987182618
210,296,86433,2,0,L|169:293,1,41.9999987182618
77,234,87233,5,0,0:0:0:0:
237,184,87433,1,0,0:0:0:0:
246,195,87483,1,0,0:0:0:0:
249,204,87533,2,0,B|245:232|245:232|261:239,1,43.75
402,197,87633,2,0,B|409:220|409:220|405:254,1,41.9999987182618
413,255,87833,2,0,B|404:277|404:277|414:316,1,41.9999987182618
401,333,88033,6,0,B|258:334|258:334|169:298,1,224
86,176,88433,2,0,L|87:255,1,70
160,323,88833,2,0,L|231:323,1,70
413,205,89633,2,0,L|342:205,1,70
194,199,90233,2,0,P|147:175|123:142,1,70
114,59,90633,5,0,0:0:0:0:
162,68,90733,1,0,0:0:0:0:
221,122,90833,1,0,0:0:0:0:
277,118,90933,1,0,0:0:0:0:
346,81,91033,1,0,0:0:0:0:
424,119,91133,1,0,0:0:0:0:
436,216,91233,6,0,P|393:260|430:244,1,184.210526315789
206,297,91633,2,0,P|211:266|215:281,4,92.1052631578947
325,282,92033,2,0,P|310:233|293:203,1,70
96,54,92433,2,0,B|106:96|106:96|99:148,1,87.5
81,318,92633,2,0,L|118:275,1,52.5000020027161
374,53,92833,2,0,L|316:110,1,52.5000020027161
265,328,93033,2,0,B|216:274|216:274|246:206,1,138.157891269536
265,328,93133,2,0,B|314:274|314:274|284:206,1,138.157891269536
265,328,93233,2,0,B|179:258|179:258|134:255,1,138.157891269536
265,328,93333,2,0,B|351:258|351:258|396:255,1,138.157891269536
265,328,93433,2,0,P|196:273|219:217,1,138.157891269536
265,328,93533,2,0,P|338:271|329:225,1,138.157891269536
265,328,93633,6,0,L|269:195,1,122.5
254,132,94033,2,0,P|211:180|147:170,1,122.5
52,146,94433,2,0,L|193:364,1,245.000002336502
326,334,94833,2,0,B|315:284|341:272|346:222,1,105
329,105,95233,2,0,B|286:124|286:124|283:162,1,79.5454545454545
329,105,95333,2,0,B|372:124|372:124|375:162,1,79.5454545454545
329,105,95433,2,0,B|286:86|286:86|283:48,1,79.5454545454545
329,105,95533,2,0,B|372:86|372:86|375:48,1,79.5454545454545
166,129,95633,5,0,0:0:0:0:
226,187,95733,1,0,0:0:0:0:
287,241,95833,2,0,L|288:285,1,38.5000011749268
42,282,97233,1,0,0:0:0:0:
100,229,97333,1,0,0:0:0:0:
175,262,97433,1,0,0:0:0:0:
231,207,97533,1,0,0:0:0:0:
210,97,97633,1,0,0:0:0:0:
111,169,110433,6,0,P|137:148|161:117,1,70
286,92,110833,2,0,P|251:147|241:239,1,140
305,289,111433,1,0,0:0:0:0:
305,289,111633,1,0,0:0:0:0:
162,310,112033,2,0,P|139:279|106:251,1,70
69,124,112433,2,0,P|89:162|111:189,1,70
216,235,112833,2,0,P|264:216|220:149,1,140
354,76,113633,6,0,L|268:125,1,70
118,127,114033,2,0,L|229:157,1,83.9999974365235
406,170,114433,2,0,L|294:204,1,105.000004005432
187,212,115233,2,0,P|159:227|113:238,1,70
56,311,115633,2,0,P|135:306|194:319,1,140
293,268,116233,1,0,0:0:0:0:
374,340,116433,1,0,0:0:0:0:
351,77,116833,6,0,P|305:98|276:124,1,70
158,176,117233,2,0,P|175:139|183:99,1,70
328,179,117633,2,0,P|281:196|243:221,1,70
81,268,118033,2,0,L|234:291,1,140
133,190,118633,1,0,0:0:0:0:
47,47,118833,2,0,L|122:102,1,70
272,57,119233,2,0,L|181:45,1,70
228,209,119633,2,0,L|258:135,1,70
422,62,120033,6,0,P|409:101|411:141,1,70
446,262,120433,2,0,P|378:223|286:217,1,140
225,135,121033,1,0,0:0:0:0:
166,234,121233,2,0,L|98:175,1,70
77,84,121633,2,0,P|125:72|156:73,1,70
262,142,122033,2,0,P|214:154|183:153,1,70
318,42,122433,2,0,L|356:51,1,35
414,138,122633,1,0,0:0:0:0:
351,207,122833,1,0,0:0:0:0:
261,238,123033,1,0,0:0:0:0:
165,223,123233,5,0,0:0:0:0:
164,48,123633,1,0,0:0:0:0:
347,161,124033,1,0,0:0:0:0:
348,336,124433,1,0,0:0:0:0:
136,300,124833,2,0,P|120:256|88:220,1,70
112,128,125233,1,0,0:0:0:0:
216,184,125433,5,0,0:0:0:0:
216,184,125533,1,0,0:0:0:0:
216,184,125633,1,0,0:0:0:0:
220,296,125833,2,0,L|304:296,1,70
360,184,126433,1,0,0:0:0:0:
112,184,126833,1,0,0:0:0:0:
464,188,127233,1,0,0:0:0:0:
28,188,127633,1,0,0:0:0:0:
180,300,128033,6,0,P|240:292|276:296,1,70
352,228,128433,1,0,0:0:0:0:
228,176,128633,2,0,L|184:176,2,35
304,104,129033,2,0,L|324:132,1,35
416,116,129233,2,0,L|360:256,1,140
256,244,129833,5,0,0:0:0:0:
256,244,129933,1,0,0:0:0:0:
256,244,130033,1,0,0:0:0:0:
152,240,130233,2,0,L|152:160,1,70
248,56,130633,2,0,L|248:156,1,90.9999958343508
340,220,131033,1,0,0:0:0:0:
424,136,131233,5,0,0:0:0:0:
424,136,131333,1,0,0:0:0:0:
424,136,131433,1,0,0:0:0:0:
424,136,131533,1,0,0:0:0:0:
424,136,131633,2,0,L|344:80,1,90.9999958343508
168,84,132033,2,0,L|256:148,1,90.9999958343508
367,179,132433,2,0,B|378:224|378:224|367:267,1,83.9999974365235
164,320,133033,5,0,0:0:0:0:
200,136,133233,1,0,0:0:0:0:
292,272,133433,1,0,0:0:0:0:
100,128,133633,1,0,0:0:0:0:
99,159,133733,1,0,0:0:0:0:
94,190,133833,1,0,0:0:0:0:
86,221,133933,1,0,0:0:0:0:
74,250,134033,2,0,L|80:280,1,17.5
123,247,134133,2,0,L|124:276,1,17.5
172,251,134233,2,0,L|168:276,1,17.5
220,261,134333,2,0,L|216:288,1,17.5
264,276,134433,5,0,0:0:0:0:
161,104,134633,2,0,L|154:79,4,17.5
361,157,135033,1,0,0:0:0:0:
95,190,135233,1,0,0:0:0:0:
442,319,135433,1,0,0:0:0:0:
53,80,135633,1,0,0:0:0:0:
301,86,136033,6,0,L|326:85,1,24.5
366,86,136433,2,0,B|404:117|404:117|432:116,1,70
368,115,136533,2,0,B|325:133|325:133|292:132,1,70
369,138,136633,2,0,B|407:169|407:169|435:168,1,70
369,163,136733,2,0,B|326:181|326:181|293:180,1,70
371,204,136833,2,0,P|317:243|273:308,1,120.750002303124
184,296,137233,5,0,0:0:0:0:
80,75,137433,1,0,0:0:0:0:
402,139,137633,1,0,0:0:0:0:
93,241,137833,1,0,0:0:0:0:
359,57,138033,1,0,0:0:0:0:
337,304,138233,1,0,0:0:0:0:
116,66,138433,1,0,0:0:0:0:
434,219,138633,1,0,0:0:0:0:
147,256,138833,6,0,B|102:258|102:258|70:245,1,64.7499997529984
147,256,138933,2,0,B|196:255|206:255|226:271,1,64.7499997529984
147,256,139033,2,0,L|146:173,1,64.7499997529984
141,68,139233,2,0,B|188:132|214:81|267:134,1,140
365,299,140033,5,0,0:0:0:0:
66,193,140233,1,0,0:0:0:0:
398,137,140433,1,0,0:0:0:0:
67,292,140633,1,0,0:0:0:0:
265,60,140833,6,0,P|315:62|261:76,1,154.000004699707
378,322,141233,1,0,0:0:0:0:
100,149,141433,1,0,0:0:0:0:
285,343,141633,2,0,P|292:283|386:224,1,154.000004699707
377,152,141933,1,0,0:0:0:0:
377,152,142033,2,0,L|345:76,1,77.0000023498536
293,143,142233,2,0,L|225:86,1,77.0000023498536
141,55,142433,2,0,L|142:146,1,83.9999974365235
227,263,143233,6,0,P|316:278|392:319,1,132.999996448517
393,74,143633,2,0,L|350:123,1,41.9999987182618
99,319,143833,2,0,L|157:283,1,41.9999987182618
470,175,144033,2,0,L|417:179,1,41.9999987182618
35,209,144233,2,0,L|95:213,1,41.9999987182618
451,298,144433,2,0,L|384:266,1,41.9999987182618
71,74,144633,2,0,L|112:109,1,41.9999987182618
295,273,144833,2,0,L|324:330,1,41.9999987182618
270,110,145033,2,0,L|280:63,1,41.9999987182618
179,214,145233,6,0,B|186:220|176:214|170:204|168:193|168:193|167:182|170:170|178:162|178:162|187:184|202:202|222:214|222:214|238:221|249:238|248:256|248:256|247:274|236:290|226:293,1,231
100,177,145633,2,0,B|129:232|210:196|255:259,1,167.999994873047
302,338,146233,1,0,0:0:0:0:
270,81,146433,2,0,B|313:72|313:72|358:82,1,84
334,197,147233,5,0,0:0:0:0:
219,230,147433,1,0,0:0:0:0:
219,230,147533,1,0,0:0:0:0:
219,230,147633,1,0,0:0:0:0:
117,84,147833,1,0,0:0:0:0:
106,106,147933,1,0,0:0:0:0:
98,129,148033,1,0,0:0:0:0:
93,153,148133,1,0,0:0:0:0:
90,177,148233,1,0,0:0:0:0:
90,201,148333,5,0,0:0:0:0:
93,226,148433,1,0,0:0:0:0:
152,240,148533,1,0,0:0:0:0:
213,239,148633,1,0,0:0:0:0:
271,220,148733,1,0,0:0:0:0:
322,187,148833,1,0,0:0:0:0:
109,78,149233,6,0,L|96:155,1,70
109,78,149333,2,0,L|159:145,1,70
109,78,149433,2,0,L|198:92,1,70
109,78,149533,2,0,L|194:20,1,70
376,99,149633,6,0,L|378:112,1,14
106,320,150433,2,0,L|119:320,1,14
86,87,151233,6,0,P|116:112|156:141,1,70
195,170,151433,1,0,0:0:0:0:
202,172,151499,1,0,0:0:0:0:
209,174,151533,2,0,L|253:184,1,35
292,243,151633,2,0,L|361:283,1,70
354,160,151833,2,0,L|291:129,1,70
61,62,152033,6,0,B|65:221|21:268|21:269|56:276|56:276|86:346|219:319,1,367.500014019013
243,324,152433,2,0,B|236:297|236:297|250:269,7,52.5000020027161
356,303,152833,2,0,L|276:188,1,140
81,87,153633,2,0,L|161:202,1,140
234,218,153883,2,0,L|235:179,1,35
262,220,153983,2,0,L|264:266,1,35
296,219,154083,2,0,L|295:175,1,35
326,222,154183,2,0,L|328:262,1,35
356,220,154283,2,0,L|355:175,1,35
414,327,154433,5,0,0:0:0:0:
303,341,154633,1,0,0:0:0:0:
275,345,154733,1,0,0:0:0:0:
247,347,154833,1,0,0:0:0:0:
219,346,154933,1,0,0:0:0:0:
191,342,155033,1,0,0:0:0:0:
164,335,155133,1,0,0:0:0:0:
85,312,155233,6,0,L|77:24,1,280
115,88,155433,2,0,L|117:237,1,140
154,196,155633,2,0,L|154:120,1,70
269,74,156433,2,0,L|306:200,1,112
351,340,156633,1,0,0:0:0:0:
243,310,156833,2,0,L|206:184,1,112
132,47,157033,5,0,0:0:0:0:
116,117,157133,1,0,0:0:0:0:
96,187,157233,2,0,B|61:198|61:198|50:240,1,56
236,215,157433,2,0,B|271:226|271:226|282:268,1,56
409,285,157633,6,0,B|458:246|458:246|475:172,2,112
301,277,158133,1,0,0:0:0:0:
190,260,158233,1,0,0:0:0:0:
79,239,158333,1,0,0:0:0:0:
52,131,158433,6,0,B|85:151|85:151|110:135|110:135|139:142,1,97.9999970092774
292,79,159233,6,0,L|346:163,1,97.9999970092774
271,207,160033,1,0,0:0:0:0:
110,135,161233,5,0,0:0:0:0:
110,135,161333,1,0,0:0:0:0:
110,135,161433,2,0,L|159:189,1,70
269,143,161633,1,0,0:0:0:0:
330,241,162433,5,0,0:0:0:0:
213,258,162633,1,0,0:0:0:0:
213,258,162733,1,0,0:0:0:0:
213,258,162833,2,0,L|256:166,1,70
330,241,163233,5,0,0:0:0:0:
136,258,163433,1,0,0:0:0:0:
136,258,163533,1,0,0:0:0:0:
136,258,163633,2,0,L|199:127,1,105.000004005432
330,241,164033,5,0,0:0:0:0:
54,255,164233,1,0,0:0:0:0:
54,255,164333,1,0,0:0:0:0:
54,255,164433,2,0,L|119:120,1,105.000004005432
330,241,164833,5,0,0:0:0:0:
92,104,165033,1,0,0:0:0:0:
92,104,165133,1,0,0:0:0:0:
92,104,165233,2,0,L|133:188,1,70
180,304,165433,1,0,0:0:0:0:
180,304,165533,1,0,0:0:0:0:
180,304,165633,2,0,L|221:220,1,70
225,65,165833,1,0,0:0:0:0:
225,65,165933,1,0,0:0:0:0:
225,65,166033,6,0,L|258:83,1,35
225,65,166133,2,0,L|191:90,1,35
225,65,166233,2,0,L|175:47,1,35
225,65,166333,2,0,L|261:44,1,35
145,232,166733,5,0,0:0:0:0:
145,232,166833,1,0,0:0:0:0:
308,232,167033,2,0,L|391:233,2,70
148,152,167433,1,0,0:0:0:0:
147,308,167633,1,0,0:0:0:0:
223,228,168033,2,0,L|288:227,1,52.5
320,294,168433,2,0,P|366:235|387:163,1,90.9999958343508
387,87,168633,2,0,P|433:146|449:269,1,179.841898589017
401,331,168833,6,0,L|184:332,1,210
60,292,169233,1,0,0:0:0:0:
89,274,169333,1,0,0:0:0:0:
115,250,169433,1,0,0:0:0:0:
136,222,169533,1,0,0:0:0:0:
151,190,169633,1,0,0:0:0:0:
158,156,169733,1,0,0:0:0:0:
175,126,169833,1,0,0:0:0:0:
201,102,169933,1,0,0:0:0:0:
232,87,170033,1,0,0:0:0:0:
267,82,170133,1,0,0:0:0:0:
301,87,170233,1,0,0:0:0:0:
332,103,170333,1,0,0:0:0:0:
358,127,170433,2,0,P|407:158|464:167,1,105.000004005432
373,259,170833,6,0,L|257:259,1,105.000004005432
151,200,171033,2,0,L|233:200,1,70
308,183,171233,2,0,B|307:95|307:95|271:46,2,140
71,271,172033,2,0,L|71:315,7,35
72,226,172433,5,0,0:0:0:0:
153,189,172533,1,0,0:0:0:0:
204,126,172633,1,0,0:0:0:0:
266,74,172733,1,0,0:0:0:0:
348,70,172833,1,0,0:0:0:0:
419,112,172933,1,0,0:0:0:0:
455,187,173033,1,0,0:0:0:0:
443,269,173133,1,0,0:0:0:0:
387,330,173233,1,0,0:0:0:0:
307,351,173333,1,0,0:0:0:0:
229,323,173433,1,0,0:0:0:0:
179,257,173533,1,0,0:0:0:0:
175,174,173633,5,0,0:0:0:0:
318,163,173833,1,0,0:0:0:0:
318,163,173933,1,0,0:0:0:0:
318,163,174033,1,0,0:0:0:0:
318,178,174133,1,0,0:0:0:0:
319,190,174233,1,0,0:0:0:0:
320,205,174333,1,0,0:0:0:0:
321,222,174433,2,0,B|198:222|198:222|257:222,1,140
74,178,174833,6,0,L|74:245,1,56
158,279,175233,2,0,P|261:309|388:273,1,231.000007049561
328,221,175633,2,0,P|265:233|204:217,1,115.50000352478
221,108,176033,2,0,P|266:163|314:94,1,154.000004699707
407,95,176333,1,0,0:0:0:0:
407,125,176433,1,0,0:0:0:0:
407,156,176533,1,0,0:0:0:0:
407,187,176633,1,0,0:0:0:0:
408,218,176733,1,0,0:0:0:0:
409,248,176833,6,0,B|394:294|344:265|344:265|304:309,1,125.999996154785
88,135,177633,2,0,B|119:199|119:199|100:255,1,97.9999970092774
106,337,178033,2,0,L|206:232,1,119.000002269745
296,64,178433,2,0,P|292:142|364:105,1,178.500003404617
413,50,178833,2,0,B|433:111|433:111|424:172,1,90.9999958343508
354,212,179033,2,0,B|366:277|366:277|403:319,1,90.9999958343508
467,338,179233,1,0,0:0:0:0:
71,106,180433,5,0,0:0:0:0:
96,183,180533,1,0,0:0:0:0:
166,223,180633,1,0,0:0:0:0:
245,232,180733,1,0,0:0:0:0:
368,77,180833,2,0,L|368:145,1,62.9999980773926
422,190,181233,2,0,B|386:201|386:201|346:199,1,66.4999982242585
279,300,181433,2,0,B|345:281|345:281|400:294,1,83.9999974365235
431,321,181633,6,0,B|464:217|333:221|352:116,1,210.000008010865
124,267,182433,2,0,P|178:177|92:202,1,238.00000453949
313,91,183233,2,0,B|355:115|355:115|415:113,1,83.9999974365235
426,156,183433,2,0,L|391:191,1,41.9999987182618
440,210,183533,2,0,L|410:252,1,41.9999987182618
439,269,183633,2,0,B|440:310|440:310|478:348,2,83.9999974365235
241,186,184033,2,0,B|186:205|186:205|138:197|138:197|112:204,1,112
37,235,184433,2,0,L|118:309,1,84
221,322,184833,6,0,B|227:250|227:250|302:183|242:108|242:108|245:66|245:66|262:49,1,293.999991027832
42,228,185633,2,0,B|31:161|84:126|145:152|141:222|141:222|216:228|255:184|255:184,1,293.999991027832
322,81,186433,2,0,B|329:138|329:138|350:172,1,73.4999977569581
404,192,186633,5,0,0:0:0:0:
366,236,186733,1,0,0:0:0:0:
315,264,186833,1,0,0:0:0:0:
257,271,186933,1,0,0:0:0:0:
200,255,187033,1,0,0:0:0:0:
154,219,187133,1,0,0:0:0:0:
121,166,187233,2,0,B|72:214|72:214|104:249|105:249|81:288|129:331,1,181.999991668702
266,125,187633,6,0,B|316:99|316:99|294:65|329:34|385:35|417:63|413:97|413:97,1,188.999994232178
376,140,188033,2,0,B|396:217|396:217|360:274|360:274|392:317,1,175
267,332,188433,1,0,0:0:0:0:
213,310,188533,1,0,0:0:0:0:
169,272,188633,1,0,0:0:0:0:
140,221,188733,1,0,0:0:0:0:
134,147,188833,1,0,0:0:0:0:
174,77,188933,1,0,0:0:0:0:
256,51,189033,1,0,0:0:0:0:
339,74,189133,1,0,0:0:0:0:
397,138,189233,1,0,0:0:0:0:
410,223,189333,1,0,0:0:0:0:
374,302,189433,1,0,0:0:0:0:
303,345,189533,1,0,0:0:0:0:
213,319,189633,6,0,P|193:264|268:270,1,146.999995513916
361,262,190433,2,0,B|328:211|328:211|370:193|374:153,1,119.000002269745
302,138,190833,2,0,B|249:165|214:134|214:134|189:176|132:182,1,175
71,248,191233,2,0,L|219:289,1,136.499993751526
246,345,191633,2,0,B|288:306|288:306|296:255,1,101.500003097534
446,187,191833,2,0,B|404:226|404:226|396:277,1,101.500003097534
458,352,192033,1,0,0:0:0:0:
146,97,193233,6,0,L|131:155,1,48.9999985046387
210,173,193433,2,0,L|223:226,1,48.9999985046387
275,294,193633,2,0,P|340:297|411:244,1,140
328,172,194433,1,0,0:0:0:0:
221,137,194833,1,0,0:0:0:0:
120,187,195233,1,0,0:0:0:0:
117,298,195633,2,0,P|177:271|264:277,1,140
345,330,196433,1,0,0:0:0:0:
429,160,196833,5,0,0:0:0:0:
256,192,196933,12,0,198433,0:0:0:0:
