osu file format v14

[General]
AudioFilename: audio.ogg
AudioLeadIn: 0
PreviewTime: 110822
Countdown: 0
SampleSet: Normal
StackLeniency: 0.7
Mode: 3
LetterboxInBreaks: 0
SpecialStyle: 0
WidescreenStoryboard: 1

[Editor]
Bookmarks: 16668,24052,31437,38822,46206,53591,60975,62822,77591,84975,94206,109899,126514
DistanceSpacing: 1
BeatDivisor: 2
GridSize: 4
TimelineZoom: 1.6

[Metadata]
Title:Exitium
TitleUnicode:Exitium
Artist:Laur
ArtistUnicode:Laur
Creator:tyrcs
Version:Normal
Source:WACCA
Tags:WACCA ワッカ Electronic Metal Rock Speedcore HARDCORE TANO*C instrumental Last Labyrinth Collapse m3-2021 LLCD-003
BeatmapID:3423800
BeatmapSetID:1675996

[Difficulty]
HPDrainRate:7
CircleSize:7
OverallDifficulty:7
ApproachRate:5
SliderMultiplier:1.4
SliderTickRate:1

[Events]
//Background and Video events
0,0,"Exitium.jpg",0,0
//Break Periods
//Storyboard Layer 0 (Background)
//Storyboard Layer 1 (Fail)
//Storyboard Layer 2 (Pass)
//Storyboard Layer 3 (Foreground)
//Storyboard Layer 4 (Overlay)
//Storyboard Sound Samples

[TimingPoints]
3746,230.769230769231,4,1,1,20,1,0
11130,-100,4,1,1,25,0,0
16669,-100,4,1,1,15,0,0
18515,-100,4,1,1,40,0,1
33284,-100,4,1,1,25,0,0
40669,-100,4,1,1,40,0,1
42053,-100,4,1,1,15,0,0
42515,-100,4,1,1,40,0,1
43899,-100,4,1,1,15,0,0
44361,-100,4,1,1,40,0,1
45746,-100,4,1,1,15,0,0
46207,-100,4,1,1,40,0,1
47130,-100,4,1,1,15,0,0
48053,-100,4,1,1,20,0,0
55438,-100,4,1,1,25,0,0
62822,-100,4,1,1,10,0,0
64669,-100,4,1,1,20,0,0
79438,-100,4,1,1,25,0,0
86822,-100,4,1,1,30,0,1
93284,-100,4,1,1,20,0,0
94207,-100,4,1,1,40,0,1
95592,-100,4,1,1,25,0,0
96053,-100,4,1,1,40,0,1
110822,-100,4,1,1,25,0,0
111746,-100,4,1,1,40,0,1
128361,-100,4,1,1,25,0,0
136669,-100,4,1,1,40,0,1
138515,-100,4,1,1,40,0,0

[HitObjects]
182,192,1899,5,0,0:0:0:0:
475,192,1899,1,0,0:0:0:0:
182,192,2130,1,0,0:0:0:0:
182,192,2361,1,0,0:0:0:0:
182,192,3053,1,0,0:0:0:0:
475,192,3746,128,0,5592:0:0:0:0:
256,192,3746,1,0,0:0:0:0:
256,192,5592,1,0,0:0:0:0:
36,192,5592,128,0,7438:0:0:0:0:
256,192,7438,1,0,0:0:0:0:
475,192,7438,128,0,9284:0:0:0:0:
256,192,9284,1,0,0:0:0:0:
109,192,9284,128,0,10207:0:0:0:0:
256,192,10207,1,0,0:0:0:0:
402,192,10207,128,0,11130:0:0:0:0:
256,192,10669,1,0,0:0:0:0:
182,192,11130,1,0,0:0:0:0:
36,192,11130,1,0,0:0:0:0:
329,192,11361,1,0,0:0:0:0:
182,192,11476,1,0,0:0:0:0:
329,192,11707,1,0,0:0:0:0:
402,192,11822,128,0,11938:0:0:0:0:
109,192,12053,1,0,0:0:0:0:
109,192,12284,1,0,0:0:0:0:
109,192,12515,1,0,0:0:0:0:
109,192,12746,1,0,0:0:0:0:
402,192,12861,1,0,0:0:0:0:
182,192,12976,1,0,0:0:0:0:
329,192,13207,1,0,0:0:0:0:
182,192,13322,1,0,0:0:0:0:
329,192,13553,1,0,0:0:0:0:
402,192,13669,128,0,13784:0:0:0:0:
109,192,13899,1,0,0:0:0:0:
109,192,14130,1,0,0:0:0:0:
256,192,14246,1,0,0:0:0:0:
402,192,14361,1,0,0:0:0:0:
402,192,14592,1,0,0:0:0:0:
182,192,14822,1,0,0:0:0:0:
36,192,14822,1,0,0:0:0:0:
329,192,15053,1,0,0:0:0:0:
182,192,15169,1,0,0:0:0:0:
329,192,15399,1,0,0:0:0:0:
402,192,15515,128,0,15630:0:0:0:0:
109,192,15746,1,0,0:0:0:0:
256,192,15746,128,0,16669:0:0:0:0:
402,192,15976,1,0,0:0:0:0:
109,192,16207,1,0,0:0:0:0:
402,192,16438,1,0,0:0:0:0:
36,192,16669,1,0,0:0:0:0:
402,192,17592,1,0,0:0:0:0:
109,192,17822,1,0,0:0:0:0:
402,192,17938,1,0,0:0:0:0:
256,192,18053,1,0,0:0:0:0:
402,192,18284,1,0,0:0:0:0:
329,192,18515,1,0,0:0:0:0:
475,192,18515,1,0,0:0:0:0:
36,192,18746,1,0,0:0:0:0:
182,192,18976,1,0,0:0:0:0:
329,192,19207,1,0,0:0:0:0:
402,192,19438,1,0,0:0:0:0:
109,192,19669,1,0,0:0:0:0:
256,192,19784,1,0,0:0:0:0:
402,192,19899,1,0,0:0:0:0:
109,192,20130,1,0,0:0:0:0:
109,192,20361,1,0,0:0:0:0:
475,192,20592,1,0,0:0:0:0:
329,192,20822,1,0,0:0:0:0:
182,192,21053,1,0,0:0:0:0:
36,192,21284,1,0,0:0:0:0:
182,192,21515,1,0,0:0:0:0:
329,192,21630,1,0,0:0:0:0:
475,192,21746,1,0,0:0:0:0:
256,192,21976,1,0,0:0:0:0:
475,192,22207,1,0,0:0:0:0:
36,192,22438,1,0,0:0:0:0:
182,192,22669,1,0,0:0:0:0:
329,192,22899,1,0,0:0:0:0:
402,192,23130,1,0,0:0:0:0:
109,192,23361,1,0,0:0:0:0:
256,192,23476,1,0,0:0:0:0:
402,192,23592,1,0,0:0:0:0:
109,192,23822,1,0,0:0:0:0:
36,192,24053,1,0,0:0:0:0:
475,192,24284,1,0,0:0:0:0:
182,192,24515,1,0,0:0:0:0:
109,192,24630,1,0,0:0:0:0:
329,192,24746,1,0,0:0:0:0:
402,192,24861,1,0,0:0:0:0:
182,192,24976,1,0,0:0:0:0:
475,192,25207,1,0,0:0:0:0:
329,192,25322,1,0,0:0:0:0:
256,192,25553,1,0,0:0:0:0:
109,192,25669,1,0,0:0:0:0:
329,192,25899,1,0,0:0:0:0:
36,192,25899,1,0,0:0:0:0:
475,192,26130,1,0,0:0:0:0:
329,192,26361,1,0,0:0:0:0:
182,192,26592,1,0,0:0:0:0:
109,192,26822,1,0,0:0:0:0:
402,192,27053,1,0,0:0:0:0:
256,192,27169,1,0,0:0:0:0:
109,192,27284,1,0,0:0:0:0:
402,192,27515,1,0,0:0:0:0:
402,192,27746,1,0,0:0:0:0:
36,192,27976,1,0,0:0:0:0:
182,192,28207,1,0,0:0:0:0:
329,192,28438,1,0,0:0:0:0:
475,192,28669,1,0,0:0:0:0:
329,192,28899,1,0,0:0:0:0:
182,192,29015,1,0,0:0:0:0:
36,192,29130,1,0,0:0:0:0:
402,192,29361,1,0,0:0:0:0:
36,192,29592,1,0,0:0:0:0:
256,192,29592,1,0,0:0:0:0:
475,192,29822,1,0,0:0:0:0:
329,192,30053,1,0,0:0:0:0:
182,192,30284,1,0,0:0:0:0:
109,192,30515,1,0,0:0:0:0:
402,192,30746,1,0,0:0:0:0:
256,192,30861,1,0,0:0:0:0:
109,192,30976,1,0,0:0:0:0:
402,192,31207,1,0,0:0:0:0:
182,192,31438,1,0,0:0:0:0:
475,192,31438,128,0,31899:0:0:0:0:
329,192,31899,1,0,0:0:0:0:
36,192,31899,128,0,32361:0:0:0:0:
256,192,32361,1,0,0:0:0:0:
475,192,32361,1,0,0:0:0:0:
36,192,32592,1,0,0:0:0:0:
182,192,32707,1,0,0:0:0:0:
256,192,32938,1,0,0:0:0:0:
402,192,33053,1,0,0:0:0:0:
36,192,33284,1,0,0:0:0:0:
182,192,33284,1,0,0:0:0:0:
109,192,33746,1,0,0:0:0:0:
402,192,34207,1,0,0:0:0:0:
109,192,35130,1,0,0:0:0:0:
109,192,35592,1,0,0:0:0:0:
402,192,36053,1,0,0:0:0:0:
256,192,36169,1,0,0:0:0:0:
402,192,36399,1,0,0:0:0:0:
36,192,36976,1,0,0:0:0:0:
182,192,36976,1,0,0:0:0:0:
109,192,37438,1,0,0:0:0:0:
402,192,37899,1,0,0:0:0:0:
109,192,38822,1,0,0:0:0:0:
109,192,39284,1,0,0:0:0:0:
402,192,39746,1,0,0:0:0:0:
402,192,40092,1,0,0:0:0:0:
109,192,40207,1,0,0:0:0:0:
36,192,40669,128,0,42053:0:0:0:0:
329,192,40669,128,0,42053:0:0:0:0:
182,192,42053,1,0,0:0:0:0:
109,192,42515,128,0,43899:0:0:0:0:
402,192,42515,128,0,43899:0:0:0:0:
256,192,44130,1,0,0:0:0:0:
182,192,44361,128,0,45746:0:0:0:0:
475,192,44361,128,0,45746:0:0:0:0:
329,192,45746,1,0,0:0:0:0:
109,192,46207,128,0,47130:0:0:0:0:
402,192,46207,128,0,47130:0:0:0:0:
256,192,47130,1,0,0:0:0:0:
256,192,47361,1,0,0:0:0:0:
256,192,47592,1,0,0:0:0:0:
36,192,48053,1,0,0:0:0:0:
329,192,48053,1,0,0:0:0:0:
329,192,48515,1,0,0:0:0:0:
109,192,48976,1,0,0:0:0:0:
109,192,49438,1,0,0:0:0:0:
402,192,49899,1,0,0:0:0:0:
402,192,50361,1,0,0:0:0:0:
182,192,50822,1,0,0:0:0:0:
182,192,51284,1,0,0:0:0:0:
475,192,51746,1,0,0:0:0:0:
256,192,52207,1,0,0:0:0:0:
402,192,52669,1,0,0:0:0:0:
182,192,53130,1,0,0:0:0:0:
329,192,53592,1,0,0:0:0:0:
109,192,54053,1,0,0:0:0:0:
256,192,54515,1,0,0:0:0:0:
36,192,54976,1,0,0:0:0:0:
182,192,55438,1,0,0:0:0:0:
475,192,55438,128,0,56361:0:0:0:0:
182,192,55899,1,0,0:0:0:0:
329,192,56361,128,0,57284:0:0:0:0:
36,192,56361,1,0,0:0:0:0:
36,192,56822,1,0,0:0:0:0:
475,192,57284,1,0,0:0:0:0:
182,192,57284,128,0,58207:0:0:0:0:
475,192,57746,1,0,0:0:0:0:
329,192,58207,1,0,0:0:0:0:
36,192,58207,128,0,59130:0:0:0:0:
329,192,58669,1,0,0:0:0:0:
182,192,58899,1,0,0:0:0:0:
402,192,59130,128,0,60053:0:0:0:0:
256,192,59130,1,0,0:0:0:0:
182,192,59361,1,0,0:0:0:0:
109,192,59592,1,0,0:0:0:0:
182,192,59822,1,0,0:0:0:0:
256,192,60053,1,0,0:0:0:0:
109,192,60053,128,0,60976:0:0:0:0:
329,192,60284,1,0,0:0:0:0:
402,192,60515,1,0,0:0:0:0:
329,192,60746,1,0,0:0:0:0:
256,192,60976,128,0,61899:0:0:0:0:
475,192,60976,1,0,0:0:0:0:
182,192,61207,1,0,0:0:0:0:
36,192,61438,1,0,0:0:0:0:
329,192,61669,1,0,0:0:0:0:
475,192,61899,128,0,62822:0:0:0:0:
109,192,61899,1,0,0:0:0:0:
109,192,62130,1,0,0:0:0:0:
182,192,62361,1,0,0:0:0:0:
182,192,62822,1,0,0:0:0:0:
36,192,62822,1,0,0:0:0:0:
36,192,64669,1,0,0:0:0:0:
475,192,64669,1,0,0:0:0:0:
256,192,64899,1,0,0:0:0:0:
475,192,65130,1,0,0:0:0:0:
182,192,65361,1,0,0:0:0:0:
402,192,65592,1,0,0:0:0:0:
109,192,65822,1,0,0:0:0:0:
329,192,66053,1,0,0:0:0:0:
182,192,66284,1,0,0:0:0:0:
36,192,66515,1,0,0:0:0:0:
256,192,66746,1,0,0:0:0:0:
475,192,66976,1,0,0:0:0:0:
182,192,67207,1,0,0:0:0:0:
402,192,67438,1,0,0:0:0:0:
109,192,67669,1,0,0:0:0:0:
329,192,67899,1,0,0:0:0:0:
182,192,68130,1,0,0:0:0:0:
36,192,68361,1,0,0:0:0:0:
475,192,68361,1,0,0:0:0:0:
256,192,68592,1,0,0:0:0:0:
36,192,68822,1,0,0:0:0:0:
329,192,69053,1,0,0:0:0:0:
109,192,69284,1,0,0:0:0:0:
402,192,69515,1,0,0:0:0:0:
182,192,69746,1,0,0:0:0:0:
329,192,69976,1,0,0:0:0:0:
475,192,70207,1,0,0:0:0:0:
256,192,70438,1,0,0:0:0:0:
36,192,70669,1,0,0:0:0:0:
329,192,70899,1,0,0:0:0:0:
109,192,71130,1,0,0:0:0:0:
402,192,71361,1,0,0:0:0:0:
182,192,71592,1,0,0:0:0:0:
329,192,71822,1,0,0:0:0:0:
475,192,72053,1,0,0:0:0:0:
36,192,72053,1,0,0:0:0:0:
329,192,72284,1,0,0:0:0:0:
475,192,72515,1,0,0:0:0:0:
256,192,72746,1,0,0:0:0:0:
402,192,72976,1,0,0:0:0:0:
182,192,73207,1,0,0:0:0:0:
329,192,73438,1,0,0:0:0:0:
109,192,73669,1,0,0:0:0:0:
36,192,73899,1,0,0:0:0:0:
329,192,74130,1,0,0:0:0:0:
475,192,74361,1,0,0:0:0:0:
256,192,74592,1,0,0:0:0:0:
402,192,74822,1,0,0:0:0:0:
182,192,75053,1,0,0:0:0:0:
329,192,75284,1,0,0:0:0:0:
109,192,75515,1,0,0:0:0:0:
36,192,75746,1,0,0:0:0:0:
475,192,75746,1,0,0:0:0:0:
182,192,75976,1,0,0:0:0:0:
36,192,76207,1,0,0:0:0:0:
256,192,76438,1,0,0:0:0:0:
109,192,76669,1,0,0:0:0:0:
329,192,76899,1,0,0:0:0:0:
182,192,77130,1,0,0:0:0:0:
402,192,77361,1,0,0:0:0:0:
475,192,77592,1,0,0:0:0:0:
182,192,77822,1,0,0:0:0:0:
36,192,78053,1,0,0:0:0:0:
256,192,78284,1,0,0:0:0:0:
109,192,78515,1,0,0:0:0:0:
475,192,78515,128,0,79438:0:0:0:0:
329,192,78746,1,0,0:0:0:0:
182,192,78976,1,0,0:0:0:0:
402,192,79207,1,0,0:0:0:0:
256,192,79438,1,0,0:0:0:0:
36,192,79438,1,0,0:0:0:0:
256,192,80361,1,0,0:0:0:0:
256,192,81284,1,0,0:0:0:0:
109,192,82207,1,0,0:0:0:0:
36,192,82669,1,0,0:0:0:0:
256,192,83130,1,0,0:0:0:0:
475,192,83130,1,0,0:0:0:0:
256,192,84053,1,0,0:0:0:0:
256,192,84976,1,0,0:0:0:0:
402,192,85899,1,0,0:0:0:0:
475,192,86361,1,0,0:0:0:0:
182,192,86822,1,0,0:0:0:0:
36,192,86822,1,0,0:0:0:0:
182,192,87053,1,0,0:0:0:0:
329,192,87284,1,0,0:0:0:0:
329,192,87515,1,0,0:0:0:0:
182,192,87746,1,0,0:0:0:0:
182,192,87976,1,0,0:0:0:0:
329,192,88207,1,0,0:0:0:0:
329,192,88438,1,0,0:0:0:0:
256,192,88553,1,0,0:0:0:0:
109,192,88669,1,0,0:0:0:0:
109,192,88899,1,0,0:0:0:0:
402,192,89130,1,0,0:0:0:0:
402,192,89361,1,0,0:0:0:0:
109,192,89592,1,0,0:0:0:0:
109,192,89822,1,0,0:0:0:0:
402,192,90053,1,0,0:0:0:0:
402,192,90284,1,0,0:0:0:0:
182,192,90399,1,0,0:0:0:0:
36,192,90515,128,0,91438:0:0:0:0:
256,192,90515,1,0,0:0:0:0:
329,192,90746,1,0,0:0:0:0:
329,192,90976,1,0,0:0:0:0:
182,192,91207,1,0,0:0:0:0:
329,192,91322,1,0,0:0:0:0:
475,192,91438,128,0,92361:0:0:0:0:
256,192,91438,1,0,0:0:0:0:
182,192,91669,1,0,0:0:0:0:
182,192,91899,1,0,0:0:0:0:
329,192,92130,1,0,0:0:0:0:
182,192,92246,1,0,0:0:0:0:
36,192,92361,128,0,92592:0:0:0:0:
182,192,92592,128,0,92822:0:0:0:0:
329,192,92822,128,0,93053:0:0:0:0:
475,192,93053,128,0,93284:0:0:0:0:
36,192,93284,1,0,0:0:0:0:
182,192,93284,1,0,0:0:0:0:
256,192,94207,128,0,95592:0:0:0:0:
36,192,96053,1,0,0:0:0:0:
475,192,96053,1,0,0:0:0:0:
182,192,96284,1,0,0:0:0:0:
182,192,96515,1,0,0:0:0:0:
329,192,96746,1,0,0:0:0:0:
182,192,96861,1,0,0:0:0:0:
109,192,97092,1,0,0:0:0:0:
256,192,97207,1,0,0:0:0:0:
402,192,97438,1,0,0:0:0:0:
256,192,97669,1,0,0:0:0:0:
109,192,97784,1,0,0:0:0:0:
36,192,97899,1,0,0:0:0:0:
256,192,98130,1,0,0:0:0:0:
256,192,98361,1,0,0:0:0:0:
402,192,98592,1,0,0:0:0:0:
109,192,98707,1,0,0:0:0:0:
475,192,98938,1,0,0:0:0:0:
329,192,99053,1,0,0:0:0:0:
182,192,99169,1,0,0:0:0:0:
36,192,99284,1,0,0:0:0:0:
256,192,99515,1,0,0:0:0:0:
402,192,99630,1,0,0:0:0:0:
109,192,99746,1,0,0:0:0:0:
182,192,99976,1,0,0:0:0:0:
182,192,100207,1,0,0:0:0:0:
329,192,100438,1,0,0:0:0:0:
182,192,100553,1,0,0:0:0:0:
109,192,100784,1,0,0:0:0:0:
256,192,100899,1,0,0:0:0:0:
402,192,101130,1,0,0:0:0:0:
256,192,101361,1,0,0:0:0:0:
109,192,101476,1,0,0:0:0:0:
36,192,101592,1,0,0:0:0:0:
256,192,101822,1,0,0:0:0:0:
256,192,102053,1,0,0:0:0:0:
402,192,102284,1,0,0:0:0:0:
109,192,102399,1,0,0:0:0:0:
475,192,102630,1,0,0:0:0:0:
402,192,102746,1,0,0:0:0:0:
256,192,102861,1,0,0:0:0:0:
182,192,102976,1,0,0:0:0:0:
329,192,103207,1,0,0:0:0:0:
182,192,103322,1,0,0:0:0:0:
475,192,103438,1,0,0:0:0:0:
36,192,103438,1,0,0:0:0:0:
329,192,103669,1,0,0:0:0:0:
329,192,103899,1,0,0:0:0:0:
182,192,104130,1,0,0:0:0:0:
329,192,104246,1,0,0:0:0:0:
402,192,104476,1,0,0:0:0:0:
256,192,104592,1,0,0:0:0:0:
109,192,104822,1,0,0:0:0:0:
256,192,105053,1,0,0:0:0:0:
402,192,105169,1,0,0:0:0:0:
475,192,105284,1,0,0:0:0:0:
256,192,105515,1,0,0:0:0:0:
256,192,105746,1,0,0:0:0:0:
109,192,105976,1,0,0:0:0:0:
402,192,106092,1,0,0:0:0:0:
36,192,106322,1,0,0:0:0:0:
182,192,106438,1,0,0:0:0:0:
329,192,106553,1,0,0:0:0:0:
475,192,106669,1,0,0:0:0:0:
256,192,106899,1,0,0:0:0:0:
109,192,107015,1,0,0:0:0:0:
402,192,107130,1,0,0:0:0:0:
329,192,107361,1,0,0:0:0:0:
329,192,107592,1,0,0:0:0:0:
182,192,107822,1,0,0:0:0:0:
329,192,107938,1,0,0:0:0:0:
402,192,108169,1,0,0:0:0:0:
256,192,108284,1,0,0:0:0:0:
109,192,108515,1,0,0:0:0:0:
256,192,108746,1,0,0:0:0:0:
402,192,108861,1,0,0:0:0:0:
475,192,108976,1,0,0:0:0:0:
256,192,109207,1,0,0:0:0:0:
256,192,109438,1,0,0:0:0:0:
109,192,109669,1,0,0:0:0:0:
402,192,109784,1,0,0:0:0:0:
36,192,110015,1,0,0:0:0:0:
109,192,110130,1,0,0:0:0:0:
256,192,110246,1,0,0:0:0:0:
329,192,110361,1,0,0:0:0:0:
256,192,110592,128,0,110822:0:0:0:0:
109,192,110822,1,0,0:0:0:0:
109,192,111053,1,0,0:0:0:0:
109,192,111284,1,0,0:0:0:0:
402,192,111515,1,0,0:0:0:0:
36,192,111746,1,0,0:0:0:0:
256,192,111746,1,0,0:0:0:0:
109,192,111976,1,0,0:0:0:0:
182,192,112207,1,0,0:0:0:0:
329,192,112322,1,0,0:0:0:0:
402,192,112553,1,0,0:0:0:0:
109,192,112669,1,0,0:0:0:0:
256,192,112899,1,0,0:0:0:0:
329,192,113130,1,0,0:0:0:0:
475,192,113246,1,0,0:0:0:0:
402,192,113476,1,0,0:0:0:0:
109,192,113592,1,0,0:0:0:0:
329,192,113822,1,0,0:0:0:0:
182,192,114053,1,0,0:0:0:0:
36,192,114169,1,0,0:0:0:0:
109,192,114399,1,0,0:0:0:0:
402,192,114515,1,0,0:0:0:0:
182,192,114746,1,0,0:0:0:0:
475,192,114976,1,0,0:0:0:0:
402,192,115149,1,0,0:0:0:0:
329,192,115322,1,0,0:0:0:0:
182,192,115438,1,0,0:0:0:0:
36,192,115669,1,0,0:0:0:0:
256,192,115899,1,0,0:0:0:0:
402,192,116015,1,0,0:0:0:0:
475,192,116246,1,0,0:0:0:0:
36,192,116361,1,0,0:0:0:0:
182,192,116592,1,0,0:0:0:0:
329,192,116822,1,0,0:0:0:0:
475,192,117053,1,0,0:0:0:0:
475,192,117284,1,0,0:0:0:0:
109,192,117515,1,0,0:0:0:0:
329,192,117746,1,0,0:0:0:0:
475,192,117919,1,0,0:0:0:0:
182,192,118092,1,0,0:0:0:0:
36,192,118207,1,0,0:0:0:0:
256,192,118553,1,0,0:0:0:0:
402,192,118899,1,0,0:0:0:0:
182,192,119130,1,0,0:0:0:0:
475,192,119130,1,0,0:0:0:0:
36,192,119361,1,0,0:0:0:0:
182,192,119592,1,0,0:0:0:0:
329,192,119707,1,0,0:0:0:0:
402,192,119938,1,0,0:0:0:0:
109,192,120053,1,0,0:0:0:0:
256,192,120284,1,0,0:0:0:0:
329,192,120515,1,0,0:0:0:0:
475,192,120630,1,0,0:0:0:0:
402,192,120861,1,0,0:0:0:0:
109,192,120976,1,0,0:0:0:0:
329,192,121207,1,0,0:0:0:0:
36,192,121438,1,0,0:0:0:0:
182,192,121553,1,0,0:0:0:0:
256,192,121784,1,0,0:0:0:0:
109,192,121899,1,0,0:0:0:0:
475,192,122130,1,0,0:0:0:0:
329,192,122361,1,0,0:0:0:0:
182,192,122592,1,0,0:0:0:0:
36,192,122822,1,0,0:0:0:0:
402,192,123053,1,0,0:0:0:0:
109,192,123284,1,0,0:0:0:0:
256,192,123399,1,0,0:0:0:0:
329,192,123630,1,0,0:0:0:0:
475,192,123746,1,0,0:0:0:0:
36,192,123976,1,0,0:0:0:0:
182,192,124207,1,0,0:0:0:0:
329,192,124438,1,0,0:0:0:0:
109,192,124669,1,0,0:0:0:0:
475,192,124669,128,0,124899:0:0:0:0:
182,192,125130,1,0,0:0:0:0:
36,192,125130,1,0,0:0:0:0:
329,192,125592,1,0,0:0:0:0:
475,192,125592,1,0,0:0:0:0:
182,192,126053,1,0,0:0:0:0:
36,192,126053,1,0,0:0:0:0:
329,192,126515,1,0,0:0:0:0:
36,192,126515,128,0,126746:0:0:0:0:
329,192,126746,1,0,0:0:0:0:
109,192,126976,1,0,0:0:0:0:
402,192,126976,1,0,0:0:0:0:
182,192,127207,1,0,0:0:0:0:
36,192,127438,1,0,0:0:0:0:
256,192,127438,128,0,128361:0:0:0:0:
329,192,128361,1,0,0:0:0:0:
475,192,128361,1,0,0:0:0:0:
402,192,128822,1,0,0:0:0:0:
109,192,129284,1,0,0:0:0:0:
402,192,130207,1,0,0:0:0:0:
402,192,130669,1,0,0:0:0:0:
109,192,131130,1,0,0:0:0:0:
256,192,131246,1,0,0:0:0:0:
109,192,131476,1,0,0:0:0:0:
475,192,132053,1,0,0:0:0:0:
329,192,132053,1,0,0:0:0:0:
402,192,132515,1,0,0:0:0:0:
109,192,132976,1,0,0:0:0:0:
329,192,133899,1,0,0:0:0:0:
475,192,133899,1,0,0:0:0:0:
109,192,134130,1,0,0:0:0:0:
109,192,134361,1,0,0:0:0:0:
109,192,134592,1,0,0:0:0:0:
402,192,134822,1,0,0:0:0:0:
402,192,135053,1,0,0:0:0:0:
402,192,135284,1,0,0:0:0:0:
182,192,135746,1,0,0:0:0:0:
36,192,135746,1,0,0:0:0:0:
256,192,136669,128,0,137592:0:0:0:0:
36,192,137592,128,0,137707:0:0:0:0:
475,192,137822,128,0,137938:0:0:0:0:
109,192,138053,128,0,138169:0:0:0:0:
402,192,138169,128,0,138284:0:0:0:0:
256,192,138284,128,0,138515:0:0:0:0:
475,192,138515,1,0,0:0:0:0:
36,192,138515,1,0,0:0:0:0:
