osu file format v14

[General]
AudioFilename: audio.ogg
AudioLeadIn: 0
PreviewTime: 110822
Countdown: 0
SampleSet: Normal
StackLeniency: 0.7
Mode: 3
LetterboxInBreaks: 0
SpecialStyle: 0
WidescreenStoryboard: 1

[Editor]
Bookmarks: 16668,24052,31437,38822,46206,53591,60975,62822,77591,84975,94206,109899,126514
DistanceSpacing: 1
BeatDivisor: 2
GridSize: 4
TimelineZoom: 1.5

[Metadata]
Title:Exitium
TitleUnicode:Exitium
Artist:Laur
ArtistUnicode:Laur
Creator:tyrcs
Version:Hard
Source:WACCA
Tags:WACCA ワッカ Electronic Metal Rock Speedcore HARDCORE TANO*C instrumental Last Labyrinth Collapse m3-2021 LLCD-003
BeatmapID:3423805
BeatmapSetID:1675996

[Difficulty]
HPDrainRate:7.5
CircleSize:7
OverallDifficulty:7.5
ApproachRate:5
SliderMultiplier:1.4
SliderTickRate:1

[Events]
//Background and Video events
0,0,"Exitium.jpg",0,0
//Break Periods
//Storyboard Layer 0 (Background)
//Storyboard Layer 1 (Fail)
//Storyboard Layer 2 (Pass)
//Storyboard Layer 3 (Foreground)
//Storyboard Layer 4 (Overlay)
//Storyboard Sound Samples

[TimingPoints]
3746,230.769230769231,4,1,1,20,1,0
11130,-100,4,1,1,25,0,0
16669,-100,4,1,1,15,0,0
18515,-100,4,1,1,40,0,1
33284,-100,4,1,1,25,0,0
40669,-100,4,1,1,40,0,1
42053,-100,4,1,1,15,0,0
42515,-100,4,1,1,40,0,1
43899,-100,4,1,1,15,0,0
44361,-100,4,1,1,40,0,1
45746,-100,4,1,1,15,0,0
46207,-100,4,1,1,40,0,1
47130,-100,4,1,1,15,0,0
48053,-100,4,1,1,20,0,0
55438,-100,4,1,1,25,0,0
62822,-100,4,1,1,10,0,0
64669,-100,4,1,1,20,0,0
79438,-100,4,1,1,25,0,0
86822,-100,4,1,1,30,0,1
93284,-100,4,1,1,20,0,0
94207,-100,4,1,1,40,0,1
95592,-100,4,1,1,25,0,0
96053,-100,4,1,1,40,0,1
110822,-100,4,1,1,25,0,0
111746,-100,4,1,1,40,0,1
128361,-100,4,1,1,25,0,0
136669,-100,4,1,1,40,0,1
138515,-100,4,1,1,40,0,0

[HitObjects]
256,192,1899,5,0,0:0:0:0:
402,192,1899,1,0,0:0:0:0:
109,192,1899,1,0,0:0:0:0:
109,192,2130,1,0,0:0:0:0:
402,192,2130,1,0,0:0:0:0:
109,192,2361,1,0,0:0:0:0:
402,192,2361,1,0,0:0:0:0:
109,192,3053,1,0,0:0:0:0:
402,192,3053,1,0,0:0:0:0:
256,192,3515,1,0,0:0:0:0:
329,192,3746,1,0,0:0:0:0:
475,192,3746,1,0,0:0:0:0:
36,192,3746,128,0,3861:0:0:0:0:
475,192,3976,128,0,4092:0:0:0:0:
402,192,4207,128,0,4322:0:0:0:0:
329,192,4438,128,0,4553:0:0:0:0:
182,192,4669,128,0,4784:0:0:0:0:
402,192,4899,128,0,5015:0:0:0:0:
256,192,5015,128,0,5130:0:0:0:0:
109,192,5130,128,0,5246:0:0:0:0:
256,192,5361,128,0,5476:0:0:0:0:
475,192,5592,128,0,5707:0:0:0:0:
182,192,5592,1,0,0:0:0:0:
36,192,5592,1,0,0:0:0:0:
36,192,5822,128,0,5938:0:0:0:0:
109,192,6053,128,0,6169:0:0:0:0:
182,192,6284,128,0,6399:0:0:0:0:
329,192,6515,128,0,6630:0:0:0:0:
109,192,6746,128,0,6861:0:0:0:0:
256,192,6861,128,0,6976:0:0:0:0:
402,192,6976,128,0,7092:0:0:0:0:
182,192,7207,128,0,7322:0:0:0:0:
329,192,7438,1,0,0:0:0:0:
475,192,7438,1,0,0:0:0:0:
36,192,7438,128,0,7553:0:0:0:0:
475,192,7669,128,0,7784:0:0:0:0:
402,192,7899,128,0,8015:0:0:0:0:
329,192,8130,128,0,8246:0:0:0:0:
182,192,8361,128,0,8476:0:0:0:0:
402,192,8592,128,0,8707:0:0:0:0:
256,192,8707,128,0,8822:0:0:0:0:
109,192,8822,128,0,8938:0:0:0:0:
256,192,9053,128,0,9169:0:0:0:0:
256,192,9284,128,0,9399:0:0:0:0:
402,192,9284,1,0,0:0:0:0:
475,192,9284,1,0,0:0:0:0:
36,192,9515,128,0,9630:0:0:0:0:
109,192,9746,128,0,9861:0:0:0:0:
182,192,9861,128,0,9976:0:0:0:0:
402,192,9976,128,0,10092:0:0:0:0:
329,192,10092,128,0,10207:0:0:0:0:
36,192,10207,1,0,0:0:0:0:
109,192,10207,1,0,0:0:0:0:
256,192,10207,128,0,10322:0:0:0:0:
402,192,10438,128,0,10553:0:0:0:0:
329,192,10553,128,0,10669:0:0:0:0:
36,192,10669,1,0,0:0:0:0:
475,192,10669,1,0,0:0:0:0:
182,192,10784,128,0,10899:0:0:0:0:
109,192,10899,128,0,11015:0:0:0:0:
402,192,11130,1,0,0:0:0:0:
475,192,11130,1,0,0:0:0:0:
256,192,11130,1,0,0:0:0:0:
109,192,11361,1,0,0:0:0:0:
402,192,11476,1,0,0:0:0:0:
402,192,11707,1,0,0:0:0:0:
256,192,11822,1,0,0:0:0:0:
109,192,11822,1,0,0:0:0:0:
36,192,12053,1,0,0:0:0:0:
329,192,12053,1,0,0:0:0:0:
402,192,12284,1,0,0:0:0:0:
109,192,12284,1,0,0:0:0:0:
182,192,12515,1,0,0:0:0:0:
475,192,12515,1,0,0:0:0:0:
329,192,12746,1,0,0:0:0:0:
36,192,12861,1,0,0:0:0:0:
329,192,12976,1,0,0:0:0:0:
475,192,12976,1,0,0:0:0:0:
109,192,13207,1,0,0:0:0:0:
402,192,13322,1,0,0:0:0:0:
402,192,13553,1,0,0:0:0:0:
109,192,13669,1,0,0:0:0:0:
256,192,13669,1,0,0:0:0:0:
36,192,13899,1,0,0:0:0:0:
329,192,13899,1,0,0:0:0:0:
109,192,14130,1,0,0:0:0:0:
402,192,14130,1,0,0:0:0:0:
182,192,14246,1,0,0:0:0:0:
329,192,14361,1,0,0:0:0:0:
475,192,14361,1,0,0:0:0:0:
256,192,14592,1,0,0:0:0:0:
36,192,14669,1,0,0:0:0:0:
182,192,14746,1,0,0:0:0:0:
329,192,14822,1,0,0:0:0:0:
475,192,14822,1,0,0:0:0:0:
109,192,15053,1,0,0:0:0:0:
402,192,15169,1,0,0:0:0:0:
36,192,15284,1,0,0:0:0:0:
402,192,15399,1,0,0:0:0:0:
256,192,15515,1,0,0:0:0:0:
109,192,15515,1,0,0:0:0:0:
475,192,15746,1,0,0:0:0:0:
329,192,15746,1,0,0:0:0:0:
109,192,15976,1,0,0:0:0:0:
475,192,15976,1,0,0:0:0:0:
256,192,16092,1,0,0:0:0:0:
402,192,16207,1,0,0:0:0:0:
36,192,16207,1,0,0:0:0:0:
182,192,16438,1,0,0:0:0:0:
36,192,16438,1,0,0:0:0:0:
475,192,16669,1,0,0:0:0:0:
329,192,16669,1,0,0:0:0:0:
402,192,16669,1,0,0:0:0:0:
36,192,16899,1,0,0:0:0:0:
182,192,17130,1,0,0:0:0:0:
256,192,17246,1,0,0:0:0:0:
475,192,17361,1,0,0:0:0:0:
402,192,17476,1,0,0:0:0:0:
182,192,17592,1,0,0:0:0:0:
36,192,17592,1,0,0:0:0:0:
475,192,17822,1,0,0:0:0:0:
182,192,17822,1,0,0:0:0:0:
402,192,17938,1,0,0:0:0:0:
109,192,18053,1,0,0:0:0:0:
329,192,18169,1,0,0:0:0:0:
36,192,18284,1,0,0:0:0:0:
182,192,18284,1,0,0:0:0:0:
475,192,18515,1,0,0:0:0:0:
256,192,18515,1,0,0:0:0:0:
36,192,18630,1,0,0:0:0:0:
329,192,18746,1,0,0:0:0:0:
109,192,18861,1,0,0:0:0:0:
402,192,18976,1,0,0:0:0:0:
182,192,19092,1,0,0:0:0:0:
475,192,19207,1,0,0:0:0:0:
256,192,19322,1,0,0:0:0:0:
36,192,19438,128,0,19553:0:0:0:0:
329,192,19438,1,0,0:0:0:0:
109,192,19669,128,0,19784:0:0:0:0:
402,192,19669,1,0,0:0:0:0:
329,192,19784,1,0,0:0:0:0:
182,192,19899,128,0,20015:0:0:0:0:
475,192,19899,1,0,0:0:0:0:
329,192,20015,128,0,20130:0:0:0:0:
182,192,20130,128,0,20246:0:0:0:0:
36,192,20130,1,0,0:0:0:0:
329,192,20361,1,0,0:0:0:0:
475,192,20361,1,0,0:0:0:0:
182,192,20592,1,0,0:0:0:0:
36,192,20592,1,0,0:0:0:0:
402,192,20822,1,0,0:0:0:0:
256,192,20822,1,0,0:0:0:0:
256,192,21053,1,0,0:0:0:0:
109,192,21053,1,0,0:0:0:0:
36,192,21169,1,0,0:0:0:0:
329,192,21284,1,0,0:0:0:0:
475,192,21284,1,0,0:0:0:0:
109,192,21515,1,0,0:0:0:0:
256,192,21515,128,0,21630:0:0:0:0:
402,192,21630,1,0,0:0:0:0:
329,192,21746,128,0,21861:0:0:0:0:
36,192,21746,1,0,0:0:0:0:
182,192,21861,128,0,21976:0:0:0:0:
402,192,21976,1,0,0:0:0:0:
256,192,22207,1,0,0:0:0:0:
475,192,22322,1,0,0:0:0:0:
182,192,22438,1,0,0:0:0:0:
402,192,22553,1,0,0:0:0:0:
109,192,22669,1,0,0:0:0:0:
329,192,22784,1,0,0:0:0:0:
36,192,22899,1,0,0:0:0:0:
256,192,23015,1,0,0:0:0:0:
475,192,23130,128,0,23246:0:0:0:0:
182,192,23130,1,0,0:0:0:0:
402,192,23361,128,0,23476:0:0:0:0:
109,192,23361,1,0,0:0:0:0:
182,192,23476,1,0,0:0:0:0:
329,192,23592,128,0,23707:0:0:0:0:
36,192,23592,1,0,0:0:0:0:
182,192,23707,128,0,23822:0:0:0:0:
329,192,23822,128,0,23938:0:0:0:0:
475,192,23822,1,0,0:0:0:0:
182,192,24053,1,0,0:0:0:0:
36,192,24053,1,0,0:0:0:0:
329,192,24284,1,0,0:0:0:0:
475,192,24284,1,0,0:0:0:0:
36,192,24515,1,0,0:0:0:0:
109,192,24515,1,0,0:0:0:0:
256,192,24630,1,0,0:0:0:0:
402,192,24746,1,0,0:0:0:0:
475,192,24746,128,0,24861:0:0:0:0:
256,192,24861,1,0,0:0:0:0:
182,192,24976,1,0,0:0:0:0:
36,192,24976,1,0,0:0:0:0:
475,192,25207,1,0,0:0:0:0:
182,192,25284,1,0,0:0:0:0:
329,192,25361,1,0,0:0:0:0:
36,192,25438,1,0,0:0:0:0:
109,192,25553,1,0,0:0:0:0:
256,192,25669,1,0,0:0:0:0:
402,192,25899,1,0,0:0:0:0:
475,192,25899,1,0,0:0:0:0:
36,192,26015,1,0,0:0:0:0:
256,192,26130,1,0,0:0:0:0:
109,192,26246,1,0,0:0:0:0:
329,192,26361,1,0,0:0:0:0:
36,192,26476,1,0,0:0:0:0:
256,192,26592,1,0,0:0:0:0:
109,192,26707,1,0,0:0:0:0:
329,192,26822,128,0,26938:0:0:0:0:
475,192,26822,1,0,0:0:0:0:
182,192,26938,1,0,0:0:0:0:
36,192,27053,1,0,0:0:0:0:
109,192,27169,1,0,0:0:0:0:
256,192,27284,1,0,0:0:0:0:
329,192,27399,128,0,27515:0:0:0:0:
475,192,27399,1,0,0:0:0:0:
182,192,27515,1,0,0:0:0:0:
109,192,27746,1,0,0:0:0:0:
475,192,27861,1,0,0:0:0:0:
256,192,27976,1,0,0:0:0:0:
402,192,28092,1,0,0:0:0:0:
182,192,28207,1,0,0:0:0:0:
475,192,28322,1,0,0:0:0:0:
256,192,28438,1,0,0:0:0:0:
402,192,28553,1,0,0:0:0:0:
182,192,28669,128,0,28784:0:0:0:0:
36,192,28669,1,0,0:0:0:0:
329,192,28784,1,0,0:0:0:0:
475,192,28899,1,0,0:0:0:0:
402,192,29015,1,0,0:0:0:0:
109,192,29130,1,0,0:0:0:0:
329,192,29207,1,0,0:0:0:0:
182,192,29284,1,0,0:0:0:0:
402,192,29361,1,0,0:0:0:0:
109,192,29438,1,0,0:0:0:0:
329,192,29515,1,0,0:0:0:0:
36,192,29592,1,0,0:0:0:0:
475,192,29592,1,0,0:0:0:0:
182,192,29707,1,0,0:0:0:0:
329,192,29822,1,0,0:0:0:0:
36,192,29938,1,0,0:0:0:0:
475,192,30053,1,0,0:0:0:0:
182,192,30169,1,0,0:0:0:0:
329,192,30284,1,0,0:0:0:0:
36,192,30399,1,0,0:0:0:0:
256,192,30515,128,0,30630:0:0:0:0:
475,192,30515,1,0,0:0:0:0:
36,192,30630,1,0,0:0:0:0:
402,192,30746,1,0,0:0:0:0:
256,192,30861,1,0,0:0:0:0:
109,192,30976,1,0,0:0:0:0:
256,192,31092,128,0,31207:0:0:0:0:
475,192,31092,1,0,0:0:0:0:
36,192,31207,1,0,0:0:0:0:
329,192,31438,128,0,31899:0:0:0:0:
36,192,31438,1,0,0:0:0:0:
109,192,31438,1,0,0:0:0:0:
182,192,31669,1,0,0:0:0:0:
182,192,31899,128,0,32361:0:0:0:0:
402,192,31899,1,0,0:0:0:0:
475,192,31899,1,0,0:0:0:0:
329,192,32130,1,0,0:0:0:0:
36,192,32361,1,0,0:0:0:0:
475,192,32361,1,0,0:0:0:0:
329,192,32361,1,0,0:0:0:0:
36,192,32592,1,0,0:0:0:0:
329,192,32669,1,0,0:0:0:0:
182,192,32746,1,0,0:0:0:0:
475,192,32822,1,0,0:0:0:0:
402,192,32938,1,0,0:0:0:0:
256,192,33053,1,0,0:0:0:0:
182,192,33284,1,0,0:0:0:0:
475,192,33284,1,0,0:0:0:0:
36,192,33284,1,0,0:0:0:0:
329,192,33399,1,0,0:0:0:0:
475,192,33515,1,0,0:0:0:0:
475,192,33746,1,0,0:0:0:0:
329,192,33861,1,0,0:0:0:0:
475,192,33976,1,0,0:0:0:0:
36,192,34207,1,0,0:0:0:0:
182,192,34207,1,0,0:0:0:0:
402,192,34669,1,0,0:0:0:0:
402,192,34899,1,0,0:0:0:0:
109,192,35015,1,0,0:0:0:0:
475,192,35130,1,0,0:0:0:0:
329,192,35246,1,0,0:0:0:0:
475,192,35361,1,0,0:0:0:0:
475,192,35592,1,0,0:0:0:0:
329,192,35707,1,0,0:0:0:0:
475,192,35822,1,0,0:0:0:0:
329,192,35938,1,0,0:0:0:0:
182,192,36053,1,0,0:0:0:0:
36,192,36053,1,0,0:0:0:0:
256,192,36169,1,0,0:0:0:0:
402,192,36169,1,0,0:0:0:0:
256,192,36399,1,0,0:0:0:0:
402,192,36399,1,0,0:0:0:0:
109,192,36515,1,0,0:0:0:0:
402,192,36630,1,0,0:0:0:0:
109,192,36746,1,0,0:0:0:0:
475,192,36976,1,0,0:0:0:0:
36,192,36976,1,0,0:0:0:0:
329,192,37092,1,0,0:0:0:0:
475,192,37207,1,0,0:0:0:0:
475,192,37438,1,0,0:0:0:0:
329,192,37553,1,0,0:0:0:0:
475,192,37669,1,0,0:0:0:0:
36,192,37899,1,0,0:0:0:0:
182,192,37899,1,0,0:0:0:0:
402,192,38361,1,0,0:0:0:0:
402,192,38592,1,0,0:0:0:0:
109,192,38707,1,0,0:0:0:0:
475,192,38822,1,0,0:0:0:0:
329,192,38938,1,0,0:0:0:0:
475,192,39053,1,0,0:0:0:0:
475,192,39284,1,0,0:0:0:0:
329,192,39399,1,0,0:0:0:0:
475,192,39515,1,0,0:0:0:0:
329,192,39630,1,0,0:0:0:0:
182,192,39746,1,0,0:0:0:0:
36,192,39746,1,0,0:0:0:0:
182,192,40092,1,0,0:0:0:0:
329,192,40092,1,0,0:0:0:0:
402,192,40207,1,0,0:0:0:0:
109,192,40322,1,0,0:0:0:0:
402,192,40438,1,0,0:0:0:0:
109,192,40553,1,0,0:0:0:0:
329,192,40669,1,0,0:0:0:0:
36,192,40669,1,0,0:0:0:0:
475,192,40726,1,0,0:0:0:0:
182,192,40842,1,0,0:0:0:0:
475,192,40957,1,0,0:0:0:0:
182,192,41072,1,0,0:0:0:0:
475,192,41188,1,0,0:0:0:0:
182,192,41303,1,0,0:0:0:0:
475,192,41419,1,0,0:0:0:0:
182,192,41534,1,0,0:0:0:0:
475,192,41649,1,0,0:0:0:0:
182,192,41765,1,0,0:0:0:0:
475,192,41880,1,0,0:0:0:0:
182,192,41996,1,0,0:0:0:0:
329,192,42053,1,0,0:0:0:0:
256,192,42515,1,0,0:0:0:0:
402,192,42572,1,0,0:0:0:0:
109,192,42688,1,0,0:0:0:0:
402,192,42803,1,0,0:0:0:0:
109,192,42919,1,0,0:0:0:0:
402,192,43034,1,0,0:0:0:0:
109,192,43149,1,0,0:0:0:0:
402,192,43265,1,0,0:0:0:0:
109,192,43380,1,0,0:0:0:0:
402,192,43496,1,0,0:0:0:0:
109,192,43611,1,0,0:0:0:0:
402,192,43726,1,0,0:0:0:0:
109,192,43842,1,0,0:0:0:0:
256,192,44130,1,0,0:0:0:0:
475,192,44361,1,0,0:0:0:0:
182,192,44361,1,0,0:0:0:0:
36,192,44419,1,0,0:0:0:0:
329,192,44534,1,0,0:0:0:0:
36,192,44649,1,0,0:0:0:0:
329,192,44765,1,0,0:0:0:0:
36,192,44880,1,0,0:0:0:0:
329,192,44996,1,0,0:0:0:0:
36,192,45111,1,0,0:0:0:0:
329,192,45226,1,0,0:0:0:0:
36,192,45342,1,0,0:0:0:0:
329,192,45457,1,0,0:0:0:0:
36,192,45572,1,0,0:0:0:0:
329,192,45688,1,0,0:0:0:0:
182,192,45746,1,0,0:0:0:0:
256,192,46207,1,0,0:0:0:0:
109,192,46207,1,0,0:0:0:0:
402,192,46322,1,0,0:0:0:0:
109,192,46438,1,0,0:0:0:0:
402,192,46553,1,0,0:0:0:0:
109,192,46669,1,0,0:0:0:0:
402,192,46784,1,0,0:0:0:0:
109,192,46899,1,0,0:0:0:0:
402,192,47015,1,0,0:0:0:0:
182,192,47130,1,0,0:0:0:0:
36,192,47130,1,0,0:0:0:0:
329,192,47361,1,0,0:0:0:0:
475,192,47361,1,0,0:0:0:0:
182,192,47592,1,0,0:0:0:0:
36,192,47592,1,0,0:0:0:0:
475,192,47822,1,0,0:0:0:0:
182,192,48053,1,0,0:0:0:0:
329,192,48053,1,0,0:0:0:0:
256,192,48053,1,0,0:0:0:0:
36,192,48284,1,0,0:0:0:0:
182,192,48515,1,0,0:0:0:0:
329,192,48515,1,0,0:0:0:0:
36,192,48746,1,0,0:0:0:0:
109,192,48822,1,0,0:0:0:0:
182,192,48899,1,0,0:0:0:0:
256,192,48976,1,0,0:0:0:0:
402,192,48976,1,0,0:0:0:0:
109,192,49207,1,0,0:0:0:0:
256,192,49438,1,0,0:0:0:0:
402,192,49438,1,0,0:0:0:0:
109,192,49669,1,0,0:0:0:0:
182,192,49746,1,0,0:0:0:0:
256,192,49822,1,0,0:0:0:0:
329,192,49899,1,0,0:0:0:0:
475,192,49899,1,0,0:0:0:0:
36,192,50130,1,0,0:0:0:0:
329,192,50361,1,0,0:0:0:0:
475,192,50361,1,0,0:0:0:0:
475,192,50592,1,0,0:0:0:0:
402,192,50669,1,0,0:0:0:0:
329,192,50746,1,0,0:0:0:0:
182,192,50822,1,0,0:0:0:0:
36,192,50822,1,0,0:0:0:0:
402,192,51053,1,0,0:0:0:0:
329,192,51130,1,0,0:0:0:0:
256,192,51207,1,0,0:0:0:0:
109,192,51284,1,0,0:0:0:0:
36,192,51284,1,0,0:0:0:0:
256,192,51515,1,0,0:0:0:0:
402,192,51746,1,0,0:0:0:0:
475,192,51746,1,0,0:0:0:0:
256,192,51976,1,0,0:0:0:0:
402,192,52053,1,0,0:0:0:0:
329,192,52130,1,0,0:0:0:0:
182,192,52207,1,0,0:0:0:0:
475,192,52438,1,0,0:0:0:0:
402,192,52669,1,0,0:0:0:0:
329,192,52669,1,0,0:0:0:0:
182,192,52899,1,0,0:0:0:0:
329,192,52976,1,0,0:0:0:0:
256,192,53053,1,0,0:0:0:0:
109,192,53130,1,0,0:0:0:0:
402,192,53361,1,0,0:0:0:0:
329,192,53592,1,0,0:0:0:0:
256,192,53592,1,0,0:0:0:0:
109,192,53822,1,0,0:0:0:0:
256,192,53899,1,0,0:0:0:0:
182,192,53976,1,0,0:0:0:0:
36,192,54053,1,0,0:0:0:0:
182,192,54284,1,0,0:0:0:0:
329,192,54515,1,0,0:0:0:0:
475,192,54515,1,0,0:0:0:0:
475,192,54746,1,0,0:0:0:0:
256,192,54976,1,0,0:0:0:0:
182,192,54976,1,0,0:0:0:0:
36,192,54976,1,0,0:0:0:0:
36,192,55207,1,0,0:0:0:0:
36,192,55438,128,0,56361:0:0:0:0:
475,192,55438,1,0,0:0:0:0:
329,192,55438,1,0,0:0:0:0:
182,192,55438,1,0,0:0:0:0:
329,192,55899,1,0,0:0:0:0:
475,192,55899,1,0,0:0:0:0:
182,192,56361,128,0,57284:0:0:0:0:
402,192,56361,1,0,0:0:0:0:
475,192,56361,1,0,0:0:0:0:
256,192,56361,1,0,0:0:0:0:
402,192,56822,1,0,0:0:0:0:
475,192,56822,1,0,0:0:0:0:
329,192,57284,128,0,58207:0:0:0:0:
475,192,57284,1,0,0:0:0:0:
109,192,57284,1,0,0:0:0:0:
36,192,57284,1,0,0:0:0:0:
109,192,57746,1,0,0:0:0:0:
36,192,57746,1,0,0:0:0:0:
475,192,58207,128,0,59130:0:0:0:0:
182,192,58207,1,0,0:0:0:0:
36,192,58207,1,0,0:0:0:0:
402,192,58207,1,0,0:0:0:0:
182,192,58669,1,0,0:0:0:0:
36,192,58669,1,0,0:0:0:0:
36,192,58899,1,0,0:0:0:0:
256,192,59130,1,0,0:0:0:0:
402,192,59130,1,0,0:0:0:0:
36,192,59130,1,0,0:0:0:0:
256,192,59361,1,0,0:0:0:0:
402,192,59361,1,0,0:0:0:0:
329,192,59592,1,0,0:0:0:0:
475,192,59592,1,0,0:0:0:0:
329,192,59822,1,0,0:0:0:0:
475,192,59822,1,0,0:0:0:0:
182,192,60053,1,0,0:0:0:0:
36,192,60053,1,0,0:0:0:0:
402,192,60053,1,0,0:0:0:0:
182,192,60284,1,0,0:0:0:0:
36,192,60284,1,0,0:0:0:0:
256,192,60515,1,0,0:0:0:0:
109,192,60515,1,0,0:0:0:0:
109,192,60746,1,0,0:0:0:0:
256,192,60861,1,0,0:0:0:0:
475,192,60976,1,0,0:0:0:0:
36,192,60976,1,0,0:0:0:0:
402,192,60976,1,0,0:0:0:0:
256,192,61207,128,0,61322:0:0:0:0:
475,192,61207,1,0,0:0:0:0:
36,192,61438,1,0,0:0:0:0:
402,192,61438,1,0,0:0:0:0:
182,192,61553,1,0,0:0:0:0:
329,192,61669,1,0,0:0:0:0:
109,192,61784,1,0,0:0:0:0:
475,192,61899,1,0,0:0:0:0:
329,192,61899,128,0,62015:0:0:0:0:
182,192,62130,128,0,62246:0:0:0:0:
36,192,62130,1,0,0:0:0:0:
36,192,62361,1,0,0:0:0:0:
475,192,62361,1,0,0:0:0:0:
256,192,62361,128,0,62822:0:0:0:0:
109,192,62822,1,0,0:0:0:0:
402,192,62822,1,0,0:0:0:0:
475,192,64669,1,0,0:0:0:0:
36,192,64669,128,0,64784:0:0:0:0:
256,192,64669,1,0,0:0:0:0:
329,192,64899,128,0,65015:0:0:0:0:
475,192,65130,128,0,65246:0:0:0:0:
256,192,65361,128,0,65476:0:0:0:0:
402,192,65592,128,0,65707:0:0:0:0:
182,192,65822,128,0,65938:0:0:0:0:
329,192,66053,128,0,66169:0:0:0:0:
109,192,66284,128,0,66399:0:0:0:0:
36,192,66515,128,0,66630:0:0:0:0:
475,192,66592,1,0,0:0:0:0:
402,192,66669,1,0,0:0:0:0:
329,192,66746,128,0,66861:0:0:0:0:
475,192,66976,128,0,67092:0:0:0:0:
256,192,67207,128,0,67322:0:0:0:0:
402,192,67438,128,0,67553:0:0:0:0:
36,192,67438,1,0,0:0:0:0:
109,192,67515,1,0,0:0:0:0:
182,192,67669,128,0,67784:0:0:0:0:
329,192,67899,128,0,68015:0:0:0:0:
109,192,68130,128,0,68246:0:0:0:0:
36,192,68361,1,0,0:0:0:0:
475,192,68361,128,0,68476:0:0:0:0:
256,192,68361,1,0,0:0:0:0:
182,192,68592,128,0,68707:0:0:0:0:
36,192,68822,128,0,68938:0:0:0:0:
256,192,69053,128,0,69169:0:0:0:0:
109,192,69284,128,0,69399:0:0:0:0:
329,192,69515,128,0,69630:0:0:0:0:
182,192,69746,128,0,69861:0:0:0:0:
402,192,69976,128,0,70092:0:0:0:0:
36,192,70207,1,0,0:0:0:0:
475,192,70207,128,0,70322:0:0:0:0:
256,192,70207,1,0,0:0:0:0:
182,192,70438,128,0,70553:0:0:0:0:
36,192,70669,128,0,70784:0:0:0:0:
256,192,70899,128,0,71015:0:0:0:0:
109,192,71130,128,0,71246:0:0:0:0:
475,192,71130,1,0,0:0:0:0:
402,192,71207,1,0,0:0:0:0:
329,192,71361,128,0,71476:0:0:0:0:
182,192,71592,128,0,71707:0:0:0:0:
402,192,71822,128,0,71938:0:0:0:0:
109,192,71822,1,0,0:0:0:0:
36,192,72053,128,0,72169:0:0:0:0:
182,192,72053,1,0,0:0:0:0:
475,192,72053,1,0,0:0:0:0:
402,192,72284,128,0,72399:0:0:0:0:
475,192,72515,128,0,72630:0:0:0:0:
329,192,72746,128,0,72861:0:0:0:0:
402,192,72976,128,0,73092:0:0:0:0:
256,192,73207,128,0,73322:0:0:0:0:
329,192,73438,128,0,73553:0:0:0:0:
182,192,73669,128,0,73784:0:0:0:0:
36,192,73899,128,0,74015:0:0:0:0:
402,192,74130,128,0,74246:0:0:0:0:
475,192,74361,128,0,74476:0:0:0:0:
329,192,74592,128,0,74707:0:0:0:0:
402,192,74822,128,0,74938:0:0:0:0:
256,192,75053,128,0,75169:0:0:0:0:
329,192,75284,128,0,75399:0:0:0:0:
36,192,75284,1,0,0:0:0:0:
182,192,75515,128,0,75630:0:0:0:0:
36,192,75515,1,0,0:0:0:0:
475,192,75746,128,0,75861:0:0:0:0:
329,192,75746,1,0,0:0:0:0:
36,192,75746,1,0,0:0:0:0:
109,192,75976,128,0,76092:0:0:0:0:
36,192,76207,128,0,76322:0:0:0:0:
182,192,76438,128,0,76553:0:0:0:0:
109,192,76669,128,0,76784:0:0:0:0:
256,192,76899,128,0,77015:0:0:0:0:
182,192,77130,128,0,77246:0:0:0:0:
329,192,77361,128,0,77476:0:0:0:0:
475,192,77592,128,0,77707:0:0:0:0:
256,192,77592,1,0,0:0:0:0:
109,192,77822,128,0,77938:0:0:0:0:
256,192,77822,1,0,0:0:0:0:
36,192,78053,128,0,78169:0:0:0:0:
256,192,78053,1,0,0:0:0:0:
182,192,78284,128,0,78399:0:0:0:0:
109,192,78515,128,0,78630:0:0:0:0:
256,192,78515,128,0,79438:0:0:0:0:
329,192,78746,128,0,78861:0:0:0:0:
475,192,78746,1,0,0:0:0:0:
182,192,78976,128,0,79092:0:0:0:0:
402,192,79207,128,0,79322:0:0:0:0:
329,192,79438,1,0,0:0:0:0:
36,192,79438,1,0,0:0:0:0:
475,192,79438,1,0,0:0:0:0:
109,192,79669,1,0,0:0:0:0:
109,192,79899,1,0,0:0:0:0:
182,192,80130,1,0,0:0:0:0:
109,192,80246,1,0,0:0:0:0:
109,192,80476,1,0,0:0:0:0:
182,192,80592,1,0,0:0:0:0:
329,192,80822,1,0,0:0:0:0:
182,192,81053,1,0,0:0:0:0:
109,192,81169,1,0,0:0:0:0:
36,192,81284,1,0,0:0:0:0:
109,192,81515,1,0,0:0:0:0:
109,192,81746,1,0,0:0:0:0:
182,192,81976,1,0,0:0:0:0:
109,192,82092,1,0,0:0:0:0:
402,192,82322,1,0,0:0:0:0:
329,192,82438,1,0,0:0:0:0:
182,192,82669,1,0,0:0:0:0:
256,192,82899,1,0,0:0:0:0:
329,192,83015,1,0,0:0:0:0:
36,192,83130,1,0,0:0:0:0:
182,192,83130,1,0,0:0:0:0:
475,192,83130,1,0,0:0:0:0:
402,192,83361,1,0,0:0:0:0:
402,192,83592,1,0,0:0:0:0:
329,192,83822,1,0,0:0:0:0:
402,192,83938,1,0,0:0:0:0:
402,192,84169,1,0,0:0:0:0:
329,192,84284,1,0,0:0:0:0:
182,192,84515,1,0,0:0:0:0:
329,192,84746,1,0,0:0:0:0:
402,192,84861,1,0,0:0:0:0:
475,192,84976,1,0,0:0:0:0:
402,192,85207,1,0,0:0:0:0:
402,192,85438,1,0,0:0:0:0:
329,192,85669,1,0,0:0:0:0:
402,192,85784,1,0,0:0:0:0:
36,192,86015,1,0,0:0:0:0:
109,192,86130,1,0,0:0:0:0:
182,192,86246,1,0,0:0:0:0:
256,192,86361,1,0,0:0:0:0:
256,192,86592,1,0,0:0:0:0:
402,192,86707,1,0,0:0:0:0:
36,192,86822,1,0,0:0:0:0:
256,192,86822,1,0,0:0:0:0:
475,192,86822,1,0,0:0:0:0:
182,192,87053,1,0,0:0:0:0:
36,192,87053,1,0,0:0:0:0:
329,192,87284,1,0,0:0:0:0:
475,192,87284,1,0,0:0:0:0:
182,192,87515,1,0,0:0:0:0:
36,192,87515,1,0,0:0:0:0:
329,192,87746,1,0,0:0:0:0:
475,192,87746,1,0,0:0:0:0:
182,192,87976,1,0,0:0:0:0:
36,192,87976,1,0,0:0:0:0:
329,192,88207,1,0,0:0:0:0:
475,192,88207,1,0,0:0:0:0:
109,192,88438,1,0,0:0:0:0:
402,192,88438,1,0,0:0:0:0:
182,192,88553,1,0,0:0:0:0:
256,192,88669,1,0,0:0:0:0:
36,192,88669,1,0,0:0:0:0:
475,192,88669,1,0,0:0:0:0:
329,192,88899,1,0,0:0:0:0:
475,192,88899,1,0,0:0:0:0:
182,192,89130,1,0,0:0:0:0:
36,192,89130,1,0,0:0:0:0:
329,192,89361,1,0,0:0:0:0:
475,192,89361,1,0,0:0:0:0:
182,192,89592,1,0,0:0:0:0:
36,192,89592,1,0,0:0:0:0:
329,192,89822,1,0,0:0:0:0:
475,192,89822,1,0,0:0:0:0:
182,192,90053,1,0,0:0:0:0:
36,192,90053,1,0,0:0:0:0:
109,192,90284,1,0,0:0:0:0:
402,192,90284,1,0,0:0:0:0:
329,192,90399,1,0,0:0:0:0:
36,192,90515,1,0,0:0:0:0:
475,192,90515,1,0,0:0:0:0:
182,192,90515,1,0,0:0:0:0:
402,192,90630,1,0,0:0:0:0:
109,192,90746,1,0,0:0:0:0:
256,192,90746,1,0,0:0:0:0:
475,192,90861,1,0,0:0:0:0:
329,192,90976,1,0,0:0:0:0:
182,192,90976,1,0,0:0:0:0:
36,192,91092,1,0,0:0:0:0:
256,192,91207,1,0,0:0:0:0:
402,192,91207,1,0,0:0:0:0:
109,192,91322,1,0,0:0:0:0:
329,192,91438,1,0,0:0:0:0:
475,192,91438,1,0,0:0:0:0:
36,192,91438,1,0,0:0:0:0:
109,192,91553,1,0,0:0:0:0:
256,192,91669,1,0,0:0:0:0:
402,192,91669,1,0,0:0:0:0:
36,192,91784,1,0,0:0:0:0:
182,192,91899,1,0,0:0:0:0:
329,192,91899,1,0,0:0:0:0:
475,192,92015,1,0,0:0:0:0:
256,192,92130,1,0,0:0:0:0:
109,192,92130,1,0,0:0:0:0:
402,192,92246,1,0,0:0:0:0:
36,192,92361,1,0,0:0:0:0:
475,192,92361,1,0,0:0:0:0:
182,192,92476,1,0,0:0:0:0:
475,192,92592,1,0,0:0:0:0:
329,192,92707,1,0,0:0:0:0:
109,192,92822,128,0,93284:0:0:0:0:
402,192,93053,128,0,93284:0:0:0:0:
256,192,93284,1,0,0:0:0:0:
256,192,94207,5,0,0:0:0:0:
402,192,94207,128,0,95130:0:0:0:0:
109,192,94207,128,0,95130:0:0:0:0:
329,192,95130,1,0,0:0:0:0:
182,192,95246,1,0,0:0:0:0:
329,192,95361,1,0,0:0:0:0:
182,192,95476,1,0,0:0:0:0:
36,192,95592,1,0,0:0:0:0:
475,192,95592,1,0,0:0:0:0:
475,192,96053,1,0,0:0:0:0:
329,192,96053,1,0,0:0:0:0:
109,192,96169,1,0,0:0:0:0:
402,192,96284,1,0,0:0:0:0:
109,192,96399,1,0,0:0:0:0:
402,192,96515,1,0,0:0:0:0:
109,192,96630,1,0,0:0:0:0:
402,192,96746,1,0,0:0:0:0:
109,192,96861,1,0,0:0:0:0:
256,192,96919,1,0,0:0:0:0:
329,192,96976,1,0,0:0:0:0:
36,192,97092,1,0,0:0:0:0:
329,192,97207,1,0,0:0:0:0:
36,192,97322,1,0,0:0:0:0:
109,192,97380,1,0,0:0:0:0:
182,192,97438,1,0,0:0:0:0:
475,192,97553,1,0,0:0:0:0:
182,192,97669,1,0,0:0:0:0:
475,192,97784,1,0,0:0:0:0:
402,192,97842,1,0,0:0:0:0:
329,192,97899,1,0,0:0:0:0:
402,192,98130,1,0,0:0:0:0:
256,192,98246,1,0,0:0:0:0:
109,192,98361,1,0,0:0:0:0:
475,192,98476,1,0,0:0:0:0:
402,192,98534,1,0,0:0:0:0:
329,192,98592,1,0,0:0:0:0:
256,192,98649,1,0,0:0:0:0:
182,192,98707,1,0,0:0:0:0:
329,192,98822,1,0,0:0:0:0:
36,192,98822,1,0,0:0:0:0:
109,192,99053,1,0,0:0:0:0:
402,192,99053,1,0,0:0:0:0:
182,192,99284,1,0,0:0:0:0:
475,192,99284,1,0,0:0:0:0:
402,192,99515,1,0,0:0:0:0:
109,192,99572,1,0,0:0:0:0:
329,192,99630,1,0,0:0:0:0:
182,192,99746,1,0,0:0:0:0:
402,192,99861,1,0,0:0:0:0:
109,192,99976,1,0,0:0:0:0:
402,192,100092,1,0,0:0:0:0:
109,192,100207,1,0,0:0:0:0:
402,192,100322,1,0,0:0:0:0:
109,192,100438,1,0,0:0:0:0:
402,192,100553,1,0,0:0:0:0:
256,192,100611,1,0,0:0:0:0:
182,192,100669,1,0,0:0:0:0:
475,192,100784,1,0,0:0:0:0:
182,192,100899,1,0,0:0:0:0:
475,192,101015,1,0,0:0:0:0:
402,192,101072,1,0,0:0:0:0:
329,192,101130,1,0,0:0:0:0:
36,192,101246,1,0,0:0:0:0:
329,192,101361,1,0,0:0:0:0:
36,192,101476,1,0,0:0:0:0:
109,192,101534,1,0,0:0:0:0:
182,192,101592,1,0,0:0:0:0:
109,192,101822,1,0,0:0:0:0:
256,192,101938,1,0,0:0:0:0:
402,192,102053,1,0,0:0:0:0:
36,192,102169,1,0,0:0:0:0:
109,192,102226,1,0,0:0:0:0:
182,192,102284,1,0,0:0:0:0:
256,192,102342,1,0,0:0:0:0:
329,192,102399,1,0,0:0:0:0:
182,192,102515,1,0,0:0:0:0:
475,192,102515,1,0,0:0:0:0:
109,192,102746,1,0,0:0:0:0:
256,192,102861,1,0,0:0:0:0:
329,192,102976,1,0,0:0:0:0:
36,192,102976,1,0,0:0:0:0:
36,192,103207,128,0,103322:0:0:0:0:
329,192,103322,1,0,0:0:0:0:
475,192,103438,128,0,103553:0:0:0:0:
109,192,103438,1,0,0:0:0:0:
256,192,103553,1,0,0:0:0:0:
402,192,103669,128,0,103784:0:0:0:0:
182,192,103784,1,0,0:0:0:0:
329,192,103899,128,0,104015:0:0:0:0:
109,192,104015,1,0,0:0:0:0:
256,192,104130,1,0,0:0:0:0:
36,192,104246,1,0,0:0:0:0:
402,192,104361,1,0,0:0:0:0:
182,192,104476,128,0,104592:0:0:0:0:
402,192,104592,1,0,0:0:0:0:
109,192,104707,1,0,0:0:0:0:
329,192,104822,128,0,104938:0:0:0:0:
109,192,104938,1,0,0:0:0:0:
182,192,105053,1,0,0:0:0:0:
36,192,105169,128,0,105284:0:0:0:0:
329,192,105284,128,0,105399:0:0:0:0:
109,192,105399,1,0,0:0:0:0:
402,192,105515,128,0,105630:0:0:0:0:
182,192,105630,1,0,0:0:0:0:
475,192,105746,128,0,105861:0:0:0:0:
256,192,105861,1,0,0:0:0:0:
36,192,105976,1,0,0:0:0:0:
182,192,106092,1,0,0:0:0:0:
329,192,106207,1,0,0:0:0:0:
475,192,106207,1,0,0:0:0:0:
329,192,106438,1,0,0:0:0:0:
182,192,106438,1,0,0:0:0:0:
182,192,106669,1,0,0:0:0:0:
36,192,106669,1,0,0:0:0:0:
109,192,106899,1,0,0:0:0:0:
402,192,106957,1,0,0:0:0:0:
182,192,107015,1,0,0:0:0:0:
36,192,107130,128,0,107246:0:0:0:0:
256,192,107246,1,0,0:0:0:0:
109,192,107361,128,0,107476:0:0:0:0:
329,192,107476,1,0,0:0:0:0:
182,192,107592,128,0,107707:0:0:0:0:
402,192,107707,1,0,0:0:0:0:
256,192,107822,1,0,0:0:0:0:
475,192,107938,1,0,0:0:0:0:
109,192,108053,1,0,0:0:0:0:
329,192,108169,128,0,108284:0:0:0:0:
109,192,108284,1,0,0:0:0:0:
402,192,108399,1,0,0:0:0:0:
182,192,108515,128,0,108630:0:0:0:0:
402,192,108630,1,0,0:0:0:0:
329,192,108746,1,0,0:0:0:0:
475,192,108861,128,0,108976:0:0:0:0:
182,192,108976,128,0,109092:0:0:0:0:
402,192,109092,1,0,0:0:0:0:
109,192,109207,128,0,109322:0:0:0:0:
329,192,109322,1,0,0:0:0:0:
36,192,109438,128,0,109553:0:0:0:0:
256,192,109553,1,0,0:0:0:0:
475,192,109669,1,0,0:0:0:0:
329,192,109784,1,0,0:0:0:0:
182,192,109899,1,0,0:0:0:0:
36,192,109899,1,0,0:0:0:0:
256,192,110130,1,0,0:0:0:0:
109,192,110246,1,0,0:0:0:0:
475,192,110361,1,0,0:0:0:0:
329,192,110361,128,0,110822:0:0:0:0:
182,192,110592,128,0,110822:0:0:0:0:
36,192,110822,1,0,0:0:0:0:
36,192,111053,1,0,0:0:0:0:
36,192,111284,1,0,0:0:0:0:
256,192,111515,1,0,0:0:0:0:
402,192,111515,1,0,0:0:0:0:
36,192,111746,128,0,111861:0:0:0:0:
329,192,111746,1,0,0:0:0:0:
475,192,111746,1,0,0:0:0:0:
109,192,111976,128,0,112092:0:0:0:0:
329,192,111976,1,0,0:0:0:0:
182,192,112207,128,0,112322:0:0:0:0:
475,192,112207,1,0,0:0:0:0:
329,192,112322,128,0,112438:0:0:0:0:
36,192,112438,1,0,0:0:0:0:
402,192,112553,128,0,112669:0:0:0:0:
109,192,112669,1,0,0:0:0:0:
109,192,112899,128,0,113015:0:0:0:0:
402,192,112899,1,0,0:0:0:0:
256,192,113130,128,0,113246:0:0:0:0:
36,192,113130,1,0,0:0:0:0:
475,192,113246,128,0,113361:0:0:0:0:
182,192,113361,1,0,0:0:0:0:
402,192,113476,128,0,113592:0:0:0:0:
36,192,113476,1,0,0:0:0:0:
256,192,113592,1,0,0:0:0:0:
329,192,113822,128,0,113938:0:0:0:0:
109,192,113822,1,0,0:0:0:0:
256,192,114053,128,0,114169:0:0:0:0:
475,192,114053,1,0,0:0:0:0:
36,192,114169,128,0,114284:0:0:0:0:
329,192,114284,1,0,0:0:0:0:
109,192,114399,128,0,114515:0:0:0:0:
402,192,114399,1,0,0:0:0:0:
256,192,114515,1,0,0:0:0:0:
329,192,114746,1,0,0:0:0:0:
36,192,114746,1,0,0:0:0:0:
109,192,114861,1,0,0:0:0:0:
475,192,114976,1,0,0:0:0:0:
256,192,114976,1,0,0:0:0:0:
402,192,115149,1,0,0:0:0:0:
182,192,115149,1,0,0:0:0:0:
329,192,115322,1,0,0:0:0:0:
109,192,115322,1,0,0:0:0:0:
36,192,115438,128,0,115553:0:0:0:0:
256,192,115438,1,0,0:0:0:0:
475,192,115669,128,0,115784:0:0:0:0:
256,192,115669,1,0,0:0:0:0:
109,192,115899,128,0,116015:0:0:0:0:
475,192,115899,1,0,0:0:0:0:
256,192,116015,128,0,116130:0:0:0:0:
36,192,116130,1,0,0:0:0:0:
402,192,116246,128,0,116361:0:0:0:0:
182,192,116361,1,0,0:0:0:0:
36,192,116592,1,0,0:0:0:0:
329,192,116592,128,0,116707:0:0:0:0:
109,192,116822,1,0,0:0:0:0:
402,192,116822,128,0,116938:0:0:0:0:
182,192,117053,1,0,0:0:0:0:
475,192,117053,128,0,117169:0:0:0:0:
36,192,117169,1,0,0:0:0:0:
256,192,117284,1,0,0:0:0:0:
475,192,117284,128,0,117399:0:0:0:0:
36,192,117515,128,0,117630:0:0:0:0:
329,192,117515,1,0,0:0:0:0:
182,192,117746,1,0,0:0:0:0:
402,192,117746,1,0,0:0:0:0:
329,192,117919,1,0,0:0:0:0:
109,192,117919,1,0,0:0:0:0:
182,192,118092,1,0,0:0:0:0:
402,192,118092,1,0,0:0:0:0:
475,192,118207,128,0,118322:0:0:0:0:
36,192,118207,1,0,0:0:0:0:
109,192,118438,1,0,0:0:0:0:
256,192,118553,128,0,118669:0:0:0:0:
402,192,118669,1,0,0:0:0:0:
475,192,118899,1,0,0:0:0:0:
36,192,118899,128,0,119015:0:0:0:0:
402,192,119130,128,0,119246:0:0:0:0:
182,192,119130,1,0,0:0:0:0:
36,192,119130,1,0,0:0:0:0:
475,192,119361,128,0,119476:0:0:0:0:
182,192,119361,1,0,0:0:0:0:
329,192,119592,128,0,119707:0:0:0:0:
36,192,119592,1,0,0:0:0:0:
182,192,119707,128,0,119822:0:0:0:0:
475,192,119822,1,0,0:0:0:0:
109,192,119938,128,0,120053:0:0:0:0:
256,192,120053,1,0,0:0:0:0:
402,192,120284,128,0,120399:0:0:0:0:
109,192,120284,1,0,0:0:0:0:
256,192,120515,128,0,120630:0:0:0:0:
475,192,120515,1,0,0:0:0:0:
36,192,120630,128,0,120746:0:0:0:0:
329,192,120746,1,0,0:0:0:0:
109,192,120861,128,0,120976:0:0:0:0:
475,192,120861,1,0,0:0:0:0:
256,192,120976,1,0,0:0:0:0:
182,192,121207,128,0,121322:0:0:0:0:
402,192,121207,1,0,0:0:0:0:
329,192,121438,128,0,121553:0:0:0:0:
36,192,121438,1,0,0:0:0:0:
402,192,121553,128,0,121669:0:0:0:0:
109,192,121669,1,0,0:0:0:0:
475,192,121784,128,0,121899:0:0:0:0:
182,192,121784,1,0,0:0:0:0:
329,192,121899,1,0,0:0:0:0:
402,192,122130,128,0,122246:0:0:0:0:
36,192,122130,1,0,0:0:0:0:
256,192,122361,128,0,122476:0:0:0:0:
475,192,122361,1,0,0:0:0:0:
329,192,122476,1,0,0:0:0:0:
109,192,122592,128,0,122707:0:0:0:0:
402,192,122592,1,0,0:0:0:0:
475,192,122822,1,0,0:0:0:0:
256,192,122822,1,0,0:0:0:0:
36,192,122822,128,0,122938:0:0:0:0:
329,192,123053,128,0,123169:0:0:0:0:
182,192,123053,1,0,0:0:0:0:
109,192,123284,128,0,123399:0:0:0:0:
475,192,123284,1,0,0:0:0:0:
256,192,123399,128,0,123515:0:0:0:0:
402,192,123515,1,0,0:0:0:0:
256,192,123630,128,0,123746:0:0:0:0:
36,192,123746,1,0,0:0:0:0:
329,192,123976,1,0,0:0:0:0:
475,192,123976,128,0,124092:0:0:0:0:
36,192,124207,1,0,0:0:0:0:
402,192,124207,128,0,124322:0:0:0:0:
182,192,124322,1,0,0:0:0:0:
109,192,124438,1,0,0:0:0:0:
329,192,124438,128,0,124553:0:0:0:0:
182,192,124553,1,0,0:0:0:0:
256,192,124669,1,0,0:0:0:0:
36,192,124669,128,0,124899:0:0:0:0:
475,192,124669,128,0,124899:0:0:0:0:
109,192,125130,1,0,0:0:0:0:
402,192,125130,1,0,0:0:0:0:
256,192,125130,128,0,125592:0:0:0:0:
475,192,125592,128,0,125707:0:0:0:0:
109,192,125592,1,0,0:0:0:0:
329,192,125707,128,0,125822:0:0:0:0:
182,192,125822,128,0,125938:0:0:0:0:
36,192,125938,128,0,126053:0:0:0:0:
402,192,126053,1,0,0:0:0:0:
109,192,126169,128,0,126284:0:0:0:0:
256,192,126284,128,0,126399:0:0:0:0:
402,192,126399,128,0,126515:0:0:0:0:
182,192,126515,128,0,126746:0:0:0:0:
36,192,126515,128,0,126746:0:0:0:0:
475,192,126515,1,0,0:0:0:0:
329,192,126746,1,0,0:0:0:0:
109,192,126976,1,0,0:0:0:0:
402,192,126976,1,0,0:0:0:0:
256,192,127207,1,0,0:0:0:0:
256,192,127322,1,0,0:0:0:0:
475,192,127438,128,0,128130:0:0:0:0:
36,192,127438,1,0,0:0:0:0:
182,192,127553,1,0,0:0:0:0:
329,192,127669,1,0,0:0:0:0:
182,192,127784,1,0,0:0:0:0:
36,192,127899,1,0,0:0:0:0:
182,192,128015,1,0,0:0:0:0:
329,192,128130,1,0,0:0:0:0:
109,192,128246,1,0,0:0:0:0:
329,192,128361,1,0,0:0:0:0:
36,192,128361,1,0,0:0:0:0:
475,192,128361,1,0,0:0:0:0:
182,192,128476,1,0,0:0:0:0:
36,192,128592,1,0,0:0:0:0:
36,192,128822,1,0,0:0:0:0:
182,192,128938,1,0,0:0:0:0:
36,192,129053,1,0,0:0:0:0:
475,192,129284,1,0,0:0:0:0:
329,192,129284,1,0,0:0:0:0:
109,192,129746,1,0,0:0:0:0:
109,192,129976,1,0,0:0:0:0:
256,192,130092,1,0,0:0:0:0:
475,192,130207,1,0,0:0:0:0:
329,192,130322,1,0,0:0:0:0:
475,192,130438,1,0,0:0:0:0:
475,192,130669,1,0,0:0:0:0:
329,192,130784,1,0,0:0:0:0:
475,192,130899,1,0,0:0:0:0:
329,192,131015,1,0,0:0:0:0:
182,192,131130,1,0,0:0:0:0:
36,192,131130,1,0,0:0:0:0:
256,192,131246,1,0,0:0:0:0:
402,192,131246,1,0,0:0:0:0:
256,192,131476,1,0,0:0:0:0:
402,192,131476,1,0,0:0:0:0:
109,192,131592,1,0,0:0:0:0:
402,192,131707,1,0,0:0:0:0:
109,192,131822,1,0,0:0:0:0:
36,192,132053,1,0,0:0:0:0:
475,192,132053,1,0,0:0:0:0:
182,192,132169,1,0,0:0:0:0:
36,192,132284,1,0,0:0:0:0:
36,192,132515,1,0,0:0:0:0:
182,192,132630,1,0,0:0:0:0:
36,192,132746,1,0,0:0:0:0:
475,192,132976,1,0,0:0:0:0:
329,192,132976,1,0,0:0:0:0:
109,192,133438,1,0,0:0:0:0:
109,192,133669,1,0,0:0:0:0:
402,192,133784,1,0,0:0:0:0:
256,192,133899,1,0,0:0:0:0:
36,192,133899,1,0,0:0:0:0:
475,192,133899,1,0,0:0:0:0:
109,192,134130,1,0,0:0:0:0:
182,192,134246,1,0,0:0:0:0:
402,192,134361,1,0,0:0:0:0:
329,192,134476,1,0,0:0:0:0:
109,192,134592,1,0,0:0:0:0:
182,192,134707,1,0,0:0:0:0:
329,192,134822,1,0,0:0:0:0:
475,192,134822,1,0,0:0:0:0:
182,192,135053,1,0,0:0:0:0:
36,192,135053,1,0,0:0:0:0:
329,192,135284,1,0,0:0:0:0:
475,192,135284,1,0,0:0:0:0:
36,192,135515,1,0,0:0:0:0:
256,192,135746,1,0,0:0:0:0:
182,192,135746,1,0,0:0:0:0:
329,192,135746,1,0,0:0:0:0:
256,192,136669,1,0,0:0:0:0:
36,192,136669,1,0,0:0:0:0:
36,192,136784,1,0,0:0:0:0:
475,192,136899,1,0,0:0:0:0:
475,192,137015,1,0,0:0:0:0:
109,192,137130,1,0,0:0:0:0:
109,192,137246,1,0,0:0:0:0:
402,192,137361,1,0,0:0:0:0:
402,192,137476,1,0,0:0:0:0:
256,192,137592,128,0,137707:0:0:0:0:
36,192,137707,1,0,0:0:0:0:
182,192,137765,1,0,0:0:0:0:
256,192,137822,128,0,137938:0:0:0:0:
475,192,137938,1,0,0:0:0:0:
329,192,137996,1,0,0:0:0:0:
109,192,138053,128,0,138169:0:0:0:0:
402,192,138169,128,0,138284:0:0:0:0:
256,192,138284,128,0,138515:0:0:0:0:
475,192,138515,1,0,0:0:0:0:
36,192,138515,1,0,0:0:0:0:
