osu file format v14

[General]
AudioFilename: audio.ogg
AudioLeadIn: 0
PreviewTime: 110822
Countdown: 0
SampleSet: Normal
StackLeniency: 0.7
Mode: 3
LetterboxInBreaks: 0
SpecialStyle: 0
WidescreenStoryboard: 1

[Editor]
Bookmarks: 16668,24052,31437,38822,46206,53591,60975,62822,77591,84975,94206,109899,126514
DistanceSpacing: 1
BeatDivisor: 4
GridSize: 4
TimelineZoom: 2.5

[Metadata]
Title:Exitium
TitleUnicode:Exitium
Artist:Laur
ArtistUnicode:Laur
Creator:tyrcs
Version:Another
Source:WACCA
Tags:WACCA ワッカ Electronic Metal Rock Speedcore HARDCORE TANO*C instrumental Last Labyrinth Collapse m3-2021 LLCD-003
BeatmapID:3423804
BeatmapSetID:1675996

[Difficulty]
HPDrainRate:8
CircleSize:7
OverallDifficulty:8
ApproachRate:5
SliderMultiplier:1.4
SliderTickRate:1

[Events]
//Background and Video events
0,0,"Exitium.jpg",0,0
//Break Periods
//Storyboard Layer 0 (Background)
//Storyboard Layer 1 (Fail)
//Storyboard Layer 2 (Pass)
//Storyboard Layer 3 (Foreground)
//Storyboard Layer 4 (Overlay)
//Storyboard Sound Samples

[TimingPoints]
3746,230.769230769231,4,1,1,20,1,0
11130,-100,4,1,1,25,0,0
16669,-100,4,1,1,15,0,0
18515,-100,4,1,1,40,0,1
33284,-100,4,1,1,25,0,0
40669,-100,4,1,1,40,0,1
42053,-100,4,1,1,15,0,0
42515,-100,4,1,1,40,0,1
43899,-100,4,1,1,15,0,0
44361,-100,4,1,1,40,0,1
45746,-100,4,1,1,15,0,0
46207,-100,4,1,1,40,0,1
47130,-100,4,1,1,15,0,0
48053,-100,4,1,1,20,0,0
55438,-100,4,1,1,25,0,0
62822,-100,4,1,1,10,0,0
64669,-100,4,1,1,20,0,0
79438,-100,4,1,1,25,0,0
86822,-100,4,1,1,30,0,1
93284,-100,4,1,1,20,0,0
94207,-100,4,1,1,40,0,1
95592,-100,4,1,1,25,0,0
96053,-100,4,1,1,40,0,1
110822,-100,4,1,1,25,0,0
111746,-100,4,1,1,40,0,1
128361,-100,4,1,1,25,0,0
136669,-100,4,1,1,40,0,1
138515,-100,4,1,1,40,0,0

[HitObjects]
109,192,1899,5,0,0:0:0:0:
36,192,1899,1,0,0:0:0:0:
475,192,1899,1,0,0:0:0:0:
402,192,1957,1,0,0:0:0:0:
329,192,2015,1,0,0:0:0:0:
256,192,2072,1,0,0:0:0:0:
36,192,2130,1,0,0:0:0:0:
475,192,2130,1,0,0:0:0:0:
109,192,2188,1,0,0:0:0:0:
182,192,2245,1,0,0:0:0:0:
256,192,2303,1,0,0:0:0:0:
475,192,2361,1,0,0:0:0:0:
36,192,2361,1,0,0:0:0:0:
402,192,2419,1,0,0:0:0:0:
329,192,2476,1,0,0:0:0:0:
256,192,2534,1,0,0:0:0:0:
109,192,2592,1,0,0:0:0:0:
109,192,2707,1,0,0:0:0:0:
402,192,2822,1,0,0:0:0:0:
182,192,2880,1,0,0:0:0:0:
329,192,2938,1,0,0:0:0:0:
109,192,2996,1,0,0:0:0:0:
475,192,3053,1,0,0:0:0:0:
36,192,3053,1,0,0:0:0:0:
402,192,3111,1,0,0:0:0:0:
329,192,3169,1,0,0:0:0:0:
256,192,3226,1,0,0:0:0:0:
109,192,3284,1,0,0:0:0:0:
402,192,3342,1,0,0:0:0:0:
329,192,3399,1,0,0:0:0:0:
402,192,3457,1,0,0:0:0:0:
182,192,3515,1,0,0:0:0:0:
36,192,3515,1,0,0:0:0:0:
475,192,3746,1,0,0:0:0:0:
36,192,3746,128,0,3861:0:0:0:0:
109,192,3746,128,0,3861:0:0:0:0:
329,192,3746,1,0,0:0:0:0:
256,192,3976,128,0,4092:0:0:0:0:
475,192,3976,128,0,4092:0:0:0:0:
182,192,4207,128,0,4322:0:0:0:0:
402,192,4207,128,0,4322:0:0:0:0:
329,192,4438,128,0,4553:0:0:0:0:
109,192,4438,128,0,4553:0:0:0:0:
36,192,4669,128,0,4784:0:0:0:0:
256,192,4669,128,0,4784:0:0:0:0:
402,192,4899,128,0,5015:0:0:0:0:
475,192,4899,128,0,5015:0:0:0:0:
329,192,5015,128,0,5130:0:0:0:0:
182,192,5015,128,0,5130:0:0:0:0:
109,192,5130,128,0,5246:0:0:0:0:
36,192,5130,128,0,5246:0:0:0:0:
329,192,5361,128,0,5476:0:0:0:0:
475,192,5361,128,0,5476:0:0:0:0:
329,192,5592,128,0,5707:0:0:0:0:
475,192,5592,128,0,5707:0:0:0:0:
36,192,5592,1,0,0:0:0:0:
182,192,5592,1,0,0:0:0:0:
36,192,5822,128,0,5938:0:0:0:0:
256,192,5822,128,0,5938:0:0:0:0:
109,192,6053,128,0,6169:0:0:0:0:
329,192,6053,128,0,6169:0:0:0:0:
182,192,6284,128,0,6399:0:0:0:0:
402,192,6284,128,0,6399:0:0:0:0:
256,192,6515,128,0,6630:0:0:0:0:
475,192,6515,128,0,6630:0:0:0:0:
182,192,6746,128,0,6861:0:0:0:0:
475,192,6746,128,0,6861:0:0:0:0:
109,192,6861,128,0,6976:0:0:0:0:
402,192,6861,128,0,6976:0:0:0:0:
36,192,6976,128,0,7092:0:0:0:0:
329,192,6976,128,0,7092:0:0:0:0:
182,192,7207,128,0,7322:0:0:0:0:
475,192,7207,128,0,7322:0:0:0:0:
109,192,7438,128,0,7553:0:0:0:0:
36,192,7438,128,0,7553:0:0:0:0:
329,192,7438,1,0,0:0:0:0:
475,192,7438,1,0,0:0:0:0:
256,192,7669,128,0,7784:0:0:0:0:
475,192,7669,128,0,7784:0:0:0:0:
402,192,7899,128,0,8015:0:0:0:0:
182,192,7899,128,0,8015:0:0:0:0:
109,192,8130,128,0,8246:0:0:0:0:
329,192,8130,128,0,8246:0:0:0:0:
256,192,8361,128,0,8476:0:0:0:0:
36,192,8361,128,0,8476:0:0:0:0:
402,192,8592,128,0,8707:0:0:0:0:
475,192,8592,128,0,8707:0:0:0:0:
329,192,8707,128,0,8822:0:0:0:0:
182,192,8707,128,0,8822:0:0:0:0:
36,192,8822,128,0,8938:0:0:0:0:
109,192,8822,128,0,8938:0:0:0:0:
329,192,9053,128,0,9169:0:0:0:0:
475,192,9053,128,0,9169:0:0:0:0:
329,192,9284,128,0,9399:0:0:0:0:
475,192,9284,128,0,9399:0:0:0:0:
182,192,9284,1,0,0:0:0:0:
36,192,9284,128,0,10092:0:0:0:0:
109,192,9515,128,0,9630:0:0:0:0:
402,192,9515,128,0,9630:0:0:0:0:
182,192,9746,128,0,9861:0:0:0:0:
329,192,9861,128,0,9976:0:0:0:0:
402,192,9976,128,0,10092:0:0:0:0:
329,192,10092,128,0,10207:0:0:0:0:
182,192,10207,128,0,10322:0:0:0:0:
475,192,10207,128,0,11015:0:0:0:0:
36,192,10207,128,0,10322:0:0:0:0:
256,192,10207,1,0,0:0:0:0:
36,192,10438,128,0,10553:0:0:0:0:
256,192,10553,128,0,10669:0:0:0:0:
109,192,10553,128,0,10669:0:0:0:0:
402,192,10669,1,0,0:0:0:0:
329,192,10669,1,0,0:0:0:0:
109,192,10784,128,0,10899:0:0:0:0:
182,192,10899,128,0,11015:0:0:0:0:
329,192,10899,128,0,11015:0:0:0:0:
256,192,11130,1,0,0:0:0:0:
109,192,11130,1,0,0:0:0:0:
36,192,11130,1,0,0:0:0:0:
475,192,11130,1,0,0:0:0:0:
402,192,11361,1,0,0:0:0:0:
475,192,11361,1,0,0:0:0:0:
256,192,11361,1,0,0:0:0:0:
256,192,11476,1,0,0:0:0:0:
109,192,11476,1,0,0:0:0:0:
36,192,11476,1,0,0:0:0:0:
182,192,11707,1,0,0:0:0:0:
109,192,11707,1,0,0:0:0:0:
36,192,11707,1,0,0:0:0:0:
402,192,11822,1,0,0:0:0:0:
475,192,11822,1,0,0:0:0:0:
329,192,11822,1,0,0:0:0:0:
256,192,12053,1,0,0:0:0:0:
36,192,12053,1,0,0:0:0:0:
475,192,12053,1,0,0:0:0:0:
329,192,12284,1,0,0:0:0:0:
109,192,12284,1,0,0:0:0:0:
36,192,12284,1,0,0:0:0:0:
182,192,12515,1,0,0:0:0:0:
402,192,12515,1,0,0:0:0:0:
475,192,12515,1,0,0:0:0:0:
256,192,12746,1,0,0:0:0:0:
36,192,12746,1,0,0:0:0:0:
475,192,12746,1,0,0:0:0:0:
36,192,12861,1,0,0:0:0:0:
256,192,12861,1,0,0:0:0:0:
109,192,12976,1,0,0:0:0:0:
329,192,12976,1,0,0:0:0:0:
475,192,12976,1,0,0:0:0:0:
256,192,13207,1,0,0:0:0:0:
109,192,13207,1,0,0:0:0:0:
36,192,13207,1,0,0:0:0:0:
256,192,13322,1,0,0:0:0:0:
402,192,13322,1,0,0:0:0:0:
475,192,13322,1,0,0:0:0:0:
329,192,13553,1,0,0:0:0:0:
402,192,13553,1,0,0:0:0:0:
475,192,13553,1,0,0:0:0:0:
109,192,13669,1,0,0:0:0:0:
36,192,13669,1,0,0:0:0:0:
182,192,13669,1,0,0:0:0:0:
256,192,13899,1,0,0:0:0:0:
36,192,13899,1,0,0:0:0:0:
475,192,13899,1,0,0:0:0:0:
182,192,14130,1,0,0:0:0:0:
402,192,14130,1,0,0:0:0:0:
475,192,14130,1,0,0:0:0:0:
402,192,14246,1,0,0:0:0:0:
256,192,14303,1,0,0:0:0:0:
329,192,14361,1,0,0:0:0:0:
109,192,14361,1,0,0:0:0:0:
36,192,14361,1,0,0:0:0:0:
256,192,14592,1,0,0:0:0:0:
36,192,14592,1,0,0:0:0:0:
475,192,14592,1,0,0:0:0:0:
109,192,14669,1,0,0:0:0:0:
402,192,14746,1,0,0:0:0:0:
182,192,14822,1,0,0:0:0:0:
36,192,14822,1,0,0:0:0:0:
475,192,14822,1,0,0:0:0:0:
256,192,14822,1,0,0:0:0:0:
256,192,15053,1,0,0:0:0:0:
402,192,15053,1,0,0:0:0:0:
475,192,15053,1,0,0:0:0:0:
256,192,15169,1,0,0:0:0:0:
109,192,15169,1,0,0:0:0:0:
36,192,15169,1,0,0:0:0:0:
402,192,15284,1,0,0:0:0:0:
182,192,15399,1,0,0:0:0:0:
109,192,15399,1,0,0:0:0:0:
36,192,15399,1,0,0:0:0:0:
329,192,15515,1,0,0:0:0:0:
402,192,15515,1,0,0:0:0:0:
475,192,15515,1,0,0:0:0:0:
36,192,15746,1,0,0:0:0:0:
475,192,15746,1,0,0:0:0:0:
109,192,15803,1,0,0:0:0:0:
256,192,15861,1,0,0:0:0:0:
329,192,15919,1,0,0:0:0:0:
36,192,15976,1,0,0:0:0:0:
475,192,15976,1,0,0:0:0:0:
182,192,16034,1,0,0:0:0:0:
256,192,16092,1,0,0:0:0:0:
402,192,16149,1,0,0:0:0:0:
475,192,16207,1,0,0:0:0:0:
36,192,16207,1,0,0:0:0:0:
109,192,16265,1,0,0:0:0:0:
182,192,16322,1,0,0:0:0:0:
329,192,16380,1,0,0:0:0:0:
36,192,16438,1,0,0:0:0:0:
475,192,16438,1,0,0:0:0:0:
182,192,16496,1,0,0:0:0:0:
329,192,16553,1,0,0:0:0:0:
402,192,16611,1,0,0:0:0:0:
475,192,16669,1,0,0:0:0:0:
109,192,16669,1,0,0:0:0:0:
256,192,16669,1,0,0:0:0:0:
36,192,16899,1,0,0:0:0:0:
256,192,17130,1,0,0:0:0:0:
329,192,17246,1,0,0:0:0:0:
402,192,17361,1,0,0:0:0:0:
329,192,17476,1,0,0:0:0:0:
182,192,17592,1,0,0:0:0:0:
36,192,17592,1,0,0:0:0:0:
256,192,17707,1,0,0:0:0:0:
109,192,17765,1,0,0:0:0:0:
475,192,17822,1,0,0:0:0:0:
329,192,17822,1,0,0:0:0:0:
182,192,17938,1,0,0:0:0:0:
109,192,18053,1,0,0:0:0:0:
402,192,18053,1,0,0:0:0:0:
329,192,18169,1,0,0:0:0:0:
182,192,18284,1,0,0:0:0:0:
36,192,18284,1,0,0:0:0:0:
256,192,18399,1,0,0:0:0:0:
329,192,18515,1,0,0:0:0:0:
475,192,18515,1,0,0:0:0:0:
402,192,18515,1,0,0:0:0:0:
256,192,18572,1,0,0:0:0:0:
36,192,18630,1,0,0:0:0:0:
182,192,18688,1,0,0:0:0:0:
402,192,18746,1,0,0:0:0:0:
475,192,18746,1,0,0:0:0:0:
329,192,18803,1,0,0:0:0:0:
109,192,18861,1,0,0:0:0:0:
256,192,18919,1,0,0:0:0:0:
36,192,18976,1,0,0:0:0:0:
475,192,18976,1,0,0:0:0:0:
402,192,19034,1,0,0:0:0:0:
182,192,19092,1,0,0:0:0:0:
329,192,19149,1,0,0:0:0:0:
109,192,19207,1,0,0:0:0:0:
36,192,19207,1,0,0:0:0:0:
475,192,19265,1,0,0:0:0:0:
256,192,19322,1,0,0:0:0:0:
402,192,19380,1,0,0:0:0:0:
36,192,19438,1,0,0:0:0:0:
182,192,19438,128,0,19553:0:0:0:0:
475,192,19553,1,0,0:0:0:0:
329,192,19611,1,0,0:0:0:0:
109,192,19669,1,0,0:0:0:0:
256,192,19669,128,0,19784:0:0:0:0:
36,192,19784,1,0,0:0:0:0:
475,192,19784,1,0,0:0:0:0:
402,192,19842,1,0,0:0:0:0:
182,192,19899,1,0,0:0:0:0:
329,192,19899,128,0,20015:0:0:0:0:
182,192,20015,128,0,20130:0:0:0:0:
36,192,20130,1,0,0:0:0:0:
475,192,20130,1,0,0:0:0:0:
402,192,20188,1,0,0:0:0:0:
256,192,20246,1,0,0:0:0:0:
109,192,20303,1,0,0:0:0:0:
36,192,20361,1,0,0:0:0:0:
329,192,20361,1,0,0:0:0:0:
475,192,20361,1,0,0:0:0:0:
182,192,20592,1,0,0:0:0:0:
36,192,20592,1,0,0:0:0:0:
475,192,20592,1,0,0:0:0:0:
36,192,20822,1,0,0:0:0:0:
329,192,20822,1,0,0:0:0:0:
475,192,20822,1,0,0:0:0:0:
182,192,21053,1,0,0:0:0:0:
36,192,21053,1,0,0:0:0:0:
475,192,21053,1,0,0:0:0:0:
182,192,21169,1,0,0:0:0:0:
329,192,21169,1,0,0:0:0:0:
36,192,21284,1,0,0:0:0:0:
329,192,21284,1,0,0:0:0:0:
475,192,21284,1,0,0:0:0:0:
109,192,21515,128,0,21630:0:0:0:0:
402,192,21515,1,0,0:0:0:0:
329,192,21630,1,0,0:0:0:0:
475,192,21630,1,0,0:0:0:0:
256,192,21688,1,0,0:0:0:0:
402,192,21746,128,0,21861:0:0:0:0:
109,192,21746,1,0,0:0:0:0:
109,192,21861,128,0,21976:0:0:0:0:
475,192,21976,1,0,0:0:0:0:
256,192,21976,1,0,0:0:0:0:
402,192,21976,1,0,0:0:0:0:
182,192,22207,1,0,0:0:0:0:
36,192,22207,1,0,0:0:0:0:
256,192,22265,1,0,0:0:0:0:
475,192,22322,1,0,0:0:0:0:
329,192,22380,1,0,0:0:0:0:
109,192,22438,1,0,0:0:0:0:
36,192,22438,1,0,0:0:0:0:
182,192,22496,1,0,0:0:0:0:
402,192,22553,1,0,0:0:0:0:
256,192,22611,1,0,0:0:0:0:
475,192,22669,1,0,0:0:0:0:
36,192,22669,1,0,0:0:0:0:
109,192,22726,1,0,0:0:0:0:
329,192,22784,1,0,0:0:0:0:
182,192,22842,1,0,0:0:0:0:
402,192,22899,1,0,0:0:0:0:
475,192,22899,1,0,0:0:0:0:
36,192,22957,1,0,0:0:0:0:
256,192,23015,1,0,0:0:0:0:
109,192,23072,1,0,0:0:0:0:
475,192,23130,1,0,0:0:0:0:
329,192,23130,128,0,23246:0:0:0:0:
36,192,23246,1,0,0:0:0:0:
182,192,23303,1,0,0:0:0:0:
402,192,23361,1,0,0:0:0:0:
256,192,23361,128,0,23476:0:0:0:0:
475,192,23476,1,0,0:0:0:0:
36,192,23476,1,0,0:0:0:0:
109,192,23534,1,0,0:0:0:0:
329,192,23592,1,0,0:0:0:0:
182,192,23592,128,0,23707:0:0:0:0:
329,192,23707,128,0,23822:0:0:0:0:
475,192,23822,1,0,0:0:0:0:
36,192,23822,1,0,0:0:0:0:
109,192,23880,1,0,0:0:0:0:
256,192,23938,1,0,0:0:0:0:
402,192,23996,1,0,0:0:0:0:
36,192,24053,1,0,0:0:0:0:
182,192,24053,1,0,0:0:0:0:
475,192,24053,1,0,0:0:0:0:
182,192,24284,1,0,0:0:0:0:
402,192,24284,1,0,0:0:0:0:
475,192,24284,1,0,0:0:0:0:
36,192,24515,1,0,0:0:0:0:
329,192,24515,1,0,0:0:0:0:
256,192,24572,1,0,0:0:0:0:
182,192,24630,1,0,0:0:0:0:
475,192,24630,1,0,0:0:0:0:
402,192,24688,1,0,0:0:0:0:
36,192,24746,1,0,0:0:0:0:
329,192,24746,128,0,24861:0:0:0:0:
182,192,24861,1,0,0:0:0:0:
475,192,24861,1,0,0:0:0:0:
109,192,24919,1,0,0:0:0:0:
36,192,24976,1,0,0:0:0:0:
256,192,24976,1,0,0:0:0:0:
402,192,24976,1,0,0:0:0:0:
36,192,25207,1,0,0:0:0:0:
182,192,25246,1,0,0:0:0:0:
329,192,25284,1,0,0:0:0:0:
402,192,25361,1,0,0:0:0:0:
475,192,25438,1,0,0:0:0:0:
256,192,25438,1,0,0:0:0:0:
109,192,25438,1,0,0:0:0:0:
329,192,25553,128,0,25784:0:0:0:0:
182,192,25669,128,0,25784:0:0:0:0:
256,192,25899,1,0,0:0:0:0:
109,192,25899,1,0,0:0:0:0:
36,192,25899,1,0,0:0:0:0:
475,192,25899,1,0,0:0:0:0:
36,192,26015,1,0,0:0:0:0:
329,192,26015,1,0,0:0:0:0:
182,192,26130,1,0,0:0:0:0:
475,192,26130,1,0,0:0:0:0:
402,192,26246,1,0,0:0:0:0:
256,192,26246,1,0,0:0:0:0:
109,192,26361,1,0,0:0:0:0:
256,192,26361,1,0,0:0:0:0:
36,192,26476,1,0,0:0:0:0:
329,192,26476,1,0,0:0:0:0:
182,192,26592,1,0,0:0:0:0:
475,192,26592,1,0,0:0:0:0:
402,192,26707,1,0,0:0:0:0:
256,192,26707,1,0,0:0:0:0:
256,192,26822,1,0,0:0:0:0:
36,192,26822,128,0,26938:0:0:0:0:
402,192,26938,1,0,0:0:0:0:
329,192,26938,1,0,0:0:0:0:
109,192,27053,1,0,0:0:0:0:
182,192,27053,1,0,0:0:0:0:
256,192,27169,1,0,0:0:0:0:
475,192,27169,1,0,0:0:0:0:
182,192,27284,1,0,0:0:0:0:
36,192,27284,1,0,0:0:0:0:
329,192,27399,1,0,0:0:0:0:
475,192,27399,128,0,27515:0:0:0:0:
182,192,27515,1,0,0:0:0:0:
36,192,27515,1,0,0:0:0:0:
109,192,27746,1,0,0:0:0:0:
402,192,27746,1,0,0:0:0:0:
256,192,27861,1,0,0:0:0:0:
36,192,27861,1,0,0:0:0:0:
182,192,27976,1,0,0:0:0:0:
475,192,27976,1,0,0:0:0:0:
109,192,28092,1,0,0:0:0:0:
329,192,28092,1,0,0:0:0:0:
109,192,28207,1,0,0:0:0:0:
402,192,28207,1,0,0:0:0:0:
475,192,28322,1,0,0:0:0:0:
256,192,28322,1,0,0:0:0:0:
36,192,28438,1,0,0:0:0:0:
329,192,28438,1,0,0:0:0:0:
402,192,28553,1,0,0:0:0:0:
182,192,28553,1,0,0:0:0:0:
402,192,28669,1,0,0:0:0:0:
109,192,28669,128,0,28784:0:0:0:0:
475,192,28784,1,0,0:0:0:0:
329,192,28784,1,0,0:0:0:0:
182,192,28899,1,0,0:0:0:0:
36,192,28899,1,0,0:0:0:0:
109,192,29015,1,0,0:0:0:0:
402,192,29015,1,0,0:0:0:0:
182,192,29130,1,0,0:0:0:0:
475,192,29130,1,0,0:0:0:0:
402,192,29207,1,0,0:0:0:0:
256,192,29284,1,0,0:0:0:0:
182,192,29361,1,0,0:0:0:0:
402,192,29361,1,0,0:0:0:0:
329,192,29438,1,0,0:0:0:0:
182,192,29515,1,0,0:0:0:0:
109,192,29553,1,0,0:0:0:0:
36,192,29592,1,0,0:0:0:0:
329,192,29592,1,0,0:0:0:0:
475,192,29592,1,0,0:0:0:0:
182,192,29707,1,0,0:0:0:0:
475,192,29707,1,0,0:0:0:0:
109,192,29822,1,0,0:0:0:0:
256,192,29822,1,0,0:0:0:0:
329,192,29938,1,0,0:0:0:0:
475,192,29938,1,0,0:0:0:0:
182,192,30053,1,0,0:0:0:0:
36,192,30053,1,0,0:0:0:0:
36,192,30169,1,0,0:0:0:0:
329,192,30169,1,0,0:0:0:0:
402,192,30284,1,0,0:0:0:0:
256,192,30284,1,0,0:0:0:0:
182,192,30399,1,0,0:0:0:0:
36,192,30399,1,0,0:0:0:0:
475,192,30515,128,0,30630:0:0:0:0:
256,192,30515,1,0,0:0:0:0:
109,192,30630,1,0,0:0:0:0:
182,192,30630,1,0,0:0:0:0:
329,192,30746,1,0,0:0:0:0:
402,192,30746,1,0,0:0:0:0:
36,192,30861,1,0,0:0:0:0:
256,192,30861,1,0,0:0:0:0:
329,192,30976,1,0,0:0:0:0:
475,192,30976,1,0,0:0:0:0:
182,192,31092,1,0,0:0:0:0:
36,192,31092,128,0,31207:0:0:0:0:
329,192,31207,1,0,0:0:0:0:
475,192,31207,1,0,0:0:0:0:
182,192,31438,1,0,0:0:0:0:
36,192,31438,1,0,0:0:0:0:
475,192,31438,1,0,0:0:0:0:
402,192,31496,1,0,0:0:0:0:
329,192,31553,1,0,0:0:0:0:
256,192,31611,1,0,0:0:0:0:
109,192,31669,1,0,0:0:0:0:
475,192,31669,1,0,0:0:0:0:
402,192,31726,1,0,0:0:0:0:
329,192,31784,1,0,0:0:0:0:
256,192,31842,1,0,0:0:0:0:
36,192,31899,1,0,0:0:0:0:
402,192,31899,1,0,0:0:0:0:
475,192,31899,1,0,0:0:0:0:
109,192,31957,1,0,0:0:0:0:
329,192,32015,1,0,0:0:0:0:
182,192,32072,1,0,0:0:0:0:
36,192,32130,1,0,0:0:0:0:
402,192,32130,1,0,0:0:0:0:
109,192,32188,1,0,0:0:0:0:
329,192,32246,1,0,0:0:0:0:
182,192,32303,1,0,0:0:0:0:
36,192,32361,1,0,0:0:0:0:
475,192,32361,1,0,0:0:0:0:
256,192,32361,1,0,0:0:0:0:
475,192,32592,1,0,0:0:0:0:
329,192,32630,1,0,0:0:0:0:
182,192,32669,1,0,0:0:0:0:
109,192,32746,1,0,0:0:0:0:
36,192,32822,1,0,0:0:0:0:
256,192,32822,1,0,0:0:0:0:
402,192,32822,1,0,0:0:0:0:
182,192,32938,128,0,33169:0:0:0:0:
329,192,33053,128,0,33169:0:0:0:0:
256,192,33284,1,0,0:0:0:0:
475,192,33284,1,0,0:0:0:0:
402,192,33284,1,0,0:0:0:0:
36,192,33284,128,0,33399:0:0:0:0:
182,192,33399,128,0,33515:0:0:0:0:
109,192,33515,128,0,33630:0:0:0:0:
402,192,33630,1,0,0:0:0:0:
256,192,33746,128,0,33861:0:0:0:0:
402,192,33861,128,0,33976:0:0:0:0:
256,192,33976,128,0,34207:0:0:0:0:
402,192,34092,128,0,34207:0:0:0:0:
109,192,34207,1,0,0:0:0:0:
36,192,34207,1,0,0:0:0:0:
475,192,34322,128,0,34669:0:0:0:0:
329,192,34438,128,0,34669:0:0:0:0:
182,192,34553,128,0,34669:0:0:0:0:
36,192,34669,128,0,34899:0:0:0:0:
109,192,34784,128,0,34899:0:0:0:0:
329,192,34899,128,0,35130:0:0:0:0:
256,192,35015,128,0,35130:0:0:0:0:
36,192,35130,128,0,35246:0:0:0:0:
182,192,35246,128,0,35361:0:0:0:0:
109,192,35361,128,0,35476:0:0:0:0:
329,192,35476,1,0,0:0:0:0:
256,192,35592,128,0,35707:0:0:0:0:
402,192,35707,128,0,35822:0:0:0:0:
256,192,35822,128,0,36053:0:0:0:0:
402,192,35938,128,0,36053:0:0:0:0:
36,192,36053,1,0,0:0:0:0:
109,192,36053,1,0,0:0:0:0:
402,192,36169,1,0,0:0:0:0:
475,192,36169,1,0,0:0:0:0:
182,192,36169,128,0,36284:0:0:0:0:
36,192,36284,128,0,36399:0:0:0:0:
402,192,36399,1,0,0:0:0:0:
475,192,36399,1,0,0:0:0:0:
182,192,36399,128,0,36515:0:0:0:0:
329,192,36515,128,0,36630:0:0:0:0:
109,192,36630,128,0,36746:0:0:0:0:
256,192,36746,128,0,36976:0:0:0:0:
475,192,36976,1,0,0:0:0:0:
402,192,36976,1,0,0:0:0:0:
36,192,36976,128,0,37092:0:0:0:0:
182,192,37092,128,0,37207:0:0:0:0:
109,192,37207,128,0,37322:0:0:0:0:
402,192,37322,1,0,0:0:0:0:
256,192,37438,128,0,37553:0:0:0:0:
402,192,37553,128,0,37669:0:0:0:0:
256,192,37669,128,0,37899:0:0:0:0:
402,192,37784,128,0,37899:0:0:0:0:
109,192,37899,1,0,0:0:0:0:
36,192,37899,1,0,0:0:0:0:
475,192,38015,128,0,38361:0:0:0:0:
329,192,38130,128,0,38361:0:0:0:0:
182,192,38246,128,0,38361:0:0:0:0:
36,192,38361,128,0,38592:0:0:0:0:
109,192,38476,128,0,38592:0:0:0:0:
329,192,38592,128,0,38822:0:0:0:0:
256,192,38707,128,0,38822:0:0:0:0:
36,192,38822,128,0,38938:0:0:0:0:
182,192,38938,128,0,39053:0:0:0:0:
109,192,39053,128,0,39169:0:0:0:0:
329,192,39169,1,0,0:0:0:0:
256,192,39284,128,0,39399:0:0:0:0:
402,192,39399,128,0,39515:0:0:0:0:
256,192,39515,128,0,39746:0:0:0:0:
402,192,39630,128,0,39746:0:0:0:0:
475,192,39746,1,0,0:0:0:0:
36,192,39746,128,0,39861:0:0:0:0:
329,192,39746,1,0,0:0:0:0:
182,192,39861,128,0,39976:0:0:0:0:
36,192,39976,128,0,40207:0:0:0:0:
475,192,40092,1,0,0:0:0:0:
329,192,40092,1,0,0:0:0:0:
182,192,40092,128,0,40207:0:0:0:0:
402,192,40207,128,0,40322:0:0:0:0:
329,192,40322,128,0,40438:0:0:0:0:
109,192,40438,128,0,40553:0:0:0:0:
182,192,40553,128,0,40669:0:0:0:0:
256,192,40669,128,0,42053:0:0:0:0:
402,192,40669,1,0,0:0:0:0:
475,192,40669,1,0,0:0:0:0:
109,192,40726,1,0,0:0:0:0:
36,192,40726,1,0,0:0:0:0:
402,192,40842,1,0,0:0:0:0:
329,192,40842,1,0,0:0:0:0:
182,192,40957,1,0,0:0:0:0:
109,192,40957,1,0,0:0:0:0:
402,192,41072,1,0,0:0:0:0:
475,192,41072,1,0,0:0:0:0:
109,192,41188,1,0,0:0:0:0:
36,192,41188,1,0,0:0:0:0:
329,192,41303,1,0,0:0:0:0:
402,192,41303,1,0,0:0:0:0:
182,192,41419,1,0,0:0:0:0:
109,192,41419,1,0,0:0:0:0:
402,192,41534,1,0,0:0:0:0:
475,192,41534,1,0,0:0:0:0:
109,192,41649,1,0,0:0:0:0:
36,192,41649,1,0,0:0:0:0:
329,192,41765,1,0,0:0:0:0:
402,192,41765,1,0,0:0:0:0:
109,192,41880,1,0,0:0:0:0:
182,192,41880,1,0,0:0:0:0:
402,192,41996,1,0,0:0:0:0:
475,192,41996,1,0,0:0:0:0:
36,192,42053,1,0,0:0:0:0:
109,192,42053,1,0,0:0:0:0:
329,192,42111,1,0,0:0:0:0:
475,192,42169,1,0,0:0:0:0:
402,192,42226,1,0,0:0:0:0:
329,192,42284,1,0,0:0:0:0:
36,192,42342,1,0,0:0:0:0:
109,192,42399,1,0,0:0:0:0:
182,192,42457,1,0,0:0:0:0:
256,192,42515,128,0,43899:0:0:0:0:
475,192,42515,1,0,0:0:0:0:
109,192,42572,1,0,0:0:0:0:
36,192,42572,1,0,0:0:0:0:
329,192,42688,1,0,0:0:0:0:
402,192,42688,1,0,0:0:0:0:
109,192,42803,1,0,0:0:0:0:
36,192,42803,1,0,0:0:0:0:
402,192,42919,1,0,0:0:0:0:
475,192,42919,1,0,0:0:0:0:
182,192,43034,1,0,0:0:0:0:
109,192,43034,1,0,0:0:0:0:
402,192,43149,1,0,0:0:0:0:
475,192,43149,1,0,0:0:0:0:
109,192,43265,1,0,0:0:0:0:
36,192,43265,1,0,0:0:0:0:
329,192,43380,1,0,0:0:0:0:
402,192,43380,1,0,0:0:0:0:
109,192,43496,1,0,0:0:0:0:
36,192,43496,1,0,0:0:0:0:
402,192,43611,1,0,0:0:0:0:
475,192,43611,1,0,0:0:0:0:
182,192,43726,1,0,0:0:0:0:
109,192,43726,1,0,0:0:0:0:
402,192,43842,1,0,0:0:0:0:
475,192,43842,1,0,0:0:0:0:
36,192,43899,1,0,0:0:0:0:
109,192,43957,1,0,0:0:0:0:
182,192,44015,1,0,0:0:0:0:
256,192,44072,1,0,0:0:0:0:
329,192,44130,1,0,0:0:0:0:
475,192,44130,1,0,0:0:0:0:
256,192,44361,128,0,45746:0:0:0:0:
109,192,44361,1,0,0:0:0:0:
36,192,44361,1,0,0:0:0:0:
329,192,44419,1,0,0:0:0:0:
475,192,44419,1,0,0:0:0:0:
36,192,44534,1,0,0:0:0:0:
182,192,44534,1,0,0:0:0:0:
402,192,44649,1,0,0:0:0:0:
475,192,44649,1,0,0:0:0:0:
36,192,44765,1,0,0:0:0:0:
109,192,44765,1,0,0:0:0:0:
329,192,44880,1,0,0:0:0:0:
475,192,44880,1,0,0:0:0:0:
182,192,44996,1,0,0:0:0:0:
36,192,44996,1,0,0:0:0:0:
329,192,45111,1,0,0:0:0:0:
402,192,45111,1,0,0:0:0:0:
109,192,45226,1,0,0:0:0:0:
182,192,45226,1,0,0:0:0:0:
329,192,45342,1,0,0:0:0:0:
475,192,45342,1,0,0:0:0:0:
182,192,45457,1,0,0:0:0:0:
36,192,45457,1,0,0:0:0:0:
402,192,45572,1,0,0:0:0:0:
475,192,45572,1,0,0:0:0:0:
36,192,45688,1,0,0:0:0:0:
109,192,45688,1,0,0:0:0:0:
329,192,45746,1,0,0:0:0:0:
475,192,45746,1,0,0:0:0:0:
182,192,45803,1,0,0:0:0:0:
36,192,45861,1,0,0:0:0:0:
109,192,45919,1,0,0:0:0:0:
182,192,45976,1,0,0:0:0:0:
475,192,46034,1,0,0:0:0:0:
402,192,46092,1,0,0:0:0:0:
329,192,46149,1,0,0:0:0:0:
256,192,46207,128,0,47130:0:0:0:0:
182,192,46207,1,0,0:0:0:0:
109,192,46207,1,0,0:0:0:0:
36,192,46207,1,0,0:0:0:0:
182,192,46322,1,0,0:0:0:0:
36,192,46322,1,0,0:0:0:0:
329,192,46438,1,0,0:0:0:0:
475,192,46438,1,0,0:0:0:0:
329,192,46553,1,0,0:0:0:0:
475,192,46553,1,0,0:0:0:0:
182,192,46669,1,0,0:0:0:0:
36,192,46669,1,0,0:0:0:0:
182,192,46784,1,0,0:0:0:0:
36,192,46784,1,0,0:0:0:0:
329,192,46899,1,0,0:0:0:0:
475,192,46899,1,0,0:0:0:0:
475,192,47015,1,0,0:0:0:0:
329,192,47015,1,0,0:0:0:0:
402,192,47130,1,0,0:0:0:0:
109,192,47130,1,0,0:0:0:0:
36,192,47130,1,0,0:0:0:0:
109,192,47361,1,0,0:0:0:0:
402,192,47361,1,0,0:0:0:0:
475,192,47361,1,0,0:0:0:0:
329,192,47592,1,0,0:0:0:0:
36,192,47592,1,0,0:0:0:0:
182,192,47592,128,0,48053:0:0:0:0:
329,192,47822,128,0,48053:0:0:0:0:
475,192,47822,1,0,0:0:0:0:
475,192,48053,1,0,0:0:0:0:
36,192,48053,1,0,0:0:0:0:
402,192,48053,1,0,0:0:0:0:
182,192,48169,1,0,0:0:0:0:
256,192,48284,1,0,0:0:0:0:
402,192,48399,1,0,0:0:0:0:
475,192,48515,1,0,0:0:0:0:
36,192,48515,1,0,0:0:0:0:
182,192,48630,1,0,0:0:0:0:
402,192,48746,1,0,0:0:0:0:
329,192,48822,1,0,0:0:0:0:
256,192,48899,1,0,0:0:0:0:
475,192,48976,1,0,0:0:0:0:
109,192,48976,1,0,0:0:0:0:
329,192,49092,1,0,0:0:0:0:
402,192,49207,1,0,0:0:0:0:
109,192,49207,1,0,0:0:0:0:
256,192,49322,1,0,0:0:0:0:
109,192,49438,1,0,0:0:0:0:
475,192,49438,1,0,0:0:0:0:
329,192,49553,1,0,0:0:0:0:
182,192,49669,1,0,0:0:0:0:
256,192,49746,1,0,0:0:0:0:
402,192,49822,1,0,0:0:0:0:
475,192,49899,1,0,0:0:0:0:
36,192,49899,1,0,0:0:0:0:
329,192,50015,1,0,0:0:0:0:
182,192,50130,1,0,0:0:0:0:
109,192,50246,1,0,0:0:0:0:
36,192,50361,1,0,0:0:0:0:
475,192,50361,1,0,0:0:0:0:
329,192,50476,1,0,0:0:0:0:
109,192,50592,1,0,0:0:0:0:
256,192,50669,1,0,0:0:0:0:
402,192,50746,1,0,0:0:0:0:
182,192,50822,1,0,0:0:0:0:
475,192,50822,1,0,0:0:0:0:
36,192,50938,1,0,0:0:0:0:
109,192,51053,1,0,0:0:0:0:
256,192,51130,1,0,0:0:0:0:
182,192,51207,1,0,0:0:0:0:
329,192,51284,1,0,0:0:0:0:
475,192,51284,1,0,0:0:0:0:
109,192,51399,1,0,0:0:0:0:
36,192,51515,1,0,0:0:0:0:
329,192,51515,1,0,0:0:0:0:
256,192,51630,1,0,0:0:0:0:
109,192,51746,1,0,0:0:0:0:
475,192,51746,1,0,0:0:0:0:
182,192,51861,1,0,0:0:0:0:
36,192,51976,1,0,0:0:0:0:
329,192,51976,1,0,0:0:0:0:
402,192,52053,1,0,0:0:0:0:
256,192,52130,1,0,0:0:0:0:
182,192,52207,1,0,0:0:0:0:
475,192,52207,1,0,0:0:0:0:
36,192,52322,1,0,0:0:0:0:
329,192,52438,1,0,0:0:0:0:
475,192,52438,1,0,0:0:0:0:
182,192,52553,1,0,0:0:0:0:
36,192,52669,1,0,0:0:0:0:
402,192,52669,1,0,0:0:0:0:
109,192,52784,1,0,0:0:0:0:
256,192,52899,1,0,0:0:0:0:
475,192,52899,1,0,0:0:0:0:
329,192,52976,1,0,0:0:0:0:
182,192,53053,1,0,0:0:0:0:
109,192,53130,1,0,0:0:0:0:
402,192,53130,1,0,0:0:0:0:
475,192,53246,1,0,0:0:0:0:
402,192,53361,1,0,0:0:0:0:
256,192,53361,1,0,0:0:0:0:
36,192,53476,1,0,0:0:0:0:
329,192,53592,1,0,0:0:0:0:
475,192,53592,1,0,0:0:0:0:
36,192,53707,1,0,0:0:0:0:
182,192,53822,1,0,0:0:0:0:
402,192,53822,1,0,0:0:0:0:
256,192,53899,1,0,0:0:0:0:
109,192,53976,1,0,0:0:0:0:
36,192,54053,1,0,0:0:0:0:
402,192,54053,1,0,0:0:0:0:
182,192,54169,1,0,0:0:0:0:
329,192,54284,1,0,0:0:0:0:
36,192,54284,1,0,0:0:0:0:
109,192,54399,1,0,0:0:0:0:
256,192,54515,1,0,0:0:0:0:
402,192,54515,1,0,0:0:0:0:
475,192,54515,1,0,0:0:0:0:
109,192,54746,1,0,0:0:0:0:
402,192,54746,1,0,0:0:0:0:
256,192,54976,1,0,0:0:0:0:
109,192,54976,1,0,0:0:0:0:
36,192,54976,1,0,0:0:0:0:
329,192,55207,1,0,0:0:0:0:
182,192,55322,1,0,0:0:0:0:
36,192,55438,128,0,56361:0:0:0:0:
256,192,55438,1,0,0:0:0:0:
402,192,55438,1,0,0:0:0:0:
475,192,55438,1,0,0:0:0:0:
109,192,55669,1,0,0:0:0:0:
256,192,55899,1,0,0:0:0:0:
402,192,55899,1,0,0:0:0:0:
475,192,55899,1,0,0:0:0:0:
109,192,56130,1,0,0:0:0:0:
475,192,56361,128,0,57284:0:0:0:0:
182,192,56361,1,0,0:0:0:0:
329,192,56361,1,0,0:0:0:0:
402,192,56361,1,0,0:0:0:0:
36,192,56592,1,0,0:0:0:0:
182,192,56822,1,0,0:0:0:0:
329,192,56822,1,0,0:0:0:0:
402,192,56822,1,0,0:0:0:0:
36,192,57053,1,0,0:0:0:0:
182,192,57284,128,0,58207:0:0:0:0:
329,192,57284,1,0,0:0:0:0:
256,192,57284,1,0,0:0:0:0:
109,192,57284,1,0,0:0:0:0:
475,192,57515,1,0,0:0:0:0:
329,192,57746,1,0,0:0:0:0:
256,192,57746,1,0,0:0:0:0:
109,192,57746,1,0,0:0:0:0:
475,192,57976,1,0,0:0:0:0:
329,192,58207,128,0,59130:0:0:0:0:
256,192,58207,1,0,0:0:0:0:
109,192,58207,1,0,0:0:0:0:
36,192,58207,1,0,0:0:0:0:
475,192,58438,1,0,0:0:0:0:
256,192,58669,1,0,0:0:0:0:
182,192,58669,1,0,0:0:0:0:
36,192,58669,1,0,0:0:0:0:
182,192,58899,1,0,0:0:0:0:
402,192,58899,1,0,0:0:0:0:
109,192,59130,128,0,60053:0:0:0:0:
256,192,59130,1,0,0:0:0:0:
36,192,59130,1,0,0:0:0:0:
475,192,59130,1,0,0:0:0:0:
402,192,59361,1,0,0:0:0:0:
182,192,59361,1,0,0:0:0:0:
475,192,59438,1,0,0:0:0:0:
402,192,59515,1,0,0:0:0:0:
329,192,59592,1,0,0:0:0:0:
36,192,59592,1,0,0:0:0:0:
182,192,59822,1,0,0:0:0:0:
475,192,59822,1,0,0:0:0:0:
402,192,60053,128,0,60976:0:0:0:0:
256,192,60053,1,0,0:0:0:0:
36,192,60053,1,0,0:0:0:0:
475,192,60053,1,0,0:0:0:0:
329,192,60284,1,0,0:0:0:0:
109,192,60284,1,0,0:0:0:0:
36,192,60361,1,0,0:0:0:0:
109,192,60438,1,0,0:0:0:0:
182,192,60515,1,0,0:0:0:0:
475,192,60515,1,0,0:0:0:0:
329,192,60746,1,0,0:0:0:0:
36,192,60746,1,0,0:0:0:0:
256,192,60861,1,0,0:0:0:0:
109,192,60861,1,0,0:0:0:0:
182,192,60976,1,0,0:0:0:0:
36,192,60976,1,0,0:0:0:0:
475,192,60976,1,0,0:0:0:0:
402,192,61207,1,0,0:0:0:0:
109,192,61207,128,0,61322:0:0:0:0:
256,192,61322,1,0,0:0:0:0:
402,192,61380,1,0,0:0:0:0:
182,192,61438,1,0,0:0:0:0:
36,192,61438,1,0,0:0:0:0:
475,192,61438,1,0,0:0:0:0:
329,192,61553,1,0,0:0:0:0:
182,192,61611,1,0,0:0:0:0:
329,192,61669,1,0,0:0:0:0:
329,192,61784,1,0,0:0:0:0:
182,192,61899,1,0,0:0:0:0:
475,192,61899,128,0,62015:0:0:0:0:
402,192,62015,1,0,0:0:0:0:
256,192,62072,1,0,0:0:0:0:
329,192,62130,1,0,0:0:0:0:
36,192,62130,128,0,62246:0:0:0:0:
109,192,62246,1,0,0:0:0:0:
256,192,62303,1,0,0:0:0:0:
182,192,62361,1,0,0:0:0:0:
475,192,62361,1,0,0:0:0:0:
402,192,62361,128,0,62707:0:0:0:0:
256,192,62822,1,0,0:0:0:0:
109,192,62822,1,0,0:0:0:0:
36,192,62822,1,0,0:0:0:0:
256,192,64669,1,0,0:0:0:0:
402,192,64669,1,0,0:0:0:0:
475,192,64669,1,0,0:0:0:0:
36,192,64669,128,0,64784:0:0:0:0:
109,192,64784,1,0,0:0:0:0:
402,192,64899,128,0,65015:0:0:0:0:
182,192,65015,1,0,0:0:0:0:
475,192,65130,128,0,65246:0:0:0:0:
256,192,65246,1,0,0:0:0:0:
329,192,65361,128,0,65476:0:0:0:0:
109,192,65476,1,0,0:0:0:0:
402,192,65592,128,0,65707:0:0:0:0:
182,192,65707,1,0,0:0:0:0:
256,192,65822,128,0,65938:0:0:0:0:
36,192,65996,1,0,0:0:0:0:
329,192,66053,128,0,66169:0:0:0:0:
109,192,66169,1,0,0:0:0:0:
182,192,66284,128,0,66399:0:0:0:0:
402,192,66399,1,0,0:0:0:0:
36,192,66515,128,0,66630:0:0:0:0:
329,192,66592,1,0,0:0:0:0:
109,192,66630,1,0,0:0:0:0:
475,192,66669,1,0,0:0:0:0:
402,192,66746,128,0,66861:0:0:0:0:
182,192,66861,1,0,0:0:0:0:
475,192,66976,128,0,67092:0:0:0:0:
256,192,67092,1,0,0:0:0:0:
329,192,67207,128,0,67322:0:0:0:0:
109,192,67322,1,0,0:0:0:0:
402,192,67438,128,0,67553:0:0:0:0:
475,192,67438,1,0,0:0:0:0:
36,192,67515,1,0,0:0:0:0:
182,192,67553,1,0,0:0:0:0:
256,192,67669,128,0,67784:0:0:0:0:
36,192,67842,1,0,0:0:0:0:
329,192,67899,128,0,68015:0:0:0:0:
109,192,68015,1,0,0:0:0:0:
182,192,68130,128,0,68246:0:0:0:0:
402,192,68246,1,0,0:0:0:0:
256,192,68361,1,0,0:0:0:0:
109,192,68361,1,0,0:0:0:0:
475,192,68361,128,0,68476:0:0:0:0:
36,192,68361,1,0,0:0:0:0:
402,192,68476,1,0,0:0:0:0:
109,192,68592,128,0,68707:0:0:0:0:
329,192,68707,1,0,0:0:0:0:
36,192,68822,128,0,68938:0:0:0:0:
256,192,68938,1,0,0:0:0:0:
182,192,69053,128,0,69169:0:0:0:0:
402,192,69169,1,0,0:0:0:0:
109,192,69284,128,0,69399:0:0:0:0:
329,192,69399,1,0,0:0:0:0:
256,192,69515,128,0,69630:0:0:0:0:
475,192,69688,1,0,0:0:0:0:
182,192,69746,128,0,69861:0:0:0:0:
402,192,69861,1,0,0:0:0:0:
329,192,69976,128,0,70092:0:0:0:0:
109,192,70092,1,0,0:0:0:0:
475,192,70207,128,0,70322:0:0:0:0:
402,192,70322,1,0,0:0:0:0:
109,192,70438,128,0,70553:0:0:0:0:
329,192,70553,1,0,0:0:0:0:
36,192,70669,128,0,70784:0:0:0:0:
256,192,70784,1,0,0:0:0:0:
182,192,70899,128,0,71015:0:0:0:0:
402,192,71015,1,0,0:0:0:0:
109,192,71130,128,0,71246:0:0:0:0:
36,192,71130,1,0,0:0:0:0:
475,192,71207,1,0,0:0:0:0:
329,192,71246,1,0,0:0:0:0:
256,192,71361,128,0,71476:0:0:0:0:
475,192,71476,1,0,0:0:0:0:
182,192,71592,128,0,71707:0:0:0:0:
402,192,71707,1,0,0:0:0:0:
329,192,71822,128,0,71938:0:0:0:0:
36,192,71822,1,0,0:0:0:0:
109,192,71938,1,0,0:0:0:0:
36,192,72053,128,0,72169:0:0:0:0:
256,192,72053,1,0,0:0:0:0:
402,192,72053,1,0,0:0:0:0:
475,192,72053,1,0,0:0:0:0:
182,192,72169,1,0,0:0:0:0:
402,192,72284,128,0,72399:0:0:0:0:
256,192,72399,1,0,0:0:0:0:
475,192,72515,128,0,72630:0:0:0:0:
109,192,72630,1,0,0:0:0:0:
329,192,72746,128,0,72861:0:0:0:0:
182,192,72861,1,0,0:0:0:0:
402,192,72976,128,0,73092:0:0:0:0:
36,192,73092,1,0,0:0:0:0:
256,192,73207,128,0,73322:0:0:0:0:
109,192,73322,1,0,0:0:0:0:
329,192,73438,128,0,73553:0:0:0:0:
36,192,73553,1,0,0:0:0:0:
182,192,73669,128,0,73784:0:0:0:0:
402,192,73784,1,0,0:0:0:0:
36,192,73899,128,0,74015:0:0:0:0:
182,192,74015,1,0,0:0:0:0:
402,192,74130,128,0,74246:0:0:0:0:
256,192,74246,1,0,0:0:0:0:
475,192,74361,128,0,74476:0:0:0:0:
109,192,74476,1,0,0:0:0:0:
329,192,74592,128,0,74707:0:0:0:0:
182,192,74707,1,0,0:0:0:0:
402,192,74822,128,0,74938:0:0:0:0:
36,192,74938,1,0,0:0:0:0:
256,192,75053,128,0,75169:0:0:0:0:
109,192,75169,1,0,0:0:0:0:
329,192,75284,128,0,75399:0:0:0:0:
475,192,75284,1,0,0:0:0:0:
36,192,75399,1,0,0:0:0:0:
182,192,75515,128,0,75630:0:0:0:0:
475,192,75515,1,0,0:0:0:0:
402,192,75630,1,0,0:0:0:0:
475,192,75746,128,0,75861:0:0:0:0:
256,192,75746,1,0,0:0:0:0:
109,192,75746,1,0,0:0:0:0:
36,192,75746,1,0,0:0:0:0:
329,192,75861,1,0,0:0:0:0:
109,192,75976,128,0,76092:0:0:0:0:
256,192,76092,1,0,0:0:0:0:
36,192,76207,128,0,76322:0:0:0:0:
402,192,76322,1,0,0:0:0:0:
182,192,76438,128,0,76553:0:0:0:0:
329,192,76553,1,0,0:0:0:0:
109,192,76669,128,0,76784:0:0:0:0:
475,192,76784,1,0,0:0:0:0:
256,192,76899,128,0,77015:0:0:0:0:
402,192,77015,1,0,0:0:0:0:
182,192,77130,128,0,77246:0:0:0:0:
475,192,77246,1,0,0:0:0:0:
329,192,77361,128,0,77476:0:0:0:0:
109,192,77476,1,0,0:0:0:0:
475,192,77592,128,0,77707:0:0:0:0:
36,192,77592,1,0,0:0:0:0:
329,192,77707,1,0,0:0:0:0:
109,192,77822,128,0,77938:0:0:0:0:
475,192,77822,1,0,0:0:0:0:
256,192,77938,1,0,0:0:0:0:
36,192,78053,128,0,78169:0:0:0:0:
475,192,78053,1,0,0:0:0:0:
402,192,78169,1,0,0:0:0:0:
182,192,78284,128,0,78399:0:0:0:0:
329,192,78399,1,0,0:0:0:0:
109,192,78515,128,0,78630:0:0:0:0:
475,192,78630,1,0,0:0:0:0:
256,192,78746,128,0,78861:0:0:0:0:
36,192,78746,1,0,0:0:0:0:
402,192,78861,1,0,0:0:0:0:
182,192,78976,128,0,79092:0:0:0:0:
475,192,79092,1,0,0:0:0:0:
329,192,79207,128,0,79322:0:0:0:0:
109,192,79322,1,0,0:0:0:0:
475,192,79438,1,0,0:0:0:0:
36,192,79438,1,0,0:0:0:0:
256,192,79438,1,0,0:0:0:0:
109,192,79553,1,0,0:0:0:0:
256,192,79611,1,0,0:0:0:0:
402,192,79669,1,0,0:0:0:0:
109,192,79784,1,0,0:0:0:0:
256,192,79842,1,0,0:0:0:0:
402,192,79899,1,0,0:0:0:0:
109,192,80015,1,0,0:0:0:0:
256,192,80072,1,0,0:0:0:0:
475,192,80130,1,0,0:0:0:0:
402,192,80246,1,0,0:0:0:0:
36,192,80361,1,0,0:0:0:0:
256,192,80361,1,0,0:0:0:0:
182,192,80419,1,0,0:0:0:0:
329,192,80476,1,0,0:0:0:0:
402,192,80592,1,0,0:0:0:0:
36,192,80707,1,0,0:0:0:0:
182,192,80765,1,0,0:0:0:0:
475,192,80822,1,0,0:0:0:0:
329,192,80938,1,0,0:0:0:0:
182,192,80996,1,0,0:0:0:0:
402,192,81053,1,0,0:0:0:0:
109,192,81111,1,0,0:0:0:0:
329,192,81169,1,0,0:0:0:0:
182,192,81284,1,0,0:0:0:0:
36,192,81284,1,0,0:0:0:0:
109,192,81399,1,0,0:0:0:0:
256,192,81457,1,0,0:0:0:0:
402,192,81515,1,0,0:0:0:0:
109,192,81630,1,0,0:0:0:0:
256,192,81688,1,0,0:0:0:0:
402,192,81746,1,0,0:0:0:0:
109,192,81861,1,0,0:0:0:0:
256,192,81919,1,0,0:0:0:0:
475,192,81976,1,0,0:0:0:0:
402,192,82092,1,0,0:0:0:0:
36,192,82207,1,0,0:0:0:0:
256,192,82207,1,0,0:0:0:0:
182,192,82265,1,0,0:0:0:0:
402,192,82322,1,0,0:0:0:0:
329,192,82438,1,0,0:0:0:0:
256,192,82553,1,0,0:0:0:0:
109,192,82611,1,0,0:0:0:0:
36,192,82669,1,0,0:0:0:0:
402,192,82669,1,0,0:0:0:0:
182,192,82784,1,0,0:0:0:0:
329,192,82842,1,0,0:0:0:0:
109,192,82899,1,0,0:0:0:0:
402,192,82957,1,0,0:0:0:0:
182,192,83015,1,0,0:0:0:0:
256,192,83130,1,0,0:0:0:0:
475,192,83130,1,0,0:0:0:0:
36,192,83130,1,0,0:0:0:0:
109,192,83246,1,0,0:0:0:0:
256,192,83303,1,0,0:0:0:0:
402,192,83361,1,0,0:0:0:0:
109,192,83476,1,0,0:0:0:0:
256,192,83534,1,0,0:0:0:0:
402,192,83592,1,0,0:0:0:0:
109,192,83707,1,0,0:0:0:0:
256,192,83765,1,0,0:0:0:0:
475,192,83822,1,0,0:0:0:0:
402,192,83938,1,0,0:0:0:0:
36,192,84053,1,0,0:0:0:0:
256,192,84053,1,0,0:0:0:0:
182,192,84111,1,0,0:0:0:0:
329,192,84169,1,0,0:0:0:0:
402,192,84284,1,0,0:0:0:0:
36,192,84399,1,0,0:0:0:0:
182,192,84457,1,0,0:0:0:0:
475,192,84515,1,0,0:0:0:0:
329,192,84630,1,0,0:0:0:0:
182,192,84688,1,0,0:0:0:0:
402,192,84746,1,0,0:0:0:0:
109,192,84803,1,0,0:0:0:0:
329,192,84861,1,0,0:0:0:0:
182,192,84976,1,0,0:0:0:0:
36,192,84976,1,0,0:0:0:0:
109,192,85092,1,0,0:0:0:0:
256,192,85149,1,0,0:0:0:0:
402,192,85207,1,0,0:0:0:0:
109,192,85322,1,0,0:0:0:0:
256,192,85380,1,0,0:0:0:0:
402,192,85438,1,0,0:0:0:0:
109,192,85553,1,0,0:0:0:0:
256,192,85611,1,0,0:0:0:0:
475,192,85669,1,0,0:0:0:0:
402,192,85784,1,0,0:0:0:0:
36,192,85899,1,0,0:0:0:0:
256,192,85899,1,0,0:0:0:0:
109,192,85957,1,0,0:0:0:0:
475,192,86015,1,0,0:0:0:0:
329,192,86130,1,0,0:0:0:0:
256,192,86246,1,0,0:0:0:0:
36,192,86303,1,0,0:0:0:0:
475,192,86361,1,0,0:0:0:0:
182,192,86361,1,0,0:0:0:0:
329,192,86476,1,0,0:0:0:0:
109,192,86534,1,0,0:0:0:0:
475,192,86592,1,0,0:0:0:0:
256,192,86649,1,0,0:0:0:0:
402,192,86707,1,0,0:0:0:0:
182,192,86822,1,0,0:0:0:0:
36,192,86822,1,0,0:0:0:0:
109,192,86822,1,0,0:0:0:0:
402,192,86938,1,0,0:0:0:0:
329,192,86996,1,0,0:0:0:0:
182,192,87053,1,0,0:0:0:0:
36,192,87053,1,0,0:0:0:0:
475,192,87169,1,0,0:0:0:0:
402,192,87226,1,0,0:0:0:0:
256,192,87284,1,0,0:0:0:0:
109,192,87284,1,0,0:0:0:0:
36,192,87399,1,0,0:0:0:0:
475,192,87457,1,0,0:0:0:0:
329,192,87515,1,0,0:0:0:0:
182,192,87515,1,0,0:0:0:0:
109,192,87630,1,0,0:0:0:0:
256,192,87746,1,0,0:0:0:0:
402,192,87746,1,0,0:0:0:0:
182,192,87803,1,0,0:0:0:0:
36,192,87861,1,0,0:0:0:0:
329,192,87976,1,0,0:0:0:0:
475,192,87976,1,0,0:0:0:0:
256,192,88092,1,0,0:0:0:0:
109,192,88149,1,0,0:0:0:0:
36,192,88207,1,0,0:0:0:0:
402,192,88207,1,0,0:0:0:0:
329,192,88322,1,0,0:0:0:0:
182,192,88380,1,0,0:0:0:0:
109,192,88438,1,0,0:0:0:0:
475,192,88438,1,0,0:0:0:0:
256,192,88553,1,0,0:0:0:0:
402,192,88553,1,0,0:0:0:0:
329,192,88669,1,0,0:0:0:0:
475,192,88669,1,0,0:0:0:0:
36,192,88669,1,0,0:0:0:0:
109,192,88784,1,0,0:0:0:0:
182,192,88842,1,0,0:0:0:0:
329,192,88899,1,0,0:0:0:0:
475,192,88899,1,0,0:0:0:0:
36,192,89015,1,0,0:0:0:0:
109,192,89072,1,0,0:0:0:0:
256,192,89130,1,0,0:0:0:0:
402,192,89130,1,0,0:0:0:0:
475,192,89246,1,0,0:0:0:0:
36,192,89303,1,0,0:0:0:0:
182,192,89361,1,0,0:0:0:0:
329,192,89361,1,0,0:0:0:0:
402,192,89476,1,0,0:0:0:0:
256,192,89592,1,0,0:0:0:0:
109,192,89592,1,0,0:0:0:0:
329,192,89649,1,0,0:0:0:0:
475,192,89707,1,0,0:0:0:0:
182,192,89822,1,0,0:0:0:0:
36,192,89822,1,0,0:0:0:0:
256,192,89938,1,0,0:0:0:0:
402,192,89996,1,0,0:0:0:0:
475,192,90053,1,0,0:0:0:0:
109,192,90053,1,0,0:0:0:0:
182,192,90169,1,0,0:0:0:0:
329,192,90226,1,0,0:0:0:0:
402,192,90284,1,0,0:0:0:0:
36,192,90284,1,0,0:0:0:0:
256,192,90399,1,0,0:0:0:0:
109,192,90399,1,0,0:0:0:0:
329,192,90457,1,0,0:0:0:0:
402,192,90515,1,0,0:0:0:0:
475,192,90515,1,0,0:0:0:0:
182,192,90515,1,0,0:0:0:0:
475,192,90630,1,0,0:0:0:0:
36,192,90630,1,0,0:0:0:0:
402,192,90746,1,0,0:0:0:0:
109,192,90746,1,0,0:0:0:0:
256,192,90746,1,0,0:0:0:0:
402,192,90861,1,0,0:0:0:0:
475,192,90861,1,0,0:0:0:0:
329,192,90976,1,0,0:0:0:0:
182,192,90976,1,0,0:0:0:0:
36,192,90976,1,0,0:0:0:0:
329,192,91092,1,0,0:0:0:0:
402,192,91092,1,0,0:0:0:0:
256,192,91207,1,0,0:0:0:0:
109,192,91207,1,0,0:0:0:0:
475,192,91207,1,0,0:0:0:0:
256,192,91322,1,0,0:0:0:0:
475,192,91322,1,0,0:0:0:0:
402,192,91380,1,0,0:0:0:0:
109,192,91438,1,0,0:0:0:0:
36,192,91438,1,0,0:0:0:0:
329,192,91438,1,0,0:0:0:0:
36,192,91553,1,0,0:0:0:0:
475,192,91553,1,0,0:0:0:0:
402,192,91669,1,0,0:0:0:0:
256,192,91669,1,0,0:0:0:0:
109,192,91669,1,0,0:0:0:0:
109,192,91784,1,0,0:0:0:0:
36,192,91784,1,0,0:0:0:0:
182,192,91899,1,0,0:0:0:0:
329,192,91899,1,0,0:0:0:0:
475,192,91899,1,0,0:0:0:0:
182,192,92015,1,0,0:0:0:0:
109,192,92015,1,0,0:0:0:0:
36,192,92130,1,0,0:0:0:0:
256,192,92130,1,0,0:0:0:0:
402,192,92130,1,0,0:0:0:0:
256,192,92246,1,0,0:0:0:0:
36,192,92246,1,0,0:0:0:0:
109,192,92303,1,0,0:0:0:0:
182,192,92361,1,0,0:0:0:0:
475,192,92361,1,0,0:0:0:0:
402,192,92419,1,0,0:0:0:0:
329,192,92476,1,0,0:0:0:0:
182,192,92534,1,0,0:0:0:0:
109,192,92592,1,0,0:0:0:0:
402,192,92592,1,0,0:0:0:0:
329,192,92649,1,0,0:0:0:0:
256,192,92707,1,0,0:0:0:0:
109,192,92765,1,0,0:0:0:0:
36,192,92822,1,0,0:0:0:0:
475,192,92822,128,0,93284:0:0:0:0:
402,192,92938,128,0,93284:0:0:0:0:
36,192,93053,5,0,0:0:0:0:
329,192,93053,128,0,93284:0:0:0:0:
256,192,93169,128,0,93284:0:0:0:0:
109,192,93284,128,0,93630:0:0:0:0:
36,192,93284,1,0,0:0:0:0:
402,192,93746,128,0,94092:0:0:0:0:
36,192,94207,5,0,0:0:0:0:
256,192,94207,1,0,0:0:0:0:
182,192,94265,1,0,0:0:0:0:
475,192,94322,1,0,0:0:0:0:
329,192,94380,1,0,0:0:0:0:
36,192,94438,1,0,0:0:0:0:
182,192,94496,1,0,0:0:0:0:
475,192,94553,1,0,0:0:0:0:
329,192,94611,1,0,0:0:0:0:
36,192,94669,1,0,0:0:0:0:
182,192,94726,1,0,0:0:0:0:
475,192,94784,1,0,0:0:0:0:
329,192,94842,1,0,0:0:0:0:
36,192,94899,1,0,0:0:0:0:
182,192,94957,1,0,0:0:0:0:
475,192,95015,1,0,0:0:0:0:
329,192,95072,1,0,0:0:0:0:
109,192,95130,1,0,0:0:0:0:
36,192,95130,1,0,0:0:0:0:
256,192,95188,1,0,0:0:0:0:
475,192,95246,1,0,0:0:0:0:
402,192,95246,1,0,0:0:0:0:
182,192,95303,1,0,0:0:0:0:
109,192,95361,1,0,0:0:0:0:
36,192,95361,1,0,0:0:0:0:
256,192,95419,1,0,0:0:0:0:
475,192,95476,1,0,0:0:0:0:
402,192,95476,1,0,0:0:0:0:
329,192,95534,1,0,0:0:0:0:
36,192,95592,1,0,0:0:0:0:
182,192,95592,128,0,95822:0:0:0:0:
256,192,96053,1,0,0:0:0:0:
36,192,96053,1,0,0:0:0:0:
402,192,96053,1,0,0:0:0:0:
475,192,96053,1,0,0:0:0:0:
109,192,96169,1,0,0:0:0:0:
475,192,96169,1,0,0:0:0:0:
329,192,96284,1,0,0:0:0:0:
182,192,96284,1,0,0:0:0:0:
329,192,96399,1,0,0:0:0:0:
475,192,96399,1,0,0:0:0:0:
256,192,96515,1,0,0:0:0:0:
109,192,96515,1,0,0:0:0:0:
256,192,96630,1,0,0:0:0:0:
402,192,96630,1,0,0:0:0:0:
182,192,96746,1,0,0:0:0:0:
36,192,96746,1,0,0:0:0:0:
329,192,96861,1,0,0:0:0:0:
182,192,96861,1,0,0:0:0:0:
109,192,96919,1,0,0:0:0:0:
36,192,96976,1,0,0:0:0:0:
475,192,96976,1,0,0:0:0:0:
256,192,96976,1,0,0:0:0:0:
329,192,97092,1,0,0:0:0:0:
182,192,97092,1,0,0:0:0:0:
109,192,97207,1,0,0:0:0:0:
475,192,97207,1,0,0:0:0:0:
329,192,97322,1,0,0:0:0:0:
182,192,97322,1,0,0:0:0:0:
402,192,97380,1,0,0:0:0:0:
475,192,97438,1,0,0:0:0:0:
36,192,97438,1,0,0:0:0:0:
256,192,97438,1,0,0:0:0:0:
329,192,97553,1,0,0:0:0:0:
182,192,97553,1,0,0:0:0:0:
36,192,97669,1,0,0:0:0:0:
402,192,97669,1,0,0:0:0:0:
329,192,97784,1,0,0:0:0:0:
109,192,97784,1,0,0:0:0:0:
182,192,97842,1,0,0:0:0:0:
475,192,97899,1,0,0:0:0:0:
36,192,97899,1,0,0:0:0:0:
256,192,97899,1,0,0:0:0:0:
109,192,98130,1,0,0:0:0:0:
402,192,98130,1,0,0:0:0:0:
109,192,98246,1,0,0:0:0:0:
256,192,98246,1,0,0:0:0:0:
329,192,98361,1,0,0:0:0:0:
475,192,98361,1,0,0:0:0:0:
36,192,98476,1,0,0:0:0:0:
329,192,98476,1,0,0:0:0:0:
109,192,98534,1,0,0:0:0:0:
256,192,98592,1,0,0:0:0:0:
475,192,98592,1,0,0:0:0:0:
402,192,98649,1,0,0:0:0:0:
182,192,98707,1,0,0:0:0:0:
36,192,98707,1,0,0:0:0:0:
329,192,98822,1,0,0:0:0:0:
402,192,98822,1,0,0:0:0:0:
475,192,98822,1,0,0:0:0:0:
256,192,99053,1,0,0:0:0:0:
329,192,99053,1,0,0:0:0:0:
182,192,99053,1,0,0:0:0:0:
182,192,99284,1,0,0:0:0:0:
109,192,99284,1,0,0:0:0:0:
36,192,99284,1,0,0:0:0:0:
256,192,99515,1,0,0:0:0:0:
36,192,99515,1,0,0:0:0:0:
109,192,99572,1,0,0:0:0:0:
256,192,99630,1,0,0:0:0:0:
475,192,99630,1,0,0:0:0:0:
402,192,99688,1,0,0:0:0:0:
182,192,99746,1,0,0:0:0:0:
329,192,99746,1,0,0:0:0:0:
36,192,99746,1,0,0:0:0:0:
402,192,99861,1,0,0:0:0:0:
36,192,99861,1,0,0:0:0:0:
182,192,99976,1,0,0:0:0:0:
329,192,99976,1,0,0:0:0:0:
182,192,100092,1,0,0:0:0:0:
36,192,100092,1,0,0:0:0:0:
256,192,100207,1,0,0:0:0:0:
402,192,100207,1,0,0:0:0:0:
256,192,100322,1,0,0:0:0:0:
109,192,100322,1,0,0:0:0:0:
329,192,100438,1,0,0:0:0:0:
475,192,100438,1,0,0:0:0:0:
182,192,100553,1,0,0:0:0:0:
329,192,100553,1,0,0:0:0:0:
402,192,100611,1,0,0:0:0:0:
475,192,100669,1,0,0:0:0:0:
36,192,100669,1,0,0:0:0:0:
256,192,100669,1,0,0:0:0:0:
182,192,100784,1,0,0:0:0:0:
329,192,100784,1,0,0:0:0:0:
402,192,100899,1,0,0:0:0:0:
36,192,100899,1,0,0:0:0:0:
182,192,101015,1,0,0:0:0:0:
329,192,101015,1,0,0:0:0:0:
109,192,101072,1,0,0:0:0:0:
36,192,101130,1,0,0:0:0:0:
475,192,101130,1,0,0:0:0:0:
256,192,101130,1,0,0:0:0:0:
182,192,101246,1,0,0:0:0:0:
329,192,101246,1,0,0:0:0:0:
475,192,101361,1,0,0:0:0:0:
109,192,101361,1,0,0:0:0:0:
402,192,101476,1,0,0:0:0:0:
182,192,101476,1,0,0:0:0:0:
329,192,101534,1,0,0:0:0:0:
36,192,101592,1,0,0:0:0:0:
475,192,101592,1,0,0:0:0:0:
256,192,101592,1,0,0:0:0:0:
109,192,101822,1,0,0:0:0:0:
402,192,101822,1,0,0:0:0:0:
256,192,101938,1,0,0:0:0:0:
402,192,101938,1,0,0:0:0:0:
182,192,102053,1,0,0:0:0:0:
36,192,102053,1,0,0:0:0:0:
475,192,102169,1,0,0:0:0:0:
182,192,102169,1,0,0:0:0:0:
402,192,102226,1,0,0:0:0:0:
256,192,102284,1,0,0:0:0:0:
36,192,102284,1,0,0:0:0:0:
109,192,102342,1,0,0:0:0:0:
329,192,102399,1,0,0:0:0:0:
475,192,102399,1,0,0:0:0:0:
182,192,102515,1,0,0:0:0:0:
109,192,102515,1,0,0:0:0:0:
36,192,102515,1,0,0:0:0:0:
256,192,102746,1,0,0:0:0:0:
182,192,102746,1,0,0:0:0:0:
329,192,102746,1,0,0:0:0:0:
182,192,102861,1,0,0:0:0:0:
36,192,102861,1,0,0:0:0:0:
329,192,102976,1,0,0:0:0:0:
402,192,102976,1,0,0:0:0:0:
475,192,102976,1,0,0:0:0:0:
36,192,103207,1,0,0:0:0:0:
182,192,103207,128,0,103322:0:0:0:0:
475,192,103322,1,0,0:0:0:0:
329,192,103380,1,0,0:0:0:0:
402,192,103438,1,0,0:0:0:0:
36,192,103438,1,0,0:0:0:0:
182,192,103438,128,0,103553:0:0:0:0:
475,192,103553,1,0,0:0:0:0:
329,192,103611,1,0,0:0:0:0:
36,192,103669,1,0,0:0:0:0:
182,192,103669,128,0,103784:0:0:0:0:
475,192,103784,1,0,0:0:0:0:
329,192,103842,1,0,0:0:0:0:
36,192,103899,1,0,0:0:0:0:
182,192,103899,128,0,104015:0:0:0:0:
475,192,104015,1,0,0:0:0:0:
329,192,104072,1,0,0:0:0:0:
402,192,104130,1,0,0:0:0:0:
109,192,104130,1,0,0:0:0:0:
256,192,104246,1,0,0:0:0:0:
402,192,104246,1,0,0:0:0:0:
475,192,104361,1,0,0:0:0:0:
182,192,104361,1,0,0:0:0:0:
36,192,104361,1,0,0:0:0:0:
256,192,104476,1,0,0:0:0:0:
402,192,104476,128,0,104592:0:0:0:0:
329,192,104592,1,0,0:0:0:0:
36,192,104592,1,0,0:0:0:0:
36,192,104707,1,0,0:0:0:0:
182,192,104707,1,0,0:0:0:0:
475,192,104822,128,0,104938:0:0:0:0:
329,192,104822,1,0,0:0:0:0:
256,192,104938,1,0,0:0:0:0:
109,192,104938,1,0,0:0:0:0:
36,192,105053,1,0,0:0:0:0:
329,192,105053,1,0,0:0:0:0:
182,192,105111,1,0,0:0:0:0:
109,192,105169,1,0,0:0:0:0:
475,192,105169,1,0,0:0:0:0:
329,192,105169,128,0,105284:0:0:0:0:
182,192,105284,128,0,105399:0:0:0:0:
36,192,105284,1,0,0:0:0:0:
402,192,105399,1,0,0:0:0:0:
329,192,105457,1,0,0:0:0:0:
36,192,105515,1,0,0:0:0:0:
182,192,105515,128,0,105630:0:0:0:0:
402,192,105630,1,0,0:0:0:0:
329,192,105688,1,0,0:0:0:0:
182,192,105746,128,0,105861:0:0:0:0:
36,192,105746,1,0,0:0:0:0:
402,192,105861,1,0,0:0:0:0:
329,192,105919,1,0,0:0:0:0:
256,192,105976,1,0,0:0:0:0:
109,192,105976,1,0,0:0:0:0:
329,192,106092,1,0,0:0:0:0:
109,192,106092,1,0,0:0:0:0:
182,192,106207,1,0,0:0:0:0:
402,192,106207,1,0,0:0:0:0:
475,192,106207,1,0,0:0:0:0:
329,192,106438,1,0,0:0:0:0:
402,192,106438,1,0,0:0:0:0:
109,192,106438,1,0,0:0:0:0:
36,192,106669,1,0,0:0:0:0:
329,192,106669,1,0,0:0:0:0:
256,192,106669,1,0,0:0:0:0:
475,192,106899,1,0,0:0:0:0:
256,192,106899,1,0,0:0:0:0:
402,192,106957,1,0,0:0:0:0:
256,192,107015,1,0,0:0:0:0:
36,192,107015,1,0,0:0:0:0:
109,192,107072,1,0,0:0:0:0:
329,192,107130,128,0,107246:0:0:0:0:
475,192,107130,1,0,0:0:0:0:
36,192,107246,1,0,0:0:0:0:
182,192,107303,1,0,0:0:0:0:
329,192,107361,128,0,107476:0:0:0:0:
475,192,107361,1,0,0:0:0:0:
36,192,107476,1,0,0:0:0:0:
182,192,107534,1,0,0:0:0:0:
329,192,107592,128,0,107707:0:0:0:0:
475,192,107592,1,0,0:0:0:0:
36,192,107707,1,0,0:0:0:0:
182,192,107765,1,0,0:0:0:0:
402,192,107822,1,0,0:0:0:0:
109,192,107822,1,0,0:0:0:0:
109,192,107938,1,0,0:0:0:0:
256,192,107938,1,0,0:0:0:0:
475,192,108053,1,0,0:0:0:0:
329,192,108053,1,0,0:0:0:0:
36,192,108053,1,0,0:0:0:0:
109,192,108169,128,0,108284:0:0:0:0:
256,192,108169,1,0,0:0:0:0:
475,192,108284,1,0,0:0:0:0:
182,192,108284,1,0,0:0:0:0:
329,192,108399,1,0,0:0:0:0:
475,192,108399,1,0,0:0:0:0:
182,192,108515,1,0,0:0:0:0:
36,192,108515,128,0,108630:0:0:0:0:
402,192,108630,1,0,0:0:0:0:
256,192,108630,1,0,0:0:0:0:
182,192,108746,1,0,0:0:0:0:
475,192,108746,1,0,0:0:0:0:
329,192,108803,1,0,0:0:0:0:
182,192,108861,128,0,108976:0:0:0:0:
36,192,108861,1,0,0:0:0:0:
402,192,108861,1,0,0:0:0:0:
475,192,108976,1,0,0:0:0:0:
329,192,108976,128,0,109092:0:0:0:0:
109,192,109092,1,0,0:0:0:0:
182,192,109149,1,0,0:0:0:0:
329,192,109207,128,0,109322:0:0:0:0:
475,192,109207,1,0,0:0:0:0:
109,192,109322,1,0,0:0:0:0:
182,192,109380,1,0,0:0:0:0:
475,192,109438,1,0,0:0:0:0:
329,192,109438,128,0,109553:0:0:0:0:
109,192,109553,1,0,0:0:0:0:
182,192,109611,1,0,0:0:0:0:
402,192,109669,1,0,0:0:0:0:
256,192,109669,1,0,0:0:0:0:
402,192,109784,1,0,0:0:0:0:
182,192,109784,1,0,0:0:0:0:
36,192,109899,1,0,0:0:0:0:
109,192,109899,1,0,0:0:0:0:
329,192,109899,1,0,0:0:0:0:
36,192,110130,1,0,0:0:0:0:
402,192,110130,1,0,0:0:0:0:
182,192,110130,1,0,0:0:0:0:
329,192,110246,1,0,0:0:0:0:
36,192,110246,1,0,0:0:0:0:
182,192,110361,1,0,0:0:0:0:
475,192,110361,1,0,0:0:0:0:
402,192,110419,1,0,0:0:0:0:
109,192,110476,1,0,0:0:0:0:
329,192,110476,1,0,0:0:0:0:
256,192,110534,1,0,0:0:0:0:
475,192,110592,1,0,0:0:0:0:
36,192,110592,128,0,110822:0:0:0:0:
182,192,110592,1,0,0:0:0:0:
329,192,110707,1,0,0:0:0:0:
402,192,110822,1,0,0:0:0:0:
109,192,110938,1,0,0:0:0:0:
402,192,111053,1,0,0:0:0:0:
109,192,111169,1,0,0:0:0:0:
256,192,111226,1,0,0:0:0:0:
402,192,111284,1,0,0:0:0:0:
109,192,111399,1,0,0:0:0:0:
256,192,111515,1,0,0:0:0:0:
36,192,111515,1,0,0:0:0:0:
475,192,111515,1,0,0:0:0:0:
182,192,111746,128,0,111861:0:0:0:0:
402,192,111746,1,0,0:0:0:0:
475,192,111746,1,0,0:0:0:0:
36,192,111746,1,0,0:0:0:0:
329,192,111861,1,0,0:0:0:0:
256,192,111976,128,0,112092:0:0:0:0:
475,192,111976,1,0,0:0:0:0:
109,192,111976,1,0,0:0:0:0:
402,192,112092,1,0,0:0:0:0:
329,192,112207,128,0,112322:0:0:0:0:
36,192,112207,1,0,0:0:0:0:
182,192,112207,1,0,0:0:0:0:
402,192,112322,128,0,112438:0:0:0:0:
475,192,112322,1,0,0:0:0:0:
256,192,112438,1,0,0:0:0:0:
109,192,112438,1,0,0:0:0:0:
475,192,112553,128,0,112669:0:0:0:0:
329,192,112553,1,0,0:0:0:0:
36,192,112669,1,0,0:0:0:0:
182,192,112669,1,0,0:0:0:0:
402,192,112669,1,0,0:0:0:0:
329,192,112784,1,0,0:0:0:0:
256,192,112899,128,0,113015:0:0:0:0:
475,192,112899,1,0,0:0:0:0:
36,192,112899,1,0,0:0:0:0:
182,192,113015,1,0,0:0:0:0:
402,192,113130,128,0,113246:0:0:0:0:
475,192,113130,1,0,0:0:0:0:
109,192,113130,1,0,0:0:0:0:
329,192,113246,128,0,113361:0:0:0:0:
182,192,113246,1,0,0:0:0:0:
36,192,113361,1,0,0:0:0:0:
256,192,113361,1,0,0:0:0:0:
182,192,113476,128,0,113592:0:0:0:0:
402,192,113476,1,0,0:0:0:0:
475,192,113476,1,0,0:0:0:0:
329,192,113592,1,0,0:0:0:0:
36,192,113592,1,0,0:0:0:0:
109,192,113592,1,0,0:0:0:0:
475,192,113707,1,0,0:0:0:0:
256,192,113822,128,0,113938:0:0:0:0:
402,192,113822,1,0,0:0:0:0:
36,192,113822,1,0,0:0:0:0:
109,192,113938,1,0,0:0:0:0:
329,192,114053,1,0,0:0:0:0:
182,192,114053,1,0,0:0:0:0:
36,192,114053,128,0,114169:0:0:0:0:
402,192,114169,128,0,114284:0:0:0:0:
475,192,114169,1,0,0:0:0:0:
36,192,114284,1,0,0:0:0:0:
182,192,114284,1,0,0:0:0:0:
109,192,114399,128,0,114515:0:0:0:0:
256,192,114399,1,0,0:0:0:0:
402,192,114399,1,0,0:0:0:0:
36,192,114515,1,0,0:0:0:0:
329,192,114515,1,0,0:0:0:0:
475,192,114515,1,0,0:0:0:0:
182,192,114630,1,0,0:0:0:0:
329,192,114746,128,0,114861:0:0:0:0:
109,192,114746,1,0,0:0:0:0:
475,192,114746,1,0,0:0:0:0:
256,192,114861,1,0,0:0:0:0:
109,192,114861,1,0,0:0:0:0:
182,192,114976,1,0,0:0:0:0:
402,192,114976,1,0,0:0:0:0:
36,192,114976,128,0,115092:0:0:0:0:
329,192,115092,1,0,0:0:0:0:
109,192,115149,128,0,115265:0:0:0:0:
256,192,115207,1,0,0:0:0:0:
475,192,115207,1,0,0:0:0:0:
402,192,115265,1,0,0:0:0:0:
182,192,115322,128,0,115438:0:0:0:0:
36,192,115322,1,0,0:0:0:0:
402,192,115438,1,0,0:0:0:0:
475,192,115438,128,0,115553:0:0:0:0:
329,192,115438,1,0,0:0:0:0:
109,192,115553,1,0,0:0:0:0:
36,192,115669,128,0,115784:0:0:0:0:
402,192,115669,1,0,0:0:0:0:
182,192,115669,1,0,0:0:0:0:
329,192,115784,1,0,0:0:0:0:
36,192,115899,1,0,0:0:0:0:
475,192,115899,128,0,116015:0:0:0:0:
182,192,115899,1,0,0:0:0:0:
402,192,116015,128,0,116130:0:0:0:0:
256,192,116015,1,0,0:0:0:0:
109,192,116130,1,0,0:0:0:0:
329,192,116130,1,0,0:0:0:0:
256,192,116246,128,0,116361:0:0:0:0:
475,192,116246,1,0,0:0:0:0:
182,192,116361,1,0,0:0:0:0:
402,192,116361,1,0,0:0:0:0:
36,192,116361,1,0,0:0:0:0:
329,192,116476,1,0,0:0:0:0:
256,192,116592,128,0,116707:0:0:0:0:
182,192,116592,1,0,0:0:0:0:
36,192,116592,1,0,0:0:0:0:
475,192,116707,1,0,0:0:0:0:
329,192,116822,128,0,116938:0:0:0:0:
256,192,116822,1,0,0:0:0:0:
109,192,116822,1,0,0:0:0:0:
36,192,116938,1,0,0:0:0:0:
402,192,117053,128,0,117169:0:0:0:0:
329,192,117053,1,0,0:0:0:0:
182,192,117053,1,0,0:0:0:0:
109,192,117169,1,0,0:0:0:0:
36,192,117169,1,0,0:0:0:0:
475,192,117284,128,0,117399:0:0:0:0:
402,192,117284,1,0,0:0:0:0:
256,192,117284,1,0,0:0:0:0:
109,192,117399,1,0,0:0:0:0:
36,192,117515,128,0,117630:0:0:0:0:
475,192,117515,1,0,0:0:0:0:
256,192,117515,1,0,0:0:0:0:
329,192,117630,1,0,0:0:0:0:
402,192,117746,128,0,117861:0:0:0:0:
475,192,117746,1,0,0:0:0:0:
109,192,117746,1,0,0:0:0:0:
182,192,117861,1,0,0:0:0:0:
329,192,117919,128,0,118034:0:0:0:0:
256,192,117976,1,0,0:0:0:0:
36,192,117976,1,0,0:0:0:0:
402,192,118092,128,0,118207:0:0:0:0:
109,192,118092,1,0,0:0:0:0:
256,192,118149,1,0,0:0:0:0:
475,192,118207,1,0,0:0:0:0:
182,192,118207,128,0,118322:0:0:0:0:
36,192,118207,1,0,0:0:0:0:
329,192,118322,128,0,118438:0:0:0:0:
402,192,118438,1,0,0:0:0:0:
182,192,118438,1,0,0:0:0:0:
256,192,118553,128,0,118669:0:0:0:0:
475,192,118553,1,0,0:0:0:0:
109,192,118553,1,0,0:0:0:0:
402,192,118669,128,0,118784:0:0:0:0:
329,192,118669,1,0,0:0:0:0:
36,192,118669,1,0,0:0:0:0:
475,192,118784,1,0,0:0:0:0:
109,192,118784,1,0,0:0:0:0:
329,192,118899,128,0,119015:0:0:0:0:
36,192,118899,1,0,0:0:0:0:
182,192,118899,1,0,0:0:0:0:
475,192,119015,1,0,0:0:0:0:
402,192,119130,128,0,119246:0:0:0:0:
109,192,119130,1,0,0:0:0:0:
36,192,119130,1,0,0:0:0:0:
256,192,119130,1,0,0:0:0:0:
182,192,119246,1,0,0:0:0:0:
329,192,119361,128,0,119476:0:0:0:0:
36,192,119361,1,0,0:0:0:0:
475,192,119361,1,0,0:0:0:0:
109,192,119476,1,0,0:0:0:0:
182,192,119592,128,0,119707:0:0:0:0:
475,192,119592,1,0,0:0:0:0:
329,192,119592,1,0,0:0:0:0:
109,192,119707,128,0,119822:0:0:0:0:
36,192,119707,1,0,0:0:0:0:
256,192,119822,1,0,0:0:0:0:
402,192,119822,1,0,0:0:0:0:
36,192,119938,128,0,120053:0:0:0:0:
182,192,119938,1,0,0:0:0:0:
475,192,120053,1,0,0:0:0:0:
329,192,120053,1,0,0:0:0:0:
109,192,120053,1,0,0:0:0:0:
182,192,120169,1,0,0:0:0:0:
256,192,120284,128,0,120399:0:0:0:0:
36,192,120284,1,0,0:0:0:0:
475,192,120284,1,0,0:0:0:0:
329,192,120399,1,0,0:0:0:0:
109,192,120515,128,0,120630:0:0:0:0:
36,192,120515,1,0,0:0:0:0:
402,192,120515,1,0,0:0:0:0:
182,192,120630,128,0,120746:0:0:0:0:
329,192,120630,1,0,0:0:0:0:
256,192,120746,1,0,0:0:0:0:
475,192,120746,1,0,0:0:0:0:
329,192,120861,128,0,120976:0:0:0:0:
109,192,120861,1,0,0:0:0:0:
36,192,120861,1,0,0:0:0:0:
402,192,120976,1,0,0:0:0:0:
182,192,120976,1,0,0:0:0:0:
475,192,120976,1,0,0:0:0:0:
329,192,121092,1,0,0:0:0:0:
256,192,121207,128,0,121322:0:0:0:0:
36,192,121207,1,0,0:0:0:0:
475,192,121207,1,0,0:0:0:0:
109,192,121322,1,0,0:0:0:0:
36,192,121438,128,0,121553:0:0:0:0:
182,192,121438,1,0,0:0:0:0:
329,192,121438,1,0,0:0:0:0:
109,192,121553,128,0,121669:0:0:0:0:
402,192,121553,1,0,0:0:0:0:
256,192,121669,1,0,0:0:0:0:
475,192,121669,1,0,0:0:0:0:
182,192,121784,128,0,121899:0:0:0:0:
402,192,121784,1,0,0:0:0:0:
329,192,121842,1,0,0:0:0:0:
256,192,121899,1,0,0:0:0:0:
36,192,121899,1,0,0:0:0:0:
475,192,121899,1,0,0:0:0:0:
109,192,122015,1,0,0:0:0:0:
475,192,122130,128,0,122246:0:0:0:0:
182,192,122130,1,0,0:0:0:0:
402,192,122130,1,0,0:0:0:0:
36,192,122246,1,0,0:0:0:0:
182,192,122246,1,0,0:0:0:0:
402,192,122361,128,0,122476:0:0:0:0:
475,192,122361,1,0,0:0:0:0:
256,192,122361,1,0,0:0:0:0:
36,192,122476,1,0,0:0:0:0:
182,192,122476,1,0,0:0:0:0:
109,192,122592,128,0,122707:0:0:0:0:
475,192,122592,1,0,0:0:0:0:
256,192,122592,1,0,0:0:0:0:
402,192,122649,1,0,0:0:0:0:
329,192,122707,1,0,0:0:0:0:
36,192,122822,128,0,122938:0:0:0:0:
475,192,122822,1,0,0:0:0:0:
182,192,122822,1,0,0:0:0:0:
109,192,122822,1,0,0:0:0:0:
329,192,122938,1,0,0:0:0:0:
256,192,123053,128,0,123169:0:0:0:0:
36,192,123053,1,0,0:0:0:0:
475,192,123053,1,0,0:0:0:0:
182,192,123169,1,0,0:0:0:0:
329,192,123284,128,0,123399:0:0:0:0:
475,192,123284,1,0,0:0:0:0:
36,192,123284,1,0,0:0:0:0:
182,192,123399,128,0,123515:0:0:0:0:
109,192,123399,1,0,0:0:0:0:
329,192,123515,1,0,0:0:0:0:
475,192,123515,1,0,0:0:0:0:
182,192,123630,128,0,123746:0:0:0:0:
36,192,123630,1,0,0:0:0:0:
256,192,123746,1,0,0:0:0:0:
402,192,123746,1,0,0:0:0:0:
475,192,123746,1,0,0:0:0:0:
109,192,123861,1,0,0:0:0:0:
329,192,123976,128,0,124092:0:0:0:0:
256,192,123976,1,0,0:0:0:0:
36,192,123976,1,0,0:0:0:0:
182,192,124092,1,0,0:0:0:0:
402,192,124207,128,0,124322:0:0:0:0:
329,192,124207,1,0,0:0:0:0:
109,192,124207,1,0,0:0:0:0:
256,192,124322,1,0,0:0:0:0:
36,192,124322,1,0,0:0:0:0:
475,192,124438,128,0,124553:0:0:0:0:
402,192,124438,1,0,0:0:0:0:
182,192,124438,1,0,0:0:0:0:
329,192,124496,1,0,0:0:0:0:
36,192,124553,1,0,0:0:0:0:
182,192,124611,1,0,0:0:0:0:
475,192,124669,128,0,124899:0:0:0:0:
402,192,124669,1,0,0:0:0:0:
256,192,124669,128,0,124899:0:0:0:0:
329,192,125130,1,0,0:0:0:0:
475,192,125130,1,0,0:0:0:0:
36,192,125130,1,0,0:0:0:0:
182,192,125188,1,0,0:0:0:0:
256,192,125246,1,0,0:0:0:0:
402,192,125303,1,0,0:0:0:0:
109,192,125361,1,0,0:0:0:0:
256,192,125419,1,0,0:0:0:0:
329,192,125476,1,0,0:0:0:0:
475,192,125534,1,0,0:0:0:0:
182,192,125592,1,0,0:0:0:0:
109,192,125592,128,0,125707:0:0:0:0:
36,192,125592,128,0,125707:0:0:0:0:
402,192,125707,1,0,0:0:0:0:
256,192,125765,1,0,0:0:0:0:
109,192,125822,1,0,0:0:0:0:
475,192,125938,128,0,126053:0:0:0:0:
402,192,125938,128,0,126053:0:0:0:0:
182,192,126053,1,0,0:0:0:0:
36,192,126053,1,0,0:0:0:0:
329,192,126111,1,0,0:0:0:0:
256,192,126169,128,0,126284:0:0:0:0:
402,192,126284,128,0,126399:0:0:0:0:
182,192,126342,1,0,0:0:0:0:
109,192,126399,128,0,126515:0:0:0:0:
36,192,126515,128,0,126746:0:0:0:0:
256,192,126515,128,0,126746:0:0:0:0:
475,192,126515,1,0,0:0:0:0:
402,192,126746,1,0,0:0:0:0:
475,192,126746,1,0,0:0:0:0:
36,192,126976,1,0,0:0:0:0:
182,192,126976,1,0,0:0:0:0:
475,192,126976,1,0,0:0:0:0:
402,192,127034,1,0,0:0:0:0:
256,192,127092,1,0,0:0:0:0:
109,192,127149,1,0,0:0:0:0:
402,192,127207,5,0,0:0:0:0:
36,192,127207,1,0,0:0:0:0:
329,192,127265,1,0,0:0:0:0:
182,192,127322,1,0,0:0:0:0:
475,192,127322,1,0,0:0:0:0:
36,192,127380,1,0,0:0:0:0:
256,192,127438,1,0,0:0:0:0:
109,192,127438,1,0,0:0:0:0:
475,192,127438,1,0,0:0:0:0:
329,192,127496,1,0,0:0:0:0:
402,192,127553,1,0,0:0:0:0:
36,192,127553,1,0,0:0:0:0:
109,192,127611,1,0,0:0:0:0:
182,192,127669,1,0,0:0:0:0:
329,192,127669,1,0,0:0:0:0:
402,192,127726,1,0,0:0:0:0:
475,192,127784,1,0,0:0:0:0:
109,192,127784,1,0,0:0:0:0:
182,192,127842,1,0,0:0:0:0:
256,192,127899,1,0,0:0:0:0:
402,192,127899,1,0,0:0:0:0:
475,192,127957,1,0,0:0:0:0:
36,192,128015,1,0,0:0:0:0:
182,192,128015,1,0,0:0:0:0:
256,192,128072,1,0,0:0:0:0:
329,192,128130,1,0,0:0:0:0:
475,192,128130,1,0,0:0:0:0:
36,192,128188,1,0,0:0:0:0:
109,192,128246,1,0,0:0:0:0:
256,192,128246,1,0,0:0:0:0:
329,192,128303,1,0,0:0:0:0:
36,192,128361,1,0,0:0:0:0:
475,192,128361,128,0,128476:0:0:0:0:
182,192,128361,1,0,0:0:0:0:
402,192,128361,1,0,0:0:0:0:
329,192,128476,128,0,128592:0:0:0:0:
402,192,128592,128,0,128707:0:0:0:0:
109,192,128707,1,0,0:0:0:0:
256,192,128822,128,0,128938:0:0:0:0:
109,192,128938,128,0,129053:0:0:0:0:
256,192,129053,128,0,129284:0:0:0:0:
109,192,129169,128,0,129284:0:0:0:0:
402,192,129284,1,0,0:0:0:0:
475,192,129284,1,0,0:0:0:0:
36,192,129399,128,0,129746:0:0:0:0:
182,192,129515,128,0,129746:0:0:0:0:
329,192,129630,128,0,129746:0:0:0:0:
475,192,129746,128,0,129976:0:0:0:0:
402,192,129861,128,0,129976:0:0:0:0:
182,192,129976,128,0,130207:0:0:0:0:
256,192,130092,128,0,130207:0:0:0:0:
475,192,130207,128,0,130322:0:0:0:0:
329,192,130322,128,0,130438:0:0:0:0:
402,192,130438,128,0,130553:0:0:0:0:
182,192,130553,1,0,0:0:0:0:
256,192,130669,128,0,130784:0:0:0:0:
109,192,130784,128,0,130899:0:0:0:0:
256,192,130899,128,0,131130:0:0:0:0:
109,192,131015,128,0,131130:0:0:0:0:
475,192,131130,1,0,0:0:0:0:
402,192,131130,1,0,0:0:0:0:
109,192,131246,1,0,0:0:0:0:
36,192,131246,1,0,0:0:0:0:
329,192,131246,128,0,131361:0:0:0:0:
475,192,131361,128,0,131476:0:0:0:0:
109,192,131476,1,0,0:0:0:0:
36,192,131476,1,0,0:0:0:0:
329,192,131476,128,0,131592:0:0:0:0:
182,192,131592,128,0,131707:0:0:0:0:
402,192,131707,128,0,131822:0:0:0:0:
256,192,131822,128,0,132053:0:0:0:0:
36,192,132053,1,0,0:0:0:0:
109,192,132053,1,0,0:0:0:0:
475,192,132053,128,0,132169:0:0:0:0:
329,192,132169,128,0,132284:0:0:0:0:
402,192,132284,128,0,132399:0:0:0:0:
109,192,132399,1,0,0:0:0:0:
256,192,132515,128,0,132630:0:0:0:0:
109,192,132630,128,0,132746:0:0:0:0:
256,192,132746,128,0,132976:0:0:0:0:
109,192,132861,128,0,132976:0:0:0:0:
402,192,132976,1,0,0:0:0:0:
475,192,132976,1,0,0:0:0:0:
36,192,133092,128,0,133438:0:0:0:0:
182,192,133207,128,0,133438:0:0:0:0:
329,192,133322,128,0,133438:0:0:0:0:
475,192,133438,128,0,133669:0:0:0:0:
402,192,133553,128,0,133669:0:0:0:0:
182,192,133669,128,0,133899:0:0:0:0:
256,192,133784,128,0,133899:0:0:0:0:
109,192,133899,1,0,0:0:0:0:
36,192,133899,1,0,0:0:0:0:
475,192,133899,1,0,0:0:0:0:
182,192,134130,1,0,0:0:0:0:
36,192,134130,1,0,0:0:0:0:
182,192,134246,1,0,0:0:0:0:
36,192,134246,1,0,0:0:0:0:
329,192,134361,1,0,0:0:0:0:
475,192,134361,1,0,0:0:0:0:
329,192,134476,1,0,0:0:0:0:
475,192,134476,1,0,0:0:0:0:
182,192,134592,1,0,0:0:0:0:
36,192,134592,1,0,0:0:0:0:
182,192,134707,1,0,0:0:0:0:
36,192,134707,1,0,0:0:0:0:
256,192,134822,1,0,0:0:0:0:
402,192,134822,1,0,0:0:0:0:
475,192,134822,1,0,0:0:0:0:
256,192,135053,1,0,0:0:0:0:
109,192,135053,1,0,0:0:0:0:
36,192,135053,1,0,0:0:0:0:
256,192,135284,1,0,0:0:0:0:
402,192,135284,1,0,0:0:0:0:
475,192,135284,1,0,0:0:0:0:
109,192,135399,1,0,0:0:0:0:
329,192,135515,5,0,0:0:0:0:
182,192,135572,1,0,0:0:0:0:
109,192,135630,1,0,0:0:0:0:
36,192,135688,1,0,0:0:0:0:
329,192,135746,1,0,0:0:0:0:
475,192,135746,1,0,0:0:0:0:
402,192,135746,128,0,136092:0:0:0:0:
109,192,136207,128,0,136553:0:0:0:0:
256,192,136669,5,0,0:0:0:0:
36,192,136669,1,0,0:0:0:0:
475,192,136669,1,0,0:0:0:0:
402,192,136726,1,0,0:0:0:0:
329,192,136784,1,0,0:0:0:0:
109,192,136784,1,0,0:0:0:0:
256,192,136842,1,0,0:0:0:0:
182,192,136899,1,0,0:0:0:0:
475,192,136899,1,0,0:0:0:0:
256,192,136957,1,0,0:0:0:0:
109,192,137015,1,0,0:0:0:0:
329,192,137015,1,0,0:0:0:0:
402,192,137072,1,0,0:0:0:0:
36,192,137130,1,0,0:0:0:0:
475,192,137130,1,0,0:0:0:0:
109,192,137188,1,0,0:0:0:0:
182,192,137246,1,0,0:0:0:0:
402,192,137246,1,0,0:0:0:0:
256,192,137303,1,0,0:0:0:0:
329,192,137361,1,0,0:0:0:0:
36,192,137361,1,0,0:0:0:0:
256,192,137419,1,0,0:0:0:0:
182,192,137476,1,0,0:0:0:0:
402,192,137476,1,0,0:0:0:0:
109,192,137534,1,0,0:0:0:0:
256,192,137592,1,0,0:0:0:0:
36,192,137592,1,0,0:0:0:0:
475,192,137592,128,0,137707:0:0:0:0:
182,192,137707,1,0,0:0:0:0:
402,192,137765,1,0,0:0:0:0:
256,192,137822,1,0,0:0:0:0:
36,192,137822,128,0,137938:0:0:0:0:
475,192,137822,1,0,0:0:0:0:
329,192,137938,1,0,0:0:0:0:
109,192,137996,1,0,0:0:0:0:
402,192,138053,128,0,138169:0:0:0:0:
475,192,138053,1,0,0:0:0:0:
182,192,138053,1,0,0:0:0:0:
109,192,138169,128,0,138284:0:0:0:0:
329,192,138169,1,0,0:0:0:0:
36,192,138169,1,0,0:0:0:0:
256,192,138284,128,0,138515:0:0:0:0:
475,192,138284,1,0,0:0:0:0:
36,192,138515,1,0,0:0:0:0:
182,192,138515,1,0,0:0:0:0:
