osu file format v14

[General]
AudioFilename: audio.mp3
AudioLeadIn: 0
PreviewTime: 203117
Countdown: 0
SampleSet: Soft
StackLeniency: 0.7
Mode: 2
LetterboxInBreaks: 0
WidescreenStoryboard: 1

[Editor]
Bookmarks: 204046
DistanceSpacing: 2.6
BeatDivisor: 3
GridSize: 8
TimelineZoom: 7.199997

[Metadata]
Title:Exitium (Extended)
TitleUnicode:Exitium (Extended)
Artist:Laur
ArtistUnicode:Laur
Creator:Mochi -
Version:Equilibrium
Source:WACCA
Tags:electronic instrumental metal rock speedcore hardcore tano*c last labyrinth collapse m3-2021 llcd-003 ワッカ tanoc D4DJ Groovy Mix videogame video game destruction CHUNITHM NEW PLUS SUN orchestral Celektus
BeatmapID:4556732
BeatmapSetID:2160829

[Difficulty]
HPDrainRate:3.4
CircleSize:4
OverallDifficulty:9.9
ApproachRate:9.9
SliderMultiplier:2
SliderTickRate:2

[Events]
//Background and Video events
0,0,"ark.jpg",0,0
//Break Periods
2,137778,150037
//Storyboard Layer 0 (Background)
//Storyboard Layer 1 (Fail)
//Storyboard Layer 2 (Pass)
//Storyboard Layer 3 (Foreground)
//Storyboard Layer 4 (Overlay)
//Storyboard Sound Samples

[TimingPoints]
4093,375,4,2,1,30,1,0
4469,375,4,2,1,30,1,0
4469,-83.3333333333333,4,2,1,30,0,0
21344,-83.3333333333333,4,2,1,40,0,0
23599,230.769230769231,4,2,1,40,1,0
24970,230.769230769231,4,2,1,60,1,0
24970,-100,4,2,1,60,0,0
25373,-100,4,2,1,60,0,0
25417,-100,4,2,1,5,0,0
25431,-100,4,2,1,60,0,0
25835,-100,4,2,1,60,0,0
25878,-100,4,2,1,5,0,0
25893,-100,4,2,1,60,0,0
26296,-100,4,2,1,60,0,0
26340,-100,4,2,1,5,0,0
26354,-100,4,2,1,60,0,0
26758,-100,4,2,1,60,0,0
26801,-100,4,2,1,5,0,0
26816,-100,4,2,1,60,0,0
27220,-100,4,2,1,60,0,0
27263,-100,4,2,1,5,0,0
27277,-100,4,2,1,60,0,0
27450,-100,4,2,1,60,0,0
27493,-100,4,2,1,5,0,0
27508,-100,4,2,1,60,0,0
28662,-100,4,2,1,70,0,0
32354,-100,4,2,1,60,0,0
32758,-100,4,2,1,60,0,0
32801,-100,4,2,1,5,0,0
32816,-100,4,2,1,60,0,0
33220,-100,4,2,1,60,0,0
33262,-100,4,2,1,5,0,0
33277,-100,4,2,1,60,0,0
33681,-100,4,2,1,60,0,0
33724,-100,4,2,1,5,0,0
33739,-100,4,2,1,60,0,0
34143,-100,4,2,1,60,0,0
34185,-100,4,2,1,5,0,0
34200,-100,4,2,1,60,0,0
34604,-100,4,2,1,60,0,0
34647,-100,4,2,1,5,0,0
34662,-100,4,2,1,60,0,0
34835,-100,4,2,1,60,0,0
34877,-100,4,2,1,5,0,0
34893,-100,4,2,1,60,0,0
36046,-100,4,2,1,70,0,0
39739,-43.4782608695652,4,2,1,70,0,0
40402,-100,4,2,1,5,0,0
40431,-43.4782608695652,4,2,1,70,0,0
43431,-43.4782608695652,4,2,1,70,0,0
44095,-100,4,2,1,5,0,0
44123,-43.4782608695652,4,2,1,70,0,0
47123,-100,4,2,1,70,0,0
53739,230.769230769231,4,2,1,60,1,0
53892,230.769230769231,4,2,1,60,1,0
54045,230.769230769231,4,2,1,60,1,0
54198,230.769230769231,4,2,1,60,1,0
54351,230.769230769231,4,2,1,60,1,0
54502,230.769230769231,4,2,1,60,1,0
54963,-100,4,2,1,60,0,0
55425,-100,4,2,2,40,0,0
55655,-100,4,2,1,40,0,0
55886,-100,4,2,2,40,0,0
56117,-100,4,2,1,40,0,0
56348,-100,4,2,2,45,0,0
56578,-100,4,2,1,45,0,0
56694,-100,4,2,2,45,0,0
56809,-100,4,2,2,50,0,0
56925,-100,4,2,1,50,0,0
57271,-100,4,2,2,55,0,0
57502,-100,4,2,1,55,0,0
57617,-100,4,2,2,55,0,0
57732,-100,4,2,2,60,0,0
57848,-100,4,2,1,60,0,0
58194,-100,4,2,2,40,0,0
59578,-100,4,2,3,60,0,0
59694,-100,4,2,2,60,0,0
60271,-100,4,2,3,70,0,0
60963,-100,4,2,1,70,0,0
61194,-100,4,2,3,70,0,0
61252,-100,4,2,1,70,0,0
61425,-100,4,2,3,70,0,0
61482,-100,4,2,2,70,0,0
61655,-100,4,2,4,70,0,0
61886,-100,4,2,4,100,0,0
62059,-100,4,2,3,100,0,0
62117,-100,4,2,1,100,0,0
62175,-100,4,2,3,100,0,0
62232,-100,4,2,1,100,0,0
62290,-100,4,2,3,100,0,0
62348,-100,4,2,1,100,0,0
62405,-100,4,2,3,100,0,0
62463,-100,4,2,1,100,0,0
62521,-100,4,2,3,100,0,0
62578,-100,4,2,1,100,0,0
62636,-100,4,2,3,100,0,0
62694,-100,4,2,1,100,0,0
62752,-100,4,2,3,100,0,0
62809,-100,4,2,1,100,0,0
62867,-100,4,2,3,100,0,0
62925,-100,4,2,1,100,0,0
62982,-100,4,2,3,100,0,0
63040,-100,4,2,1,100,0,0
63098,-100,4,2,3,100,0,0
63155,-100,4,2,1,100,0,0
63213,-100,4,2,3,100,0,0
63271,-100,4,2,1,100,0,0
63905,-100,4,2,3,100,0,0
63963,-100,4,2,1,100,0,0
64021,-100,4,2,3,100,0,0
64078,-100,4,2,1,100,0,0
64136,-100,4,2,3,100,0,0
64194,-100,4,2,1,100,0,0
64252,-100,4,2,3,100,0,0
64309,-100,4,2,1,100,0,0
64367,-100,4,2,3,100,0,0
64425,-100,4,2,1,100,0,0
64482,-100,4,2,3,100,0,0
64540,-100,4,2,1,100,0,0
64598,-100,4,2,3,100,0,0
64655,-100,4,2,1,100,0,0
64713,-100,4,2,3,100,0,0
64771,-100,4,2,1,100,0,0
64828,-100,4,2,3,100,0,0
64886,-100,4,2,1,100,0,0
64944,-100,4,2,3,100,0,0
65002,-100,4,2,1,100,0,0
65059,-100,4,2,3,100,0,0
65117,-100,4,2,2,100,0,0
65752,-100,4,2,3,100,0,0
65809,-100,4,2,1,100,0,0
65867,-100,4,2,3,100,0,0
65925,-100,4,2,1,100,0,0
65982,-100,4,2,3,100,0,0
66040,-100,4,2,1,100,0,0
66098,-100,4,2,3,100,0,0
66155,-100,4,2,1,100,0,0
66213,-100,4,2,3,100,0,0
66271,-100,4,2,1,100,0,0
66328,-100,4,2,3,100,0,0
66386,-100,4,2,1,100,0,0
66444,-100,4,2,3,100,0,0
66502,-100,4,2,1,100,0,0
66559,-100,4,2,3,100,0,0
66617,-100,4,2,1,100,0,0
66675,-100,4,2,3,100,0,0
66732,-100,4,2,1,100,0,0
66790,-100,4,2,3,100,0,0
66848,-100,4,2,1,100,0,0
66905,-100,4,2,3,100,0,0
66963,-100,4,2,1,100,0,0
67425,-100,4,2,3,70,0,0
67482,-100,4,2,2,70,0,0
67655,-100,4,2,3,70,0,0
67713,-100,4,2,2,70,0,0
67886,-100,4,2,3,70,0,0
67944,-100,4,2,2,70,0,0
68578,-100,4,2,3,70,0,0
68636,-100,4,2,1,70,0,0
69271,-100,4,2,1,100,0,0
76655,-100,4,2,4,100,0,0
77117,-100,4,2,3,100,0,0
77232,-100,4,2,4,100,0,0
77463,-100,4,2,3,100,0,0
77578,-100,4,2,4,100,0,0
77636,-100,4,2,3,100,0,0
77809,-100,4,2,4,100,0,0
78098,-100,4,2,3,100,0,0
78155,-100,4,2,1,100,0,0
78213,-100,4,2,3,100,0,0
78271,-100,4,2,4,100,0,0
78963,-100,4,2,3,100,0,0
79078,-100,4,2,4,100,0,0
79309,-100,4,2,3,100,0,0
79425,-100,4,2,4,100,0,0
79482,-100,4,2,3,100,0,0
79655,-100,4,2,4,100,0,0
79944,-100,4,2,3,100,0,0
80117,-100,4,2,4,100,0,0
80463,-100,4,2,3,100,0,0
80578,-100,4,2,4,100,0,0
80809,-100,4,2,1,100,0,0
80925,-100,4,2,4,100,0,0
81155,-100,4,2,3,100,0,0
81271,-100,4,2,4,100,0,0
82194,-100,4,2,4,50,0,0
83578,-50,4,2,1,50,0,0
83752,-100,4,2,1,50,0,0
83925,-100,4,2,3,50,0,0
84040,-100,4,2,4,100,0,0
98809,-100,4,2,1,50,0,0
99040,-50,4,2,1,50,0,0
99155,-50,4,2,2,50,0,0
99213,-100,4,2,2,50,0,0
99848,-100,4,2,2,55,0,0
100425,-100,4,2,3,55,0,0
100655,-100,4,2,2,60,0,0
100886,-50,4,2,1,60,0,0
101002,-50,4,2,2,60,0,0
101117,-100,4,2,1,60,0,0
101175,-100,4,2,2,60,0,0
101232,-100,4,2,1,60,0,0
101578,-100,4,2,2,65,0,0
101694,-100,4,2,1,65,0,0
101925,-100,4,2,2,65,0,0
102155,-100,4,2,1,65,0,0
102502,-100,4,2,2,40,0,0
103425,-100,4,2,3,70,0,0
103540,-100,4,2,1,70,0,0
103771,-100,4,2,3,70,0,0
103886,-100,4,2,2,70,0,0
104232,-100,4,2,4,70,0,0
104636,-100,4,2,3,70,0,0
104694,-100,4,2,1,70,0,0
104752,-100,4,2,3,70,0,0
104809,-100,4,2,1,70,0,0
104867,-100,4,2,3,70,0,0
104925,-100,4,2,1,70,0,0
104982,-100,4,2,3,70,0,0
105040,-100,4,2,1,70,0,0
105098,-100,4,2,3,70,0,0
105155,-100,4,2,1,70,0,0
105213,-100,4,2,3,70,0,0
105328,-100,4,2,2,70,0,0
105502,-100,4,2,3,70,0,0
105559,-100,4,2,2,70,0,0
105732,-100,4,2,3,70,0,0
105848,-100,4,2,2,70,0,0
106194,-100,4,2,2,85,0,0
107117,-100,4,2,3,85,0,0
107232,-100,4,2,2,85,0,0
108963,-100,4,2,3,85,0,0
109194,-100,4,2,1,85,0,0
109309,-100,4,2,3,85,0,0
109425,-100,4,2,2,85,0,0
110809,-100,4,2,3,85,0,0
110925,-100,4,2,2,85,0,0
112655,-100,4,2,3,85,0,0
112886,-100,4,2,1,85,0,0
113002,-100,4,2,3,85,0,0
113117,-100,4,2,2,85,0,0
113752,-100,4,2,3,85,0,0
113809,-100,4,2,1,85,0,0
113867,-100,4,2,3,85,0,0
113925,-100,4,2,1,85,0,0
113982,-100,4,2,3,85,0,0
114040,-100,4,2,1,85,0,0
114098,-100,4,2,3,85,0,0
114155,-100,4,2,1,85,0,0
114213,-100,4,2,3,85,0,0
114271,-100,4,2,1,85,0,0
114328,-100,4,2,3,85,0,0
114386,-100,4,2,1,85,0,0
114444,-100,4,2,3,85,0,0
114502,-100,4,2,1,85,0,0
114559,-100,4,2,3,85,0,0
114617,-100,4,2,1,85,0,0
114675,-100,4,2,3,85,0,0
114732,-100,4,2,1,85,0,0
114790,-100,4,2,3,85,0,0
114848,-100,4,2,1,85,0,0
114905,-100,4,2,3,85,0,0
114963,-100,4,2,1,85,0,0
115598,-100,4,2,3,85,0,0
115655,-100,4,2,1,85,0,0
115713,-100,4,2,3,85,0,0
115771,-100,4,2,1,85,0,0
115828,-100,4,2,3,85,0,0
115886,-100,4,2,1,85,0,0
115944,-100,4,2,3,85,0,0
116002,-100,4,2,1,85,0,0
116059,-100,4,2,3,85,0,0
116117,-100,4,2,1,85,0,0
116175,-100,4,2,3,85,0,0
116232,-100,4,2,1,85,0,0
116290,-100,4,2,3,85,0,0
116348,-100,4,2,1,85,0,0
116405,-100,4,2,3,85,0,0
116463,-100,4,2,1,85,0,0
116521,-100,4,2,3,85,0,0
116578,-100,4,2,1,85,0,0
116636,-100,4,2,3,85,0,0
116694,-100,4,2,1,85,0,0
116752,-100,4,2,3,85,0,0
116809,-100,4,2,2,85,0,0
117444,-100,4,2,3,85,0,0
117502,-100,4,2,1,85,0,0
117559,-100,4,2,3,85,0,0
117617,-100,4,2,1,85,0,0
117675,-100,4,2,3,85,0,0
117732,-100,4,2,1,85,0,0
117790,-100,4,2,3,85,0,0
117848,-100,4,2,1,85,0,0
117905,-100,4,2,3,85,0,0
117963,-100,4,2,1,85,0,0
118021,-100,4,2,3,85,0,0
118078,-100,4,2,1,85,0,0
118136,-100,4,2,3,85,0,0
118194,-100,4,2,1,85,0,0
118252,-100,4,2,3,85,0,0
118309,-100,4,2,1,85,0,0
118367,-100,4,2,3,85,0,0
118425,-100,4,2,1,85,0,0
118482,-100,4,2,3,85,0,0
118540,-100,4,2,1,85,0,0
118598,-100,4,2,3,85,0,0
118655,-100,4,2,2,85,0,0
119290,-100,4,2,3,85,0,0
119348,-100,4,2,1,85,0,0
119405,-100,4,2,3,85,0,0
119463,-100,4,2,1,85,0,0
119521,-100,4,2,3,85,0,0
119578,-100,4,2,1,85,0,0
119636,-100,4,2,3,85,0,0
119694,-100,4,2,1,85,0,0
119752,-100,4,2,3,85,0,0
119809,-100,4,2,1,85,0,0
119867,-100,4,2,3,85,0,0
119925,-100,4,2,1,85,0,0
119982,-100,4,2,3,85,0,0
120098,-100,4,2,2,85,0,0
120271,-100,4,2,3,85,0,0
120328,-100,4,2,2,85,0,0
120502,-100,4,2,3,85,0,0
120559,-100,4,2,2,85,0,0
120963,-100,4,2,2,50,0,0
121886,-100,4,2,2,50,0,0
127886,-100,4,2,3,50,0,0
128117,-100,4,2,4,50,0,0
128348,-100,4,2,4,90,0,0
135617,-100,4,2,4,90,0,0
135674,-100,4,2,4,5,0,0
135732,-76.9230769230769,4,2,1,50,0,0
137463,-100,4,2,1,50,0,0
137520,-100,4,2,1,5,0,0
137578,-100,4,2,1,60,0,0
154194,-100,4,2,1,70,0,0
156040,-100,4,2,3,70,0,0
156271,-100,4,2,2,70,0,0
156732,-100,4,2,4,70,0,0
156963,-100,4,2,3,70,0,0
157194,-100,4,2,4,70,0,0
157425,-100,4,2,2,70,0,0
157886,-100,4,2,1,70,0,0
159963,-100,4,2,2,70,0,0
160578,-100,4,2,4,70,0,0
160655,-100,4,2,3,70,0,0
160809,-100,4,2,2,70,0,0
161348,-100,4,2,3,70,0,0
161578,-100,4,2,1,70,0,0
163886,-100,4,2,2,70,0,0
164348,-100,4,2,4,70,0,0
164809,-100,4,2,3,70,0,0
164867,-100,4,2,2,70,0,0
165040,-100,4,2,3,70,0,0
165271,-100,4,2,1,70,0,0
167117,-100,4,2,3,70,0,0
167175,-100,4,2,2,70,0,0
167348,-100,4,2,3,70,0,0
167405,-100,4,2,2,70,0,0
167578,-100,4,2,3,70,0,0
167636,-100,4,2,2,70,0,0
167752,-100,4,2,4,70,0,0
167867,-100,4,2,2,70,0,0
168271,-100,4,2,3,70,0,0
168328,-100,4,2,2,70,0,0
168848,-100,4,2,4,70,0,0
168963,-100,4,2,4,80,0,0
169194,-100,4,2,4,80,0,0
182002,-100,4,2,4,77,0,0
182117,-100,4,2,4,74,0,0
182232,-100,4,2,4,71,0,0
182348,-100,4,2,4,68,0,0
182463,-100,4,2,4,65,0,0
182578,-100,4,2,4,62,0,0
182694,-100,4,2,4,59,0,0
182809,-100,4,2,1,56,0,0
183732,-100,4,2,4,70,0,0
185117,-100,4,2,4,70,0,0
187425,-100,4,2,4,70,0,0
187886,-100,4,2,4,70,0,0
188348,-100,4,2,4,100,0,0
189271,-100,4,2,4,100,0,0
203117,-100,4,2,4,60,0,0
204040,-100,4,2,4,100,0,1
218809,-100,4,2,4,60,0,0
220655,-100,4,2,4,20,0,0
220771,-100,4,2,4,30,0,0
220886,-100,4,2,4,40,0,0
221002,-100,4,2,4,50,0,0
221117,-100,4,2,4,60,0,0
221232,-100,4,2,4,70,0,0
221348,-100,4,2,4,80,0,0
221463,-100,4,2,4,90,0,0
221694,-100,4,2,4,70,0,0
221809,-100,4,2,2,70,0,0
222155,-100,4,2,2,70,0,0
222386,-100,4,2,4,70,0,0
222502,-100,4,2,4,100,0,1
235425,-100,4,2,5,50,0,0
235655,-50,4,2,2,50,0,0
235886,-100,4,2,2,50,0,0
237040,-100,4,2,1,50,0,0
237271,-100,4,2,2,50,0,0
237502,-50,4,2,2,50,0,0
237617,-50,4,2,1,50,0,0
237732,-100,4,2,2,50,0,0
237848,-100,4,2,1,50,0,0
237963,-100,4,2,2,50,0,0
238309,-100,4,2,1,50,0,0
238655,-100,4,2,1,50,0,0
239117,-100,4,2,2,85,0,0
240040,-100,4,2,3,85,0,0
240155,-100,4,2,2,85,0,0
241886,-100,4,2,3,85,0,0
242117,-100,4,2,1,85,0,0
242232,-100,4,2,3,85,0,0
242348,-100,4,2,2,85,0,0
243732,-100,4,2,3,85,0,0
243848,-100,4,2,2,85,0,0
244886,-100,4,2,3,85,0,0
244944,-100,4,2,1,85,0,0
245002,-100,4,2,3,85,0,0
245059,-100,4,2,1,85,0,0
245117,-100,4,2,3,85,0,0
245175,-100,4,2,1,85,0,0
245232,-100,4,2,3,85,0,0
245290,-100,4,2,1,85,0,0
245348,-100,4,2,3,85,0,0
245405,-100,4,2,1,85,0,0
245463,-100,4,2,3,85,0,0
245521,-100,4,2,1,85,0,0
245578,-100,4,2,3,85,0,0
245636,-100,4,2,2,85,0,0
245809,-100,4,2,3,85,0,0
245867,-100,4,2,2,85,0,0
246040,-100,4,2,3,85,0,0
246098,-100,4,2,2,85,0,0
246502,-100,4,2,2,40,0,0
247425,-100,4,2,4,85,0,0
249040,-100,4,2,4,55,0,0
250655,-100,4,2,4,85,0,0
250886,-100,4,2,4,100,0,0
251117,-100,4,2,4,100,0,0

[Colours]
Combo1 : 37,203,233
Combo2 : 244,113,185
Combo3 : 248,221,116
Combo4 : 108,108,219

[HitObjects]
373,245,4093,5,2,2:2:0:0:
134,197,4468,6,0,L|118:197,1,12.5,2|2,2:2|2:2,0:0:0:0:
224,151,4656,1,0,0:0:0:0:
224,151,4844,1,2,2:2:0:0:
391,329,5219,1,2,2:2:0:0:
271,331,5406,1,0,0:0:0:0:
439,269,5594,5,2,2:2:0:0:
188,159,5781,1,2,2:2:0:0:
229,160,5844,1,2,2:2:0:0:
269,159,5906,1,2,2:2:0:0:
229,160,5969,1,2,2:2:0:0:
188,159,6031,1,2,2:2:0:0:
229,160,6094,1,2,2:2:0:0:
269,159,6156,1,2,2:2:0:0:
101,306,6344,1,2,2:2:0:0:
101,306,6531,1,2,2:2:0:0:
378,237,6719,5,2,2:2:0:0:
378,237,6906,1,0,0:0:0:0:
225,186,7094,1,2,2:2:0:0:
145,184,7219,1,2,2:2:0:0:
225,186,7344,1,2,2:2:0:0:
145,184,7469,1,2,2:2:0:0:
312,50,7656,1,0,0:0:0:0:
59,77,7844,5,2,2:2:0:0:
59,77,8031,1,0,0:0:0:0:
59,77,8219,1,0,0:0:0:0:
250,347,8594,1,2,2:2:0:0:
130,340,8781,1,2,2:2:0:0:
395,187,8969,6,0,L|421:187,1,14.9999995422363,2|0,2:2|0:0,0:0:0:0:
410,107,9156,1,0,0:0:0:0:
290,103,9344,1,0,0:0:0:0:
170,99,9531,1,0,0:0:0:0:
339,300,9719,1,2,2:2:0:0:
339,300,9906,1,2,2:2:0:0:
86,280,10094,5,2,2:2:0:0:
86,280,10281,1,0,0:0:0:0:
255,167,10469,1,2,2:2:0:0:
335,166,10594,1,2,2:2:0:0:
255,167,10719,1,2,2:2:0:0:
335,166,10844,1,2,2:2:0:0:
335,76,11031,1,0,0:0:0:0:
70,185,11219,6,0,L|45:185,1,14.9999995422363,2|0,2:2|0:0,0:0:0:0:
55,118,11594,1,0,0:0:0:0:
222,202,11781,1,2,2:2:0:0:
102,91,11969,1,2,2:2:0:0:
222,202,12156,1,2,2:2:0:0:
475,98,12344,5,2,2:2:0:0:
256,241,13094,1,2,2:2:0:0:
376,245,13281,1,2,2:2:0:0:
105,101,13469,6,0,L|84:101,1,14.9999995422363,2|0,2:2|0:0,0:0:0:0:
195,84,13656,1,0,0:0:0:0:
195,84,13844,1,2,2:2:0:0:
362,155,14219,1,2,2:2:0:0:
242,212,14406,1,2,2:2:0:0:
411,302,14594,5,2,2:2:0:0:
141,100,14781,1,2,2:2:0:0:
182,97,14844,1,2,2:2:0:0:
222,94,14906,1,2,2:2:0:0:
263,92,14969,1,2,2:2:0:0:
223,157,15031,1,2,2:2:0:0:
182,156,15094,1,2,2:2:0:0:
142,159,15156,1,2,2:2:0:0:
310,310,15344,1,2,2:2:0:0:
310,310,15531,1,2,2:2:0:0:
141,243,15719,5,2,2:2:0:0:
392,165,15906,1,2,2:2:0:0:
223,103,16094,1,2,2:2:0:0:
303,101,16219,1,2,2:2:0:0:
223,103,16344,1,2,2:2:0:0:
223,103,16469,1,2,2:2:0:0:
318,303,16562,1,2,2:2:0:0:
379,298,16656,1,2,2:2:0:0:
379,298,16750,1,2,2:2:0:0:
174,187,16844,5,2,2:2:0:0:
342,97,17219,1,0,0:0:0:0:
103,316,17594,1,2,2:2:0:0:
103,316,17781,1,2,2:2:0:0:
368,98,17969,6,0,L|393:98,1,14.9999995422363,2|0,2:2|0:0,0:0:0:0:
278,335,18156,1,0,0:0:0:0:
278,335,18344,1,2,2:2:0:0:
158,333,18531,1,0,0:0:0:0:
326,185,18719,1,2,2:2:0:0:
446,186,18906,1,2,2:2:0:0:
169,78,19094,5,2,2:2:0:0:
169,78,19281,1,0,0:0:0:0:
337,234,19469,1,2,2:2:0:0:
257,233,19594,1,2,2:2:0:0:
337,234,19719,1,2,2:2:0:0:
257,233,19844,1,2,2:2:0:0:
424,142,20031,1,2,2:2:0:0:
147,304,20219,6,0,L|121:304,1,14.9999995422363,2|2,2:2|2:2,0:0:0:0:
132,151,20594,1,0,0:0:0:0:
300,90,20781,1,2,2:2:0:0:
180,89,20969,1,2,2:2:0:0:
300,90,21156,1,2,2:2:0:0:
131,317,21344,5,6,2:3:0:0:
256,192,21531,12,0,23599,0:0:0:0:
194,275,24970,6,0,B|392:274|392:274|392:82,1,387.5,6|0,2:2|0:0,0:0:0:0:
374,321,25431,6,0,B|184:321|184:321|184:212|184:212|281:212,1,387.5,2|0,2:2|0:0,0:0:0:0:
292,213,25893,6,0,P|157:177|285:54,1,387.5,2|0,2:2|0:0,0:0:0:0:
298,99,26354,6,0,P|269:287|100:290,1,387.5,2|0,2:2|0:0,0:0:0:0:
96,270,26816,6,0,B|375:155|375:155|375:61,1,387.5,2|0,2:2|0:0,0:0:0:0:
351,150,27277,6,0,B|159:149,1,187.5,2|0,2:2|0:0,0:0:0:0:
170,269,27508,6,0,P|411:258|286:27,1,600,2|0,2:2|0:0,0:0:0:0:
88,193,28431,2,0,L|85:69,1,100,2|2,2:2|2:2,0:0:0:0:
357,296,28662,6,0,L|139:296,1,200,6|0,1:2|0:0,0:0:0:0:
258,245,29008,1,0,1:1:0:0:
118,152,29123,2,0,L|115:28,1,100,0|0,1:1|0:0,0:0:0:0:
357,345,29354,2,0,L|363:221,1,100,0|0,1:1|0:0,0:0:0:0:
131,141,29585,6,0,L|349:141,1,200,2|0,1:2|1:1,0:0:0:0:
331,141,29931,1,2,1:2:0:0:
92,319,30046,1,2,1:2:0:0:
292,288,30277,2,0,L|171:288,1,100,2|0,1:2|0:0,0:0:0:0:
413,228,30508,6,0,P|480:166|405:118,1,200,2|0,1:2|0:0,0:0:0:0:
272,342,30854,1,0,1:1:0:0:
372,336,30969,2,0,L|375:212,1,100,0|0,1:1|0:0,0:0:0:0:
103,194,31200,2,0,L|97:70,1,100,2|0,1:2|0:0,0:0:0:0:
350,138,31431,6,0,L|132:138,1,200,2|0,1:2|1:1,0:0:0:0:
150,138,31777,1,0,0:0:0:0:
390,313,31892,2,0,L|290:314,1,100,0|0,1:1|0:0,0:0:0:0:
59,321,32123,2,0,L|56:217,1,100,0|0,1:1|0:0,0:0:0:0:
328,114,32354,6,0,B|130:115|130:115|130:307,1,387.5,6|0,2:2|0:0,0:0:0:0:
148,238,32815,6,0,B|345:239|345:239|153:230,1,387.5,2|0,2:2|0:0,0:0:0:0:
174,194,33277,6,0,B|377:194|377:194|377:-1,1,387.5,2|0,2:2|0:0,0:0:0:0:
358,293,33738,6,0,P|188:245|284:122,1,387.5,2|0,2:2|0:0,0:0:0:0:
297,50,34200,6,0,B|98:79|98:79|289:49,1,387.5,2|0,2:2|0:0,0:0:0:0:
307,293,34661,6,0,P|370:243|299:196,1,187.5,2|0,2:2|0:0,0:0:0:0:
278,2,34892,6,0,P|77:216|259:381,1,600,2|0,2:2|0:0,0:0:0:0:
457,206,35816,2,0,L|460:330,1,100,2|2,2:2|2:2,0:0:0:0:
148,164,36047,6,0,L|366:164,1,200,6|0,1:2|0:0,0:0:0:0:
247,96,36393,1,0,1:1:0:0:
387,231,36508,2,0,L|390:355,1,100,0|0,1:1|0:0,0:0:0:0:
128,104,36739,2,0,L|255:105,1,100,0|0,1:1|0:0,0:0:0:0:
459,160,36970,6,0,L|241:160,1,200,2|0,1:2|0:0,0:0:0:0:
359,300,37316,1,2,1:2:0:0:
120,308,37431,1,0,1:1:0:0:
321,184,37662,2,0,L|324:57,1,100,2|0,1:2|0:0,0:0:0:0:
82,33,37893,6,0,P|57:109|156:105,1,200,2|0,1:2|0:0,0:0:0:0:
250,330,38239,1,0,1:1:0:0:
110,206,38354,2,0,L|107:330,1,100,0|0,1:1|0:0,0:0:0:0:
349,162,38585,2,0,L|472:162,1,100,2|0,1:2|0:0,0:0:0:0:
147,167,38816,6,0,L|28:167,1,100,2|0,1:2|0:0,0:0:0:0:
187,232,39046,2,0,L|191:350,1,100,0|0,1:1|0:0,0:0:0:0:
432,121,39277,2,0,L|309:121,1,100,0|0,1:1|0:0,0:0:0:0:
463,291,39508,2,0,L|339:294,1,100,0|0,1:1|0:0,0:0:0:0:
98,56,39739,6,0,B|444:359|444:359|388:328|388:328|444:294|444:294|444:48|444:48|444:319|444:319|444:273|444:273|219:273,1,1351.25002577305,6|0,2:2|2:2,0:0:0:0:
232,340,40431,2,0,B|232:23|232:23|232:326|232:326|232:256|232:256|365:71|365:71|372:303|372:303|129:303,1,1380.00002632141,2|6,2:2|2:2,0:0:0:0:
256,192,41585,12,0,43200,0:0:0:0:
403,328,43431,6,0,B|57:25|57:25|113:56|113:56|57:90|57:90|57:336|57:336|57:65|57:65|57:111|57:111|277:111,1,1351.25002577305,6|2,2:2|2:2,0:0:0:0:
280,337,44123,2,0,B|280:20|280:20|280:323|280:323|280:253|280:253|147:68|147:68|140:300|140:300|383:300,1,1380.00002632141,2|6,2:2|2:2,0:0:0:0:
256,192,45277,12,0,46893,0:0:0:0:
287,183,47123,5,6,1:2:0:0:
87,234,47354,2,0,L|194:234,1,100,2|2,1:2|1:2,0:0:0:0:
428,303,47585,2,0,L|222:301,1,200,0|2,1:1|1:2,0:0:0:0:
427,245,48046,6,0,L|431:135,1,100,2|2,1:2|1:2,0:0:0:0:
193,121,48277,2,0,L|399:119,1,200,0|0,1:1|1:1,0:0:0:0:
192,280,48739,2,0,L|310:280,1,100,0|0,1:1|1:1,0:0:0:0:
51,206,48970,6,0,L|257:204,1,200,0|0,1:1|1:1,0:0:0:0:
50,319,49431,2,0,L|168:319,1,100,0|0,1:1|1:1,0:0:0:0:
391,314,49662,2,0,L|395:176,1,100,0|0,1:1|0:0,0:0:0:0:
142,203,49893,5,0,1:1:0:0:
361,310,50008,1,0,1:1:0:0:
368,310,50123,2,0,L|374:192,1,100,0|0,1:1|0:0,0:0:0:0:
109,102,50354,1,0,1:1:0:0:
328,209,50469,1,0,1:1:0:0:
335,209,50585,2,0,L|341:91,1,100,0|0,1:1|0:0,0:0:0:0:
73,74,50816,5,6,1:2:0:0:
273,344,51046,2,0,L|155:344,1,100,2|2,1:2|1:2,0:0:0:0:
424,85,51277,1,0,1:1:0:0:
223,191,51508,2,0,B|323:191|323:191|323:120,1,150,2|0,1:2|0:0,0:0:0:0:
112,59,51739,5,6,1:2:0:0:
311,341,51970,2,0,L|315:223,1,100,2|0,1:2|0:0,0:0:0:0:
73,70,52200,2,0,L|68:187,1,100,0|0,1:1|0:0,0:0:0:0:
310,349,52431,2,0,B|209:348|209:348|210:276,1,150,0|0,1:1|0:0,0:0:0:0:
431,105,52662,5,6,1:2:0:0:
230,250,52893,2,0,L|225:132,1,100,2|0,1:2|1:1,0:0:0:0:
466,314,53123,2,0,L|348:314,1,100,0|0,1:1|1:1,0:0:0:0:
125,345,53354,2,0,L|119:167,1,150,2|0,1:2|0:0,0:0:0:0:
361,90,53585,6,0,L|387:90,1,25,0|0,1:1|0:0,0:0:0:0:
255,136,53739,2,0,L|255:109,1,25,0|0,1:1|0:0,0:0:0:0:
386,195,53892,2,0,L|352:195,1,25,0|0,1:1|0:0,0:0:0:0:
112,133,54045,5,2,1:1:0:0:
216,135,54073,1,0,0:0:0:0:
351,95,54198,1,0,1:1:0:0:
247,97,54226,1,0,0:0:0:0:
112,133,54351,1,0,1:1:0:0:
216,135,54379,1,0,0:0:0:0:
447,74,54502,5,6,2:2:0:0:
153,235,55425,6,0,L|149:109,1,100,0|0,1:1|1:1,0:0:0:0:
379,319,55655,1,8,2:2:0:0:
278,326,55771,2,0,L|273:198,1,100,0|0,0:0|1:1,0:0:0:0:
93,117,56117,2,0,L|178:117,1,50,8|8,2:2|2:2,0:0:0:0:
364,114,56232,2,0,L|279:114,1,50,8|8,2:2|2:2,0:0:0:0:
79,293,56348,6,0,L|72:171,1,100,0|0,1:1|1:1,0:0:0:0:
318,237,56578,1,8,2:2:0:0:
217,360,56694,2,0,L|212:275,1,50,0|0,1:1|1:1,0:0:0:0:
436,131,56809,2,0,L|351:131,1,50,0|0,1:1|1:1,0:0:0:0:
185,157,56924,1,8,2:2:0:0:
265,316,57040,2,0,L|267:273,1,25,8|8,2:2|2:2,0:0:0:0:
178,282,57098,1,8,2:2:0:0:
92,250,57127,2,0,L|89:207,1,25,8|8,2:2|2:2,0:0:0:0:
342,84,57271,5,0,1:1:0:0:
242,157,57386,1,0,1:1:0:0:
238,157,57444,1,0,1:1:0:0:
234,157,57501,1,8,2:2:0:0:
435,327,57617,1,0,1:1:0:0:
206,321,57732,2,0,L|330:321,1,100,0|8,1:1|2:2,0:0:0:0:
98,272,57963,2,0,L|166:272,1,50,8|8,2:2|2:2,0:0:0:0:
399,138,58078,2,0,L|314:138,1,50,8|8,2:2|2:2,0:0:0:0:
78,61,58193,5,4,3:2:0:0:
330,166,59578,5,0,1:1:0:0:
89,199,59694,2,0,L|84:81,1,100,8|4,2:3|2:3,0:0:0:0:
446,236,60040,6,0,L|449:345,1,100,4|0,3:2|0:0,0:0:0:0:
167,316,60271,2,0,L|108:316,1,50,0|0,1:1|1:1,0:0:0:0:
239,240,60386,1,0,1:1:0:0:
361,241,60444,1,0,1:1:0:0:
220,151,60502,6,0,L|161:151,1,50,0|0,1:1|1:1,0:0:0:0:
291,190,60617,1,0,1:1:0:0:
413,191,60675,1,0,1:1:0:0:
265,83,60732,6,0,L|255:146,1,50,0|0,1:1|1:1,0:0:0:0:
415,45,60847,2,0,L|365:85,1,50,0|0,1:1|1:1,0:0:0:0:
242,333,60963,5,0,3:3:0:0:
106,332,61021,1,0,3:3:0:0:
264,272,61078,2,0,L|268:212,1,50,8|8,2:3|2:3,0:0:0:0:
103,211,61194,6,0,L|99:151,1,50,0|0,1:1|3:3,0:0:0:0:
224,214,61309,2,0,L|284:210,1,50,8|8,2:3|2:3,0:0:0:0:
416,331,61425,5,4,1:3:0:0:
274,327,61482,1,4,2:3:0:0:
117,322,61540,2,0,L|113:262,1,50,4|4,2:3|2:3,0:0:0:0:
285,167,61655,6,0,L|289:107,1,50,4|4,3:3|2:3,0:0:0:0:
114,102,61771,1,4,2:3:0:0:
177,100,61829,1,4,2:3:0:0:
443,141,61886,6,0,L|446:31,1,100,6|0,3:2|3:3,0:0:0:0:
280,349,62059,1,0,1:1:0:0:
108,318,62117,6,0,L|171:318,1,50,0|0,3:3|1:1,0:0:0:0:
288,283,62232,1,2,3:2:0:0:
439,274,62290,1,0,1:1:0:0:
381,272,62348,1,2,3:2:0:0:
208,197,62405,2,0,L|203:140,1,50,0|0,1:1|3:3,0:0:0:0:
388,142,62521,6,0,L|392:75,1,50,0|2,1:1|3:2,0:0:0:0:
216,74,62636,1,0,1:1:0:0:
390,341,62694,2,0,L|447:340,1,50,2|0,3:2|1:1,0:0:0:0:
390,341,62809,5,0,3:3:0:0:
250,313,62867,1,0,1:1:0:0:
107,217,62925,2,0,L|99:148,1,50,2|0,3:2|1:1,0:0:0:0:
267,180,63040,2,0,L|271:113,1,50,2|0,3:2|1:1,0:0:0:0:
452,338,63155,2,0,L|459:270,1,50,0|0,3:3|1:1,0:0:0:0:
262,315,63271,5,2,3:2:0:0:
204,315,63328,1,0,3:3:0:0:
367,149,63386,2,0,L|369:211,1,50,2|0,3:2|3:3,0:0:0:0:
176,167,63502,2,0,L|169:113,1,50,2|0,3:2|3:3,0:0:0:0:
363,328,63617,2,0,L|310:328,1,50,2|0,3:2|3:3,0:0:0:0:
103,236,63732,6,0,L|88:343,1,100,2|0,3:2|3:3,0:0:0:0:
248,38,63905,1,0,1:1:0:0:
417,62,63963,6,0,L|366:123,1,50,0|0,3:3|1:1,0:0:0:0:
260,105,64078,1,2,3:2:0:0:
118,129,64136,2,0,L|172:147,1,50,0|2,1:1|3:2,0:0:0:0:
339,243,64251,2,0,L|344:300,1,50,0|0,1:1|3:3,0:0:0:0:
206,289,64367,1,0,1:1:0:0:
381,300,64425,6,0,L|414:373,1,50,2|0,3:2|1:1,0:0:0:0:
351,353,64540,1,2,3:2:0:0:
216,354,64598,1,0,1:1:0:0:
72,127,64655,6,0,L|134:118,1,50,0|0,3:3|1:1,0:0:0:0:
307,295,64771,2,0,L|316:239,1,50,2|0,3:2|1:1,0:0:0:0:
148,291,64886,2,0,L|112:257,1,50,2|0,3:2|1:1,0:0:0:0:
246,200,65002,1,0,3:3:0:0:
377,157,65059,1,0,1:1:0:0:
230,132,65117,6,0,L|222:82,1,50,2|0,3:2|3:3,0:0:0:0:
370,97,65232,2,0,L|378:47,1,50,2|0,3:2|3:3,0:0:0:0:
251,258,65348,1,2,3:2:0:0:
111,256,65405,2,0,L|48:277,1,50,0|2,3:3|3:2,0:0:0:0:
195,334,65521,1,0,3:3:0:0:
411,238,65578,6,0,L|423:347,1,100,6|0,3:2|3:3,0:0:0:0:
250,43,65751,1,0,1:1:0:0:
78,74,65809,6,0,L|141:74,1,50,0|0,3:3|1:1,0:0:0:0:
258,109,65924,1,2,3:2:0:0:
409,150,65982,2,0,L|422:88,1,50,0|2,1:1|3:2,0:0:0:0:
290,239,66097,2,0,L|218:253,1,50,0|0,1:1|3:3,0:0:0:0:
77,309,66213,6,0,L|133:324,1,50,0|2,1:1|3:2,0:0:0:0:
276,320,66328,1,0,1:1:0:0:
149,64,66386,2,0,L|93:107,1,50,2|0,3:2|1:1,0:0:0:0:
151,151,66502,5,0,3:3:0:0:
295,101,66559,1,0,1:1:0:0:
454,193,66617,2,0,L|461:261,1,50,2|0,3:2|1:1,0:0:0:0:
294,234,66732,2,0,L|290:301,1,50,2|0,3:2|1:1,0:0:0:0:
109,76,66847,2,0,L|102:144,1,50,0|0,3:3|1:1,0:0:0:0:
302,118,66963,6,0,L|350:71,1,50,2|0,3:2|3:3,0:0:0:0:
194,265,67078,2,0,L|192:203,1,50,2|0,3:2|3:3,0:0:0:0:
384,247,67194,2,0,L|321:265,1,50,2|0,3:2|3:3,0:0:0:0:
185,153,67309,2,0,L|179:100,1,50,2|0,3:2|3:3,0:0:0:0:
364,142,67425,6,0,L|390:87,1,50,0|0,1:1|3:3,0:0:0:0:
346,97,67540,1,8,2:3:0:0:
213,71,67598,1,4,2:3:0:0:
392,232,67655,6,0,L|418:177,1,50,0|0,1:1|3:3,0:0:0:0:
374,185,67770,1,8,2:3:0:0:
239,359,67828,1,4,2:3:0:0:
410,352,67886,6,0,L|432:293,1,50,0|0,1:1|3:3,0:0:0:0:
310,322,68002,2,0,L|249:322,1,50,8|4,2:3|2:3,0:0:0:0:
124,123,68117,6,0,L|182:123,1,50,0|8,3:3|2:3,0:0:0:0:
231,127,68232,2,0,L|235:68,1,50,0|4,3:3|2:3,0:0:0:0:
87,326,68348,6,0,L|78:255,1,50,0|0,3:3|3:3,0:0:0:0:
222,238,68463,2,0,L|293:238,1,50,0|0,3:3|3:3,0:0:0:0:
111,156,68578,6,0,L|87:26,1,100,0|0,1:1|3:3,0:0:0:0:
153,60,68751,1,0,3:3:0:0:
314,155,68809,2,0,L|256:148,1,50,8|0,2:3|3:3,0:0:0:0:
203,278,68925,2,0,L|198:214,1,50,8|0,2:3|3:3,0:0:0:0:
366,217,69040,1,0,3:3:0:0:
75,77,69271,5,6,2:2:0:0:
276,343,69502,2,0,L|279:233,1,100,2|0,2:2|0:0,0:0:0:0:
149,161,69732,2,0,L|267:162,1,100,2|0,2:2|0:0,0:0:0:0:
380,96,69963,2,0,L|280:96,1,100,2|0,2:2|0:0,0:0:0:0:
56,42,70194,6,0,L|52:164,1,100,2|0,2:2|0:0,0:0:0:0:
274,329,70425,1,2,2:2:0:0:
174,329,70540,2,0,L|297:329,1,100,2|2,2:2|2:2,0:0:0:0:
54,180,70886,1,2,2:2:0:0:
375,99,71117,5,6,2:2:0:0:
174,345,71348,2,0,L|170:235,1,100,2|0,2:2|0:0,0:0:0:0:
301,270,71579,2,0,L|306:152,1,100,2|0,2:2|0:0,0:0:0:0:
174,108,71810,2,0,L|274:108,1,100,2|0,2:2|0:0,0:0:0:0:
475,195,72041,6,0,L|484:317,1,100,2|0,2:2|0:0,0:0:0:0:
353,239,72271,2,0,L|476:239,1,100,2|2,2:2|2:2,0:0:0:0:
225,144,72501,1,2,2:2:0:0:
425,142,72732,1,2,2:2:0:0:
64,65,72963,5,6,2:2:0:0:
264,323,73194,2,0,L|267:213,1,100,2|0,2:2|0:0,0:0:0:0:
136,182,73425,2,0,L|18:183,1,100,2|0,2:2|0:0,0:0:0:0:
167,137,73656,2,0,L|172:37,1,100,2|0,2:2|0:0,0:0:0:0:
414,319,73887,6,0,L|419:196,1,100,2|0,2:2|0:0,0:0:0:0:
288,108,74117,1,2,2:2:0:0:
388,108,74232,2,0,L|265:108,1,100,2|2,2:2|2:2,0:0:0:0:
489,157,74578,1,2,2:2:0:0:
169,182,74809,5,6,2:2:0:0:
370,320,75040,2,0,L|375:219,1,100,2|0,2:2|0:0,0:0:0:0:
164,195,75271,2,0,L|287:195,1,100,2|2,2:2|2:2,0:0:0:0:
163,316,75502,2,0,L|286:316,1,100,2|2,2:2|2:2,0:0:0:0:
65,106,75732,6,0,P|43:202|147:222,1,200,6|2,2:2|2:2,0:0:0:0:
363,190,76078,1,2,2:2:0:0:
142,173,76194,2,0,L|269:176,1,100,6|2,2:2|2:2,0:0:0:0:
111,168,76425,2,0,L|104:38,1,100,2|0,2:2|0:0,0:0:0:0:
396,321,76655,5,2,1:2:0:0:
255,326,76771,2,0,L|246:263,1,50,0|0,1:1|1:1,0:0:0:0:
409,158,76886,1,2,1:2:0:0:
417,153,77002,2,0,L|288:153,1,100,0|2,1:1|3:2,0:0:0:0:
457,313,77232,1,0,1:1:0:0:
176,317,77348,2,0,L|170:203,1,100,2|0,1:2|3:3,0:0:0:0:
310,180,77578,6,0,L|316:106,1,50,2|0,1:2|3:3,0:0:0:0:
150,109,77694,2,0,L|82:84,1,50,0|0,3:3|3:3,0:0:0:0:
294,165,77809,2,0,L|300:46,1,100,2|2,1:2|2:2,0:0:0:0:
108,259,78040,6,0,L|180:284,1,50,2|0,1:2|3:3,0:0:0:0:
346,273,78155,2,0,L|421:273,1,50,8|0,2:2|3:3,0:0:0:0:
255,146,78271,2,0,L|248:27,1,100,2|0,1:2|1:1,0:0:0:0:
60,321,78501,5,2,1:2:0:0:
50,267,78617,2,0,L|109:289,1,50,0|0,1:1|1:1,0:0:0:0:
281,105,78731,1,2,1:2:0:0:
180,164,78848,2,0,L|176:57,1,100,0|2,1:1|3:2,0:0:0:0:
316,56,79078,1,0,1:1:0:0:
75,290,79194,2,0,L|209:290,1,100,2|0,1:2|3:3,0:0:0:0:
416,149,79425,5,2,1:2:0:0:
419,149,79482,1,0,3:3:0:0:
422,148,79540,1,0,3:3:0:0:
203,228,79655,1,2,1:2:0:0:
304,348,79771,2,0,L|307:296,1,50,2|0,1:2|1:1,0:0:0:0:
126,159,79886,6,0,L|120:101,1,50,2|0,1:2|3:3,0:0:0:0:
264,182,80002,2,0,L|330:182,1,50,0|0,3:3|3:3,0:0:0:0:
122,320,80117,2,0,L|59:271,1,66.6666666666667,2|0,1:2|1:1,0:0:0:0:
218,265,80271,1,0,1:1:0:0:
388,288,80348,5,6,1:2:0:0:
189,155,80463,2,0,L|178:79,1,50,0|0,3:3|3:3,0:0:0:0:
423,76,80578,1,2,1:2:0:0:
323,76,80694,2,0,L|447:75,1,100,0|10,1:1|2:2,0:0:0:0:
429,162,80925,1,0,1:1:0:0:
190,328,81040,2,0,L|184:202,1,100,2|0,1:2|3:3,0:0:0:0:
487,284,81271,6,0,L|490:224,1,50,2|0,1:2|1:1,0:0:0:0:
328,203,81386,2,0,L|268:203,1,50,0|0,1:1|1:1,0:0:0:0:
104,142,81502,2,0,L|99:82,1,50,2|0,1:2|1:1,0:0:0:0:
331,282,81617,2,0,L|391:282,1,50,2|0,1:2|1:1,0:0:0:0:
170,129,81732,6,0,L|110:129,1,50,2|0,1:2|1:1,0:0:0:0:
345,70,81848,2,0,L|405:70,1,50,0|0,1:1|1:1,0:0:0:0:
133,225,81963,2,0,L|73:225,1,50,2|0,1:2|1:1,0:0:0:0:
405,340,82078,2,0,L|465:340,1,50,0|0,1:1|1:1,0:0:0:0:
56,63,82194,5,4,2:2:0:0:
248,92,83117,5,0,3:3:0:0:
148,163,83232,2,0,L|139:95,1,50
336,322,83348,2,0,L|342:196,1,100,0|0,3:3|3:3,0:0:0:0:
98,289,83578,6,0,B|288:287|288:287|301:56,1,400,8|0,2:2|3:3,0:0:0:0:
67,75,83925,1,0,1:1:0:0:
306,353,84040,6,0,L|313:293,1,50,6|0,1:2|1:1,0:0:0:0:
168,301,84155,6,0,L|104:301,1,50,0|0,1:1|1:1,0:0:0:0:
241,209,84271,5,2,1:2:0:0:
367,209,84328,1,0,1:1:0:0:
219,150,84386,2,0,L|209:87,1,50,0|0,1:1|1:1,0:0:0:0:
394,132,84502,6,0,L|401:66,1,50,2|0,1:2|1:1,0:0:0:0:
276,72,84617,1,0,1:1:0:0:
128,58,84675,2,0,L|182:58,1,50,0|2,1:1|1:2,0:0:0:0:
367,332,84790,2,0,L|421:332,1,50,0|0,1:1|1:1,0:0:0:0:
276,279,84905,1,0,1:1:0:0:
115,162,84963,5,2,1:2:0:0:
112,127,84977,1,0,0:0:0:0:
108,127,84992,1,0,1:1:0:0:
105,161,85006,1,0,0:0:0:0:
188,160,85021,1,0,1:1:0:0:
329,131,85078,2,0,L|337:70,1,50,0|0,1:1|1:1,0:0:0:0:
144,315,85194,5,2,1:2:0:0:
141,350,85208,1,0,0:0:0:0:
137,350,85223,1,0,1:1:0:0:
134,316,85237,1,0,0:0:0:0:
217,317,85252,1,0,1:1:0:0:
351,235,85309,2,0,L|296:235,1,50,2|0,1:2|1:1,0:0:0:0:
157,140,85425,5,2,1:2:0:0:
145,137,85439,1,0,0:0:0:0:
145,137,85454,1,0,1:1:0:0:
157,140,85468,1,0,0:0:0:0:
248,134,85483,1,0,1:1:0:0:
448,52,85540,1,0,1:1:0:0:
460,49,85554,1,0,0:0:0:0:
460,49,85569,1,0,1:1:0:0:
448,52,85583,1,0,0:0:0:0:
357,45,85598,1,0,1:1:0:0:
170,343,85655,5,2,1:2:0:0:
158,346,85669,1,0,0:0:0:0:
158,346,85684,1,0,1:1:0:0:
170,343,85698,1,0,0:0:0:0:
261,345,85713,1,0,1:1:0:0:
433,300,85771,1,0,1:1:0:0:
285,297,85828,1,0,1:1:0:0:
71,202,85886,6,0,L|64:96,1,100,2|0,1:2|0:0,0:0:0:0:
267,171,86117,2,0,L|273:50,1,100,2|0,1:2|0:0,0:0:0:0:
485,160,86348,6,0,L|375:157,1,100,2|0,1:2|0:0,0:0:0:0:
174,299,86578,1,2,1:2:0:0:
369,298,86694,1,0,1:1:0:0:
110,193,86809,6,0,L|105:80,1,100,2|0,1:2|0:0,0:0:0:0:
316,222,87040,1,2,1:2:0:0:
398,222,87054,1,0,0:0:0:0:
402,222,87069,1,0,1:1:0:0:
406,222,87083,1,0,0:0:0:0:
410,222,87098,1,0,1:1:0:0:
261,151,87155,2,0,L|255:84,1,50,2|0,1:2|1:1,0:0:0:0:
420,63,87271,5,2,1:2:0:0:
436,64,87285,1,0,0:0:0:0:
436,64,87300,1,0,1:1:0:0:
420,63,87314,1,0,0:0:0:0:
341,70,87329,1,0,1:1:0:0:
173,299,87386,1,0,1:1:0:0:
91,295,87401,1,0,0:0:0:0:
74,295,87415,1,0,1:1:0:0:
74,295,87429,1,0,0:0:0:0:
91,295,87444,1,0,1:1:0:0:
242,214,87502,2,0,L|246:107,1,100,2|0,1:2|0:0,0:0:0:0:
451,136,87732,6,0,L|460:73,1,50,2|0,1:2|1:1,0:0:0:0:
290,242,87847,2,0,L|231:242,1,50,0|0,1:1|1:1,0:0:0:0:
79,247,87963,5,2,1:2:0:0:
220,312,88021,1,0,1:1:0:0:
363,179,88078,2,0,L|367:119,1,50,0|0,1:1|1:1,0:0:0:0:
222,133,88194,6,0,L|216:75,1,50,2|0,1:2|1:1,0:0:0:0:
402,323,88309,2,0,L|344:324,1,50,0|0,1:1|1:1,0:0:0:0:
212,209,88424,6,0,L|208:269,1,50,2|0,1:2|1:1,0:0:0:0:
384,247,88540,1,0,1:1:0:0:
248,290,88598,1,0,1:1:0:0:
83,87,88655,5,2,1:2:0:0:
73,54,88669,1,0,0:0:0:0:
93,53,88684,1,0,1:1:0:0:
175,55,88698,1,0,0:0:0:0:
201,57,88713,1,0,1:1:0:0:
374,145,88771,2,0,L|436:172,1,50,0|0,1:1|1:1,0:0:0:0:
286,328,88886,5,2,1:2:0:0:
267,327,88900,1,0,0:0:0:0:
191,329,88915,1,0,1:1:0:0:
173,331,88929,1,0,0:0:0:0:
191,329,88944,1,0,1:1:0:0:
347,86,89002,2,0,L|350:29,1,50,2|0,1:2|1:1,0:0:0:0:
182,106,89117,5,2,1:2:0:0:
108,105,89131,1,0,0:0:0:0:
105,88,89146,1,0,1:1:0:0:
102,64,89160,1,0,0:0:0:0:
98,30,89175,1,0,1:1:0:0:
266,150,89232,1,0,1:1:0:0:
340,151,89247,1,0,0:0:0:0:
343,168,89261,1,0,1:1:0:0:
346,192,89275,1,0,0:0:0:0:
350,226,89290,1,0,1:1:0:0:
162,338,89347,5,2,1:2:0:0:
143,289,89361,1,0,0:0:0:0:
143,289,89376,1,0,1:1:0:0:
162,338,89390,1,0,0:0:0:0:
240,314,89405,1,0,1:1:0:0:
408,313,89463,1,0,1:1:0:0:
273,357,89521,1,0,1:1:0:0:
125,206,89578,6,0,L|116:80,1,100,2|0,1:2|0:0,0:0:0:0:
360,86,89809,2,0,L|369:214,1,100,2|0,1:2|0:0,0:0:0:0:
186,104,90040,5,2,1:2:0:0:
169,104,90054,1,0,0:0:0:0:
169,104,90069,1,0,1:1:0:0:
186,104,90083,1,0,0:0:0:0:
264,105,90098,1,0,1:1:0:0:
412,309,90155,2,0,L|419:233,1,50,0|0,1:1|1:1,0:0:0:0:
278,293,90271,5,2,1:2:0:0:
274,293,90285,1,0,0:0:0:0:
270,293,90300,1,0,1:1:0:0:
266,293,90314,1,0,0:0:0:0:
262,293,90328,1,0,1:1:0:0:
116,308,90386,2,0,L|109:232,1,50,0|0,1:1|1:1,0:0:0:0:
288,165,90502,6,0,B|409:157,1,100,2|0,1:2|0:0,0:0:0:0:
130,118,90732,2,0,L|109:118,1,16.6666666666667,2|0,1:2|1:1,0:0:0:0:
190,82,90809,2,0,L|211:82,1,16.6666666666667,0|0,1:1|1:1,0:0:0:0:
390,316,90886,2,0,L|411:316,1,16.6666666666667,0|0,1:1|1:1,0:0:0:0:
280,283,90963,2,0,L|259:283,1,16.6666666666667,2|0,1:2|1:1,0:0:0:0:
432,168,91078,2,0,L|441:47,1,100,0|2,0:0|2:2,0:0:0:0:
98,223,91425,6,0,L|92:108,1,100,6|0,1:2|1:1,0:0:0:0:
292,153,91655,2,0,L|166:153,1,100,2|0,1:2|1:1,0:0:0:0:
403,282,91886,6,0,L|409:167,1,100,2|0,1:2|1:1,0:0:0:0:
137,171,92117,2,0,L|131:56,1,100,2|0,1:2|1:1,0:0:0:0:
343,110,92348,2,0,L|347:62,1,25,2|0,1:2|1:1,0:0:0:0:
258,287,92405,1,0,1:1:0:0:
147,310,92434,2,0,L|131:264,1,25,0|0,0:0|1:1,0:0:0:0:
351,209,92578,2,0,L|240:209,1,100,2|2,1:2|1:2,0:0:0:0:
352,319,92809,5,2,1:2:0:0:
161,292,92925,2,0,L|144:335,1,25,0|0,1:1|1:1,0:0:0:0:
246,97,92982,1,0,1:1:0:0:
357,79,93011,2,0,L|371:120,1,25,0|2,0:0|1:2,0:0:0:0:
163,178,93155,1,0,0:0:0:0:
404,162,93271,6,0,L|409:272,1,100,2|0,1:2|1:1,0:0:0:0:
207,257,93502,2,0,L|315:257,1,100,2|0,1:2|1:1,0:0:0:0:
101,78,93732,6,0,L|93:185,1,100,2|0,1:2|1:1,0:0:0:0:
315,242,93963,2,0,L|322:349,1,100,2|0,1:2|1:1,0:0:0:0:
98,184,94194,6,0,L|61:184,1,25,2|0,1:2|1:1,0:0:0:0:
184,136,94251,1,0,1:1:0:0:
295,152,94280,2,0,L|298:115,1,25,0|0,0:0|1:1,0:0:0:0:
113,262,94425,1,2,1:2:0:0:
312,263,94540,1,2,1:2:0:0:
138,80,94655,6,0,L|70:26,2,66.6666666666667,2|0|0,1:2|1:1|1:1,0:0:0:0:
305,152,94886,2,0,L|215:152,1,66.6666666666667,2|0,1:2|1:1,0:0:0:0:
305,152,95040,2,0,L|305:94,1,33.3333333333333,0|0,1:1|1:1,0:0:0:0:
151,347,95117,6,0,L|144:234,1,100,6|0,1:2|1:1,0:0:0:0:
406,326,95348,2,0,L|413:213,1,100,2|0,1:2|1:1,0:0:0:0:
220,154,95578,6,0,L|336:147,1,100,2|0,1:2|1:1,0:0:0:0:
129,332,95809,2,0,L|118:227,1,100,2|0,1:2|1:1,0:0:0:0:
385,213,96040,6,0,L|420:213,1,25,2|0,1:2|1:1,0:0:0:0:
305,144,96097,1,0,1:1:0:0:
201,127,96127,2,0,L|197:92,1,25,0|0,0:0|1:1,0:0:0:0:
411,351,96271,1,2,1:2:0:0:
311,346,96386,1,2,1:2:0:0:
411,351,96502,5,2,1:2:0:0:
155,263,96617,2,0,L|147:304,1,25,0|0,1:1|1:1,0:0:0:0:
244,97,96674,1,0,1:1:0:0:
351,259,96703,2,0,L|359:300,1,25,0|2,0:0|1:2,0:0:0:0:
128,194,96848,1,0,0:0:0:0:
348,207,96963,6,0,L|380:150,1,50,6|0,1:2|1:1,0:0:0:0:
181,147,97078,2,0,L|116:110,1,50,0|0,1:1|1:1,0:0:0:0:
312,308,97194,6,0,L|353:349,1,50,2|0,1:2|1:1,0:0:0:0:
121,324,97309,2,0,L|79:282,1,50,0|0,1:1|1:1,0:0:0:0:
242,178,97425,6,0,L|246:120,1,50,6|0,1:2|1:1,0:0:0:0:
411,122,97540,2,0,L|416:64,1,50,2|0,1:2|1:1,0:0:0:0:
235,336,97655,6,0,L|297:336,1,50,2|0,1:2|1:1,0:0:0:0:
477,276,97771,1,0,1:1:0:0:
345,278,97828,1,0,1:1:0:0:
179,183,97886,6,0,L|283:248,1,100,6|0,1:2|0:0,0:0:0:0:
78,52,98117,1,2,1:2:0:0:
212,50,98194,1,0,1:1:0:0:
365,49,98271,1,0,1:1:0:0:
372,92,98347,5,2,1:2:0:0:
171,315,98463,1,2,2:2:0:0:
396,324,98578,2,0,L|400:159,1,150,2|0,2:2|0:0,0:0:0:0:
149,268,98809,6,0,L|142:152,1,100,6|0,2:2|0:0,0:0:0:0:
318,268,99040,2,0,B|331:69|331:69|127:116,1,400,2|2,2:2|1:2,0:0:0:0:
317,330,99502,6,0,L|322:220,1,100,2|2,2:2|2:2,0:0:0:0:
122,311,99848,2,0,L|245:311,1,100,2|2,1:2|2:2,0:0:0:0:
41,124,100194,6,0,L|160:124,1,100,2|2,1:2|2:2,0:0:0:0:
348,214,100425,2,0,L|273:214,1,50,2|0,3:2|3:3,0:0:0:0:
177,334,100540,2,0,L|170:259,1,50,0|0,3:3|3:3,0:0:0:0:
382,141,100655,6,0,L|388:31,1,100,2|0,1:2|1:1,0:0:0:0:
187,89,100886,2,0,B|174:288|174:288|378:241,1,400,10|10,2:2|2:2,0:0:0:0:
381,176,101232,5,8,2:2:0:0:
188,300,101348,2,0,L|183:190,1,100,10|2,2:2|2:2,0:0:0:0:
383,281,101694,2,0,L|260:281,1,100,10|10,2:2|2:2,0:0:0:0:
463,170,102040,6,0,L|340:170,1,100,2|10,1:2|2:2,0:0:0:0:
112,222,102271,2,0,L|187:222,1,50,10|8,2:2|2:2,0:0:0:0:
323,324,102386,2,0,L|329:249,1,50,8|8,2:2|2:2,0:0:0:0:
76,66,102501,5,6,3:2:0:0:
437,209,103425,5,0,1:1:0:0:
258,181,103540,2,0,L|251:62,1,100,0|8,3:3|2:3,0:0:0:0:
71,281,103771,1,0,1:1:0:0:
250,243,103886,2,0,L|258:365,1,100,0|4,3:3|2:3,0:0:0:0:
458,105,104117,2,0,L|352:105,1,100,0|4,3:3|2:3,0:0:0:0:
157,95,104348,5,6,3:2:0:0:
336,265,104578,2,0,L|341:198,1,50,2|0,3:2|1:1,0:0:0:0:
207,231,104694,2,0,L|204:158,1,50,0|0,3:3|1:1,0:0:0:0:
393,341,104809,6,0,L|470:341,1,50,2|0,3:2|1:1,0:0:0:0:
280,75,104925,2,0,L|219:75,1,50,0|0,3:3|1:1,0:0:0:0:
71,334,105040,6,0,L|138:334,1,50,2|0,3:2|1:1,0:0:0:0:
342,297,105155,2,0,L|345:228,1,50,2|0,3:2|1:1,0:0:0:0:
160,237,105271,6,0,L|156:172,1,50,0|0,1:1|3:3,0:0:0:0:
334,193,105386,2,0,L|275:143,1,50,8|4,2:3|2:3,0:0:0:0:
474,316,105502,5,0,1:1:0:0:
487,279,105559,1,0,3:3:0:0:
359,155,105617,1,8,2:3:0:0:
232,150,105675,1,4,2:3:0:0:
54,196,105732,6,0,L|46:76,1,100,0|4,1:1|2:3,0:0:0:0:
281,299,105963,2,0,L|172:300,1,100,0|4,3:3|2:3,0:0:0:0:
464,61,106194,6,0,L|471:164,1,100,6|2,3:2|3:2,0:0:0:0:
330,72,106425,2,0,L|323:175,1,100,2|0,3:2|0:0,0:0:0:0:
94,74,106655,6,0,L|87:177,1,100,2|2,3:2|3:2,0:0:0:0:
288,264,106886,2,0,L|174:264,1,100,2|2,3:2|2:2,0:0:0:0:
389,89,107117,5,6,1:2:0:0:
170,119,107232,2,0,L|274:119,1,100,2|2,2:2|2:2,0:0:0:0:
274,76,107463,1,0,0:0:0:0:
475,274,107578,6,0,L|371:274,1,100,2|2,3:2|2:2,0:0:0:0:
100,244,107809,2,0,L|204:244,1,100,2|2,3:2|3:2,0:0:0:0:
410,105,108040,6,0,L|306:105,1,100,6|2,3:2|3:2,0:0:0:0:
410,105,108271,1,2,3:2:0:0:
50,351,108502,6,0,L|46:246,1,100,2|2,3:2|3:2,0:0:0:0:
186,342,108732,2,0,L|190:237,1,100,2|2,3:2|3:2,0:0:0:0:
431,115,108963,5,6,1:2:0:0:
296,111,109078,2,0,L|402:111,1,100,2|2,1:2|3:2,0:0:0:0:
173,77,109309,1,2,1:2:0:0:
274,242,109425,6,0,L|279:354,1,100,2|8,3:2|2:3,0:0:0:0:
49,202,109655,2,0,L|160:202,1,100,12|0,2:3|0:0,0:0:0:0:
450,330,109886,6,0,L|338:329,1,100,6|2,3:2|3:2,0:0:0:0:
219,315,110117,2,0,L|212:203,1,100,2|0,3:2|0:0,0:0:0:0:
414,325,110348,6,0,L|421:222,1,100,2|2,3:2|3:2,0:0:0:0:
192,116,110578,2,0,L|297:112,1,100,2|2,3:2|2:2,0:0:0:0:
59,310,110810,5,6,1:2:0:0:
278,316,110925,2,0,L|172:316,1,100,2|2,2:2|2:2,0:0:0:0:
278,316,111155,1,0,0:0:0:0:
45,100,111271,6,0,L|151:100,1,100,2|2,3:2|2:2,0:0:0:0:
427,178,111502,2,0,L|321:178,1,100,2|2,3:2|3:2,0:0:0:0:
84,193,111732,5,6,3:2:0:0:
261,287,111848,1,2,3:2:0:0:
163,173,111963,2,0,L|281:170,1,100,2|0,3:2|0:0,0:0:0:0:
456,76,112194,6,0,L|463:194,1,100,2|2,3:2|3:2,0:0:0:0:
321,231,112425,2,0,L|314:349,1,100,2|2,3:2|3:2,0:0:0:0:
106,269,112655,5,6,1:2:0:0:
237,269,112771,2,0,L|131:269,1,100,2|2,1:2|3:2,0:0:0:0:
404,306,113001,1,2,1:2:0:0:
408,260,113117,5,2,3:2:0:0:
207,190,113233,2,0,L|317:188,1,100,8|12,2:3|2:3,0:0:0:0:
310,133,113463,1,0,0:0:0:0:
71,145,113578,6,0,L|67:65,1,50,6|0,3:2|0:0,0:0:0:0:
232,91,113694,2,0,L|312:87,1,50,0|0,3:3|1:1,0:0:0:0:
455,257,113809,6,0,L|392:257,1,50,0|0,3:3|1:1,0:0:0:0:
275,222,113924,1,2,3:2:0:0:
124,213,113982,1,0,1:1:0:0:
182,211,114040,5,2,3:2:0:0:
346,180,114097,2,0,L|351:123,1,50,0|0,1:1|3:3,0:0:0:0:
156,115,114213,6,0,L|152:48,1,50,0|2,1:1|3:2,0:0:0:0:
328,47,114328,1,0,1:1:0:0:
154,314,114386,2,0,L|97:313,1,50,2|0,3:2|1:1,0:0:0:0:
154,314,114501,5,0,3:3:0:0:
294,286,114559,1,0,1:1:0:0:
440,183,114617,2,0,L|444:114,1,50,2|0,3:2|1:1,0:0:0:0:
277,153,114732,6,0,L|273:86,1,50,2|0,3:2|1:1,0:0:0:0:
92,311,114848,2,0,L|85:243,1,50,0|0,3:3|1:1,0:0:0:0:
282,305,114963,6,0,L|285:246,1,50,2|0,3:2|3:3,0:0:0:0:
130,119,115078,2,0,L|191:128,1,50,2|0,3:2|3:3,0:0:0:0:
328,123,115194,6,0,L|330:64,1,50,2|0,3:2|3:3,0:0:0:0:
156,295,115309,1,2,3:2:0:0:
299,292,115367,1,0,3:3:0:0:
449,260,115425,6,0,L|453:180,1,50,2|0,3:2|0:0,0:0:0:0:
290,205,115540,2,0,L|210:201,1,50,0|0,3:3|1:1,0:0:0:0:
69,69,115655,6,0,L|120:130,1,50,0|0,3:3|1:1,0:0:0:0:
247,101,115770,1,2,3:2:0:0:
400,108,115828,1,0,1:1:0:0:
354,102,115886,5,2,3:2:0:0:
178,236,115943,2,0,L|173:293,1,50,0|0,1:1|3:3,0:0:0:0:
300,285,116059,1,0,1:1:0:0:
149,145,116117,6,0,L|85:109,1,50,2|0,3:2|1:1,0:0:0:0:
236,128,116232,2,0,L|292:112,1,50,2|0,3:2|1:1,0:0:0:0:
438,127,116347,6,0,L|376:118,1,50,0|0,3:3|1:1,0:0:0:0:
203,295,116463,2,0,L|194:239,1,50,2|0,3:2|1:1,0:0:0:0:
362,291,116578,6,0,L|373:220,1,50,2|0,3:2|1:1,0:0:0:0:
245,197,116694,1,0,3:3:0:0:
114,172,116751,1,0,1:1:0:0:
257,136,116809,6,0,L|265:86,1,50,2|0,3:2|3:3,0:0:0:0:
106,103,116924,2,0,L|98:53,1,50,2|0,3:2|3:3,0:0:0:0:
236,262,117040,5,2,3:2:0:0:
380,260,117097,2,0,L|443:281,1,50,0|2,3:3|3:2,0:0:0:0:
275,334,117213,1,0,3:3:0:0:
93,254,117271,6,0,L|89:334,1,50,6|0,3:2|0:0,0:0:0:0:
228,315,117387,2,0,L|308:319,1,50,0|0,3:3|1:1,0:0:0:0:
432,120,117502,6,0,L|369:120,1,50,0|0,3:3|1:1,0:0:0:0:
250,108,117616,1,2,3:2:0:0:
101,118,117674,1,0,1:1:0:0:
93,118,117732,5,2,3:2:0:0:
250,232,117789,2,0,L|322:246,1,50,0|0,1:1|3:3,0:0:0:0:
121,250,117905,6,0,L|116:191,1,50,0|2,1:1|3:2,0:0:0:0:
245,335,118020,1,0,1:1:0:0:
394,73,118078,2,0,L|404:149,1,50,2|0,3:2|1:1,0:0:0:0:
266,86,118194,6,0,L|185:105,1,50,0|0,3:3|1:1,0:0:0:0:
66,204,118309,2,0,L|62:273,1,50,2|0,3:2|1:1,0:0:0:0:
229,234,118424,6,0,L|233:301,1,50,2|0,3:2|1:1,0:0:0:0:
414,76,118539,2,0,L|421:144,1,50,0|0,3:3|1:1,0:0:0:0:
245,164,118655,6,0,L|198:128,1,50,2|0,3:2|3:3,0:0:0:0:
382,317,118770,2,0,L|385:253,1,50,2|0,3:2|3:3,0:0:0:0:
200,291,118886,6,0,L|263:309,1,50,2|0,3:2|3:3,0:0:0:0:
419,125,119002,1,2,3:2:0:0:
283,124,119059,1,0,3:3:0:0:
91,130,119117,6,0,L|87:50,1,50,6|0,3:2|0:0,0:0:0:0:
236,69,119233,2,0,L|316:65,1,50,0|0,3:3|1:1,0:0:0:0:
449,264,119348,6,0,L|386:264,1,50,0|0,3:3|1:1,0:0:0:0:
250,276,119462,1,2,3:2:0:0:
101,266,119520,1,0,1:1:0:0:
93,266,119578,5,2,3:2:0:0:
250,152,119635,2,0,L|322:138,1,50,0|0,1:1|3:3,0:0:0:0:
121,134,119751,6,0,L|116:193,1,50,0|2,1:1|3:2,0:0:0:0:
245,49,119866,1,0,1:1:0:0:
394,311,119924,2,0,L|404:235,1,50,2|0,3:2|1:1,0:0:0:0:
242,229,120040,5,0,1:1:0:0:
400,219,120097,1,0,3:3:0:0:
422,248,120155,2,0,L|386:296,1,50,8|4,2:3|2:3,0:0:0:0:
248,59,120271,5,0,1:1:0:0:
411,131,120328,1,0,3:3:0:0:
433,102,120386,2,0,L|397:54,1,50,8|4,2:3|2:3,0:0:0:0:
261,315,120502,6,0,L|258:232,1,50,0|0,1:1|3:3,0:0:0:0:
398,140,120617,2,0,L|334:142,1,50,8|4,2:3|2:3,0:0:0:0:
184,72,120732,6,0,L|231:90,1,50,0|8,3:3|2:3,0:0:0:0:
395,285,120848,1,0,3:3:0:0:
269,284,120905,1,4,2:3:0:0:
98,111,120963,6,0,L|93:317,1,200,6|2,2:2|2:2,0:0:0:0:
274,126,121425,2,0,L|279:332,1,200,2|2,2:2|2:2,0:0:0:0:
200,130,121732,2,0,L|193:50,1,66.6666666666667,2|2,2:2|2:2,0:0:0:0:
347,160,121886,6,0,P|396:251|317:316,1,200,2|2,2:2|2:2,0:0:0:0:
159,104,122348,2,0,L|377:57,1,200,2|2,2:2|2:2,0:0:0:0:
284,223,122655,2,0,L|216:223,1,66.6666666666667,2|2,2:2|2:2,0:0:0:0:
359,333,122809,6,0,L|372:109,1,200,2|2,2:2|2:2,0:0:0:0:
183,254,123271,2,0,P|99:205|103:102,1,200,2|2,2:2|2:2,0:0:0:0:
129,77,123578,2,0,L|198:77,1,66.6666666666667,2|2,2:2|2:2,0:0:0:0:
366,189,123732,6,0,L|157:127,1,200,2|2,2:2|2:2,0:0:0:0:
269,321,124040,2,0,L|273:253,1,66.6666666666667
119,172,124194,2,0,B|110:273|110:273|216:289,1,200,2|2,2:2|2:2,0:0:0:0:
48,121,124655,5,2,2:2:0:0:
229,218,124886,2,0,L|305:218,1,66.6666666666667,2|2,2:2|2:2,0:0:0:0:
201,163,125040,1,2,2:2:0:0:
370,62,125117,1,2,2:2:0:0:
209,315,125348,1,2,2:2:0:0:
369,315,125578,5,2,2:2:0:0:
199,167,125809,2,0,L|130:167,1,66.6666666666667,2|2,2:2|2:2,0:0:0:0:
227,219,125963,1,2,2:2:0:0:
84,289,126040,1,2,2:2:0:0:
254,129,126271,1,2,2:2:0:0:
94,275,126502,5,2,2:2:0:0:
250,273,126732,2,0,L|260:192,1,66.6666666666667,2|2,2:2|2:2,0:0:0:0:
161,196,126886,1,2,2:2:0:0:
308,66,126963,1,2,2:2:0:0:
127,240,127194,1,2,2:2:0:0:
417,160,127425,5,2,3:2:0:0:
258,151,127655,1,2,3:2:0:0:
417,160,127886,5,2,1:2:0:0:
114,194,128117,2,0,L|109:91,1,100,2|8,3:2|3:2,3:2:0:0:
445,334,128348,6,0,L|454:127,1,200,6|2,1:2|2:2,0:0:0:0:
278,159,128694,1,0,0:0:0:0:
55,330,128809,2,0,L|44:115,1,200,2|2,1:2|2:2,0:0:0:0:
221,188,129155,1,0,0:0:0:0:
397,129,129271,6,0,B|167:128,1,200,6|2,1:2|2:2,0:0:0:0:
298,170,129617,1,0,0:0:0:0:
477,129,129732,2,0,B|490:362,1,200,2|2,1:2|2:2,0:0:0:0:
312,300,130078,1,0,0:0:0:0:
130,173,130194,6,0,B|361:173,1,200,6|2,1:2|2:2,0:0:0:0:
229,124,130540,1,0,0:0:0:0:
47,236,130655,2,0,B|35:8,1,200,2|2,1:2|2:2,0:0:0:0:
229,284,131002,1,0,0:0:0:0:
458,91,131117,6,0,L|466:315,1,200,6|2,1:2|2:2,0:0:0:0:
285,177,131463,1,0,0:0:0:0:
79,257,131578,2,0,L|73:154,1,100,2|0,1:2|0:0,0:0:0:0:
265,315,131809,2,0,L|270:210,1,100,2|0,1:2|0:0,0:0:0:0:
461,210,132040,6,0,L|468:83,1,100,6|0,1:2|0:0,0:0:0:0:
205,131,132271,2,0,L|266:83,1,50,2|2,1:2|2:2,0:0:0:0:
394,213,132386,2,0,L|401:298,1,50,2|0,2:2|2:2,0:0:0:0:
363,137,132502,1,2,1:2:0:0:
73,286,132732,2,0,L|67:154,1,100,2|0,1:2|0:0,0:0:0:0:
280,235,132963,6,0,L|152:231,1,100,6|0,1:2|0:0,0:0:0:0:
376,214,133194,2,0,L|383:293,1,50,2|2,1:2|2:2,0:0:0:0:
177,143,133309,2,0,L|174:60,1,50,2|0,2:2|2:2,0:0:0:0:
363,137,133425,1,2,1:2:0:0:
465,112,133655,1,2,1:2:0:0:
245,118,133771,1,0,1:1:0:0:
345,121,133886,6,0,L|347:-14,1,100,6|0,1:2|0:0,0:0:0:0:
125,249,134117,1,2,1:2:0:0:
121,249,134146,1,0,1:1:0:0:
117,248,134174,1,0,1:1:0:0:
240,254,134233,1,0,1:1:0:0:
364,214,134290,2,0,L|372:300,1,50,0|2,1:1|1:2,0:0:0:0:
189,159,134463,5,0,1:1:0:0:
234,159,134521,1,0,1:1:0:0:
279,159,134578,1,2,1:2:0:0:
103,295,134694,1,0,1:1:0:0:
342,265,134809,6,0,L|351:307,1,25,6|0,1:2|1:1,0:0:0:0:
242,254,134866,1,0,1:1:0:0:
124,224,134925,2,0,L|121:156,1,50,0|0,1:1|1:1,0:0:0:0:
349,155,135040,6,0,L|358:197,1,25,2|0,1:2|1:1,0:0:0:0:
247,148,135098,1,0,1:1:0:0:
118,81,135155,2,0,L|186:81,1,50,0|0,1:1|1:1,0:0:0:0:
373,21,135271,6,0,P|462:187|356:332,1,350,6|0,1:2|0:0,0:0:0:0:
142,270,135732,6,0,B|131:-2|131:-2|135:359|135:359|131:36|131:36|130:124|130:124|372:197|372:197|119:138|119:138|115:365|115:365|107:131,1,2014.99990776062,6|0,2:2|0:0,0:0:0:0:
433,60,137578,5,6,2:2:0:0:
256,192,150502,12,0,153732,0:0:0:0:
127,83,154194,6,0,L|120:202,1,100,6|0,2:2|0:0,0:0:0:0:
263,115,154425,2,0,L|267:235,1,100,2|0,2:2|0:0,0:0:0:0:
405,285,154655,6,0,L|410:171,1,100,2|0,2:2|0:0,0:0:0:0:
273,307,154886,2,0,L|164:306,1,100,2|0,2:2|0:0,0:0:0:0:
452,124,155117,6,0,L|457:19,1,100,2|0,2:2|0:0,0:0:0:0:
314,218,155348,2,0,L|307:95,1,100,2|0,2:2|0:0,0:0:0:0:
169,239,155578,6,0,L|163:120,1,100,2|0,2:2|0:0,0:0:0:0:
301,321,155809,2,0,L|423:321,1,100,2|0,2:2|0:0,0:0:0:0:
180,126,156040,5,0,1:1:0:0:
246,125,156116,1,0,1:1:0:0:
312,125,156193,1,0,1:1:0:0:
165,211,156270,1,8,2:3:0:0:
161,164,156348,2,0,L|245:164,1,66.6666666666667,8|8,2:3|2:3,0:0:0:0:
374,328,156502,5,4,2:3:0:0:
307,338,156578,2,0,L|299:253,1,66.6666666666667,4|4,2:3|2:3,0:0:0:0:
463,115,156732,1,4,2:3:0:0:
467,46,156809,2,0,L|386:46,1,66.6666666666667,4|4,2:3|2:3,0:0:0:0:
173,167,156963,5,0,1:1:0:0:
241,163,157040,2,0,L|245:73,1,66.6666666666667,0|0,1:1|1:1,0:0:0:0:
96,287,157193,1,4,3:3:0:0:
29,287,157271,2,0,L|116:287,1,66.6666666666667,4|4,3:3|3:3,0:0:0:0:
256,305,157424,5,4,3:3:0:0:
258,271,157502,2,0,L|262:179,1,66.6666666666667,4|4,3:3|3:3,0:0:0:0:
421,195,157655,1,0,3:3:0:0:
488,195,157732,2,0,L|416:195,1,66.6666666666667
180,78,157886,6,0,L|45:78,1,100,6|0,2:2|0:0,0:0:0:0:
219,302,158117,2,0,L|224:185,1,100,2|0,2:2|0:0,0:0:0:0:
467,135,158348,6,0,L|473:6,1,100,2|0,2:2|0:0,0:0:0:0:
334,311,158579,2,0,L|439:305,1,100,2|0,2:2|0:0,0:0:0:0:
212,239,158809,6,0,L|210:112,1,100,2|0,2:2|0:0,0:0:0:0:
352,175,159040,2,0,L|231:180,1,100,2|0,2:2|0:0,0:0:0:0:
30,332,159271,6,0,L|144:323,1,100,2|0,2:2|0:0,0:0:0:0:
259,321,159502,2,0,L|265:207,1,100,2|0,2:2|0:0,0:0:0:0:
51,47,159732,5,0,3:3:0:0:
47,135,159809,2,0,L|126:152,1,66.6666666666667,0|0,3:3|3:3,0:0:0:0:
264,341,159962,1,4,2:3:0:0:
268,291,160040,2,0,L|185:291,1,66.6666666666667,0|0,3:3|3:3,0:0:0:0:
367,339,160194,5,8,2:3:0:0:
433,339,160271,2,0,L|350:339,1,66.6666666666667,0|0,3:3|3:3,0:0:0:0:
210,200,160424,1,8,2:3:0:0:
273,212,160502,2,0,L|350:189,1,66.6666666666667,4|4,2:3|2:3,0:0:0:0:
118,167,160655,6,0,L|104:88,1,66.6666666666667,0|0,1:1|1:1,0:0:0:0:
190,70,160808,1,0,3:3:0:0:
361,325,160886,2,0,L|364:238,1,66.6666666666667,0|4,3:3|2:3,0:0:0:0:
153,103,161040,6,0,L|220:125,1,66.6666666666667,0|0,0:0|3:3,0:0:0:0:
370,137,161175,1,0,3:3:0:0:
381,78,161232,2,0,L|328:120,1,50,0|0,3:3|3:3,0:0:0:0:
175,242,161348,2,0,L|168:366,1,100,0|0,1:1|3:3,0:0:0:0:
431,328,161578,6,0,L|302:328,1,100,6|0,2:2|0:0,0:0:0:0:
468,245,161809,2,0,L|358:246,1,100,2|0,2:2|0:0,0:0:0:0:
136,174,162040,6,0,L|130:36,1,100,2|0,2:2|0:0,0:0:0:0:
271,273,162271,2,0,L|147:279,1,100,2|0,2:2|0:0,0:0:0:0:
419,153,162502,6,0,L|422:45,1,100,2|0,2:2|0:0,0:0:0:0:
284,336,162732,2,0,L|276:211,1,100,2|0,2:2|0:0,0:0:0:0:
70,56,162963,6,0,L|199:56,1,100,2|0,2:2|0:0,0:0:0:0:
33,139,163194,2,0,L|143:138,1,100,2|0,2:2|0:0,0:0:0:0:
360,224,163425,5,8,2:3:0:0:
298,236,163502,2,0,L|296:159,1,66.6666666666667,8|8,2:3|2:3,0:0:0:0:
452,144,163655,2,0,L|458:65,1,66.6666666666667,8|8,2:3|2:3,0:0:0:0:
383,75,163808,1,8,2:3:0:0:
221,335,163886,5,4,2:3:0:0:
284,301,163963,2,0,L|202:301,1,66.6666666666667,4|4,2:3|2:3,0:0:0:0:
48,221,164116,1,4,2:3:0:0:
43,169,164194,2,0,L|120:169,1,66.6666666666667,4|4,2:3|2:3,0:0:0:0:
303,354,164348,5,4,2:3:0:0:
241,311,164425,2,0,L|171:344,1,66.6666666666667,4|4,2:3|2:3,0:0:0:0:
341,188,164578,1,4,2:3:0:0:
407,207,164655,2,0,L|416:127,1,66.6666666666667,4|4,2:3|2:3,0:0:0:0:
206,158,164809,6,0,L|200:90,1,50,0|0,1:1|3:3,0:0:0:0:
368,92,164925,2,0,L|300:91,1,50,8|4,2:3|2:3,0:0:0:0:
127,236,165040,2,0,L|118:374,1,100,0|0,1:1|3:3,0:0:0:0:
442,340,165271,6,0,L|450:216,1,100,6|0,2:2|0:0,0:0:0:0:
264,203,165501,2,0,L|373:197,1,100,2|0,2:2|0:0,0:0:0:0:
166,111,165732,6,0,L|293:118,1,100,2|0,2:2|0:0,0:0:0:0:
42,342,165963,2,0,L|38:220,1,100,2|0,2:2|0:0,0:0:0:0:
266,223,166194,6,0,L|140:215,1,100,2|0,2:2|0:0,0:0:0:0:
361,147,166424,2,0,L|255:140,1,100,2|0,2:2|0:0,0:0:0:0:
473,65,166655,6,0,L|369:62,1,100,2|0,2:2|0:0,0:0:0:0:
112,328,166886,2,0,L|105:227,1,100,2|0,2:2|0:0,0:0:0:0:
309,224,167117,5,0,1:1:0:0:
173,232,167175,1,0,3:3:0:0:
136,252,167233,2,0,L|181:214,1,50,8|4,2:3|2:3,0:0:0:0:
328,126,167348,5,0,1:1:0:0:
192,134,167406,1,0,3:3:0:0:
155,154,167464,2,0,L|200:116,1,50,8|4,2:3|2:3,0:0:0:0:
343,329,167578,6,0,L|350:259,1,50,0|0,1:1|3:3,0:0:0:0:
208,332,167694,2,0,L|151:333,1,50,4|4,2:3|2:3,0:0:0:0:
321,111,167809,6,0,L|378:111,1,50,0|4,3:3|2:3,0:0:0:0:
371,111,167925,2,0,L|314:111,1,50,0|4,3:3|2:3,0:0:0:0:
155,234,168040,6,0,L|212:234,1,50,0|0,3:3|3:3,0:0:0:0:
372,278,168155,2,0,L|376:221,1,50,0|0,3:3|3:3,0:0:0:0:
219,131,168271,6,0,L|322:79,1,100,0|0,1:1|3:3,0:0:0:0:
308,85,168444,1,0,3:3:0:0:
157,348,168502,6,0,L|104:349,1,50,8|0,2:3|3:3,0:0:0:0:
288,321,168617,2,0,L|293:257,1,50,4|0,2:3|3:3,0:0:0:0:
107,37,168732,2,0,L|99:167,1,100,0|4,3:3|2:3,0:0:0:0:
382,120,168963,5,6,2:2:0:0:
203,124,169078,2,0,L|198:65,1,50,2|2,2:2|2:2,0:0:0:0:
322,351,169194,1,2,2:2:0:0:
142,278,169309,2,0,L|137:219,1,50,2|2,2:2|2:2,0:0:0:0:
261,193,169425,1,2,2:2:0:0:
81,178,169540,6,0,L|76:119,1,50,2|2,2:2|2:2,0:0:0:0:
200,107,169656,1,2,2:2:0:0:
300,81,169771,1,2,2:2:0:0:
103,79,169886,6,0,L|91:18,1,50,2|2,2:2|2:2,0:0:0:0:
247,306,170002,2,0,L|138:308,1,100,2|2,2:2|2:2,0:0:0:0:
339,149,170232,2,0,L|344:90,1,50,2|2,2:2|2:2,0:0:0:0:
190,102,170348,1,2,2:2:0:0:
109,58,170463,6,0,L|170:58,1,50,2|2,2:2|2:2,0:0:0:0:
300,329,170578,1,2,2:2:0:0:
126,325,170693,1,2,2:2:0:0:
347,121,170809,5,2,2:2:0:0:
357,45,170925,2,0,L|296:45,1,50,2|2,2:2|2:2,0:0:0:0:
185,97,171040,1,2,2:2:0:0:
365,140,171155,2,0,L|304:140,1,50,2|2,2:2|2:2,0:0:0:0:
192,239,171271,1,2,2:2:0:0:
366,324,171386,6,0,L|377:261,1,50,2|2,2:2|2:2,0:0:0:0:
229,344,171502,1,2,2:2:0:0:
130,342,171617,1,2,2:2:0:0:
370,200,171732,6,0,L|379:138,1,50,2|2,2:2|2:2,0:0:0:0:
224,99,171848,1,2,2:2:0:0:
404,46,171963,1,2,2:2:0:0:
424,270,172078,2,0,L|363:270,1,50,2|2,2:2|2:2,0:0:0:0:
218,341,172194,6,0,L|334:335,1,100,2|2,2:2|2:2,0:0:0:0:
197,251,172425,2,0,L|258:251,1,50,2|2,2:2|2:2,0:0:0:0:
389,158,172540,2,0,L|397:97,1,50,2|0,2:2|0:0,0:0:0:0:
194,266,172655,5,6,2:2:0:0:
174,309,172771,2,0,L|235:309,1,50,2|2,2:2|2:2,0:0:0:0:
375,35,172886,1,2,2:2:0:0:
194,150,173002,2,0,L|190:86,1,50,2|2,2:2|2:2,0:0:0:0:
314,193,173117,1,2,2:2:0:0:
133,222,173232,6,0,L|129:158,1,50,2|2,2:2|2:2,0:0:0:0:
253,279,173348,1,2,2:2:0:0:
353,305,173463,1,2,2:2:0:0:
84,342,173578,6,0,L|72:281,1,50,2|2,2:2|2:2,0:0:0:0:
228,78,173694,2,0,L|119:76,1,100,2|2,2:2|2:2,0:0:0:0:
321,265,173925,2,0,L|323:199,1,50,2|2,2:2|2:2,0:0:0:0:
151,282,174040,5,2,2:2:0:0:
71,337,174155,2,0,L|133:337,1,50,2|2,2:2|2:2,0:0:0:0:
280,55,174270,1,2,2:2:0:0:
106,59,174385,1,2,2:2:0:0:
307,263,174501,5,2,2:2:0:0:
388,343,174617,2,0,L|323:343,1,50,2|2,2:2|2:2,0:0:0:0:
216,330,174732,1,2,2:2:0:0:
398,270,174848,2,0,L|406:202,1,50,2|2,2:2|2:2,0:0:0:0:
282,193,174963,1,2,2:2:0:0:
461,156,175078,6,0,L|468:90,1,50,2|2,2:2|2:2,0:0:0:0:
303,73,175194,1,2,2:2:0:0:
204,70,175309,1,2,2:2:0:0:
385,265,175425,6,0,L|386:197,1,50,2|2,2:2|2:2,0:0:0:0:
254,338,175540,1,2,2:2:0:0:
428,339,175655,1,2,2:2:0:0:
448,100,175771,2,0,L|382:100,1,50,2|2,2:2|2:2,0:0:0:0:
207,193,175886,5,2,2:2:0:0:
127,97,176002,2,0,L|193:97,1,50,2|2,2:2|2:2,0:0:0:0:
348,158,176117,2,0,L|414:158,1,50,2|2,2:2|2:2,0:0:0:0:
257,122,176232,1,2,2:2:0:0:
56,329,176348,6,0,L|52:208,1,100,14|2,2:2|2:2,0:0:0:0:
237,223,176578,2,0,L|240:346,1,100,10|2,2:2|2:2,0:0:0:0:
443,187,176809,6,0,L|329:169,1,100,10|2,2:2|2:2,0:0:0:0:
121,96,177040,2,0,L|226:112,1,100,10|2,2:2|2:2,0:0:0:0:
447,33,177271,6,0,L|450:154,1,100,10|2,2:2|2:2,0:0:0:0:
256,326,177501,2,0,L|384:315,1,100,10|2,2:2|2:2,0:0:0:0:
143,169,177732,6,0,L|139:302,1,100,10|2,2:2|2:2,0:0:0:0:
361,238,177963,1,10,2:2:0:0:
121,337,178078,1,10,2:2:0:0:
406,164,178194,6,0,L|412:52,1,100,14|2,2:2|2:2,0:0:0:0:
157,235,178425,2,0,L|148:129,1,100,10|2,2:2|2:2,0:0:0:0:
350,316,178655,6,0,L|245:315,1,100,10|2,2:2|2:2,0:0:0:0:
44,155,178886,2,0,L|151:144,1,100,10|2,2:2|2:2,0:0:0:0:
388,222,179117,6,0,L|261:233,1,100,10|2,2:2|2:2,0:0:0:0:
83,108,179348,2,0,L|214:100,1,100,10|2,2:2|2:2,0:0:0:0:
424,69,179578,6,0,L|312:68,1,100,10|2,2:2|2:2,0:0:0:0:
83,344,179809,2,0,L|223:339,1,100,10|10,2:2|2:2,0:0:0:0:
299,339,179982,1,8,2:2:0:0:
138,187,180040,6,0,L|130:67,1,100,14|10,2:2|2:2,0:0:0:0:
307,140,180271,2,0,L|186:140,1,100,10|10,2:2|2:2,0:0:0:0:
383,314,180502,6,0,L|243:319,1,100,10|10,2:2|2:2,0:0:0:0:
383,50,180732,2,0,L|243:55,1,100,10|10,2:2|2:2,0:0:0:0:
165,55,180905,1,8,2:2:0:0:
326,214,180963,6,0,L|334:334,1,100,14|10,2:2|2:2,0:0:0:0:
157,167,181194,2,0,L|277:159,1,100,10|10,2:2|2:2,0:0:0:0:
81,57,181425,6,0,L|200:57,1,100,10|10,2:2|2:2,0:0:0:0:
81,334,181655,1,10,2:2:0:0:
264,284,181771,1,10,2:2:0:0:
378,286,181828,1,8,2:2:0:0:
172,244,181886,6,0,L|166:186,1,50,14|8,2:2|2:2,0:0:0:0:
406,94,182002,2,0,L|467:94,1,50,8|8,2:2|2:2,0:0:0:0:
295,139,182117,2,0,L|234:139,1,50,8|8,2:2|2:2,0:0:0:0:
103,117,182232,2,0,L|97:54,1,50,8|8,2:2|2:2,0:0:0:0:
318,49,182348,6,0,L|379:49,1,50,8|8,2:2|2:2,0:0:0:0:
160,330,182463,2,0,L|99:330,1,50,8|8,2:2|2:2,0:0:0:0:
361,225,182578,2,0,L|422:225,1,50,8|8,2:2|2:2,0:0:0:0:
126,199,182694,2,0,L|65:199,1,50,8|8,2:2|2:2,0:0:0:0:
434,70,182809,5,4,2:3:0:0:
239,230,183732,6,0,L|271:230,1,25,0|0,1:1|1:1,0:0:0:0:
358,234,183790,2,0,L|393:234,1,25,0|0,1:1|1:1,0:0:0:0:
489,347,183848,2,0,L|454:347,1,25,0|0,1:1|1:1,0:0:0:0:
373,343,183905,2,0,L|338:343,1,25,0|0,1:1|1:1,0:0:0:0:
254,350,183963,6,0,L|219:350,1,25,0|0,1:1|1:1,0:0:0:0:
135,343,184021,2,0,L|100:343,1,25,0|0,1:1|1:1,0:0:0:0:
206,270,184078,2,0,L|241:270,1,25,0|0,1:1|1:1,0:0:0:0:
325,276,184136,2,0,L|360:276,1,25,0|0,1:1|1:1,0:0:0:0:
460,53,184194,6,0,L|425:53,1,25,0|0,1:1|1:1,0:0:0:0:
341,58,184252,2,0,L|306:58,1,25,0|0,1:1|1:1,0:0:0:0:
225,62,184309,2,0,L|190:62,1,25,0|0,1:1|1:1,0:0:0:0:
106,58,184367,2,0,L|71:58,1,25,0|0,1:1|1:1,0:0:0:0:
185,177,184425,6,0,L|220:177,1,25,0|0,1:1|1:1,0:0:0:0:
306,220,184482,2,0,L|341:220,1,25,0|0,1:1|1:1,0:0:0:0:
445,283,184540,2,0,L|410:283,1,25,0|0,1:1|1:1,0:0:0:0:
326,328,184598,2,0,L|291:328,1,25,0|0,1:1|1:1,0:0:0:0:
210,330,184655,6,0,L|175:330,1,25,0|0,1:1|1:1,0:0:0:0:
81,292,184713,2,0,L|116:292,1,25,0|0,1:1|1:1,0:0:0:0:
200,159,184771,2,0,L|235:159,1,25,0|0,1:1|1:1,0:0:0:0:
316,162,184828,2,0,L|351:162,1,25,0|0,1:1|1:1,0:0:0:0:
453,65,184886,6,0,L|418:65,1,25,0|0,1:1|1:1,0:0:0:0:
326,62,184944,2,0,L|291:62,1,25,0|0,1:1|1:1,0:0:0:0:
199,71,185002,2,0,L|164:71,1,25,0|0,1:1|1:1,0:0:0:0:
70,55,185059,2,0,L|111:55,1,25,0|0,1:1|1:1,0:0:0:0:
187,217,185117,5,0,1:1:0:0:
213,216,185137,1,0,1:1:0:0:
292,215,185156,1,0,1:1:0:0:
317,215,185175,1,0,1:1:0:0:
396,281,185194,1,0,1:1:0:0:
422,280,185214,1,0,1:1:0:0:
422,280,185233,1,0,1:1:0:0:
396,281,185252,1,0,1:1:0:0:
317,299,185271,1,0,1:1:0:0:
292,301,185290,1,0,1:1:0:0:
213,306,185309,1,0,1:1:0:0:
187,305,185329,1,0,1:1:0:0:
108,272,185348,5,0,1:1:0:0:
82,271,185368,1,0,1:1:0:0:
82,271,185387,1,0,1:1:0:0:
108,272,185406,1,0,1:1:0:0:
187,217,185425,1,0,1:1:0:0:
213,216,185445,1,0,1:1:0:0:
292,215,185464,1,0,1:1:0:0:
317,215,185483,1,0,1:1:0:0:
396,281,185502,1,0,1:1:0:0:
422,280,185522,1,0,1:1:0:0:
422,280,185541,1,0,1:1:0:0:
396,281,185560,1,0,1:1:0:0:
314,299,185579,5,0,1:1:0:0:
289,301,185598,1,0,1:1:0:0:
206,306,185617,1,0,1:1:0:0:
180,305,185637,1,0,1:1:0:0:
83,272,185656,1,0,1:1:0:0:
57,271,185675,1,0,1:1:0:0:
57,271,185695,1,0,1:1:0:0:
83,272,185714,1,0,1:1:0:0:
149,342,185733,1,0,1:1:0:0:
174,340,185752,1,0,1:1:0:0:
247,341,185771,1,0,1:1:0:0:
273,342,185791,1,0,1:1:0:0:
346,343,185810,5,0,1:1:0:0:
371,343,185829,1,0,1:1:0:0:
444,278,185848,1,0,1:1:0:0:
470,279,185868,1,0,1:1:0:0:
470,279,185887,1,0,1:1:0:0:
444,278,185906,1,0,1:1:0:0:
365,259,185925,1,0,1:1:0:0:
340,257,185944,1,0,1:1:0:0:
267,258,185963,1,0,1:1:0:0:
241,259,185983,1,0,1:1:0:0:
168,260,186002,1,0,1:1:0:0:
143,260,186021,1,0,1:1:0:0:
70,195,186040,5,0,1:1:0:0:
44,196,186060,1,0,1:1:0:0:
44,196,186079,1,0,1:1:0:0:
70,195,186098,1,0,1:1:0:0:
149,72,186118,1,0,1:1:0:0:
174,74,186137,1,0,1:1:0:0:
247,73,186156,1,0,1:1:0:0:
273,72,186176,1,0,1:1:0:0:
346,71,186195,1,0,1:1:0:0:
371,71,186214,1,0,1:1:0:0:
444,136,186233,1,0,1:1:0:0:
470,135,186253,1,0,1:1:0:0:
470,135,186272,5,0,1:1:0:0:
444,136,186291,1,0,1:1:0:0:
365,155,186310,1,0,1:1:0:0:
340,157,186329,1,0,1:1:0:0:
267,156,186348,1,0,1:1:0:0:
241,155,186368,1,0,1:1:0:0:
168,154,186387,1,0,1:1:0:0:
143,154,186406,1,0,1:1:0:0:
70,219,186425,1,0,1:1:0:0:
44,218,186445,1,0,1:1:0:0:
44,218,186464,1,0,1:1:0:0:
70,219,186483,1,0,1:1:0:0:
149,342,186502,5,0,1:1:0:0:
174,340,186521,1,0,1:1:0:0:
247,341,186540,1,0,1:1:0:0:
273,342,186560,1,0,1:1:0:0:
339,267,186578,1,0,1:1:0:0:
365,268,186598,1,0,1:1:0:0:
438,341,186617,1,0,1:1:0:0:
464,342,186637,1,0,1:1:0:0:
464,342,186655,1,0,1:1:0:0:
438,341,186674,1,0,1:1:0:0:
351,194,186694,1,0,1:1:0:0:
325,195,186714,1,0,1:1:0:0:
231,294,186732,5,0,1:1:0:0:
140,296,186761,1,0,1:1:0:0:
115,296,186790,1,0,1:1:0:0:
140,296,186819,1,0,1:1:0:0:
266,298,186848,1,0,1:1:0:0:
397,301,186877,1,0,1:1:0:0:
422,301,186905,1,0,1:1:0:0:
422,301,186934,1,0,1:1:0:0:
397,301,186963,5,0,1:1:0:0:
266,298,186992,1,0,1:1:0:0:
150,223,187021,1,0,1:1:0:0:
125,223,187050,1,0,1:1:0:0:
125,223,187079,1,0,1:1:0:0:
150,223,187108,1,0,1:1:0:0:
266,298,187137,1,0,1:1:0:0:
387,216,187166,1,0,1:1:0:0:
412,216,187194,5,0,1:1:0:0:
412,216,187223,1,0,1:1:0:0:
387,216,187252,1,0,1:1:0:0:
266,298,187281,1,0,1:1:0:0:
161,128,187309,1,0,1:1:0:0:
136,128,187337,1,0,1:1:0:0:
161,128,187366,1,0,1:1:0:0:
292,133,187425,5,0,1:1:0:0:
450,132,187482,1,0,1:1:0:0:
309,133,187540,1,0,1:1:0:0:
188,88,187598,1,0,1:1:0:0:
69,232,187655,5,0,1:1:0:0:
188,233,187712,1,0,1:1:0:0:
351,281,187771,1,0,1:1:0:0:
291,282,187828,1,0,1:1:0:0:
49,83,187886,5,0,1:1:0:0:
309,125,188348,5,6,1:2:0:0:
130,172,188463,1,2,1:2:0:0:
127,139,188520,1,2,2:2:0:0:
263,197,188578,1,2,1:2:0:0:
364,307,188694,1,2,1:2:0:0:
367,277,188751,1,2,2:2:0:0:
226,302,188809,1,2,1:2:0:0:
327,226,188925,5,2,1:2:0:0:
129,143,189040,1,2,1:2:0:0:
308,358,189155,1,2,1:2:0:0:
259,356,189212,1,0,1:1:0:0:
116,77,189271,5,2,1:2:0:0:
216,76,189386,1,2,1:2:0:0:
396,106,189501,1,2,1:2:0:0:
215,284,189617,1,2,1:2:0:0:
211,312,189674,1,2,1:2:0:0:
352,243,189732,5,2,1:2:0:0:
453,205,189848,1,2,1:2:0:0:
402,206,189906,1,2,2:2:0:0:
244,76,189963,1,2,1:2:0:0:
344,342,190078,1,2,1:2:0:0:
294,339,190136,1,0,1:1:0:0:
126,176,190193,5,2,1:2:0:0:
327,131,190309,1,2,2:2:0:0:
330,131,190367,1,2,2:2:0:0:
189,131,190425,1,2,1:2:0:0:
89,272,190540,1,2,1:2:0:0:
139,274,190598,1,2,2:2:0:0:
287,78,190655,1,2,1:2:0:0:
368,330,190771,5,2,1:2:0:0:
220,330,190828,1,2,1:2:0:0:
216,289,190886,1,2,1:2:0:0:
367,228,190944,1,0,1:1:0:0:
318,228,191001,1,2,1:2:0:0:
97,166,191117,6,0,L|93:93,1,50,2|2,1:2|2:2,0:0:0:0:
245,98,191232,1,2,2:2:0:0:
144,345,191348,2,0,L|139:214,1,100,2|2,1:2|2:2,0:0:0:0:
389,234,191578,6,0,L|396:119,1,100,2|2,1:2|2:2,0:0:0:0:
344,141,191752,1,2,2:2:0:0:
176,325,191809,1,2,1:2:0:0:
310,327,191866,1,2,1:2:0:0:
461,326,191924,1,2,1:2:0:0:
325,328,191982,1,0,1:1:0:0:
164,270,192040,5,6,1:2:0:0:
64,163,192155,1,2,1:2:0:0:
113,164,192212,1,2,2:2:0:0:
254,205,192270,1,2,1:2:0:0:
153,95,192386,1,2,1:2:0:0:
150,125,192443,1,2,2:2:0:0:
291,100,192501,1,2,1:2:0:0:
190,176,192617,5,2,1:2:0:0:
388,259,192732,1,2,1:2:0:0:
209,44,192847,1,2,1:2:0:0:
258,46,192904,1,0,1:1:0:0:
401,325,192963,5,2,1:2:0:0:
407,270,193078,1,2,1:2:0:0:
188,297,193193,1,2,1:2:0:0:
369,119,193309,1,2,1:2:0:0:
373,91,193366,1,2,1:2:0:0:
232,160,193424,5,2,1:2:0:0:
131,198,193540,1,2,1:2:0:0:
182,197,193598,1,2,2:2:0:0:
340,327,193655,1,2,1:2:0:0:
263,61,193770,1,2,1:2:0:0:
259,25,193828,1,0,1:1:0:0:
417,242,193885,5,2,1:2:0:0:
427,335,194002,1,2,2:2:0:0:
378,332,194059,1,2,2:2:0:0:
227,158,194117,1,2,1:2:0:0:
327,144,194232,1,2,1:2:0:0:
330,105,194289,1,2,2:2:0:0:
188,268,194348,1,2,1:2:0:0:
180,193,194463,5,2,1:2:0:0:
331,220,194521,1,2,1:2:0:0:
334,195,194578,1,2,1:2:0:0:
173,92,194636,1,0,1:1:0:0:
122,90,194694,1,2,1:2:0:0:
321,333,194809,6,0,B|396:333,1,50,2|2,1:2|2:2,0:0:0:0:
197,202,194925,1,2,2:2:0:0:
376,206,195040,1,2,1:2:0:0:
380,137,195155,1,2,1:2:0:0:
199,106,195271,5,2,1:2:0:0:
289,119,195386,2,0,L|293:182,1,50,2|2,2:2|2:2,0:0:0:0:
151,344,195501,5,2,1:2:0:0:
129,343,195530,1,0,1:1:0:0:
214,343,195558,1,2,1:2:0:0:
332,345,195617,1,2,1:2:0:0:
334,307,195675,1,0,1:1:0:0:
176,156,195732,5,6,1:2:0:0:
154,154,195761,1,0,1:1:0:0:
239,156,195789,1,0,1:1:0:0:
357,125,195848,2,0,L|288:122,1,50,2|2,1:2|1:2,0:0:0:0:
156,63,195963,5,2,1:2:0:0:
153,63,195992,1,0,1:1:0:0:
241,57,196020,1,0,1:1:0:0:
359,305,196079,2,0,L|284:304,1,50,2|2,1:2|1:2,0:0:0:0:
138,326,196194,5,2,1:2:0:0:
135,326,196223,1,0,1:1:0:0:
132,326,196251,1,0,1:1:0:0:
285,227,196310,2,0,L|356:226,1,50,2|2,1:2|2:2,0:0:0:0:
194,135,196425,6,0,B|78:135,1,100,2|2,1:2|1:2,0:0:0:0:
314,147,196655,1,2,1:2:0:0:
219,88,196771,5,2,1:2:0:0:
219,88,196800,1,0,1:1:0:0:
307,82,196828,1,0,1:1:0:0:
428,323,196886,2,0,B|332:287,1,100,2|2,1:2|1:2,0:0:0:0:
97,225,197117,5,2,1:2:0:0:
93,225,197146,1,0,1:1:0:0:
181,165,197174,1,0,1:1:0:0:
302,221,197232,1,2,1:2:0:0:
306,169,197290,1,2,2:2:0:0:
155,109,197348,5,2,1:2:0:0:
205,110,197405,1,0,1:1:0:0:
331,69,197463,1,2,1:2:0:0:
335,30,197492,1,0,1:1:0:0:
247,30,197520,1,0,1:1:0:0:
125,35,197578,5,2,1:2:0:0:
100,36,197607,1,0,1:1:0:0:
188,338,197635,1,0,1:1:0:0:
321,352,197694,1,2,1:2:0:0:
325,298,197752,1,2,1:2:0:0:
196,117,197809,5,2,1:2:0:0:
192,117,197838,1,0,1:1:0:0:
288,115,197867,1,0,1:1:0:0:
409,204,197925,1,2,1:2:0:0:
359,203,197983,1,2,1:2:0:0:
228,195,198040,5,2,1:2:0:0:
202,199,198069,1,0,1:1:0:0:
290,179,198097,1,0,1:1:0:0:
411,85,198155,2,0,L|416:9,1,50,2|2,1:2|2:2,0:0:0:0:
281,342,198271,6,0,B|271:204,1,100,2|2,1:2|1:2,0:0:0:0:
92,239,198502,2,0,L|85:152,1,50,2|2,1:2|2:2,0:0:0:0:
239,327,198617,6,0,L|365:326,1,100,2|2,2:2|1:2,0:0:0:0:
157,160,198848,1,2,2:2:0:0:
153,117,198905,1,2,2:2:0:0:
294,326,198963,2,0,L|183:326,1,100,2|2,1:2|2:2,0:0:0:0:
192,287,199136,1,2,2:2:0:0:
363,202,199194,5,2,1:2:0:0:
234,198,199251,1,2,1:2:0:0:
83,200,199309,1,2,1:2:0:0:
214,203,199367,1,0,1:1:0:0:
345,228,199425,5,6,1:2:0:0:
367,230,199454,1,0,1:1:0:0:
282,228,199482,1,0,1:1:0:0:
164,259,199541,2,0,L|233:262,1,50,2|2,1:2|1:2,0:0:0:0:
365,321,199656,5,2,1:2:0:0:
368,321,199685,1,0,1:1:0:0:
280,327,199713,1,0,1:1:0:0:
154,64,199771,2,0,L|147:138,1,50,2|2,1:2|1:2,0:0:0:0:
288,78,199887,5,2,1:2:0:0:
291,78,199916,1,0,1:1:0:0:
294,78,199944,1,0,1:1:0:0:
143,177,200002,2,0,L|72:178,1,50,2|2,1:2|2:2,0:0:0:0:
234,342,200117,6,0,B|239:224,1,100,2|2,1:2|1:2,0:0:0:0:
420,220,200348,1,2,1:2:0:0:
240,97,200463,5,2,1:2:0:0:
236,53,200492,1,0,1:1:0:0:
324,57,200520,1,0,1:1:0:0:
445,75,200578,1,2,1:2:0:0:
354,133,200694,1,2,1:2:0:0:
155,295,200809,5,2,1:2:0:0:
130,294,200838,1,0,1:1:0:0:
221,278,200867,1,0,1:1:0:0:
372,276,200925,1,2,1:2:0:0:
376,224,201040,5,2,1:2:0:0:
257,214,201097,1,0,1:1:0:0:
126,78,201155,1,2,1:2:0:0:
122,78,201184,1,0,1:1:0:0:
213,76,201213,1,0,1:1:0:0:
344,76,201271,5,2,1:2:0:0:
370,76,201300,1,0,1:1:0:0:
282,126,201328,1,0,1:1:0:0:
151,165,201386,2,0,L|227:166,1,50,2|2,1:2|1:2,0:0:0:0:
365,303,201502,5,2,1:2:0:0:
369,303,201531,1,0,1:1:0:0:
281,300,201559,1,0,1:1:0:0:
150,331,201617,2,0,L|145:259,1,50,2|2,1:2|1:2,0:0:0:0:
328,93,201732,5,2,1:2:0:0:
331,93,201761,1,0,1:1:0:0:
334,93,201790,1,0,1:1:0:0:
205,188,201847,2,0,L|119:188,1,50,2|2,1:2|2:2,0:0:0:0:
308,336,201963,2,0,B|428:335,1,100,2|2,1:2|1:2,0:0:0:0:
227,277,202194,5,2,1:2:0:0:
221,277,202252,1,0,0:0:0:0:
366,185,202309,1,2,2:2:0:0:
165,92,202425,1,2,1:2:0:0:
151,134,202540,1,2,1:2:0:0:
201,131,202598,1,0,0:0:0:0:
383,303,202655,5,2,1:2:0:0:
244,304,202712,1,0,1:1:0:0:
103,303,202770,1,2,1:2:0:0:
244,304,202828,1,2,1:2:0:0:
415,104,202886,5,2,1:2:0:0:
420,104,202915,1,0,1:1:0:0:
325,50,202944,1,2,1:2:0:0:
229,46,202973,1,0,1:1:0:0:
129,58,203002,1,2,1:2:0:0:
123,26,203030,1,0,1:1:0:0:
428,282,203117,5,8,2:2:0:0:
453,262,203175,1,0,1:1:0:0:
399,258,203232,1,0,1:1:0:0:
111,329,203348,5,8,2:2:0:0:
162,329,203406,1,0,1:1:0:0:
350,329,203463,1,0,1:1:0:0:
300,328,203521,1,0,1:1:0:0:
120,143,203578,5,8,2:2:0:0:
95,123,203636,1,0,1:1:0:0:
152,121,203693,1,0,1:1:0:0:
411,159,203809,6,0,B|414:0,1,150,8|0,2:2|0:0,0:0:0:0:
129,154,204040,6,0,L|57:154,1,50,6|0,1:2|0:0,0:0:0:0:
205,269,204155,1,2,2:2:0:0:
386,232,204271,1,10,1:2:0:0:
390,205,204328,1,0,0:0:0:0:
238,190,204386,1,2,2:2:0:0:
417,138,204501,5,2,1:2:0:0:
186,78,204617,1,2,2:2:0:0:
286,62,204732,1,10,1:2:0:0:
290,26,204790,1,2,2:2:0:0:
149,224,204848,1,2,2:2:0:0:
348,267,204963,5,2,1:2:0:0:
352,220,205021,1,0,0:0:0:0:
184,112,205078,1,2,2:2:0:0:
133,111,205136,1,2,2:2:0:0:
270,116,205194,1,10,1:2:0:0:
450,332,205309,1,2,2:2:0:0:
399,333,205367,1,2,2:2:0:0:
218,305,205425,6,0,B|337:306,1,100,2|2,1:2|2:2,0:0:0:0:
138,83,205655,2,0,L|123:83,1,12.5,10|0,1:2|0:0,0:0:0:0:
373,78,205771,2,0,L|374:63,1,12.5,10|0,1:2|0:0,0:0:0:0:
41,201,205886,5,2,1:2:0:0:
39,165,205943,1,0,0:0:0:0:
37,129,206001,1,2,2:2:0:0:
278,177,206117,1,10,1:2:0:0:
229,177,206174,1,0,0:0:0:0:
68,331,206232,1,2,2:2:0:0:
64,293,206290,1,2,2:2:0:0:
255,328,206348,6,0,B|127:328,1,100,2|2,1:2|2:2,0:0:0:0:
374,187,206578,2,0,L|375:172,1,12.5,10|0,1:2|0:0,0:0:0:0:
128,155,206694,2,0,L|113:155,1,12.5,10|0,1:2|0:0,0:0:0:0:
396,89,206809,5,2,1:2:0:0:
215,328,206925,2,0,L|211:273,1,50,2|2,2:2|2:2,0:0:0:0:
362,317,207040,1,10,1:2:0:0:
442,227,207155,2,0,L|371:227,1,50,2|2,1:2|2:2,0:0:0:0:
197,99,207271,5,2,1:2:0:0:
111,100,207300,1,0,0:0:0:0:
323,64,207444,5,2,2:2:0:0:
409,64,207473,1,0,0:0:0:0:
197,240,207617,5,2,1:2:0:0:
111,240,207646,1,0,0:0:0:0:
305,139,207732,6,0,L|419:139,1,100,6|2,1:2|2:2,0:0:0:0:
221,137,207905,1,2,2:2:0:0:
216,99,207963,1,10,1:2:0:0:
415,301,208078,1,2,2:2:0:0:
365,302,208136,1,2,2:2:0:0:
214,240,208194,6,0,B|323:241,1,100,2|2,1:2|2:2,0:0:0:0:
133,331,208425,1,10,1:2:0:0:
130,305,208482,1,2,2:2:0:0:
316,104,208540,1,2,2:2:0:0:
137,82,208655,5,2,1:2:0:0:
57,45,208770,1,2,2:2:0:0:
107,45,208828,1,2,2:2:0:0:
295,298,208885,1,10,1:2:0:0:
194,237,209001,1,2,2:2:0:0:
189,190,209059,1,2,2:2:0:0:
380,179,209117,5,2,1:2:0:0:
460,119,209232,1,2,2:2:0:0:
411,118,209289,1,2,2:2:0:0:
237,271,209348,2,0,L|235:256,1,12.5,10|0,1:2|0:0,0:0:0:0:
483,259,209464,2,0,L|468:259,1,12.5,2|0,1:2|0:0,0:0:0:0:
262,125,209578,5,2,1:2:0:0:
161,76,209694,1,2,2:2:0:0:
212,79,209752,1,2,2:2:0:0:
400,157,209809,1,10,1:2:0:0:
219,141,209925,1,2,2:2:0:0:
216,123,209982,1,2,2:2:0:0:
380,42,210040,5,2,1:2:0:0:
480,289,210155,1,2,2:2:0:0:
430,287,210213,1,2,2:2:0:0:
249,292,210271,1,8,1:2:0:0:
169,109,210386,1,2,1:2:0:0:
288,109,210443,1,2,1:2:0:0:
145,308,210502,6,0,L|138:196,1,100,2|2,1:2|2:2,0:0:0:0:
378,188,210732,1,10,1:2:0:0:
429,188,210790,1,2,2:2:0:0:
258,111,210848,1,10,2:2:0:0:
252,69,210963,5,2,1:2:0:0:
432,302,211078,1,2,2:2:0:0:
482,304,211136,1,2,2:2:0:0:
331,219,211194,5,10,1:2:0:0:
132,155,211309,1,2,2:2:0:0:
268,143,211367,1,2,2:2:0:0:
440,40,211425,6,0,B|445:146,1,100,6|2,1:2|2:2,0:0:0:0:
384,331,211598,1,2,2:2:0:0:
187,98,211655,1,10,1:2:0:0:
288,100,211771,1,2,2:2:0:0:
290,61,211828,1,2,2:2:0:0:
139,199,211886,5,2,1:2:0:0:
313,286,212001,1,2,2:2:0:0:
315,235,212117,1,10,1:2:0:0:
96,73,212232,6,0,B|198:147,1,100,2|2,2:2|1:2,0:0:0:0:
97,153,212462,1,2,2:2:0:0:
94,132,212520,1,2,2:2:0:0:
258,297,212578,1,10,1:2:0:0:
338,267,212694,1,2,2:2:0:0:
288,267,212752,1,2,2:2:0:0:
149,198,212809,6,0,L|263:199,1,100,2|2,1:2|2:2,0:0:0:0:
68,99,213040,2,0,L|67:113,1,12.5,10|0,1:2|0:0,0:0:0:0:
315,91,213156,2,0,L|316:76,1,12.5,2|0,1:2|0:0,0:0:0:0:
141,142,213271,5,2,1:2:0:0:
41,140,213386,1,2,2:2:0:0:
92,141,213444,1,2,2:2:0:0:
271,249,213501,1,10,1:2:0:0:
170,248,213617,1,2,2:2:0:0:
168,204,213675,1,2,2:2:0:0:
326,115,213732,5,2,1:2:0:0:
246,116,213848,1,2,2:2:0:0:
326,44,213963,1,10,1:2:0:0:
329,44,214021,1,2,2:2:0:0:
130,318,214078,1,2,1:2:0:0:
81,320,214135,1,0,1:1:0:0:
252,267,214194,5,2,1:2:0:0:
332,232,214309,1,2,2:2:0:0:
334,205,214367,1,2,2:2:0:0:
133,159,214425,1,10,1:2:0:0:
312,96,214540,1,10,2:2:0:0:
262,93,214598,1,2,2:2:0:0:
77,104,214655,5,2,1:2:0:0:
75,52,214771,1,2,1:2:0:0:
314,308,214886,5,8,2:2:0:0:
190,307,214943,1,10,2:2:0:0:
69,300,215001,1,10,2:2:0:0:
190,307,215059,1,0,0:0:0:0:
356,121,215117,5,6,1:2:0:0:
276,71,215232,1,2,2:2:0:0:
272,26,215290,1,2,2:2:0:0:
413,32,215348,1,10,1:2:0:0:
493,157,215463,1,2,2:2:0:0:
443,157,215521,1,2,2:2:0:0:
275,298,215578,5,2,1:2:0:0:
271,274,215636,1,0,0:0:0:0:
412,330,215694,1,2,2:2:0:0:
432,249,215809,1,10,1:2:0:0:
306,224,215867,1,2,2:2:0:0:
145,198,215925,1,2,2:2:0:0:
140,122,216040,5,2,1:2:0:0:
319,56,216155,1,2,2:2:0:0:
269,56,216213,1,2,2:2:0:0:
150,292,216270,1,10,1:2:0:0:
351,337,216386,1,2,2:2:0:0:
401,340,216443,1,2,2:2:0:0:
279,283,216501,5,2,1:2:0:0:
178,175,216617,1,2,1:2:0:0:
175,125,216675,1,2,2:2:0:0:
333,101,216732,5,10,1:2:0:0:
202,53,216790,1,0,1:1:0:0:
54,282,216847,1,2,1:2:0:0:
185,286,216905,1,2,1:2:0:0:
346,212,216963,5,2,1:2:0:0:
350,187,217078,1,2,2:2:0:0:
221,126,217135,1,2,2:2:0:0:
218,94,217193,1,10,1:2:0:0:
439,78,217309,1,2,2:2:0:0:
389,75,217367,1,2,2:2:0:0:
208,315,217425,5,2,1:2:0:0:
387,314,217540,1,2,1:2:0:0:
389,284,217598,1,2,2:2:0:0:
265,273,217655,1,8,1:2:0:0:
164,217,217771,1,2,1:2:0:0:
288,220,217828,1,2,1:2:0:0:
162,176,217886,6,0,B|154:62,1,100,2|2,1:2|2:2,0:0:0:0:
256,73,218117,1,2,1:2:0:0:
77,228,218232,6,0,L|23:228,1,50,10|0,2:2|0:0,0:0:0:0:
27,228,218348,2,0,L|88:228,1,50,2|0,1:2|0:0,1:2:0:0:
196,344,218462,1,2,2:2:0:0:
267,345,218520,1,2,2:2:0:0:
408,311,218578,5,10,1:2:0:0:
260,268,218635,1,0,1:1:0:0:
109,220,218693,1,2,1:2:0:0:
261,268,218751,1,2,1:2:0:0:
472,57,218809,6,0,L|482:278,1,200,6|2,2:2|2:2,0:0:0:0:
177,200,219271,1,2,2:2:0:0:
174,200,219386,1,2,2:2:0:0:
335,103,219617,1,2,2:2:0:0:
76,142,219732,6,0,L|66:363,1,200,0|2,0:0|2:2,0:0:0:0:
359,279,220194,1,2,2:2:0:0:
363,279,220309,1,2,2:2:0:0:
162,211,220540,1,2,2:2:0:0:
361,350,220655,5,8,2:2:0:0:
312,348,220712,1,8,2:2:0:0:
141,346,220770,1,8,2:2:0:0:
90,346,220828,1,8,2:2:0:0:
258,284,220885,5,8,2:2:0:0:
309,284,220943,1,8,2:2:0:0:
480,254,221001,1,8,2:2:0:0:
430,251,221058,1,8,2:2:0:0:
229,209,221116,5,8,2:2:0:0:
179,210,221174,1,8,2:2:0:0:
357,164,221231,1,8,2:2:0:0:
408,166,221289,1,8,2:2:0:0:
177,134,221347,5,8,2:2:0:0:
126,132,221405,1,8,2:2:0:0:
393,100,221462,1,8,2:2:0:0:
444,100,221520,1,8,2:2:0:0:
253,80,221578,5,0,0:0:0:0:
72,30,221694,1,8,2:2:0:0:
251,219,221809,1,8,2:3:0:0:
206,220,221867,1,8,2:3:0:0:
161,220,221925,1,8,2:3:0:0:
360,198,222040,5,8,2:3:0:0:
363,152,222098,1,8,2:3:0:0:
204,142,222155,1,8,2:3:0:0:
331,82,222213,5,8,2:2:0:0:
334,34,222271,1,4,2:3:0:0:
109,254,222386,1,4,2:3:0:0:
170,253,222444,1,4,2:3:0:0:
378,329,222501,5,6,1:2:0:0:
249,339,222558,1,0,1:1:0:0:
118,335,222616,1,2,1:2:0:0:
249,339,222674,1,2,1:2:0:0:
445,125,222731,1,10,1:2:0:0:
450,69,222848,1,2,2:2:0:0:
284,169,222905,1,2,2:2:0:0:
280,135,222963,5,2,1:2:0:0:
491,296,223078,2,0,B|376:282,1,100,2|10,2:2|1:2,0:0:0:0:
150,125,223309,1,2,1:2:0:0:
326,124,223425,5,2,1:2:0:0:
406,67,223540,1,2,2:2:0:0:
356,67,223598,1,2,2:2:0:0:
208,345,223655,1,10,1:2:0:0:
288,269,223771,1,2,2:2:0:0:
290,234,223828,1,2,2:2:0:0:
139,253,223886,5,2,1:2:0:0:
39,216,224001,1,2,2:2:0:0:
88,219,224058,1,2,2:2:0:0:
249,110,224116,1,10,1:2:0:0:
350,182,224232,1,2,1:2:0:0:
226,184,224289,1,2,1:2:0:0:
367,288,224347,5,2,1:2:0:0:
373,339,224463,1,2,2:2:0:0:
230,319,224521,1,2,2:2:0:0:
226,286,224578,1,10,1:2:0:0:
406,205,224694,1,2,2:2:0:0:
457,210,224752,1,2,2:2:0:0:
279,152,224809,5,2,1:2:0:0:
275,82,224925,1,2,1:2:0:0:
394,348,224982,1,2,1:2:0:0:
396,321,225011,1,0,1:1:0:0:
300,320,225040,1,0,1:1:0:0:
194,297,225069,1,0,1:1:0:0:
189,264,225098,1,2,1:2:0:0:
347,185,225155,1,2,1:2:0:0:
349,157,225213,1,2,1:2:0:0:
168,133,225271,6,0,L|162:25,1,100,2|2,1:2|1:2,0:0:0:0:
337,328,225501,1,10,1:2:0:0:
362,301,225530,1,0,1:1:0:0:
337,328,225559,1,2,1:2:0:0:
126,252,225617,6,0,B|119:377,1,100,2|2,1:2|2:2,0:0:0:0:
301,224,225848,1,2,1:2:0:0:
252,224,225905,1,2,2:2:0:0:
116,81,225963,5,10,2:2:0:0:
240,80,226020,1,8,2:2:0:0:
401,136,226078,1,10,2:2:0:0:
275,136,226136,1,2,2:2:0:0:
104,342,226194,5,6,1:2:0:0:
97,296,226309,1,2,2:2:0:0:
257,296,226367,1,2,2:2:0:0:
307,295,226425,1,10,1:2:0:0:
128,254,226540,1,2,2:2:0:0:
78,259,226598,1,2,2:2:0:0:
246,147,226655,5,2,1:2:0:0:
250,81,226771,1,2,2:2:0:0:
424,227,226886,1,10,1:2:0:0:
373,225,226944,1,2,2:2:0:0:
205,326,227001,1,2,2:2:0:0:
306,327,227117,5,2,1:2:0:0:
132,181,227232,1,2,2:2:0:0:
128,143,227290,1,2,2:2:0:0:
306,125,227347,1,10,1:2:0:0:
407,131,227463,1,2,2:2:0:0:
357,130,227521,1,2,2:2:0:0:
189,58,227578,6,0,B|302:118,1,100,2|2,1:2|2:2,0:0:0:0:
453,285,227809,1,10,1:2:0:0:
303,353,227867,1,2,2:2:0:0:
299,351,227925,1,2,1:2:0:0:
478,108,228040,5,2,1:2:0:0:
498,167,228155,1,2,2:2:0:0:
447,167,228213,1,2,2:2:0:0:
270,86,228270,1,10,1:2:0:0:
168,88,228386,1,2,2:2:0:0:
219,91,228444,1,2,2:2:0:0:
396,300,228501,6,0,B|273:307,1,100,2|2,1:2|2:2,0:0:0:0:
367,111,228732,1,10,1:2:0:0:
316,110,228790,1,2,2:2:0:0:
135,79,228848,2,0,L|133:157,1,50,2|0,1:2|1:1,0:0:0:0:
315,204,228963,5,2,1:2:0:0:
415,314,229078,1,2,2:2:0:0:
289,319,229136,1,2,2:2:0:0:
128,315,229194,1,10,1:2:0:0:
124,274,229309,1,10,2:2:0:0:
250,219,229367,1,2,2:2:0:0:
401,136,229425,5,2,1:2:0:0:
404,86,229540,1,2,2:2:0:0:
165,338,229655,5,8,2:2:0:0:
214,339,229712,1,10,2:2:0:0:
375,334,229770,1,10,2:2:0:0:
324,343,229828,1,0,0:0:0:0:
148,135,229886,6,0,L|262:130,1,100,6|2,1:2|1:2,0:0:0:0:
429,86,230117,2,0,L|315:81,1,100,2|2,1:2|1:2,0:0:0:0:
108,188,230348,5,2,1:2:0:0:
348,334,230463,2,0,L|246:321,1,100,2|2,1:2|1:2,0:0:0:0:
48,251,230694,1,2,1:2:0:0:
187,255,230751,1,0,1:1:0:0:
358,152,230809,5,2,1:2:0:0:
362,101,230925,1,2,1:2:0:0:
364,63,230982,1,2,2:2:0:0:
213,67,231040,1,2,1:2:0:0:
113,68,231155,1,2,1:2:0:0:
163,67,231212,1,2,1:2:0:0:
334,327,231270,5,2,1:2:0:0:
435,246,231386,1,2,1:2:0:0:
385,248,231443,1,2,1:2:0:0:
214,325,231501,5,2,1:2:0:0:
134,325,231521,1,0,1:1:0:0:
114,294,231540,1,0,1:1:0:0:
110,276,231559,1,0,1:1:0:0:
125,224,231578,1,0,1:1:0:0:
208,216,231598,1,0,1:1:0:0:
296,141,231616,1,2,1:2:0:0:
319,140,231636,1,0,1:1:0:0:
319,140,231655,1,0,1:1:0:0:
296,141,231675,1,2,1:2:0:0:
99,368,231732,6,0,B|95:131,1,200,6|2,1:2|2:2,0:0:0:0:
387,95,232194,5,2,1:2:0:0:
336,95,232251,1,0,0:0:0:0:
285,96,232309,1,2,2:2:0:0:
285,96,232367,1,2,2:2:0:0:
336,95,232425,1,2,2:2:0:0:
387,95,232482,1,2,2:2:0:0:
390,233,232540,1,2,2:2:0:0:
338,235,232597,1,2,2:2:0:0:
187,335,232655,6,0,L|181:261,1,50,2|0,1:2|0:0,0:0:0:0:
235,361,232771,2,0,L|309:361,1,50,2|2,2:2|2:2,0:0:0:0:
436,224,232886,2,0,L|441:150,1,50,10|0,2:2|0:0,0:0:0:0:
245,158,233002,2,0,L|171:158,1,50,2|0,2:2|0:0,0:0:0:0:
195,158,233117,6,0,L|269:158,1,50,0|0,1:1|0:0,0:0:0:0:
391,20,233232,1,2,2:2:0:0:
172,346,233347,1,10,2:2:0:0:
120,349,233405,1,0,0:0:0:0:
246,292,233463,1,2,2:2:0:0:
431,148,233578,6,0,L|292:140,1,100,6|0,1:2|0:0,0:0:0:0:
124,317,233809,2,0,L|263:315,1,100,8|0,1:2|0:0,0:0:0:0:
446,329,234040,6,0,L|448:190,1,100,2|2,1:2|2:2,0:0:0:0:
248,175,234270,1,10,1:2:0:0:
329,100,234386,1,2,1:2:0:0:
331,100,234444,1,2,1:2:0:0:
130,242,234502,6,0,L|72:242,1,50,2|0,1:2|1:1,0:0:0:0:
241,322,234617,2,0,L|299:322,1,50,0|0,1:1|1:1,0:0:0:0:
472,207,234732,6,0,L|414:207,1,50,0|0,1:1|1:1,0:0:0:0:
178,242,234848,2,0,L|120:242,1,50,0|0,1:1|1:1,0:0:0:0:
329,50,234963,6,0,L|387:50,1,50,0|0,1:1|1:1,0:0:0:0:
144,126,235078,2,0,L|86:126,1,50,0|0,1:1|1:1,0:0:0:0:
278,335,235194,5,0,1:1:0:0:
405,337,235252,1,0,1:1:0:0:
227,343,235309,1,0,1:1:0:0:
91,340,235367,1,0,1:1:0:0:
402,159,235425,5,4,1:2:0:0:
242,56,235655,2,0,B|227:255|227:255|429:212,1,400,2|2,2:2|2:2,0:0:0:0:
132,342,236117,6,0,L|127:211,1,100,2|2,2:2|2:2,0:0:0:0:
289,279,236463,2,0,L|198:239,1,100,2|2,2:2|2:2,0:0:0:0:
398,146,236809,6,0,L|296:100,1,100,2|2,1:2|1:2,0:0:0:0:
118,349,237040,2,0,L|114:283,1,50,8|8,2:2|2:2,0:0:0:0:
190,346,237155,2,0,L|194:280,1,50,8|8,2:2|2:2,0:0:0:0:
65,84,237270,5,0,1:1:0:0:
355,267,237502,2,0,B|367:63|367:63|164:81,1,400,0|0,1:1|1:1,0:0:0:0:
462,314,237963,6,0,L|467:180,1,100,2|2,1:2|2:2,0:0:0:0:
306,263,238309,2,0,L|400:206,1,100,10|10,2:2|2:2,0:0:0:0:
52,6,238655,6,0,L|48:333,1,350
252,142,239117,6,0,L|376:142,2,100,6|2|2,3:2|3:2|3:2,0:0:0:0:
452,293,239578,6,0,L|347:294,1,100,2|2,3:2|3:2,0:0:0:0:
170,198,239809,2,0,L|165:84,1,100,2|2,3:2|2:2,0:0:0:0:
389,295,240040,5,6,1:2:0:0:
170,301,240155,1,2,2:2:0:0:
271,297,240271,2,0,L|276:159,1,100,2|0,2:2|0:0,0:0:0:0:
476,99,240502,6,0,L|338:94,1,100,2|2,3:2|2:2,0:0:0:0:
137,161,240732,2,0,L|275:156,1,100,2|2,3:2|3:2,0:0:0:0:
419,93,240963,6,0,L|295:93,2,100,6|2|2,3:2|3:2|3:2,0:0:0:0:
87,177,241425,5,2,3:2:0:0:
268,300,241541,1,2,3:2:0:0:
177,307,241655,2,0,L|171:180,1,100,2|2,3:2|3:2,0:0:0:0:
393,162,241886,6,0,L|286:160,1,100,6|2,1:2|1:2,0:0:0:0:
474,273,242117,2,0,L|480:146,1,100,2|2,3:2|1:2,0:0:0:0:
298,243,242348,6,0,L|292:116,1,100,2|8,3:2|2:3,0:0:0:0:
393,146,242578,1,12,2:3:0:0:
103,223,242809,5,6,3:2:0:0:
204,206,242925,1,2,3:2:0:0:
305,184,243040,1,2,3:2:0:0:
105,311,243271,6,0,L|230:311,1,100,2|2,3:2|3:2,0:0:0:0:
382,209,243502,2,0,L|386:322,1,100,2|2,3:2|2:2,0:0:0:0:
146,89,243732,5,6,1:2:0:0:
365,83,243847,1,2,2:2:0:0:
264,87,243963,2,0,L|259:225,1,100,2|0,2:2|0:0,0:0:0:0:
441,295,244194,6,0,L|301:294,1,100,2|2,3:2|2:2,0:0:0:0:
158,302,244425,2,0,L|153:164,1,100,2|2,3:2|3:2,0:0:0:0:
348,201,244655,6,0,L|353:63,1,100,6|2,3:2|3:2,0:0:0:0:
70,328,244886,2,0,L|64:256,1,50,0|0,1:1|3:3,0:0:0:0:
206,322,245002,2,0,L|262:321,1,50,0|0,1:1|3:3,0:0:0:0:
421,250,245118,6,0,L|362:250,1,50,0|0,1:1|3:3,0:0:0:0:
172,212,245233,2,0,L|165:148,1,50,0|0,1:1|3:3,0:0:0:0:
329,165,245348,6,0,L|390:157,1,50,0|0,1:1|3:3,0:0:0:0:
231,94,245464,2,0,L|169:84,1,50,0|0,1:1|3:3,0:0:0:0:
404,75,245578,6,0,L|463:75,1,50,0|0,1:1|3:3,0:0:0:0:
332,151,245693,1,8,2:3:0:0:
210,150,245751,1,4,2:3:0:0:
351,240,245809,6,0,L|410:240,1,50,0|0,1:1|3:3,0:0:0:0:
280,201,245924,1,8,2:3:0:0:
158,200,245982,1,4,2:3:0:0:
306,308,246039,6,0,L|316:245,1,50,0|4,1:1|2:3,0:0:0:0:
163,344,246154,2,0,L|103:344,1,50,0|4,3:3|2:3,0:0:0:0:
311,138,246271,6,0,L|384:138,1,50,0|8,3:3|2:3,0:0:0:0:
186,148,246386,2,0,L|179:71,1,50,0|8,3:3|2:3,0:0:0:0:
467,45,246501,5,4,2:2:0:0:
219,42,247425,6,0,L|157:42,1,50,0|0,1:1|1:1,0:0:0:0:
360,171,247540,2,0,L|422:171,1,50,0|0,1:1|1:1,0:0:0:0:
209,42,247655,6,0,L|147:42,1,50,0|0,1:1|1:1,0:0:0:0:
374,106,247771,2,0,L|436:106,1,50,0|0,1:1|1:1,0:0:0:0:
199,42,247886,6,0,L|137:42,1,50,0|0,1:1|1:1,0:0:0:0:
380,51,248001,2,0,L|442:51,1,50,0|0,1:1|1:1,0:0:0:0:
189,42,248117,6,0,L|127:42,1,50,0|0,1:1|1:1,0:0:0:0:
390,296,248232,2,0,L|452:296,1,50,0|0,1:1|1:1,0:0:0:0:
201,257,248348,6,0,L|175:255,1,25,0|0,1:1|0:0,0:0:0:0:
264,327,248405,1,0,1:1:0:0:
402,221,248463,1,0,1:1:0:0:
276,209,248521,1,0,1:1:0:0:
144,181,248578,6,0,L|118:179,1,25,0|0,1:1|0:0,0:0:0:0:
210,222,248636,1,0,1:1:0:0:
348,145,248694,1,0,1:1:0:0:
222,133,248752,1,0,1:1:0:0:
98,91,248809,6,0,L|72:89,1,25,0|0,1:1|0:0,0:0:0:0:
161,161,248866,1,0,1:1:0:0:
304,259,248925,2,0,L|330:257,1,25,0|0,1:1|0:0,0:0:0:0:
238,307,248982,1,0,1:1:0:0:
99,272,249039,5,0,1:1:0:0:
73,271,249059,1,0,1:1:0:0:
73,271,249078,1,0,1:1:0:0:
99,272,249097,1,0,1:1:0:0:
185,217,249116,1,0,1:1:0:0:
211,216,249136,1,0,1:1:0:0:
297,215,249155,1,0,1:1:0:0:
322,215,249174,1,0,1:1:0:0:
411,281,249193,1,0,1:1:0:0:
437,280,249213,1,0,1:1:0:0:
437,280,249232,1,0,1:1:0:0:
411,281,249251,1,0,1:1:0:0:
325,299,249270,5,0,1:1:0:0:
300,301,249289,1,0,1:1:0:0:
214,306,249308,1,0,1:1:0:0:
188,305,249328,1,0,1:1:0:0:
99,112,249347,1,0,1:1:0:0:
73,113,249367,1,0,1:1:0:0:
73,113,249386,1,0,1:1:0:0:
99,112,249405,1,0,1:1:0:0:
185,167,249424,1,0,1:1:0:0:
211,168,249444,1,0,1:1:0:0:
297,169,249463,1,0,1:1:0:0:
322,169,249482,1,0,1:1:0:0:
411,103,249501,5,0,1:1:0:0:
437,104,249521,1,0,1:1:0:0:
437,104,249540,1,0,1:1:0:0:
411,103,249559,1,0,1:1:0:0:
325,85,249578,1,0,1:1:0:0:
300,83,249597,1,0,1:1:0:0:
214,78,249616,1,0,1:1:0:0:
188,79,249636,1,0,1:1:0:0:
99,272,249655,1,0,1:1:0:0:
73,271,249675,1,0,1:1:0:0:
73,271,249694,1,0,1:1:0:0:
99,272,249713,1,0,1:1:0:0:
185,217,249732,5,0,1:1:0:0:
211,216,249752,1,0,1:1:0:0:
297,215,249771,1,0,1:1:0:0:
322,215,249790,1,0,1:1:0:0:
411,281,249809,1,0,1:1:0:0:
437,280,249829,1,0,1:1:0:0:
437,280,249848,1,0,1:1:0:0:
411,281,249867,1,0,1:1:0:0:
325,299,249886,1,0,1:1:0:0:
300,301,249905,1,0,1:1:0:0:
214,306,249924,1,0,1:1:0:0:
188,305,249944,1,0,1:1:0:0:
99,112,249963,5,0,1:1:0:0:
73,113,249983,1,0,1:1:0:0:
73,113,250002,1,0,1:1:0:0:
99,112,250021,1,0,1:1:0:0:
185,167,250040,1,0,1:1:0:0:
211,168,250060,1,0,1:1:0:0:
297,169,250079,1,0,1:1:0:0:
322,169,250098,1,0,1:1:0:0:
411,103,250117,1,0,1:1:0:0:
437,104,250137,1,0,1:1:0:0:
437,104,250156,1,0,1:1:0:0:
411,103,250175,1,0,1:1:0:0:
325,85,250194,5,0,1:1:0:0:
300,83,250213,1,0,1:1:0:0:
214,78,250232,1,0,1:1:0:0:
188,79,250252,1,0,1:1:0:0:
99,272,250271,1,0,1:1:0:0:
73,271,250291,1,0,1:1:0:0:
73,271,250310,1,0,1:1:0:0:
99,272,250329,1,0,1:1:0:0:
185,217,250348,1,0,1:1:0:0:
211,216,250368,1,0,1:1:0:0:
297,215,250387,1,0,1:1:0:0:
322,215,250406,1,0,1:1:0:0:
411,281,250425,5,0,1:1:0:0:
437,280,250445,1,0,1:1:0:0:
437,280,250464,1,0,1:1:0:0:
411,281,250483,1,0,1:1:0:0:
325,299,250502,1,0,1:1:0:0:
300,301,250521,1,0,1:1:0:0:
214,306,250540,1,0,1:1:0:0:
188,305,250560,1,0,1:1:0:0:
106,272,250578,1,0,1:1:0:0:
80,271,250598,1,0,1:1:0:0:
277,75,250655,5,8,2:2:0:0:
393,72,250712,1,8,2:2:0:0:
208,73,250770,1,8,2:2:0:0:
79,81,250828,1,8,2:2:0:0:
380,169,250886,6,0,P|429:218|351:222,1,150,0|0,1:1|0:0,0:0:0:0:
56,333,251117,6,0,L|50:-9,1,300,6|0,1:2|0:0,0:0:0:0:
