osu file format v14

[General]
AudioFilename: audio.mp3
AudioLeadIn: 0
PreviewTime: 53382
Countdown: 0
SampleSet: Soft
StackLeniency: 0.7
Mode: 3
LetterboxInBreaks: 0
SpecialStyle: 0
WidescreenStoryboard: 0

[Editor]
Bookmarks: 3582,8382,13182,22782,28782,32382,37182,38982,43482,53382,62982,65232,72582,74832,84582,88182,92982,96582,100182,109857,119382,124032,128382,132582,142182,144432,151782,154182,157782,163782,171582,173382,178182,180582,182982,187782,188982,192582,192588,193782,194982,197388,207432,209682,217879,218584,219334,222840,232140,240990,249240
DistanceSpacing: 0.8
BeatDivisor: 4
GridSize: 16
TimelineZoom: 2.799999

[Metadata]
Title:Euphoria
TitleUnicode:Euphoria
Artist:Laur
ArtistUnicode:Laur
Creator:TakJun
Version:CELESTIAL
Source:
Tags:CELESTIAL EP c99 FAMoss hardcore j-Core jcore piano artcore electronic instrumental edm metal ethnic orchestral LLCD-004 コミックマーケット99 Comic Market 99 Comiket99
BeatmapID:3416761
BeatmapSetID:1672679

[Difficulty]
HPDrainRate:8.5
CircleSize:7
OverallDifficulty:8.2
ApproachRate:5
SliderMultiplier:1.4
SliderTickRate:1

[Events]
//Background and Video events
0,0,"bg.jpg",0,0
//Break Periods
//Storyboard Layer 0 (Background)
//Storyboard Layer 1 (Fail)
//Storyboard Layer 2 (Pass)
//Storyboard Layer 3 (Foreground)
//Storyboard Layer 4 (Overlay)
//Storyboard Sound Samples
Sample,37188,0,"winds.wav",70

[TimingPoints]
3588,300,4,2,2,60,1,0
3588,-100,4,2,2,60,0,0
7188,-100,4,2,1,60,0,0
37188,300,3,2,1,60,1,0
38988,300,4,2,1,60,1,0
53388,-100,4,2,1,60,0,1
62988,-100,4,2,1,60,0,0
65238,-100,4,2,1,60,0,1
72588,-100,4,2,1,60,0,0
74988,-100,4,2,1,60,0,1
88188,-100,4,2,1,60,0,0
89388,300,3,2,1,60,1,0
100188,300,4,2,2,60,1,0
109788,-100,4,2,1,60,0,0
132588,-100,4,2,1,60,0,1
142188,-100,4,2,1,60,0,0
144438,-100,4,2,1,60,0,1
154188,300,3,2,1,60,1,0
157788,300,4,2,1,60,1,0
163788,-100,4,2,1,60,0,1
178188,-100,4,2,1,60,0,0
182988,-100,4,2,1,60,0,1
197388,-100,4,2,1,60,0,0
197463,-100,4,2,2,60,0,0
206988,-100,4,2,1,60,0,0
209688,-100,4,2,1,60,0,1
216588,315.789473684211,4,2,1,60,1,0
216588,-95.2380952380952,4,2,1,60,0,0
217219,333.333333333333,4,2,1,60,1,0
217219,-90.0900900900901,4,2,1,60,0,0
217885,352.941176470588,4,2,1,60,1,0
217885,-84.7457627118644,4,2,1,60,0,0
218590,375,4,2,1,60,1,0
218590,-80,4,2,1,60,0,0
219340,400,4,2,1,60,1,0
219340,-75.187969924812,4,2,1,60,0,0
222546,300,4,2,1,60,1,1
240996,-100,4,2,1,60,0,0

[HitObjects]
256,192,1188,128,0,3588:0:0:0:0:
36,192,3588,1,0,0:0:0:70:winds.wav
109,192,3588,1,0,0:0:0:0:
329,192,3588,1,0,0:0:0:0:
475,192,3588,1,0,0:0:0:0:
182,192,3738,1,0,0:0:0:0:
402,192,3888,1,0,0:0:0:0:
109,192,4038,128,0,4188:0:0:0:0:
256,192,4038,1,0,0:0:0:0:
475,192,4038,1,0,0:0:0:0:
329,192,4188,128,0,4338:0:0:0:0:
36,192,4338,1,0,0:0:0:0:
256,192,4338,1,0,0:0:0:0:
475,192,4338,128,0,4488:0:0:0:0:
182,192,4488,1,0,0:0:0:0:
402,192,4488,128,0,4638:0:0:0:0:
109,192,4638,1,0,0:0:0:0:
329,192,4638,128,0,4788:0:0:0:0:
36,192,4788,1,0,0:0:0:0:
256,192,4788,1,0,0:0:0:0:
475,192,4788,128,0,5088:0:0:0:0:
329,192,4938,1,0,0:0:0:0:
109,192,5088,1,0,0:0:0:0:
182,192,5088,128,0,5388:0:0:0:0:
402,192,5238,1,0,0:0:0:0:
475,192,5238,1,0,0:0:0:0:
36,192,5388,1,0,0:0:0:0:
329,192,5388,128,0,5613:0:0:0:0:
182,192,5538,1,0,0:0:0:0:
402,192,5613,1,0,0:0:0:0:
475,192,5688,128,0,5913:0:0:0:0:
109,192,5838,1,0,0:0:0:0:
256,192,5988,1,0,0:0:0:0:
402,192,5988,1,0,0:0:0:0:
475,192,5988,128,0,6288:0:0:0:0:
36,192,6138,1,0,0:0:0:0:
182,192,6288,128,0,6363:0:0:0:0:
329,192,6288,1,0,0:0:0:0:
182,192,6438,128,0,6888:0:0:0:0:
329,192,6438,1,0,0:0:0:0:
402,192,6475,1,0,0:0:0:0:
475,192,6513,1,0,0:0:0:0:
36,192,6738,1,0,0:0:0:0:
109,192,6738,1,0,0:0:0:0:
329,192,6888,128,0,7038:0:0:0:0:
402,192,6888,1,0,0:0:0:0:
182,192,7038,1,0,0:0:0:0:
256,192,7038,128,0,7638:0:0:0:0:
36,192,7188,128,2,8088:0:0:0:0:
475,192,7188,128,0,8088:0:0:0:0:
109,192,7638,128,0,7788:0:0:0:0:
329,192,7638,1,0,0:0:0:0:
402,192,7788,128,0,7938:0:0:0:0:
182,192,7938,1,0,0:0:0:0:
329,192,7938,128,0,8088:0:0:0:0:
109,192,8013,1,0,0:0:0:0:
256,192,8088,128,0,8388:0:0:0:0:
402,192,8088,1,0,0:0:0:0:
182,192,8163,1,0,0:0:0:0:
402,192,8238,1,0,0:0:0:0:
182,192,8313,1,0,0:0:0:0:
36,192,8388,128,2,8688:0:0:0:0:
109,192,8388,128,0,8688:0:0:0:70:cymbal_short.wav
329,192,8388,128,0,8688:0:0:0:0:
475,192,8388,128,0,9138:0:0:0:0:
36,192,8838,128,2,9138:0:0:0:0:
182,192,8838,128,0,9588:0:0:0:70:cymbal_short.wav
256,192,8838,128,0,9138:0:0:0:0:
402,192,8838,128,0,9138:0:0:0:0:
36,192,9288,128,2,10488:0:0:0:0:
109,192,9288,128,4,9588:0:0:0:0:
402,192,9288,128,0,9588:0:0:0:0:
475,192,9288,128,0,10488:0:0:0:0:
182,192,9813,1,0,0:0:0:70:LR_Snare Drum 3.wav
402,192,9888,1,0,0:0:0:70:LR_Snare Drum 3.wav
256,192,9963,1,0,0:0:0:70:LR_Snare Drum 3.wav
329,192,10038,1,0,0:0:0:70:LR_Snare Drum 3.wav
109,192,10113,1,0,0:0:0:70:LR_Snare Drum 3.wav
256,192,10188,1,0,0:0:0:70:LR_Snare Drum.wav
402,192,10263,1,0,0:0:0:70:LR_Snare Drum.wav
182,192,10338,1,0,0:0:0:70:tom01.wav
256,192,10413,1,0,0:0:0:70:tom01.wav
109,192,10488,128,0,10563:0:0:0:70:tom02.wav
329,192,10488,1,0,0:0:0:0:
182,192,10563,128,0,10638:0:0:0:70:tom02.wav
402,192,10563,1,0,0:0:0:0:
475,192,10638,1,0,0:0:0:0:
256,192,10638,128,0,10713:0:0:0:0:
329,192,10713,128,0,10788:0:0:0:0:
36,192,10788,1,2,0:0:0:0:
109,192,10788,128,4,10938:0:0:0:0:
402,192,10788,128,0,11388:0:0:0:70:winds.wav
475,192,10788,1,0,0:0:0:0:
182,192,10938,128,0,11013:0:0:0:0:
329,192,11013,128,0,11163:0:0:0:0:
36,192,11163,128,0,11238:0:0:0:0:
182,192,11238,128,0,11313:0:0:0:0:
109,192,11313,128,0,11388:0:0:0:0:
256,192,11388,128,0,11988:0:0:0:0:
475,192,11388,128,0,11538:0:0:0:0:
109,192,11538,1,0,0:0:0:0:
329,192,11613,128,0,11763:0:0:0:0:
36,192,11763,1,0,0:0:0:0:
182,192,11838,128,0,11988:0:0:0:0:
109,192,11988,1,0,0:0:0:0:
475,192,11988,128,0,12288:0:0:0:0:
182,192,12063,1,0,0:0:0:0:
402,192,12138,1,0,0:0:0:0:
329,192,12213,1,0,0:0:0:0:
36,192,12288,128,0,12363:0:0:0:0:
182,192,12288,1,0,0:0:0:0:
329,192,12363,128,0,12438:0:0:0:0:
402,192,12363,1,0,0:0:0:0:
109,192,12438,1,0,0:0:0:0:
182,192,12438,128,0,12513:0:0:0:0:
402,192,12513,128,0,12588:0:0:0:0:
475,192,12513,1,0,0:0:0:0:
256,192,12588,128,2,12738:0:0:0:0:
36,192,12738,1,0,0:0:0:70:LR_Snare Drum 2.wav
109,192,12738,128,0,12813:0:0:0:0:
329,192,12813,1,0,0:0:0:70:LR_Snare Drum 2.wav
402,192,12813,128,0,12888:0:0:0:0:
36,192,12888,1,2,0:0:0:0:
182,192,12888,128,0,13038:0:0:0:0:
402,192,12963,1,0,0:0:0:70:LR_Snare Drum 2.wav
475,192,12963,1,0,0:0:0:0:
109,192,13038,1,0,0:0:0:70:tom01.wav
256,192,13038,128,0,13113:0:0:0:0:
329,192,13113,128,0,13188:0:0:0:70:tom02.wav
36,192,13188,1,2,0:0:0:0:
182,192,13188,1,0,0:0:0:0:
402,192,13188,128,0,13338:0:0:0:0:
109,192,13338,128,0,13413:0:0:0:0:
256,192,13413,128,0,13488:0:0:0:0:
36,192,13488,1,2,0:0:0:0:
329,192,13488,128,8,13563:0:0:0:0:
402,192,13488,1,4,0:0:0:0:
475,192,13488,1,0,0:0:0:0:
182,192,13563,128,0,13638:0:0:0:0:
109,192,13638,1,0,0:0:0:0:
329,192,13638,128,0,14388:0:0:0:0:
256,192,13713,1,0,0:0:0:0:
36,192,13788,1,2,0:0:0:0:
182,192,13788,1,0,0:0:0:0:
475,192,13788,1,0,0:0:0:0:
402,192,13863,1,0,0:0:0:0:
109,192,13938,1,0,0:0:0:0:
256,192,13938,1,0,0:0:0:0:
475,192,14013,1,0,0:0:0:0:
36,192,14088,1,8,0:0:0:0:
182,192,14088,1,2,0:0:0:0:
402,192,14088,1,0,0:0:0:0:
256,192,14163,1,0,0:0:0:0:
109,192,14238,1,0,0:0:0:0:
402,192,14238,1,0,0:0:0:0:
182,192,14313,1,0,0:0:0:0:
109,192,14388,1,2,0:0:0:0:
256,192,14388,128,0,14463:0:0:0:0:
475,192,14388,1,0,0:0:0:0:
402,192,14463,1,0,0:0:0:0:
36,192,14538,1,0,0:0:0:0:
182,192,14538,1,0,0:0:0:0:
256,192,14613,1,0,0:0:0:0:
109,192,14688,1,2,0:0:0:0:
329,192,14688,128,8,14763:0:0:0:0:
475,192,14688,1,0,0:0:0:0:
182,192,14763,1,0,0:0:0:0:
36,192,14838,1,0,0:0:0:0:
402,192,14838,128,0,14913:0:0:0:0:
256,192,14913,1,0,0:0:0:0:
109,192,14988,1,2,0:0:0:0:
182,192,14988,1,0,0:0:0:0:
475,192,14988,1,0,0:0:0:0:
402,192,15063,1,0,0:0:0:0:
36,192,15138,128,0,15213:0:0:0:0:
329,192,15138,1,0,0:0:0:0:
182,192,15213,1,0,0:0:0:0:
109,192,15288,128,8,15363:0:0:0:0:
256,192,15288,1,2,0:0:0:0:
475,192,15288,1,0,0:0:0:0:
402,192,15363,1,0,0:0:0:0:
182,192,15438,128,0,15513:0:0:0:0:
329,192,15438,1,0,0:0:0:0:
475,192,15513,1,0,0:0:0:0:
36,192,15588,1,2,0:0:0:0:
256,192,15588,128,0,15663:0:0:0:0:
402,192,15588,1,0,0:0:0:0:
109,192,15663,1,0,0:0:0:0:
182,192,15738,1,0,0:0:0:0:
475,192,15738,1,0,0:0:0:0:
329,192,15813,1,0,0:0:0:0:
36,192,15888,1,2,0:0:0:0:
109,192,15888,128,8,15963:0:0:0:0:
402,192,15888,1,0,0:0:0:0:
256,192,15963,1,0,0:0:0:0:
329,192,16038,128,0,16113:0:0:0:0:
475,192,16038,1,0,0:0:0:0:
182,192,16113,1,0,0:0:0:0:
36,192,16188,1,2,0:0:0:0:
256,192,16188,1,0,0:0:0:0:
402,192,16188,1,0,0:0:0:0:
109,192,16263,1,0,0:0:0:0:
182,192,16338,128,0,16413:0:0:0:0:
475,192,16338,1,0,0:0:0:0:
329,192,16413,1,0,0:0:0:0:
36,192,16488,1,8,0:0:0:0:
182,192,16488,1,2,0:0:0:0:
402,192,16488,128,0,16563:0:0:0:0:
256,192,16563,1,0,0:0:0:0:
109,192,16638,1,0,0:0:0:0:
329,192,16638,128,0,16713:0:0:0:0:
182,192,16713,1,0,0:0:0:0:
36,192,16788,1,2,0:0:0:0:
256,192,16788,128,0,16863:0:0:0:0:
475,192,16788,1,0,0:0:0:0:
402,192,16863,1,0,0:0:0:0:
109,192,16938,1,0,0:0:0:0:
182,192,16938,1,0,0:0:0:0:
256,192,17013,1,0,0:0:0:0:
36,192,17088,1,2,0:0:0:0:
329,192,17088,128,8,17163:0:0:0:0:
475,192,17088,1,0,0:0:0:0:
182,192,17163,1,0,0:0:0:0:
109,192,17238,1,0,0:0:0:0:
402,192,17238,128,0,17313:0:0:0:0:
256,192,17313,1,0,0:0:0:0:
36,192,17388,1,2,0:0:0:0:
182,192,17388,128,0,17463:0:0:0:0:
475,192,17388,1,0,0:0:0:0:
329,192,17463,1,0,0:0:0:0:
182,192,17538,1,0,0:0:0:0:
402,192,17538,1,0,0:0:0:0:
256,192,17613,1,0,0:0:0:0:
36,192,17688,1,8,0:0:0:0:
109,192,17688,128,2,17763:0:0:0:0:
475,192,17688,1,0,0:0:0:0:
329,192,17763,1,0,0:0:0:0:
36,192,17838,128,2,17913:0:0:0:0:
182,192,17838,1,0,0:0:0:0:
402,192,17838,1,0,0:0:0:0:
109,192,17988,1,0,0:0:0:0:
475,192,17988,128,0,18063:0:0:0:0:
182,192,18138,1,0,0:0:0:0:
402,192,18138,1,0,0:0:0:0:
256,192,18213,1,0,0:0:0:0:
36,192,18288,128,4,18363:0:0:0:0:
109,192,18288,1,8,0:0:0:0:
329,192,18288,1,2,0:0:0:0:
475,192,18288,1,0,0:0:0:0:
182,192,18363,1,0,0:0:0:0:
256,192,18438,128,0,18513:0:0:0:0:
402,192,18438,1,0,0:0:0:0:
36,192,18513,1,0,0:0:0:0:
109,192,18588,1,2,0:0:0:0:
182,192,18588,1,0,0:0:0:0:
329,192,18588,1,0,0:0:0:0:
402,192,18663,1,0,0:0:0:0:
109,192,18738,128,0,18813:0:0:0:0:
475,192,18738,1,0,0:0:0:0:
256,192,18813,1,0,0:0:0:0:
36,192,18888,1,2,0:0:0:0:
182,192,18888,128,8,18963:0:0:0:0:
402,192,18888,1,0,0:0:0:0:
329,192,18963,1,0,0:0:0:0:
109,192,19038,1,0,0:0:0:0:
475,192,19038,128,0,19113:0:0:0:0:
182,192,19113,1,0,0:0:0:0:
36,192,19188,1,2,0:0:0:0:
256,192,19188,128,0,19263:0:0:0:0:
402,192,19188,1,0,0:0:0:0:
109,192,19263,1,0,0:0:0:0:
182,192,19338,1,0,0:0:0:0:
475,192,19338,1,0,0:0:0:0:
329,192,19413,1,0,0:0:0:0:
36,192,19488,128,8,19563:0:0:0:0:
182,192,19488,1,2,0:0:0:0:
402,192,19488,1,0,0:0:0:0:
256,192,19563,1,0,0:0:0:0:
109,192,19638,128,0,19713:0:0:0:0:
475,192,19638,1,0,0:0:0:0:
402,192,19713,1,0,0:0:0:0:
36,192,19788,1,2,0:0:0:0:
182,192,19788,1,0,0:0:0:0:
256,192,19788,1,0,0:0:0:0:
329,192,19863,1,0,0:0:0:0:
109,192,19938,1,0,0:0:0:0:
475,192,19938,128,0,20013:0:0:0:0:
182,192,20013,1,0,0:0:0:0:
36,192,20088,1,2,0:0:0:0:
256,192,20088,128,8,20163:0:0:0:0:
402,192,20088,1,0,0:0:0:0:
109,192,20163,1,0,0:0:0:0:
182,192,20238,128,0,20313:0:0:0:0:
475,192,20238,1,0,0:0:0:0:
329,192,20313,1,0,0:0:0:0:
36,192,20388,1,2,0:0:0:0:
256,192,20388,1,0,0:0:0:0:
402,192,20388,128,0,20463:0:0:0:0:
109,192,20463,1,0,0:0:0:0:
182,192,20538,1,0,0:0:0:0:
475,192,20538,1,0,0:0:0:0:
329,192,20613,1,0,0:0:0:0:
36,192,20688,1,8,0:0:0:0:
109,192,20688,128,2,20763:0:0:0:0:
402,192,20688,1,0,0:0:0:0:
256,192,20763,1,0,0:0:0:0:
182,192,20838,1,0,0:0:0:0:
475,192,20838,128,0,20913:0:0:0:0:
329,192,20913,1,0,0:0:0:0:
36,192,20988,1,2,0:0:0:0:
256,192,20988,1,0,0:0:0:0:
475,192,20988,1,0,0:0:0:0:
109,192,21063,1,0,0:0:0:0:
182,192,21138,128,0,21213:0:0:0:0:
402,192,21138,1,0,0:0:0:0:
329,192,21213,1,0,0:0:0:0:
109,192,21288,1,2,0:0:0:0:
256,192,21288,128,8,21363:0:0:0:0:
475,192,21288,1,0,0:0:0:0:
402,192,21363,1,0,0:0:0:0:
36,192,21438,1,0,0:0:0:0:
329,192,21438,128,0,21513:0:0:0:0:
182,192,21513,1,0,0:0:0:0:
109,192,21588,1,2,0:0:0:0:
329,192,21588,1,0,0:0:0:0:
475,192,21588,128,0,21663:0:0:0:0:
256,192,21663,1,0,0:0:0:0:
182,192,21738,1,0,0:0:0:0:
475,192,21738,128,0,21813:0:0:0:0:
329,192,21813,1,0,0:0:0:0:
36,192,21888,1,8,0:0:0:0:
182,192,21888,128,2,21963:0:0:0:0:
475,192,21888,1,0,0:0:0:0:
402,192,21963,1,0,0:0:0:0:
182,192,22038,128,0,22113:0:0:0:0:
329,192,22038,1,0,0:0:0:0:
475,192,22113,1,0,0:0:0:0:
36,192,22188,1,2,0:0:0:0:
109,192,22188,128,0,22263:0:0:0:0:
256,192,22188,1,0,0:0:0:0:
402,192,22263,1,0,0:0:0:0:
109,192,22338,128,2,22413:0:0:0:0:
182,192,22338,1,0,0:0:0:0:
329,192,22338,1,0,0:0:0:0:
475,192,22413,1,0,0:0:0:0:
36,192,22488,128,2,22563:0:0:0:0:
256,192,22488,1,8,0:0:0:0:
329,192,22563,1,2,0:0:0:0:
402,192,22563,1,0,0:0:0:0:
36,192,22638,128,2,22713:0:0:0:0:
182,192,22638,1,0,0:0:0:0:
402,192,22713,1,2,0:0:0:0:
475,192,22713,1,0,0:0:0:0:
36,192,22788,1,2,0:0:0:0:
109,192,22788,1,4,0:0:0:0:
256,192,22788,128,0,22863:0:0:0:0:
329,192,22788,1,0,0:0:0:0:
182,192,22938,1,0,0:0:0:0:
402,192,22938,1,0,0:0:0:0:
256,192,23013,1,0,0:0:0:0:
109,192,23088,1,2,0:0:0:0:
329,192,23088,128,8,23163:0:0:0:0:
475,192,23088,1,0,0:0:0:0:
182,192,23163,1,0,0:0:0:0:
36,192,23238,1,0,0:0:0:0:
402,192,23238,128,0,23313:0:0:0:0:
256,192,23313,1,0,0:0:0:0:
109,192,23388,1,2,0:0:0:0:
182,192,23388,1,0,0:0:0:0:
475,192,23388,1,0,0:0:0:0:
329,192,23463,1,0,0:0:0:0:
36,192,23538,1,0,0:0:0:0:
402,192,23538,1,0,0:0:0:0:
109,192,23613,1,0,0:0:0:0:
182,192,23688,1,8,0:0:0:0:
329,192,23688,1,2,0:0:0:0:
475,192,23688,1,0,0:0:0:0:
109,192,23763,1,0,0:0:0:0:
36,192,23838,1,0,0:0:0:0:
256,192,23838,1,0,0:0:0:0:
182,192,23913,1,0,0:0:0:0:
402,192,23913,1,0,0:0:0:0:
109,192,23988,1,2,0:0:0:0:
329,192,23988,1,0,0:0:0:0:
36,192,24063,1,0,0:0:0:0:
256,192,24063,1,0,0:0:0:0:
182,192,24138,1,0,0:0:0:0:
475,192,24138,1,0,0:0:0:0:
109,192,24213,1,0,0:0:0:0:
329,192,24213,1,0,0:0:0:0:
256,192,24288,1,2,0:0:0:0:
475,192,24288,1,8,0:0:0:0:
182,192,24363,1,0,0:0:0:0:
402,192,24363,1,0,0:0:0:0:
109,192,24438,1,0,0:0:0:0:
329,192,24438,1,0,0:0:0:0:
36,192,24513,1,0,0:0:0:0:
256,192,24513,1,0,0:0:0:0:
182,192,24588,1,2,0:0:0:0:
475,192,24588,1,0,0:0:0:0:
36,192,24663,1,0,0:0:0:0:
402,192,24663,1,0,0:0:0:0:
182,192,24738,1,0,0:0:0:0:
329,192,24738,1,0,0:0:0:0:
109,192,24813,1,0,0:0:0:0:
475,192,24813,1,0,0:0:0:0:
256,192,24888,1,8,0:0:0:0:
402,192,24888,1,2,0:0:0:0:
36,192,24963,1,0,0:0:0:0:
109,192,24963,1,0,0:0:0:0:
182,192,25038,1,0,0:0:0:0:
329,192,25038,1,0,0:0:0:0:
402,192,25113,1,0,0:0:0:0:
475,192,25113,1,0,0:0:0:0:
36,192,25188,1,2,0:0:0:0:
109,192,25188,1,0,0:0:0:0:
256,192,25188,1,0,0:0:0:0:
182,192,25288,1,0,0:0:0:0:
329,192,25288,1,0,0:0:0:0:
256,192,25388,1,0,0:0:0:0:
402,192,25388,1,0,0:0:0:0:
36,192,25488,1,2,0:0:0:0:
329,192,25488,1,8,0:0:0:0:
475,192,25488,1,0,0:0:0:0:
109,192,25588,1,0,0:0:0:0:
182,192,25588,1,0,0:0:0:0:
256,192,25688,1,0,0:0:0:0:
329,192,25688,1,0,0:0:0:0:
36,192,25788,1,2,0:0:0:0:
402,192,25788,1,0,0:0:0:0:
475,192,25788,1,0,0:0:0:0:
109,192,25888,1,0,0:0:0:0:
256,192,25888,1,0,0:0:0:0:
329,192,25988,1,0,0:0:0:0:
402,192,25988,1,0,0:0:0:0:
36,192,26088,1,8,0:0:0:0:
182,192,26088,1,2,0:0:0:0:
475,192,26088,1,0,0:0:0:0:
109,192,26188,1,0,0:0:0:0:
256,192,26188,1,0,0:0:0:0:
182,192,26288,1,0,0:0:0:0:
329,192,26288,1,0,0:0:0:0:
36,192,26388,1,2,0:0:0:0:
256,192,26388,1,0,0:0:0:0:
402,192,26388,1,0,0:0:0:0:
109,192,26488,1,0,0:0:0:0:
475,192,26488,1,0,0:0:0:0:
182,192,26588,1,0,0:0:0:0:
329,192,26588,1,0,0:0:0:0:
36,192,26688,1,2,0:0:0:0:
402,192,26688,1,8,0:0:0:0:
475,192,26688,1,0,0:0:0:0:
109,192,26788,1,0,0:0:0:0:
182,192,26788,1,0,0:0:0:0:
256,192,26888,1,0,0:0:0:0:
329,192,26888,1,0,0:0:0:0:
36,192,26988,1,2,0:0:0:0:
402,192,26988,1,0,0:0:0:0:
475,192,26988,1,0,0:0:0:0:
109,192,27063,1,0,0:0:0:0:
256,192,27063,1,0,0:0:0:0:
329,192,27138,1,0,0:0:0:0:
402,192,27138,1,0,0:0:0:0:
36,192,27213,1,0,0:0:0:0:
109,192,27213,1,0,0:0:0:0:
256,192,27288,1,8,0:0:0:0:
475,192,27288,1,2,0:0:0:0:
182,192,27363,1,0,0:0:0:0:
402,192,27363,1,0,0:0:0:0:
109,192,27438,1,2,0:0:0:0:
329,192,27438,1,0,0:0:0:0:
36,192,27513,1,0,0:0:0:0:
256,192,27513,1,0,0:0:0:0:
182,192,27588,1,0,0:0:0:0:
475,192,27588,1,0,0:0:0:0:
109,192,27663,1,0,0:0:0:0:
402,192,27663,1,0,0:0:0:0:
36,192,27738,1,0,0:0:0:0:
329,192,27738,1,0,0:0:0:0:
182,192,27813,1,0,0:0:0:0:
402,192,27813,1,0,0:0:0:0:
36,192,27888,1,4,0:0:0:0:
109,192,27888,1,8,0:0:0:0:
256,192,27888,1,2,0:0:0:0:
475,192,27888,1,0,0:0:0:0:
182,192,28038,1,0,0:0:0:0:
402,192,28038,1,0,0:0:0:0:
109,192,28113,1,0,0:0:0:0:
329,192,28113,1,0,0:0:0:0:
36,192,28188,1,2,0:0:0:0:
256,192,28188,1,0,0:0:0:0:
475,192,28188,1,0,0:0:0:0:
182,192,28263,1,0,0:0:0:0:
402,192,28263,1,0,0:0:0:0:
109,192,28338,1,0,0:0:0:0:
329,192,28338,1,0,0:0:0:0:
182,192,28488,1,2,0:0:0:0:
475,192,28488,1,8,0:0:0:0:
36,192,28488,1,0,0:0:0:0:
329,192,28563,1,0,0:0:0:0:
402,192,28563,1,0,0:0:0:0:
109,192,28638,1,0,0:0:0:0:
256,192,28638,1,0,0:0:0:0:
402,192,28713,1,0,0:0:0:0:
475,192,28713,1,0,0:0:0:0:
36,192,28788,1,2,0:0:0:0:
182,192,28788,1,4,0:0:0:0:
256,192,28788,1,0,0:0:0:0:
109,192,28863,1,0,0:0:0:0:
329,192,28863,1,0,0:0:0:0:
182,192,28938,1,0,0:0:0:0:
402,192,28938,1,0,0:0:0:0:
256,192,29013,1,0,0:0:0:0:
475,192,29013,1,0,0:0:0:0:
36,192,29088,1,8,0:0:0:0:
109,192,29088,1,2,0:0:0:0:
329,192,29088,1,0,0:0:0:0:
182,192,29163,1,0,0:0:0:0:
402,192,29163,1,0,0:0:0:0:
256,192,29238,1,0,0:0:0:0:
475,192,29238,1,0,0:0:0:0:
109,192,29313,1,0,0:0:0:0:
329,192,29313,1,0,0:0:0:0:
182,192,29388,1,2,0:0:0:0:
402,192,29388,1,0,0:0:0:0:
475,192,29388,1,0,0:0:0:0:
36,192,29463,1,0,0:0:0:0:
256,192,29463,1,0,0:0:0:0:
329,192,29538,1,0,0:0:0:0:
475,192,29538,1,0,0:0:0:0:
36,192,29613,1,0,0:0:0:0:
109,192,29613,1,0,0:0:0:0:
182,192,29688,1,2,0:0:0:0:
329,192,29688,1,8,0:0:0:0:
402,192,29688,1,0,0:0:0:0:
109,192,29763,1,0,0:0:0:0:
256,192,29763,1,0,0:0:0:0:
36,192,29838,1,2,0:0:0:0:
182,192,29838,1,0,0:0:0:0:
475,192,29838,1,0,0:0:0:0:
329,192,29913,1,0,0:0:0:0:
402,192,29913,1,0,0:0:0:0:
36,192,29988,1,2,0:0:0:0:
109,192,29988,1,4,0:0:0:0:
256,192,29988,1,0,0:0:0:0:
475,192,30063,1,0,0:0:0:0:
109,192,30138,1,2,0:0:0:0:
182,192,30138,1,0,0:0:0:0:
329,192,30138,1,0,0:0:0:0:
402,192,30213,1,0,0:0:0:0:
36,192,30288,1,8,0:0:0:0:
182,192,30288,1,2,0:0:0:0:
256,192,30288,1,0,0:0:0:0:
475,192,30363,1,0,0:0:0:0:
109,192,30438,1,2,0:0:0:0:
256,192,30438,1,0,0:0:0:0:
329,192,30438,1,0,0:0:0:0:
475,192,30513,1,0,0:0:0:0:
36,192,30588,1,2,0:0:0:0:
182,192,30588,1,0,0:0:0:0:
329,192,30588,1,0,0:0:0:0:
402,192,30663,1,2,0:0:0:0:
475,192,30663,1,0,0:0:0:0:
36,192,30738,1,2,0:0:0:0:
109,192,30738,1,0,0:0:0:0:
256,192,30738,1,0,0:0:0:0:
329,192,30813,1,2,0:0:0:0:
402,192,30813,1,0,0:0:0:0:
36,192,30888,1,2,0:0:0:0:
109,192,30888,1,8,0:0:0:0:
475,192,30888,1,0,0:0:0:0:
182,192,30925,1,2,0:0:0:0:
256,192,30963,1,2,0:0:0:0:
329,192,30963,1,0,0:0:0:0:
109,192,31038,1,2,0:0:0:0:
402,192,31038,1,0,0:0:0:0:
475,192,31038,1,0,0:0:0:0:
182,192,31113,1,2,0:0:0:0:
256,192,31113,1,0,0:0:0:0:
36,192,31188,128,2,31263:0:0:0:0:
109,192,31188,128,0,31263:0:0:0:70:cymbal_short.wav
402,192,31188,128,0,31263:0:0:0:0:
475,192,31188,128,0,31263:0:0:0:0:
36,192,31338,128,2,31413:0:0:0:0:
109,192,31338,128,0,31413:0:0:0:70:cymbal_short.wav
402,192,31338,128,0,31413:0:0:0:0:
475,192,31338,128,0,31413:0:0:0:0:
36,192,31638,128,2,32313:0:0:0:0:
182,192,31638,128,0,31863:0:0:0:70:cymbal_short.wav
329,192,31638,128,0,32088:0:0:0:0:
475,192,31638,128,0,32313:0:0:0:0:
182,192,31938,1,0,0:0:0:0:
109,192,32013,1,0,0:0:0:0:
256,192,32088,1,0,0:0:0:0:
182,192,32163,1,0,0:0:0:0:
402,192,32238,1,0,0:0:0:0:
329,192,32313,1,0,0:0:0:0:
36,192,32388,1,2,0:0:0:0:
109,192,32388,1,4,0:0:0:0:
256,192,32388,128,0,32688:0:0:0:0:
475,192,32388,1,0,0:0:0:0:
329,192,32463,1,0,0:0:0:0:
109,192,32538,1,0,0:0:0:0:
402,192,32538,1,0,0:0:0:0:
182,192,32613,1,0,0:0:0:0:
36,192,32688,1,2,0:0:0:0:
329,192,32688,1,8,0:0:0:0:
402,192,32688,1,0,0:0:0:0:
475,192,32688,1,0,0:0:0:0:
109,192,32838,1,0,0:0:0:0:
329,192,32838,128,0,32913:0:0:0:0:
182,192,32913,1,0,0:0:0:0:
402,192,32913,128,0,32988:0:0:0:0:
36,192,32988,1,2,0:0:0:0:
256,192,32988,1,0,0:0:0:0:
475,192,32988,128,0,33213:0:0:0:0:
109,192,33063,1,0,0:0:0:0:
329,192,33138,1,0,0:0:0:0:
182,192,33213,1,0,0:0:0:0:
256,192,33213,128,0,33438:0:0:0:0:
36,192,33288,1,8,0:0:0:0:
109,192,33288,1,2,0:0:0:0:
475,192,33288,1,0,0:0:0:0:
182,192,33438,128,0,33513:0:0:0:0:
402,192,33438,1,0,0:0:0:0:
109,192,33513,128,0,33588:0:0:0:0:
329,192,33513,1,0,0:0:0:0:
36,192,33588,128,2,33738:0:0:0:0:
256,192,33588,1,0,0:0:0:0:
475,192,33588,1,0,0:0:0:0:
402,192,33663,1,0,0:0:0:0:
182,192,33738,1,0,0:0:0:0:
329,192,33738,128,0,33888:0:0:0:0:
36,192,33888,1,2,0:0:0:0:
109,192,33888,1,8,0:0:0:0:
475,192,33888,128,0,33963:0:0:0:0:
256,192,33963,1,0,0:0:0:0:
329,192,33963,128,0,34038:0:0:0:0:
109,192,34038,1,0,0:0:0:0:
402,192,34038,128,0,34188:0:0:0:0:
36,192,34188,1,2,0:0:0:0:
182,192,34188,1,0,0:0:0:0:
475,192,34188,1,0,0:0:0:0:
329,192,34263,1,0,0:0:0:0:
109,192,34338,1,0,0:0:0:0:
256,192,34338,128,0,34488:0:0:0:0:
36,192,34488,128,8,34563:0:0:0:0:
402,192,34488,1,2,0:0:0:0:
475,192,34488,1,0,0:0:0:0:
182,192,34563,128,0,34638:0:0:0:0:
256,192,34563,1,0,0:0:0:0:
109,192,34638,128,2,34788:0:0:0:0:
329,192,34638,1,0,0:0:0:0:
475,192,34638,1,0,0:0:0:0:
36,192,34788,1,0,0:0:0:0:
256,192,34788,128,0,35088:0:0:0:0:
402,192,34788,1,0,0:0:0:0:
329,192,34863,1,0,0:0:0:0:
109,192,34938,1,0,0:0:0:0:
475,192,34938,1,0,0:0:0:0:
182,192,35013,1,0,0:0:0:0:
36,192,35088,1,4,0:0:0:0:
329,192,35088,1,8,0:0:0:0:
402,192,35088,1,2,0:0:0:0:
475,192,35088,1,0,0:0:0:0:
109,192,35238,128,0,35313:0:0:0:0:
329,192,35238,1,0,0:0:0:0:
182,192,35313,128,0,35388:0:0:0:0:
402,192,35313,1,0,0:0:0:0:
36,192,35388,1,2,0:0:0:0:
256,192,35388,128,0,35538:0:0:0:0:
475,192,35388,1,0,0:0:0:0:
329,192,35463,1,0,0:0:0:0:
109,192,35538,1,0,0:0:0:0:
402,192,35538,1,0,0:0:0:0:
182,192,35613,1,0,0:0:0:0:
256,192,35613,128,0,35838:0:0:0:0:
36,192,35688,1,2,0:0:0:0:
109,192,35688,1,8,0:0:0:0:
475,192,35688,1,0,0:0:0:0:
402,192,35763,1,0,0:0:0:0:
182,192,35838,128,0,35913:0:0:0:0:
329,192,35838,1,0,0:0:0:0:
36,192,35913,128,0,35988:0:0:0:0:
475,192,35913,1,0,0:0:0:0:
109,192,35988,1,2,0:0:0:0:
256,192,35988,1,0,0:0:0:0:
329,192,35988,128,0,36138:0:0:0:0:
475,192,36063,1,0,0:0:0:0:
36,192,36138,128,2,36288:0:0:0:0:
182,192,36138,1,0,0:0:0:0:
402,192,36138,1,0,0:0:0:0:
256,192,36213,1,0,0:0:0:0:
182,192,36288,128,8,36363:0:0:0:0:
402,192,36288,1,2,0:0:0:0:
475,192,36288,1,0,0:0:0:0:
109,192,36363,128,0,36438:0:0:0:0:
329,192,36363,1,0,0:0:0:0:
36,192,36438,1,2,0:0:0:0:
256,192,36438,128,0,37113:0:0:0:0:
475,192,36438,1,0,0:0:0:0:
36,192,36588,1,2,0:0:0:0:
182,192,36588,1,0,0:0:0:0:
329,192,36588,1,0,0:0:0:0:
402,192,36663,1,2,0:0:0:0:
475,192,36663,1,0,0:0:0:0:
109,192,36738,1,2,0:0:0:0:
182,192,36738,1,0,0:0:0:0:
329,192,36775,1,2,0:0:0:0:
475,192,36813,1,2,0:0:0:0:
36,192,36888,1,2,0:0:0:0:
109,192,36888,1,8,0:0:0:0:
182,192,36888,1,0,0:0:0:0:
402,192,36963,1,2,0:0:0:0:
475,192,36963,1,0,0:0:0:0:
36,192,37038,1,2,0:0:0:0:
109,192,37038,1,0,0:0:0:0:
329,192,37113,1,2,0:0:0:0:
402,192,37113,1,0,0:0:0:0:
475,192,37113,1,0,0:0:0:0:
36,192,37188,1,4,0:0:0:0:
109,192,37225,1,0,0:0:0:0:
182,192,37263,1,0,0:0:0:0:
329,192,37338,1,0,0:0:0:0:
402,192,37413,1,0,0:0:0:0:
256,192,37488,128,0,37788:0:0:0:0:
109,192,37788,1,0,0:0:0:0:
402,192,37788,128,0,38088:0:0:0:0:
329,192,38088,1,0,0:0:0:0:
256,192,38125,1,0,0:0:0:0:
182,192,38163,1,0,0:0:0:0:
109,192,38238,128,0,38388:0:0:0:0:
329,192,38388,128,0,38538:0:0:0:0:
256,192,38538,128,0,38988:0:0:0:0:
109,192,38688,1,0,0:0:0:0:
402,192,38688,128,0,38988:0:0:0:0:
36,192,38988,128,2,39438:0:0:0:0:
109,192,38988,1,4,0:0:0:0:
329,192,38988,1,0,0:0:0:0:
475,192,38988,1,0,0:0:0:0:
256,192,39063,1,0,0:0:0:0:
182,192,39138,1,0,0:0:0:0:
402,192,39138,1,0,0:0:0:0:
329,192,39213,1,0,0:0:0:0:
109,192,39288,1,2,0:0:0:0:
256,192,39288,1,8,0:0:0:0:
475,192,39288,1,0,0:0:0:0:
402,192,39363,1,0,0:0:0:0:
182,192,39438,1,0,0:0:0:0:
475,192,39438,128,0,39888:0:0:0:0:
329,192,39513,1,0,0:0:0:0:
36,192,39588,1,2,0:0:0:0:
109,192,39588,1,0,0:0:0:0:
256,192,39588,1,0,0:0:0:0:
402,192,39663,1,0,0:0:0:0:
182,192,39738,1,0,0:0:0:0:
329,192,39738,1,0,0:0:0:0:
256,192,39813,1,0,0:0:0:0:
36,192,39888,1,8,0:0:0:0:
109,192,39888,1,2,0:0:0:0:
182,192,39888,128,0,40188:0:0:0:0:
402,192,39888,1,0,0:0:0:0:
329,192,39963,1,0,0:0:0:0:
36,192,40038,1,2,0:0:0:0:
256,192,40038,1,0,0:0:0:0:
475,192,40038,1,0,0:0:0:0:
109,192,40113,1,0,0:0:0:0:
36,192,40188,1,2,0:0:0:0:
329,192,40188,1,0,0:0:0:0:
475,192,40188,128,0,40788:0:0:0:0:
182,192,40263,1,2,0:0:0:0:
256,192,40263,1,0,0:0:0:0:
109,192,40338,1,2,0:0:0:0:
402,192,40338,1,0,0:0:0:0:
329,192,40375,1,2,0:0:0:0:
256,192,40413,1,2,0:0:0:0:
182,192,40450,1,2,0:0:0:0:
36,192,40488,1,2,0:0:0:0:
109,192,40488,1,8,0:0:0:0:
402,192,40488,1,0,0:0:0:0:
182,192,40563,1,2,0:0:0:0:
256,192,40563,1,0,0:0:0:0:
36,192,40638,1,2,0:0:0:0:
329,192,40638,1,0,0:0:0:0:
109,192,40675,1,2,0:0:0:0:
182,192,40713,1,2,0:0:0:0:
256,192,40750,1,2,0:0:0:0:
36,192,40788,1,2,0:0:0:0:
329,192,40788,128,0,40938:0:0:0:70:cymbal_short.wav
402,192,40788,1,0,0:0:0:0:
36,192,40938,1,2,0:0:0:0:
109,192,40938,1,0,0:0:0:70:cymbal_short.wav
256,192,40938,1,0,0:0:0:0:
475,192,40938,128,0,41013:0:0:0:0:
402,192,41013,128,0,41088:0:0:0:0:
329,192,41088,128,0,41238:0:0:0:0:
36,192,41238,1,2,0:0:0:0:
182,192,41238,128,4,43488:0:0:0:0:
475,192,41238,1,0,0:0:0:0:
109,192,41388,1,0,0:0:0:0:
402,192,41388,1,0,0:0:0:0:
256,192,41463,1,0,0:0:0:0:
36,192,41538,1,0,0:0:0:0:
475,192,41538,1,0,0:0:0:0:
402,192,41613,1,0,0:0:0:0:
36,192,41688,1,2,0:0:0:0:
109,192,41688,1,8,0:0:0:0:
256,192,41688,1,4,0:0:0:0:
475,192,41688,1,0,0:0:0:0:
329,192,41763,1,0,0:0:0:0:
109,192,41838,1,0,0:0:0:0:
402,192,41838,1,0,0:0:0:0:
256,192,41913,1,0,0:0:0:0:
36,192,41988,1,2,0:0:0:0:
402,192,41988,1,0,0:0:0:0:
475,192,41988,1,0,0:0:0:0:
256,192,42063,1,0,0:0:0:0:
109,192,42138,1,2,0:0:0:0:
329,192,42138,1,0,0:0:0:0:
402,192,42138,1,0,0:0:0:0:
475,192,42213,1,0,0:0:0:0:
36,192,42288,1,8,0:0:0:0:
256,192,42288,1,2,0:0:0:0:
329,192,42288,1,0,0:0:0:0:
402,192,42363,1,2,0:0:0:0:
475,192,42363,1,0,0:0:0:0:
36,192,42438,1,2,0:0:0:0:
109,192,42438,1,0,0:0:0:0:
256,192,42475,1,2,0:0:0:0:
329,192,42513,1,2,0:0:0:0:
402,192,42550,1,2,0:0:0:0:
36,192,42588,1,2,0:0:0:0:
109,192,42588,1,4,0:0:0:0:
475,192,42588,128,0,43488:0:0:0:70:winds.wav
36,192,43488,1,0,0:0:0:0:
109,192,43525,1,0,0:0:0:0:
182,192,43563,1,0,0:0:0:0:
475,192,43600,1,0,0:0:0:0:
402,192,43638,1,0,0:0:0:0:
329,192,43675,1,0,0:0:0:0:
256,192,43713,1,0,0:0:0:0:
36,192,43788,1,0,0:0:0:70:LR_Snare Drum 3.wav
182,192,43938,1,0,0:0:0:0:
402,192,43938,1,0,0:0:0:0:
36,192,44088,1,0,0:0:0:70:LR_Snare Drum.wav
329,192,44238,1,0,0:0:0:0:
329,192,44313,128,0,44388:0:0:0:0:
36,192,44388,1,0,0:0:0:70:LR_Snare Drum 3.wav
475,192,44388,128,0,44463:0:0:0:0:
182,192,44538,128,0,44613:0:0:0:0:
36,192,44688,1,0,0:0:0:70:LR_Snare Drum.wav
329,192,44688,128,0,44763:0:0:0:0:
402,192,44838,128,0,44913:0:0:0:0:
256,192,44913,1,0,0:0:0:0:
36,192,44988,1,0,0:0:0:70:LR_Snare Drum 3.wav
475,192,44988,128,0,45138:0:0:0:0:
182,192,45138,1,0,0:0:0:0:
329,192,45138,1,0,0:0:0:0:
36,192,45288,1,0,0:0:0:70:LR_Snare Drum.wav
182,192,45288,128,0,45438:0:0:0:0:
402,192,45438,1,0,0:0:0:0:
36,192,45588,1,0,0:0:0:70:LR_Snare Drum 3.wav
256,192,45588,128,0,45663:0:0:0:0:
329,192,45738,128,0,45813:0:0:0:0:
36,192,45888,1,0,0:0:0:70:LR_Snare Drum.wav
329,192,46038,128,0,46113:0:0:0:0:
109,192,46113,1,0,0:0:0:0:
182,192,46113,128,0,46188:0:0:0:0:
256,192,46188,128,0,46788:0:0:0:70:LR_Snare Drum 3.wav
475,192,46188,1,0,0:0:0:0:
36,192,46338,1,0,0:0:0:0:
182,192,46338,1,0,0:0:0:0:
329,192,46488,1,0,0:0:0:70:LR_Snare Drum.wav
475,192,46488,1,0,0:0:0:0:
109,192,46638,1,0,0:0:0:0:
402,192,46788,1,0,0:0:0:70:LR_Snare Drum 3.wav
475,192,46788,1,0,0:0:0:0:
36,192,46938,128,0,47013:0:0:0:0:
329,192,46938,1,0,0:0:0:0:
182,192,47088,128,0,47163:0:0:0:70:LR_Snare Drum.wav
475,192,47088,1,0,0:0:0:0:
109,192,47238,128,0,47313:0:0:0:0:
329,192,47313,1,0,0:0:0:0:
256,192,47388,128,0,47538:0:0:0:70:LR_Snare Drum 3.wav
475,192,47388,1,0,0:0:0:0:
36,192,47538,1,0,0:0:0:0:
109,192,47538,1,0,0:0:0:0:
182,192,47688,128,0,47838:0:0:0:70:LR_Snare Drum.wav
475,192,47688,1,0,0:0:0:0:
329,192,47838,1,0,0:0:0:0:
109,192,47988,128,0,48063:0:0:0:70:LR_Snare Drum 3.wav
475,192,47988,1,0,0:0:0:0:
36,192,48138,128,0,48213:0:0:0:0:
256,192,48288,1,0,0:0:0:70:LR_Snare Drum.wav
475,192,48288,1,0,0:0:0:0:
182,192,48438,128,0,48513:0:0:0:0:
402,192,48513,1,0,0:0:0:0:
329,192,48513,128,0,48588:0:0:0:0:
36,192,48588,1,0,0:0:0:70:LR_Snare Drum 3.wav
256,192,48588,128,0,48888:0:0:0:0:
402,192,48738,1,0,0:0:0:0:
475,192,48738,1,0,0:0:0:0:
182,192,48888,1,0,0:0:0:70:LR_Snare Drum.wav
329,192,49038,1,0,0:0:0:0:
329,192,49113,128,0,49188:0:0:0:0:
182,192,49188,1,0,0:0:0:70:LR_Snare Drum 3.wav
475,192,49188,128,0,49263:0:0:0:0:
329,192,49338,128,0,49413:0:0:0:0:
182,192,49488,1,0,0:0:0:70:LR_Snare Drum.wav
402,192,49488,128,0,49563:0:0:0:0:
475,192,49638,128,0,49713:0:0:0:0:
256,192,49713,1,0,0:0:0:0:
109,192,49788,128,0,49863:0:0:0:70:LR_Snare Drum 3.wav
329,192,49788,1,0,0:0:0:0:
182,192,49863,128,0,50013:0:0:0:0:
402,192,49938,1,0,0:0:0:0:
475,192,49938,1,0,0:0:0:0:
109,192,50088,128,0,50163:0:0:0:70:LR_Snare Drum.wav
329,192,50088,1,0,0:0:0:0:
36,192,50238,128,0,50313:0:0:0:0:
329,192,50388,1,0,0:0:0:70:LR_Snare Drum 3.wav
36,192,50538,128,0,50613:0:0:0:0:
109,192,50613,128,0,50688:0:0:0:0:
182,192,50688,128,0,50763:0:0:0:70:LR_Snare Drum.wav
329,192,50688,1,0,0:0:0:0:
182,192,50838,128,0,50913:0:0:0:0:
402,192,50913,1,0,0:0:0:0:
36,192,50988,128,0,51288:0:0:0:70:LR_Snare Drum 3.wav
256,192,50988,1,0,0:0:0:0:
402,192,51138,1,0,0:0:0:0:
475,192,51138,1,0,0:0:0:0:
256,192,51288,1,0,0:0:0:70:LR_Snare Drum.wav
109,192,51438,128,0,51513:0:0:0:0:
256,192,51588,1,0,0:0:0:70:LR_Snare Drum 3.wav
402,192,51588,128,0,51738:0:0:0:0:
36,192,51738,1,0,0:0:0:0:
109,192,51738,1,0,0:0:0:0:
256,192,51888,1,0,0:0:0:70:LR_Snare Drum.wav
475,192,51888,128,0,52038:0:0:0:0:
182,192,52038,1,0,0:0:0:0:
329,192,52038,1,0,0:0:0:0:
475,192,52113,1,0,0:0:0:0:
36,192,52188,1,0,0:0:0:70:LR_Drum Click.wav
109,192,52188,128,0,52413:0:0:0:0:
256,192,52188,128,0,53088:0:0:0:0:
402,192,52488,128,0,52638:0:0:0:70:LR_Drum Click.wav
475,192,52488,1,0,0:0:0:0:
182,192,52638,128,0,53088:0:0:0:0:
329,192,52788,1,0,0:0:0:70:LR_Drum Click.wav
475,192,52788,1,0,0:0:0:0:
475,192,53088,1,0,0:0:0:0:
402,192,53125,1,0,0:0:0:0:
329,192,53163,1,0,0:0:0:0:
36,192,53200,1,0,0:0:0:0:
109,192,53238,1,0,0:0:0:0:
182,192,53275,1,0,0:0:0:0:
256,192,53313,1,0,0:0:0:0:
36,192,53388,1,2,0:0:0:0:
329,192,53388,1,4,0:0:0:0:
402,192,53388,1,0,0:0:0:0:
475,192,53388,1,0,0:0:0:0:
109,192,53463,1,0,0:0:0:0:
182,192,53538,1,0,0:0:0:0:
402,192,53538,1,0,0:0:0:0:
329,192,53613,1,0,0:0:0:0:
36,192,53688,1,2,0:0:0:0:
182,192,53688,1,8,0:0:0:0:
475,192,53688,1,0,0:0:0:0:
256,192,53763,1,0,0:0:0:0:
109,192,53838,1,0,0:0:0:0:
329,192,53838,1,0,0:0:0:0:
402,192,53838,1,0,0:0:0:0:
329,192,53913,1,0,0:0:0:0:
402,192,53913,1,0,0:0:0:0:
36,192,53988,1,2,0:0:0:0:
182,192,53988,1,0,0:0:0:0:
475,192,53988,1,0,0:0:0:0:
256,192,54063,1,0,0:0:0:0:
36,192,54138,1,0,0:0:0:0:
109,192,54138,1,0,0:0:0:0:
402,192,54138,1,0,0:0:0:0:
329,192,54213,1,0,0:0:0:0:
182,192,54288,1,8,0:0:0:0:
402,192,54288,1,2,0:0:0:0:
475,192,54288,1,0,0:0:0:0:
36,192,54363,1,0,0:0:0:0:
109,192,54363,1,0,0:0:0:0:
256,192,54438,1,0,0:0:0:0:
329,192,54438,1,0,0:0:0:0:
475,192,54438,1,0,0:0:0:0:
182,192,54513,1,0,0:0:0:0:
109,192,54588,1,2,0:0:0:0:
329,192,54588,1,0,0:0:0:0:
402,192,54588,1,0,0:0:0:0:
256,192,54663,1,0,0:0:0:0:
36,192,54738,1,0,0:0:0:0:
402,192,54738,1,0,0:0:0:0:
182,192,54813,1,0,0:0:0:0:
329,192,54813,1,0,0:0:0:0:
109,192,54888,1,2,0:0:0:0:
36,192,54888,1,8,0:0:0:0:
475,192,54888,1,0,0:0:0:0:
402,192,54963,1,0,0:0:0:0:
182,192,55038,1,0,0:0:0:0:
475,192,55038,1,0,0:0:0:0:
256,192,55113,1,0,0:0:0:0:
329,192,55113,1,0,0:0:0:0:
109,192,55188,1,2,0:0:0:0:
36,192,55188,1,0,0:0:0:0:
402,192,55188,1,0,0:0:0:0:
256,192,55263,1,0,0:0:0:0:
109,192,55338,1,0,0:0:0:0:
182,192,55338,1,0,0:0:0:0:
475,192,55338,1,0,0:0:0:0:
329,192,55413,1,0,0:0:0:0:
402,192,55413,1,0,0:0:0:0:
36,192,55488,1,8,0:0:0:0:
109,192,55488,1,2,0:0:0:0:
475,192,55488,1,0,0:0:0:70:cymbal_short.wav
256,192,55563,1,0,0:0:0:0:
329,192,55563,1,0,0:0:0:0:
36,192,55638,128,2,56013:0:0:0:0:
182,192,55638,128,0,56013:0:0:0:70:cymbal_short.wav
402,192,55638,128,0,56013:0:0:0:0:
475,192,55638,128,0,56013:0:0:0:0:
36,192,56088,1,2,0:0:0:0:
182,192,56088,1,8,0:0:0:0:
256,192,56088,1,4,0:0:0:0:
475,192,56088,1,0,0:0:0:0:
329,192,56163,1,0,0:0:0:0:
109,192,56238,1,0,0:0:0:0:
402,192,56238,1,0,0:0:0:0:
475,192,56238,1,0,0:0:0:0:
182,192,56313,1,0,0:0:0:0:
256,192,56313,1,0,0:0:0:0:
36,192,56388,1,2,0:0:0:0:
329,192,56388,1,0,0:0:0:0:
402,192,56388,1,0,0:0:0:0:
182,192,56463,1,0,0:0:0:0:
109,192,56538,1,0,0:0:0:0:
329,192,56538,1,0,0:0:0:0:
475,192,56538,1,0,0:0:0:0:
36,192,56613,1,0,0:0:0:0:
256,192,56613,1,0,0:0:0:0:
182,192,56688,1,8,0:0:0:0:
402,192,56688,1,2,0:0:0:0:
475,192,56688,1,0,0:0:0:0:
329,192,56763,1,0,0:0:0:0:
36,192,56838,1,0,0:0:0:0:
109,192,56838,1,0,0:0:0:0:
402,192,56838,1,0,0:0:0:0:
182,192,56913,1,0,0:0:0:0:
256,192,56913,1,0,0:0:0:0:
36,192,56988,1,2,0:0:0:0:
329,192,56988,1,0,0:0:0:0:
475,192,56988,1,0,0:0:0:0:
109,192,57063,1,0,0:0:0:0:
256,192,57138,1,0,0:0:0:0:
402,192,57138,1,0,0:0:0:0:
475,192,57138,1,0,0:0:0:0:
36,192,57213,1,0,0:0:0:0:
109,192,57213,1,0,0:0:0:0:
182,192,57288,1,2,0:0:0:0:
329,192,57288,1,8,0:0:0:0:
402,192,57288,1,0,0:0:0:0:
36,192,57363,1,0,0:0:0:0:
256,192,57438,1,0,0:0:0:0:
329,192,57438,1,0,0:0:0:0:
475,192,57438,1,0,0:0:0:0:
109,192,57513,1,0,0:0:0:0:
182,192,57513,1,0,0:0:0:0:
36,192,57588,1,2,0:0:0:0:
402,192,57588,1,0,0:0:0:70:cymbal_short.wav
475,192,57588,1,0,0:0:0:0:
182,192,57663,1,0,0:0:0:0:
36,192,57738,1,2,0:0:0:0:
256,192,57738,1,0,0:0:0:70:cymbal_short.wav
329,192,57738,1,0,0:0:0:0:
475,192,57738,1,0,0:0:0:0:
36,192,58038,1,2,0:0:0:0:
182,192,58038,128,0,58413:0:0:0:70:cymbal_short.wav
329,192,58038,128,0,58413:0:0:0:0:
475,192,58038,1,0,0:0:0:0:
36,192,58188,128,2,58413:0:0:0:0:
109,192,58188,1,0,0:0:0:0:
402,192,58188,1,0,0:0:0:0:
475,192,58188,128,0,58413:0:0:0:0:
36,192,58488,1,4,0:0:0:0:
256,192,58488,1,8,0:0:0:0:
329,192,58488,1,2,0:0:0:0:
475,192,58488,1,0,0:0:0:0:
109,192,58638,1,0,0:0:0:0:
182,192,58638,1,0,0:0:0:0:
402,192,58638,1,0,0:0:0:0:
109,192,58713,1,0,0:0:0:0:
182,192,58713,1,0,0:0:0:0:
36,192,58788,1,2,0:0:0:0:
329,192,58788,1,0,0:0:0:0:
475,192,58788,1,0,0:0:0:0:
182,192,58863,1,0,0:0:0:0:
256,192,58863,1,0,0:0:0:0:
109,192,58938,1,0,0:0:0:0:
402,192,58938,1,0,0:0:0:0:
475,192,58938,1,0,0:0:0:0:
36,192,59088,1,2,0:0:0:0:
182,192,59088,1,8,0:0:0:0:
329,192,59088,1,0,0:0:0:70:cymbal_short.wav
475,192,59088,1,0,0:0:0:0:
109,192,59238,128,2,59613:0:0:0:0:
182,192,59238,128,0,59613:0:0:0:70:cymbal_short.wav
329,192,59238,128,0,59613:0:0:0:0:
402,192,59238,128,0,59613:0:0:0:0:
36,192,59688,1,8,0:0:0:0:
109,192,59688,1,2,0:0:0:0:
256,192,59688,1,0,0:0:0:0:
475,192,59688,1,0,0:0:0:0:
109,192,59838,1,0,0:0:0:0:
329,192,59838,1,0,0:0:0:0:
402,192,59838,1,0,0:0:0:0:
329,192,59913,1,0,0:0:0:0:
402,192,59913,1,0,0:0:0:0:
36,192,59988,1,2,0:0:0:0:
182,192,59988,1,0,0:0:0:0:
475,192,59988,1,0,0:0:0:0:
256,192,60063,1,0,0:0:0:0:
329,192,60063,1,0,0:0:0:0:
36,192,60138,1,2,0:0:0:0:
109,192,60138,1,0,0:0:0:0:
402,192,60138,1,0,0:0:0:0:
182,192,60213,1,0,0:0:0:0:
256,192,60213,1,0,0:0:0:0:
109,192,60288,1,2,0:0:0:0:
329,192,60288,1,8,0:0:0:0:
475,192,60288,1,0,0:0:0:0:
36,192,60438,1,2,0:0:0:0:
182,192,60438,1,0,0:0:0:0:
402,192,60438,1,0,0:0:0:0:
329,192,60513,1,2,0:0:0:0:
182,192,60588,1,2,0:0:0:0:
402,192,60588,128,0,60663:0:0:0:0:
475,192,60588,1,0,0:0:0:0:
109,192,60663,1,0,0:0:0:0:
329,192,60663,128,0,60738:0:0:0:0:
36,192,60738,1,0,0:0:0:0:
256,192,60738,128,0,60813:0:0:0:0:
329,192,60813,128,0,60888:0:0:0:0:
402,192,60813,1,0,0:0:0:0:
109,192,60888,1,8,0:0:0:0:
182,192,60888,128,2,60963:0:0:0:0:
475,192,60888,1,0,0:0:0:0:
256,192,60963,128,0,61038:0:0:0:0:
329,192,60963,1,0,0:0:0:0:
36,192,61038,1,0,0:0:0:0:
109,192,61038,128,0,61113:0:0:0:0:
182,192,61113,128,0,61188:0:0:0:0:
402,192,61113,1,0,0:0:0:0:
36,192,61188,1,2,0:0:0:0:
256,192,61188,128,0,61263:0:0:0:0:
475,192,61188,1,0,0:0:0:0:
109,192,61263,128,0,61338:0:0:0:0:
329,192,61263,1,0,0:0:0:0:
182,192,61338,128,0,61413:0:0:0:0:
402,192,61338,1,0,0:0:0:0:
256,192,61413,128,0,61488:0:0:0:0:
475,192,61413,1,0,0:0:0:0:
36,192,61488,1,2,0:0:0:0:
109,192,61488,1,8,0:0:0:0:
329,192,61488,128,0,61563:0:0:0:0:
402,192,61563,128,0,61638:0:0:0:0:
475,192,61563,1,0,0:0:0:0:
109,192,61638,128,0,61713:0:0:0:0:
256,192,61638,1,0,0:0:0:0:
182,192,61713,128,0,61788:0:0:0:0:
329,192,61713,1,0,0:0:0:0:
475,192,61788,128,2,61938:0:0:0:0:
402,192,61788,1,4,0:0:0:0:
36,192,61788,1,0,0:0:0:0:
256,192,61838,1,0,0:0:0:0:
109,192,61888,1,0,0:0:0:0:
182,192,61938,1,0,0:0:0:0:
329,192,61988,1,0,0:0:0:0:
402,192,62038,1,0,0:0:0:0:
36,192,62088,1,8,0:0:0:0:
109,192,62088,1,2,0:0:0:0:
475,192,62088,1,4,0:0:0:0:
256,192,62125,1,2,0:0:0:0:
182,192,62125,1,0,0:0:0:0:
402,192,62163,1,2,0:0:0:0:
329,192,62163,1,0,0:0:0:0:
36,192,62238,1,2,0:0:0:0:
182,192,62238,1,0,0:0:0:0:
329,192,62313,1,2,0:0:0:0:
475,192,62313,1,0,0:0:0:0:
36,192,62388,1,2,0:0:0:0:
109,192,62388,1,4,0:0:0:0:
256,192,62388,128,0,62463:0:0:0:0:
402,192,62463,128,0,62538:0:0:0:0:
182,192,62538,128,2,62838:0:0:0:0:
329,192,62538,1,0,0:0:0:0:
402,192,62613,1,0,0:0:0:70:LR_Snare Drum 2.wav
475,192,62613,1,0,0:0:0:0:
109,192,62688,1,10,0:0:0:0:
256,192,62688,1,4,0:0:0:0:
329,192,62763,1,0,0:0:0:70:LR_Snare Drum 2.wav
402,192,62763,1,0,0:0:0:0:
36,192,62838,1,2,0:0:0:0:
109,192,62838,1,0,0:0:0:0:
256,192,62913,1,0,0:0:0:70:tom01.wav
329,192,62913,1,0,0:0:0:0:
36,192,62988,1,6,0:0:0:0:
182,192,62988,1,0,0:0:0:70:winds.wav
475,192,63025,1,0,0:0:0:0:
329,192,63138,1,0,0:0:0:0:
402,192,63288,1,0,0:0:0:0:
109,192,63438,1,0,0:0:0:0:
182,192,63438,1,0,0:0:0:0:
329,192,63588,1,0,0:0:0:0:
475,192,63625,1,0,0:0:0:0:
256,192,63738,1,0,0:0:0:0:
402,192,63738,1,0,0:0:0:0:
475,192,63813,1,0,0:0:0:0:
182,192,63888,1,0,0:0:0:0:
329,192,63888,1,0,0:0:0:0:
109,192,64038,1,0,0:0:0:0:
256,192,64038,1,0,0:0:0:0:
36,192,64188,1,0,0:0:0:0:
182,192,64188,1,0,0:0:0:0:
402,192,64188,1,0,0:0:0:0:
256,192,64338,1,0,0:0:0:0:
256,192,64413,1,0,0:0:0:0:
109,192,64488,1,0,0:0:0:0:
329,192,64488,1,0,0:0:0:0:
36,192,64638,1,0,0:0:0:0:
182,192,64638,1,0,0:0:0:0:
402,192,64638,1,0,0:0:0:0:
402,192,64713,1,0,0:0:0:0:
36,192,64788,1,2,0:0:0:0:
109,192,64788,1,0,0:0:0:70:cymbal_short.wav
256,192,64788,1,0,0:0:0:0:
475,192,64788,1,0,0:0:0:0:
182,192,64863,1,0,0:0:0:0:
329,192,64863,1,0,0:0:0:0:
36,192,64938,128,2,65013:0:0:0:0:
256,192,64938,128,0,65013:0:0:0:70:cymbal_short.wav
402,192,64938,128,0,65013:0:0:0:0:
475,192,64938,128,0,65013:0:0:0:0:
36,192,65238,128,2,65613:0:0:0:0:
182,192,65238,128,0,65613:0:0:0:70:cymbal_short.wav
329,192,65238,128,0,65613:0:0:0:0:
475,192,65238,128,0,65613:0:0:0:0:
36,192,65688,1,4,0:0:0:0:
109,192,65688,1,2,0:0:0:0:
256,192,65688,1,8,0:0:0:0:
475,192,65688,1,0,0:0:0:0:
109,192,65838,1,0,0:0:0:0:
329,192,65838,1,0,0:0:0:0:
402,192,65838,1,0,0:0:0:0:
329,192,65913,1,0,0:0:0:0:
402,192,65913,1,0,0:0:0:0:
36,192,65988,128,2,66063:0:0:0:0:
182,192,65988,128,0,66063:0:0:0:0:
256,192,65988,128,0,66063:0:0:0:0:
475,192,65988,128,0,66063:0:0:0:0:
109,192,66138,1,0,0:0:0:0:
182,192,66138,1,0,0:0:0:0:
475,192,66138,1,0,0:0:0:0:
256,192,66213,1,0,0:0:0:0:
329,192,66213,1,0,0:0:0:0:
36,192,66288,128,8,66363:0:0:0:0:
109,192,66288,128,2,66363:0:0:0:0:
402,192,66288,128,0,66363:0:0:0:0:
475,192,66288,128,0,66363:0:0:0:0:
36,192,66438,1,0,0:0:0:0:
256,192,66438,1,0,0:0:0:0:
402,192,66438,1,0,0:0:0:0:
329,192,66513,1,0,0:0:0:0:
182,192,66513,1,0,0:0:0:0:
109,192,66588,128,2,66663:0:0:0:0:
256,192,66588,128,0,66663:0:0:0:0:
402,192,66588,128,0,66663:0:0:0:0:
475,192,66588,128,0,66663:0:0:0:0:
36,192,66738,1,0,0:0:0:0:
109,192,66738,1,0,0:0:0:0:
329,192,66738,1,0,0:0:0:0:
182,192,66813,1,0,0:0:0:0:
402,192,66813,1,0,0:0:0:0:
36,192,66888,128,2,66963:0:0:0:0:
256,192,66888,128,8,66963:0:0:0:0:
329,192,66888,128,0,66963:0:0:0:0:
475,192,66888,128,0,66963:0:0:0:0:
109,192,67038,1,0,0:0:0:0:
182,192,67038,1,0,0:0:0:0:
329,192,67038,1,0,0:0:0:0:
256,192,67113,1,0,0:0:0:0:
402,192,67113,1,0,0:0:0:0:
36,192,67188,1,2,0:0:0:0:
329,192,67188,1,0,0:0:0:70:cymbal_short.wav
475,192,67188,1,0,0:0:0:0:
182,192,67263,1,0,0:0:0:0:
109,192,67263,1,0,0:0:0:0:
36,192,67338,128,2,67413:0:0:0:0:
256,192,67338,128,0,67413:0:0:0:70:cymbal_short.wav
402,192,67338,128,0,67413:0:0:0:0:
475,192,67338,128,0,67413:0:0:0:0:
109,192,67488,1,8,0:0:0:0:
329,192,67488,1,2,0:0:0:0:
402,192,67488,1,0,0:0:0:0:
182,192,67563,1,0,0:0:0:0:
36,192,67638,1,2,0:0:0:0:
475,192,67638,1,0,0:0:0:0:
256,192,67638,1,0,0:0:0:0:
182,192,67713,1,2,0:0:0:0:
402,192,67713,1,0,0:0:0:0:
109,192,67713,1,0,0:0:0:0:
36,192,67788,128,2,67863:0:0:0:0:
256,192,67788,128,0,67863:0:0:0:70:cymbal_short.wav
329,192,67788,128,0,67863:0:0:0:0:
475,192,67788,128,0,67863:0:0:0:0:
182,192,67938,1,0,0:0:0:0:
329,192,67938,1,0,0:0:0:0:
402,192,67938,1,0,0:0:0:0:
402,192,68013,1,0,0:0:0:0:
329,192,68013,1,0,0:0:0:0:
36,192,68088,128,0,68163:0:0:0:0:
475,192,68088,128,0,68163:0:0:0:0:
256,192,68088,128,0,68163:0:0:0:0:
36,192,68238,128,2,68313:0:0:0:0:
182,192,68238,128,0,68313:0:0:0:70:cymbal_short.wav
402,192,68238,128,0,68313:0:0:0:0:
475,192,68238,128,0,68313:0:0:0:0:
109,192,68388,1,0,0:0:0:0:
329,192,68388,1,0,0:0:0:0:
475,192,68388,1,0,0:0:0:0:
182,192,68463,1,0,0:0:0:0:
256,192,68463,1,0,0:0:0:0:
36,192,68538,128,0,68613:0:0:0:0:
329,192,68538,128,0,68613:0:0:0:0:
402,192,68538,128,0,68613:0:0:0:0:
36,192,68688,128,8,69288:0:0:0:0:
109,192,68688,128,2,69288:0:0:0:0:
256,192,68688,128,4,69288:0:0:0:0:
475,192,68688,128,0,69288:0:0:0:70:winds.wav
329,192,69288,1,0,0:0:0:0:
182,192,69363,1,0,0:0:0:0:
402,192,69438,1,0,0:0:0:0:
475,192,69438,1,0,0:0:0:0:
329,192,69438,1,0,0:0:0:0:
109,192,69513,1,0,0:0:0:0:
182,192,69513,1,0,0:0:0:0:
36,192,69513,1,0,0:0:0:0:
256,192,69588,1,0,0:0:0:70:LR_Snare Drum 3.wav
402,192,69588,1,0,0:0:0:0:
475,192,69588,1,0,0:0:0:0:
36,192,69663,1,0,0:0:0:70:LR_Snare Drum 3.wav
109,192,69663,1,0,0:0:0:0:
329,192,69738,1,0,0:0:0:70:LR_Snare Drum 3.wav
402,192,69738,1,0,0:0:0:0:
36,192,69813,1,0,0:0:0:70:LR_Snare Drum 3.wav
182,192,69813,1,0,0:0:0:0:
475,192,69813,1,0,0:0:0:0:
256,192,69888,1,0,0:0:0:70:LR_Snare Drum 3.wav
329,192,69888,1,0,0:0:0:0:
402,192,69963,1,0,0:0:0:70:LR_Snare Drum 3.wav
475,192,69963,1,0,0:0:0:0:
36,192,70038,1,0,0:0:0:70:LR_Snare Drum.wav
109,192,70038,1,0,0:0:0:0:
256,192,70038,1,0,0:0:0:0:
182,192,70113,1,0,0:0:0:70:LR_Snare Drum.wav
329,192,70113,1,0,0:0:0:0:
402,192,70113,1,0,0:0:0:0:
36,192,70188,128,2,70263:0:0:0:0:
109,192,70188,128,4,70263:0:0:0:0:
256,192,70188,128,0,70263:0:0:0:0:
475,192,70188,128,0,70263:0:0:0:0:
182,192,70338,1,0,0:0:0:0:
256,192,70338,1,0,0:0:0:0:
402,192,70413,1,0,0:0:0:0:
475,192,70413,1,0,0:0:0:0:
36,192,70488,1,2,0:0:0:0:
109,192,70488,1,8,0:0:0:0:
256,192,70488,1,0,0:0:0:0:
329,192,70563,1,0,0:0:0:0:
36,192,70638,1,0,0:0:0:0:
182,192,70638,1,0,0:0:0:0:
402,192,70638,1,0,0:0:0:0:
109,192,70713,1,0,0:0:0:0:
256,192,70713,1,0,0:0:0:0:
182,192,70788,128,2,70863:0:0:0:0:
329,192,70788,128,0,70863:0:0:0:0:
402,192,70788,128,0,70863:0:0:0:0:
475,192,70788,128,0,70863:0:0:0:0:
36,192,70938,1,0,0:0:0:0:
329,192,70938,1,0,0:0:0:0:
256,192,71013,1,0,0:0:0:0:
475,192,71013,1,0,0:0:0:0:
109,192,71088,128,8,71163:0:0:0:0:
182,192,71088,128,2,71163:0:0:0:0:
402,192,71088,128,0,71163:0:0:0:70:cymbal_short.wav
329,192,71163,1,0,0:0:0:0:
36,192,71238,128,2,71313:0:0:0:0:
182,192,71238,128,0,71313:0:0:0:70:cymbal_short.wav
402,192,71238,128,0,71313:0:0:0:0:
475,192,71238,128,0,71313:0:0:0:0:
36,192,71388,128,2,71613:0:0:0:0:
109,192,71388,128,0,71613:0:0:0:0:
329,192,71388,128,0,71613:0:0:0:0:
475,192,71388,128,0,71613:0:0:0:0:
36,192,71688,128,2,71763:0:0:0:0:
182,192,71688,128,8,71763:0:0:0:0:
256,192,71688,128,4,71763:0:0:0:0:
475,192,71688,128,0,71763:0:0:0:0:
109,192,71838,1,0,0:0:0:0:
329,192,71838,1,0,0:0:0:0:
182,192,71913,1,0,0:0:0:0:
402,192,71913,1,0,0:0:0:0:
36,192,71988,128,2,72063:0:0:0:0:
109,192,71988,128,0,72063:0:0:0:0:
256,192,71988,128,0,72063:0:0:0:0:
475,192,71988,128,0,72063:0:0:0:0:
36,192,72138,1,2,0:0:0:0:
329,192,72138,1,0,0:0:0:0:
402,192,72138,1,0,0:0:0:0:
182,192,72213,1,0,0:0:0:0:
109,192,72288,128,8,72363:0:0:0:0:
402,192,72288,128,2,72363:0:0:0:0:
475,192,72288,128,0,72363:0:0:0:0:
256,192,72363,1,2,0:0:0:0:
329,192,72363,1,0,0:0:0:0:
36,192,72438,1,2,0:0:0:0:
182,192,72438,1,0,0:0:0:0:
475,192,72438,1,0,0:0:0:0:
329,192,72513,1,2,0:0:0:0:
402,192,72513,1,0,0:0:0:0:
109,192,72588,128,2,72688:0:0:0:0:
256,192,72588,1,4,0:0:0:0:
475,192,72588,1,0,0:0:0:70:winds.wav
182,192,72688,128,0,72788:0:0:0:0:
329,192,72688,1,0,0:0:0:0:
256,192,72788,128,0,72888:0:0:0:0:
402,192,72788,1,0,0:0:0:0:
36,192,72888,128,2,72988:0:0:0:0:
182,192,72888,1,0,0:0:0:0:
475,192,72888,1,0,0:0:0:0:
109,192,72988,128,0,73088:0:0:0:0:
256,192,72988,1,0,0:0:0:0:
182,192,73088,128,0,73188:0:0:0:0:
329,192,73088,1,0,0:0:0:0:
36,192,73188,1,2,0:0:0:0:
402,192,73188,128,0,73288:0:0:0:0:
475,192,73188,1,0,0:0:0:0:
109,192,73288,1,0,0:0:0:0:
329,192,73288,128,0,73388:0:0:0:0:
182,192,73388,1,0,0:0:0:0:
475,192,73388,128,0,73488:0:0:0:0:
36,192,73488,128,2,73588:0:0:0:0:
256,192,73488,1,0,0:0:0:0:
402,192,73488,1,0,0:0:0:0:
109,192,73588,128,0,73688:0:0:0:0:
329,192,73588,1,0,0:0:0:0:
182,192,73688,128,0,73788:0:0:0:0:
402,192,73688,1,0,0:0:0:0:
36,192,73788,1,2,0:0:0:0:
256,192,73788,1,0,0:0:0:0:
475,192,73788,128,0,73888:0:0:0:0:
109,192,73888,1,0,0:0:0:0:
329,192,73888,128,0,73988:0:0:0:0:
182,192,73988,1,0,0:0:0:0:
402,192,73988,128,0,74088:0:0:0:0:
36,192,74088,1,2,0:0:0:0:
256,192,74088,128,0,74188:0:0:0:0:
475,192,74088,1,0,0:0:0:0:
109,192,74188,128,0,74288:0:0:0:0:
329,192,74188,1,0,0:0:0:0:
182,192,74288,128,0,74388:0:0:0:0:
402,192,74288,1,0,0:0:0:0:
36,192,74388,1,2,0:0:0:0:
109,192,74388,1,0,0:0:0:70:cymbal_short.wav
256,192,74388,128,0,74538:0:0:0:0:
475,192,74388,1,0,0:0:0:0:
109,192,74538,1,2,0:0:0:0:
182,192,74538,1,0,0:0:0:70:cymbal_short.wav
329,192,74538,128,0,74688:0:0:0:0:
475,192,74538,1,0,0:0:0:0:
36,192,74838,1,2,0:0:0:0:
182,192,74838,128,0,75288:0:0:0:70:cymbal_short.wav
329,192,74838,1,0,0:0:0:0:
475,192,74838,1,0,0:0:0:0:
402,192,74988,128,0,75288:0:0:0:0:
36,192,75288,1,4,0:0:0:0:
109,192,75288,1,8,0:0:0:0:
256,192,75288,1,2,0:0:0:0:
475,192,75288,1,0,0:0:0:0:
329,192,75363,1,0,0:0:0:0:
182,192,75438,1,0,0:0:0:0:
402,192,75438,1,0,0:0:0:0:
475,192,75438,1,0,0:0:0:0:
256,192,75513,1,0,0:0:0:0:
36,192,75588,1,2,0:0:0:0:
109,192,75588,1,0,0:0:0:0:
329,192,75588,1,0,0:0:0:0:
182,192,75663,1,0,0:0:0:0:
36,192,75738,1,0,0:0:0:0:
329,192,75738,1,0,0:0:0:0:
475,192,75738,1,0,0:0:0:0:
256,192,75813,1,0,0:0:0:0:
109,192,75888,1,2,0:0:0:0:
182,192,75888,128,8,76938:0:0:0:0:
402,192,75888,1,0,0:0:0:0:
475,192,75888,1,0,0:0:0:0:
329,192,75963,1,0,0:0:0:0:
36,192,76038,1,0,0:0:0:0:
109,192,76038,1,0,0:0:0:0:
256,192,76113,1,0,0:0:0:0:
36,192,76188,1,2,0:0:0:0:
402,192,76188,1,0,0:0:0:0:
475,192,76188,1,0,0:0:0:0:
256,192,76263,1,0,0:0:0:0:
329,192,76263,1,0,0:0:0:0:
109,192,76338,1,0,0:0:0:0:
475,192,76338,1,0,0:0:0:0:
329,192,76413,1,0,0:0:0:0:
402,192,76413,1,0,0:0:0:0:
36,192,76488,1,8,0:0:0:0:
109,192,76488,1,2,0:0:0:0:
256,192,76488,1,0,0:0:0:0:
402,192,76563,1,0,0:0:0:0:
475,192,76563,1,0,0:0:0:0:
36,192,76638,1,0,0:0:0:0:
109,192,76638,1,0,0:0:0:0:
256,192,76713,1,0,0:0:0:0:
329,192,76713,1,0,0:0:0:0:
36,192,76788,1,2,0:0:0:0:
402,192,76788,1,0,0:0:0:0:
475,192,76788,1,0,0:0:0:0:
109,192,76863,1,0,0:0:0:0:
256,192,76863,1,0,0:0:0:0:
36,192,76938,1,0,0:0:0:0:
329,192,76938,1,0,0:0:0:0:
475,192,76938,1,0,0:0:0:0:
182,192,77013,1,0,0:0:0:0:
109,192,77088,1,2,0:0:0:0:
329,192,77088,1,8,0:0:0:0:
402,192,77088,1,0,0:0:0:0:
475,192,77088,1,0,0:0:0:0:
256,192,77163,1,0,0:0:0:0:
36,192,77238,1,0,0:0:0:0:
182,192,77238,1,0,0:0:0:0:
402,192,77238,1,0,0:0:0:0:
329,192,77313,1,0,0:0:0:0:
36,192,77388,1,2,0:0:0:0:
109,192,77388,1,0,0:0:0:0:
256,192,77388,1,0,0:0:0:0:
475,192,77388,1,0,0:0:0:0:
402,192,77463,1,0,0:0:0:0:
109,192,77538,1,0,0:0:0:0:
182,192,77538,1,0,0:0:0:0:
329,192,77538,1,0,0:0:0:0:
402,192,77613,1,0,0:0:0:0:
36,192,77688,1,8,0:0:0:0:
182,192,77688,1,2,0:0:0:0:
256,192,77688,1,0,0:0:0:0:
475,192,77688,1,0,0:0:0:0:
329,192,77763,1,0,0:0:0:0:
36,192,77838,1,0,0:0:0:0:
109,192,77838,1,0,0:0:0:0:
402,192,77838,1,0,0:0:0:0:
256,192,77913,1,0,0:0:0:0:
109,192,77988,1,2,0:0:0:0:
182,192,77988,1,0,0:0:0:0:
475,192,77988,1,0,0:0:0:0:
329,192,78063,1,0,0:0:0:0:
36,192,78138,1,0,0:0:0:0:
182,192,78138,1,0,0:0:0:0:
402,192,78138,1,0,0:0:0:0:
256,192,78213,1,0,0:0:0:0:
36,192,78288,1,2,0:0:0:0:
109,192,78288,1,8,0:0:0:0:
329,192,78288,128,0,79338:0:0:0:0:
475,192,78288,1,0,0:0:0:0:
182,192,78363,1,0,0:0:0:0:
256,192,78438,1,0,0:0:0:0:
402,192,78438,1,0,0:0:0:0:
109,192,78513,1,0,0:0:0:0:
36,192,78588,1,2,0:0:0:0:
402,192,78588,1,0,0:0:0:0:
475,192,78588,1,0,0:0:0:0:
182,192,78663,1,0,0:0:0:0:
256,192,78663,1,0,0:0:0:0:
36,192,78738,1,0,0:0:0:0:
475,192,78738,1,0,0:0:0:0:
109,192,78813,1,0,0:0:0:0:
402,192,78813,1,0,0:0:0:0:
182,192,78888,1,8,0:0:0:0:
256,192,78888,1,2,0:0:0:0:
475,192,78888,1,0,0:0:0:0:
36,192,78963,1,0,0:0:0:0:
109,192,78963,1,0,0:0:0:0:
256,192,79038,1,0,0:0:0:0:
402,192,79038,1,0,0:0:0:0:
182,192,79113,1,0,0:0:0:0:
109,192,79113,1,0,0:0:0:0:
36,192,79188,1,2,0:0:0:0:
402,192,79188,1,0,0:0:0:0:
475,192,79188,1,0,0:0:0:0:
182,192,79263,1,0,0:0:0:0:
256,192,79263,1,0,0:0:0:0:
36,192,79338,1,0,0:0:0:0:
109,192,79338,1,0,0:0:0:0:
475,192,79338,1,0,0:0:0:0:
329,192,79413,1,0,0:0:0:0:
36,192,79488,1,2,0:0:0:0:
182,192,79488,1,8,0:0:0:0:
402,192,79488,1,0,0:0:0:0:
475,192,79488,1,0,0:0:0:0:
256,192,79563,1,0,0:0:0:0:
109,192,79638,1,2,0:0:0:0:
182,192,79638,1,0,0:0:0:0:
402,192,79638,1,0,0:0:0:0:
329,192,79713,1,0,0:0:0:0:
36,192,79788,1,0,0:0:0:0:
256,192,79788,1,0,0:0:0:0:
475,192,79788,1,0,0:0:0:0:
402,192,79863,1,0,0:0:0:0:
109,192,79938,1,0,0:0:0:0:
256,192,80013,1,0,0:0:0:0:
36,192,80088,1,4,0:0:0:0:
182,192,80088,1,8,0:0:0:0:
402,192,80088,1,2,0:0:0:0:
475,192,80088,1,0,0:0:0:0:
329,192,80163,1,0,0:0:0:0:
36,192,80238,1,0,0:0:0:0:
109,192,80238,1,0,0:0:0:0:
256,192,80238,1,0,0:0:0:0:
329,192,80313,1,0,0:0:0:0:
182,192,80388,1,2,0:0:0:0:
402,192,80388,1,0,0:0:0:0:
475,192,80388,1,0,0:0:0:0:
256,192,80463,1,0,0:0:0:0:
36,192,80538,1,0,0:0:0:0:
109,192,80538,1,0,0:0:0:0:
329,192,80538,1,0,0:0:0:0:
182,192,80613,1,0,0:0:0:0:
36,192,80688,1,2,0:0:0:0:
256,192,80688,1,8,0:0:0:0:
402,192,80688,1,0,0:0:0:0:
475,192,80688,128,0,81288:0:0:0:0:
109,192,80763,1,0,0:0:0:0:
182,192,80838,1,0,0:0:0:0:
329,192,80838,1,0,0:0:0:0:
36,192,80913,1,0,0:0:0:0:
256,192,80988,1,2,0:0:0:0:
329,192,80988,1,0,0:0:0:0:
402,192,80988,1,0,0:0:0:0:
36,192,81063,1,0,0:0:0:0:
109,192,81063,1,0,0:0:0:0:
182,192,81138,1,0,0:0:0:0:
256,192,81138,1,0,0:0:0:0:
329,192,81213,1,0,0:0:0:0:
402,192,81213,1,0,0:0:0:0:
36,192,81288,128,8,81588:0:0:0:0:
109,192,81288,1,2,0:0:0:0:
182,192,81288,1,0,0:0:0:0:
256,192,81288,1,0,0:0:0:0:
402,192,81363,1,0,0:0:0:0:
109,192,81438,1,0,0:0:0:0:
329,192,81438,1,0,0:0:0:0:
475,192,81513,1,0,0:0:0:0:
329,192,81588,128,2,81888:0:0:0:0:
182,192,81588,1,0,0:0:0:0:
256,192,81588,1,0,0:0:0:0:
402,192,81588,1,0,0:0:0:0:
109,192,81663,1,0,0:0:0:0:
36,192,81663,1,0,0:0:0:0:
402,192,81738,1,0,0:0:0:0:
475,192,81738,1,0,0:0:0:0:
182,192,81813,1,0,0:0:0:0:
256,192,81813,1,0,0:0:0:0:
36,192,81888,1,2,0:0:0:0:
109,192,81888,1,8,0:0:0:0:
402,192,81888,1,0,0:0:0:0:
475,192,81888,128,0,82188:0:0:0:0:
256,192,81963,1,0,0:0:0:0:
329,192,81963,1,0,0:0:0:0:
109,192,82038,1,0,0:0:0:0:
182,192,82038,1,0,0:0:0:0:
329,192,82113,1,0,0:0:0:0:
402,192,82113,1,0,0:0:0:0:
36,192,82188,1,2,0:0:0:0:
256,192,82188,128,4,83388:0:0:0:0:
109,192,82188,1,0,0:0:0:70:winds.wav
182,192,82188,1,0,0:0:0:0:
182,192,82638,1,0,0:0:0:0:
329,192,82788,1,0,0:0:0:0:
475,192,82825,1,0,0:0:0:0:
109,192,83088,1,0,0:0:0:0:
402,192,83163,1,0,0:0:0:0:
182,192,83238,1,0,0:0:0:0:
329,192,83313,1,0,0:0:0:0:
36,192,83388,1,0,0:0:0:70:LR_Snare Drum 3.wav
109,192,83388,1,0,0:0:0:0:
402,192,83463,1,0,0:0:0:70:LR_Snare Drum 3.wav
475,192,83463,1,0,0:0:0:0:
109,192,83538,1,0,0:0:0:70:LR_Snare Drum 3.wav
182,192,83538,1,0,0:0:0:0:
329,192,83613,1,0,0:0:0:70:LR_Snare Drum 3.wav
402,192,83613,1,0,0:0:0:0:
36,192,83688,1,0,0:0:0:70:LR_Snare Drum 3.wav
182,192,83688,1,0,0:0:0:0:
475,192,83688,1,0,0:0:0:0:
256,192,83763,1,0,0:0:0:70:LR_Snare Drum.wav
329,192,83763,1,0,0:0:0:0:
36,192,83838,1,0,0:0:0:70:LR_Snare Drum.wav
109,192,83838,1,0,0:0:0:0:
402,192,83838,1,0,0:0:0:0:
182,192,83913,1,0,0:0:0:70:LR_Snare Drum.wav
256,192,83913,1,0,0:0:0:0:
36,192,83988,1,0,0:0:0:70:LR_Snare Drum.wav
329,192,83988,1,0,0:0:0:0:
475,192,83988,1,0,0:0:0:0:
109,192,84063,1,0,0:0:0:0:
182,192,84063,1,0,0:0:0:0:
256,192,84138,1,2,0:0:0:0:
402,192,84138,1,0,0:0:0:0:
475,192,84138,1,0,0:0:0:0:
36,192,84213,1,2,0:0:0:0:
109,192,84213,1,0,0:0:0:0:
182,192,84288,1,0,0:0:0:70:VEC4 Snares 151.wav
329,192,84288,1,0,0:0:0:0:
402,192,84288,1,0,0:0:0:0:
36,192,84438,1,0,0:0:0:70:LR_Snare Drum.wav
256,192,84438,1,0,0:0:0:0:
475,192,84438,1,0,0:0:0:0:
109,192,84513,1,0,0:0:0:0:
329,192,84513,1,0,0:0:0:0:
36,192,84588,1,2,0:0:0:0:
182,192,84588,1,4,0:0:0:0:
402,192,84588,1,0,0:0:0:0:
475,192,84588,1,0,0:0:0:0:
36,192,84738,1,2,0:0:0:0:
109,192,84738,1,0,0:0:0:0:
256,192,84738,1,0,0:0:0:0:
329,192,84738,1,0,0:0:0:0:
402,192,84813,1,0,0:0:0:0:
475,192,84813,1,0,0:0:0:0:
109,192,84888,1,8,0:0:0:0:
182,192,84888,1,2,0:0:0:0:
256,192,84888,1,0,0:0:0:0:
329,192,84963,1,0,0:0:0:0:
402,192,84963,1,0,0:0:0:0:
36,192,85038,1,2,0:0:0:0:
109,192,85038,1,0,0:0:0:0:
182,192,85038,1,0,0:0:0:0:
475,192,85038,1,0,0:0:0:0:
36,192,85188,1,2,0:0:0:0:
256,192,85188,1,0,0:0:0:0:
329,192,85188,1,0,0:0:0:0:
475,192,85188,1,0,0:0:0:0:
182,192,85263,1,0,0:0:0:0:
402,192,85263,1,0,0:0:0:0:
36,192,85338,1,2,0:0:0:0:
329,192,85338,1,0,0:0:0:0:
475,192,85338,1,0,0:0:0:0:
109,192,85413,1,0,0:0:0:0:
182,192,85413,1,0,0:0:0:0:
256,192,85488,1,8,0:0:0:0:
402,192,85488,1,2,0:0:0:0:
475,192,85488,1,0,0:0:0:0:
36,192,85563,1,0,0:0:0:0:
109,192,85563,1,0,0:0:0:0:
182,192,85638,1,2,0:0:0:0:
329,192,85638,1,0,0:0:0:0:
402,192,85638,1,0,0:0:0:0:
475,192,85638,1,0,0:0:0:0:
109,192,85713,1,0,0:0:0:0:
36,192,85788,1,2,0:0:0:0:
256,192,85788,1,0,0:0:0:0:
329,192,85788,1,0,0:0:0:0:
182,192,85863,1,0,0:0:0:0:
109,192,85938,1,2,0:0:0:0:
402,192,85938,1,0,0:0:0:0:
475,192,85938,1,0,0:0:0:0:
329,192,86013,1,0,0:0:0:0:
36,192,86088,1,8,0:0:0:0:
182,192,86088,1,2,0:0:0:0:
256,192,86088,1,0,0:0:0:0:
475,192,86088,1,0,0:0:0:0:
36,192,86238,1,2,0:0:0:0:
109,192,86238,1,0,0:0:0:0:
256,192,86238,1,0,0:0:0:0:
475,192,86238,1,0,0:0:0:0:
182,192,86313,1,2,0:0:0:0:
329,192,86313,1,0,0:0:0:0:
36,192,86388,1,2,0:0:0:0:
256,192,86388,1,0,0:0:0:0:
402,192,86388,1,0,0:0:0:0:
475,192,86388,1,0,0:0:0:0:
109,192,86538,1,2,0:0:0:0:
182,192,86538,1,0,0:0:0:0:
329,192,86538,1,0,0:0:0:0:
402,192,86613,1,2,0:0:0:0:
475,192,86613,1,0,0:0:0:0:
36,192,86688,1,2,0:0:0:0:
109,192,86688,1,8,0:0:0:0:
182,192,86688,1,0,0:0:0:0:
256,192,86688,1,0,0:0:0:0:
329,192,86763,1,2,0:0:0:0:
402,192,86763,1,0,0:0:0:0:
36,192,86838,1,2,0:0:0:0:
182,192,86838,1,0,0:0:0:0:
475,192,86838,1,0,0:0:0:0:
256,192,86913,1,2,0:0:0:0:
329,192,86913,1,0,0:0:0:0:
36,192,86988,1,2,0:0:0:0:
109,192,86988,1,0,0:0:0:0:
402,192,86988,1,0,0:0:0:0:
475,192,86988,1,0,0:0:0:0:
182,192,87063,1,2,0:0:0:0:
256,192,87063,1,0,0:0:0:0:
36,192,87138,1,2,0:0:0:0:
329,192,87138,1,0,0:0:0:0:
475,192,87138,1,0,0:0:0:0:
109,192,87175,1,2,0:0:0:0:
182,192,87213,1,2,0:0:0:0:
256,192,87250,1,2,0:0:0:0:
329,192,87288,1,8,0:0:0:0:
402,192,87288,1,2,0:0:0:0:
475,192,87288,1,0,0:0:0:0:
36,192,87363,1,2,0:0:0:0:
109,192,87363,1,0,0:0:0:0:
256,192,87438,1,2,0:0:0:0:
329,192,87438,1,0,0:0:0:0:
402,192,87438,1,0,0:0:0:0:
182,192,87475,1,2,0:0:0:0:
109,192,87513,1,2,0:0:0:0:
36,192,87550,1,2,0:0:0:0:
256,192,87588,1,2,0:0:0:0:
402,192,87588,1,0,0:0:0:0:
475,192,87588,1,0,0:0:0:0:
182,192,87663,1,2,0:0:0:0:
329,192,87663,1,0,0:0:0:0:
36,192,87738,1,2,0:0:0:0:
109,192,87738,1,0,0:0:0:0:
475,192,87738,1,0,0:0:0:0:
256,192,87813,1,2,0:0:0:0:
329,192,87813,1,0,0:0:0:0:
36,192,87888,1,8,0:0:0:0:
182,192,87888,1,2,0:0:0:0:
402,192,87888,1,0,0:0:0:0:
475,192,87888,1,0,0:0:0:0:
36,192,88038,1,2,0:0:0:0:
109,192,88038,1,0,0:0:0:0:
256,192,88038,1,0,0:0:0:0:
475,192,88038,1,0,0:0:0:0:
182,192,88113,1,0,0:0:0:0:
329,192,88113,1,0,0:0:0:0:
36,192,88188,128,2,88563:0:0:0:0:
256,192,88188,128,4,89313:0:0:0:0:
402,192,88188,128,0,88563:0:0:0:0:
475,192,88188,128,0,88563:0:0:0:0:
475,192,88788,128,0,89313:0:0:0:0:
36,192,89088,128,0,89313:0:0:0:0:
36,192,89388,1,2,0:0:0:0:
109,192,89388,1,4,0:0:0:0:
182,192,89388,1,0,0:0:0:70:winds.wav
475,192,89388,1,0,0:0:0:0:
402,192,89425,1,0,0:0:0:0:
329,192,89463,128,0,90288:0:0:0:0:
109,192,89688,1,0,0:0:0:0:
182,192,89688,1,0,0:0:0:0:
256,192,89838,1,0,0:0:0:0:
475,192,89838,1,0,0:0:0:0:
182,192,89988,1,0,0:0:0:0:
402,192,89988,1,0,0:0:0:0:
109,192,90138,1,0,0:0:0:0:
36,192,90288,1,0,0:0:0:0:
475,192,90288,1,0,0:0:0:0:
109,192,90325,1,0,0:0:0:0:
182,192,90363,128,0,91188:0:0:0:0:
36,192,90588,1,0,0:0:0:0:
475,192,90738,1,0,0:0:0:0:
109,192,90888,1,0,0:0:0:0:
402,192,90888,1,0,0:0:0:0:
329,192,91038,1,0,0:0:0:0:
36,192,91188,1,0,0:0:0:0:
109,192,91188,1,0,0:0:0:0:
256,192,91225,1,0,0:0:0:0:
329,192,91263,128,0,92088:0:0:0:0:
475,192,91263,1,0,0:0:0:0:
182,192,91338,1,0,0:0:0:0:
36,192,91413,1,0,0:0:0:0:
182,192,91488,1,0,0:0:0:0:
475,192,91638,1,0,0:0:0:0:
182,192,91788,128,0,92088:0:0:0:0:
402,192,91788,1,0,0:0:0:0:
109,192,91938,1,0,0:0:0:0:
36,192,92088,1,2,0:0:0:0:
256,192,92088,1,0,0:0:0:0:
475,192,92088,128,0,92238:0:0:0:0:
329,192,92163,128,0,92313:0:0:0:0:
182,192,92238,128,0,92388:0:0:0:0:
36,192,92313,128,0,92463:0:0:0:0:
402,192,92313,128,0,92463:0:0:0:0:
256,192,92388,128,0,92838:0:0:0:0:
109,192,92463,128,0,92613:0:0:0:0:
402,192,92538,128,0,92688:0:0:0:0:
36,192,92613,1,0,0:0:0:0:
182,192,92688,1,0,0:0:0:0:
329,192,92763,1,0,0:0:0:0:
475,192,92838,1,0,0:0:0:0:
256,192,92913,1,0,0:0:0:0:
36,192,92988,128,2,93138:0:0:0:0:
109,192,92988,128,0,93138:0:0:0:70:LR_Drum Click.wav
182,192,92988,128,0,93138:0:0:0:0:
402,192,92988,128,0,93138:0:0:0:0:
36,192,93288,1,2,0:0:0:0:
256,192,93288,1,0,0:0:0:0:
475,192,93288,1,0,0:0:0:0:
402,192,93363,1,0,0:0:0:0:
109,192,93438,1,2,0:0:0:0:
256,192,93438,1,0,0:0:0:0:
329,192,93513,1,0,0:0:0:0:
36,192,93588,1,2,0:0:0:0:
109,192,93588,1,0,0:0:0:0:
402,192,93588,1,0,0:0:0:0:
182,192,93663,1,0,0:0:0:0:
256,192,93738,1,0,0:0:0:0:
329,192,93813,1,0,0:0:0:0:
36,192,93888,128,2,94038:0:0:0:0:
109,192,93888,128,0,94038:0:0:0:70:LR_Drum Click.wav
402,192,93888,128,0,94038:0:0:0:0:
475,192,93888,128,0,94038:0:0:0:0:
182,192,93963,1,0,0:0:0:0:
329,192,94038,1,0,0:0:0:0:
256,192,94113,1,0,0:0:0:0:
109,192,94188,1,2,0:0:0:0:
402,192,94188,1,0,0:0:0:0:
475,192,94188,1,0,0:0:0:0:
182,192,94263,1,0,0:0:0:0:
36,192,94338,1,2,0:0:0:0:
475,192,94338,1,0,0:0:0:0:
329,192,94413,1,0,0:0:0:0:
36,192,94488,1,2,0:0:0:0:
182,192,94488,1,0,0:0:0:0:
402,192,94488,1,0,0:0:0:0:
329,192,94563,1,0,0:0:0:0:
256,192,94638,1,0,0:0:0:0:
182,192,94713,1,0,0:0:0:0:
36,192,94788,128,2,94938:0:0:0:0:
109,192,94788,128,0,94938:0:0:0:70:LR_Drum Click.wav
329,192,94788,128,0,94938:0:0:0:0:
475,192,94788,128,0,94938:0:0:0:0:
36,192,95088,1,2,0:0:0:0:
182,192,95088,1,0,0:0:0:0:
475,192,95088,1,0,0:0:0:0:
329,192,95163,1,0,0:0:0:0:
182,192,95238,1,2,0:0:0:0:
402,192,95238,1,0,0:0:0:0:
256,192,95313,1,0,0:0:0:0:
109,192,95388,1,2,0:0:0:0:
402,192,95388,1,0,0:0:0:0:
475,192,95388,1,0,0:0:0:0:
329,192,95463,1,0,0:0:0:0:
256,192,95538,1,0,0:0:0:0:
182,192,95613,1,0,0:0:0:0:
36,192,95688,128,2,95838:0:0:0:0:
109,192,95688,128,0,95838:0:0:0:70:LR_Drum Click.wav
329,192,95688,128,0,95838:0:0:0:0:
475,192,95688,128,0,95838:0:0:0:0:
36,192,95988,1,2,0:0:0:0:
182,192,95988,1,0,0:0:0:0:
475,192,95988,1,0,0:0:0:0:
402,192,96088,1,0,0:0:0:0:
329,192,96188,1,0,0:0:0:0:
36,192,96288,1,2,0:0:0:0:
182,192,96288,1,0,0:0:0:0:
402,192,96288,1,0,0:0:0:0:
329,192,96363,1,0,0:0:0:0:
256,192,96438,1,0,0:0:0:0:
182,192,96513,1,0,0:0:0:0:
36,192,96588,128,0,98838:0:0:0:0:
109,192,96588,128,0,98838:0:0:0:0:
329,192,96588,128,0,98838:0:0:0:0:
402,192,96588,128,0,98838:0:0:0:0:
475,192,96588,128,0,98838:0:0:0:0:
256,192,98838,128,0,100188:0:0:0:0:
109,192,99888,128,0,100038:0:0:0:0:
109,192,100188,128,0,100788:0:0:0:70:winds.wav
402,192,100188,1,0,0:0:0:0:
475,192,100188,1,0,0:0:0:0:
36,192,100788,128,0,101088:0:0:0:0:
402,192,100788,1,0,0:0:0:0:
475,192,100788,1,0,0:0:0:0:
182,192,101088,128,0,101388:0:0:0:0:
329,192,101088,1,0,0:0:0:0:
109,192,101388,128,0,101688:0:0:0:0:
329,192,101388,1,0,0:0:0:0:
402,192,101388,1,0,0:0:0:0:
36,192,101688,128,0,101988:0:0:0:0:
256,192,101688,1,0,0:0:0:0:
182,192,101988,128,0,102138:0:0:0:0:
329,192,101988,1,0,0:0:0:0:
475,192,101988,1,0,0:0:0:0:
109,192,102138,128,0,102288:0:0:0:0:
256,192,102438,128,0,103038:0:0:0:0:
36,192,102588,1,0,0:0:0:0:
109,192,102588,1,0,0:0:0:0:
182,192,103038,128,0,103188:0:0:0:0:
36,192,103188,1,0,0:0:0:0:
109,192,103188,1,0,0:0:0:0:
329,192,103188,128,0,103488:0:0:0:0:
182,192,103488,1,0,0:0:0:0:
475,192,103488,128,0,103638:0:0:0:0:
402,192,103638,128,0,104688:0:0:0:0:
36,192,103788,1,0,0:0:0:0:
182,192,103788,1,0,0:0:0:0:
36,192,104238,1,0,0:0:0:0:
36,192,104388,1,0,0:0:0:0:
182,192,104388,1,0,0:0:0:0:
256,192,104538,1,0,0:0:0:0:
329,192,104688,1,0,0:0:0:0:
475,192,104688,1,0,0:0:0:0:
109,192,104988,1,0,0:0:0:0:
182,192,104988,1,0,0:0:0:0:
475,192,104988,128,0,105438:0:0:0:0:
182,192,105438,128,0,105888:0:0:0:0:
329,192,105588,1,0,0:0:0:0:
402,192,105588,1,0,0:0:0:0:
36,192,105888,1,0,0:0:0:0:
256,192,105888,128,0,106188:0:0:0:0:
36,192,106188,1,0,0:0:0:0:
109,192,106188,1,0,0:0:0:0:
402,192,106188,128,0,106488:0:0:0:0:
182,192,106248,1,0,0:0:0:0:
475,192,106488,128,0,106563:0:0:0:0:
475,192,106638,128,0,106938:0:0:0:0:
36,192,106788,1,0,0:0:0:0:
182,192,106788,1,0,0:0:0:0:
402,192,106848,1,0,0:0:0:0:
256,192,106938,128,0,107088:0:0:0:0:
109,192,107088,1,0,0:0:0:0:
182,192,107088,1,0,0:0:0:0:
329,192,107088,128,0,107388:0:0:0:0:
36,192,107388,1,0,0:0:0:0:
109,192,107388,1,0,0:0:0:0:
475,192,107388,128,0,107988:0:0:0:0:
36,192,107988,1,0,0:0:0:0:
109,192,107988,1,0,0:0:0:0:
256,192,108048,1,0,0:0:0:0:
402,192,108138,128,0,108288:0:0:0:0:
182,192,108288,1,0,0:0:0:0:
329,192,108288,128,0,108438:0:0:0:0:
256,192,108438,128,0,109788:0:0:0:0:
109,192,108588,1,0,0:0:0:0:
402,192,108588,1,0,0:0:0:0:
475,192,108888,1,0,0:0:0:0:
182,192,109188,1,0,0:0:0:0:
475,192,109288,1,0,0:0:0:0:
402,192,109388,1,0,0:0:0:0:
109,192,109488,128,0,109788:0:0:0:0:
329,192,109488,1,0,0:0:0:0:
36,192,109788,1,2,0:0:0:0:
182,192,109788,128,4,110388:0:0:0:0:
402,192,109788,1,0,0:0:0:70:winds.wav
475,192,109788,1,0,0:0:0:0:
329,192,109938,1,0,0:0:0:0:
109,192,110088,1,0,0:0:0:0:
475,192,110088,1,0,0:0:0:0:
402,192,110238,1,0,0:0:0:0:
329,192,110313,1,0,0:0:0:0:
36,192,110388,1,0,0:0:0:0:
475,192,110388,1,0,0:0:0:0:
109,192,110538,128,0,110688:0:0:0:0:
256,192,110688,1,0,0:0:0:0:
402,192,110688,128,0,110838:0:0:0:0:
329,192,110838,128,0,110988:0:0:0:0:
182,192,110913,1,0,0:0:0:0:
36,192,110988,1,0,0:0:0:0:
475,192,110988,128,0,111438:0:0:0:0:
109,192,111138,1,0,0:0:0:0:
256,192,111288,1,0,0:0:0:0:
182,192,111438,128,0,111738:0:0:0:0:
329,192,111513,1,0,0:0:0:0:
402,192,111588,1,0,0:0:0:0:
475,192,111588,1,0,0:0:0:0:
36,192,111738,128,0,111888:0:0:0:0:
182,192,111888,128,0,112038:0:0:0:0:
329,192,111888,1,0,0:0:0:0:
475,192,112038,1,0,0:0:0:0:
109,192,112188,1,0,0:0:0:0:
256,192,112188,128,0,112638:0:0:0:0:
402,192,112338,1,0,0:0:0:0:
36,192,112488,1,0,0:0:0:0:
182,192,112563,1,0,0:0:0:0:
109,192,112638,1,0,0:0:0:0:
329,192,112638,128,0,112788:0:0:0:0:
475,192,112788,1,0,0:0:0:0:
182,192,112938,128,0,113088:0:0:0:0:
329,192,113088,1,0,0:0:0:0:
475,192,113238,128,0,113988:0:0:0:0:
109,192,113388,1,0,0:0:0:0:
256,192,113388,1,0,0:0:0:0:
402,192,113538,1,0,0:0:0:0:
36,192,113688,1,0,0:0:0:0:
182,192,113688,1,0,0:0:0:0:
329,192,113838,1,0,0:0:0:0:
109,192,113988,1,0,0:0:0:0:
256,192,113988,1,0,0:0:0:0:
36,192,114138,128,0,114288:0:0:0:0:
182,192,114288,128,0,114438:0:0:0:0:
402,192,114363,1,0,0:0:0:0:
329,192,114438,128,0,114588:0:0:0:0:
36,192,114588,1,0,0:0:0:0:
475,192,114588,128,0,115713:0:0:0:0:
182,192,114738,1,0,0:0:0:0:
329,192,114888,1,0,0:0:0:0:
402,192,114888,1,0,0:0:0:0:
109,192,115038,1,0,0:0:0:0:
256,192,115188,1,0,0:0:0:0:
402,192,115188,1,0,0:0:0:0:
36,192,115338,1,0,0:0:0:0:
329,192,115488,1,0,0:0:0:0:
109,192,115563,1,0,0:0:0:0:
182,192,115638,1,0,0:0:0:0:
256,192,115788,1,0,0:0:0:0:
475,192,115788,128,0,116388:0:0:0:0:
36,192,115938,1,0,0:0:0:0:
182,192,116088,1,0,0:0:0:0:
329,192,116088,1,0,0:0:0:0:
109,192,116238,1,0,0:0:0:0:
256,192,116388,128,0,116688:0:0:0:0:
329,192,116388,1,0,0:0:0:0:
36,192,116538,1,0,0:0:0:0:
182,192,116688,1,0,0:0:0:0:
475,192,116688,128,0,116763:0:0:0:0:
475,192,116838,128,0,118113:0:0:0:0:
36,192,116988,128,0,118113:0:0:0:0:
109,192,116988,1,0,0:0:0:0:
402,192,117438,1,0,0:0:0:0:
256,192,117513,1,0,0:0:0:0:
109,192,117588,128,0,118113:0:0:0:0:
329,192,117888,128,0,118113:0:0:0:0:
182,192,118188,1,0,0:0:0:0:
36,192,118225,1,0,0:0:0:0:
402,192,118300,1,0,0:0:0:0:
256,192,118338,1,0,0:0:0:0:
109,192,118488,1,2,0:0:0:0:
329,192,118488,1,0,0:0:0:0:
475,192,118488,1,0,0:0:0:0:
182,192,118563,1,0,0:0:0:0:
36,192,118638,1,0,0:0:0:70:LR_Snare Drum.wav
256,192,118638,1,0,0:0:0:0:
402,192,118638,1,0,0:0:0:0:
182,192,118713,1,0,0:0:0:0:
109,192,118788,128,0,118838:0:0:0:0:
256,192,118838,128,0,118888:0:0:0:0:
402,192,118888,128,0,118938:0:0:0:0:
36,192,118938,128,0,118988:0:0:0:0:
182,192,118988,128,0,119038:0:0:0:0:
329,192,119038,128,0,119088:0:0:0:0:
36,192,119088,1,0,0:0:0:70:LR_Drum Click.wav
475,192,119088,1,0,0:0:0:0:
182,192,119163,1,0,0:0:0:0:
109,192,119238,128,0,119313:0:0:0:70:LR_Snare Drum.wav
256,192,119238,128,0,119313:0:0:0:0:
402,192,119238,128,0,119313:0:0:0:0:
36,192,119388,1,2,0:0:0:0:
329,192,119388,1,4,0:0:0:0:
475,192,119388,1,0,0:0:0:0:
109,192,119463,1,0,0:0:0:0:
182,192,119463,128,0,119613:0:0:0:0:
402,192,119538,1,0,0:0:0:0:
256,192,119613,1,0,0:0:0:0:
36,192,119688,1,0,0:0:0:70:LR_Drum Click.wav
329,192,119688,1,0,0:0:0:0:
182,192,119763,1,0,0:0:0:0:
402,192,119838,128,0,120138:0:0:0:0:
109,192,119838,1,0,0:0:0:0:
256,192,119913,1,0,0:0:0:0:
36,192,119988,1,0,0:0:0:0:
182,192,120063,1,0,0:0:0:0:
109,192,120138,1,2,0:0:0:0:
329,192,120138,1,0,0:0:0:0:
256,192,120213,1,0,0:0:0:0:
36,192,120288,1,0,0:0:0:70:LR_Drum Click.wav
182,192,120288,1,0,0:0:0:0:
475,192,120288,128,0,120513:0:0:0:0:
329,192,120363,1,0,0:0:0:0:
109,192,120438,1,0,0:0:0:0:
182,192,120513,1,0,0:0:0:0:
36,192,120588,1,2,0:0:0:0:
402,192,120588,1,0,0:0:0:0:
475,192,120588,1,0,0:0:0:0:
256,192,120663,128,0,121188:0:0:0:0:
329,192,120663,1,0,0:0:0:0:
109,192,120738,1,0,0:0:0:0:
402,192,120813,1,0,0:0:0:0:
182,192,120888,1,0,0:0:0:70:LR_Drum Click.wav
329,192,120888,1,0,0:0:0:0:
475,192,120963,1,0,0:0:0:0:
402,192,121038,1,0,0:0:0:0:
182,192,121113,1,0,0:0:0:0:
36,192,121188,1,0,0:0:0:0:
109,192,121263,1,0,0:0:0:0:
256,192,121338,1,2,0:0:0:0:
402,192,121338,128,0,121413:0:0:0:0:
36,192,121413,1,0,0:0:0:0:
182,192,121488,1,0,0:0:0:70:LR_Drum Click.wav
329,192,121488,1,0,0:0:0:0:
402,192,121488,128,0,121563:0:0:0:0:
109,192,121563,1,0,0:0:0:0:
256,192,121638,1,0,0:0:0:0:
475,192,121638,128,0,121713:0:0:0:0:
182,192,121713,1,0,0:0:0:0:
36,192,121788,1,2,0:0:0:0:
329,192,121788,1,0,0:0:0:0:
475,192,121788,1,0,0:0:0:0:
109,192,121863,128,0,122013:0:0:0:0:
256,192,121863,1,0,0:0:0:0:
402,192,121938,1,0,0:0:0:0:
329,192,122013,1,0,0:0:0:0:
36,192,122088,1,0,0:0:0:70:LR_Drum Click.wav
256,192,122088,128,0,122238:0:0:0:0:
475,192,122088,1,0,0:0:0:0:
402,192,122163,1,0,0:0:0:0:
109,192,122238,1,0,0:0:0:0:
256,192,122313,1,0,0:0:0:0:
36,192,122388,1,0,0:0:0:0:
329,192,122388,128,0,122463:0:0:0:0:
475,192,122388,1,0,0:0:0:0:
182,192,122463,1,0,0:0:0:0:
109,192,122538,128,2,122613:0:0:0:0:
402,192,122538,1,0,0:0:0:0:
256,192,122613,1,0,0:0:0:0:
402,192,122688,1,0,0:0:0:70:LR_Drum Click.wav
475,192,122688,1,0,0:0:0:0:
329,192,122763,1,0,0:0:0:0:
36,192,122838,1,0,0:0:0:0:
182,192,122838,1,0,0:0:0:0:
256,192,122913,1,0,0:0:0:0:
475,192,122913,128,0,123438:0:0:0:0:
109,192,122988,1,2,0:0:0:0:
329,192,122988,1,0,0:0:0:0:
182,192,123063,1,0,0:0:0:0:
402,192,123138,1,0,0:0:0:0:
256,192,123188,1,0,0:0:0:0:
109,192,123238,1,0,0:0:0:0:
36,192,123288,1,0,0:0:0:70:LR_Drum Click.wav
182,192,123338,1,0,0:0:0:0:
329,192,123388,1,0,0:0:0:0:
109,192,123438,1,0,0:0:0:0:
256,192,123488,1,0,0:0:0:0:
402,192,123538,1,0,0:0:0:0:
36,192,123588,128,2,123663:0:0:0:0:
182,192,123588,128,0,123663:0:0:0:70:cymbal_short.wav
329,192,123588,128,0,123663:0:0:0:0:
475,192,123588,128,0,123663:0:0:0:0:
109,192,123738,128,2,123813:0:0:0:0:
256,192,123738,128,0,123813:0:0:0:70:cymbal_short.wav
402,192,123738,128,0,123813:0:0:0:0:
475,192,123738,128,0,123813:0:0:0:0:
36,192,124038,128,2,124413:0:0:0:0:
109,192,124038,128,0,124413:0:0:0:70:cymbal_short.wav
256,192,124038,128,0,124413:0:0:0:0:
475,192,124038,128,0,124413:0:0:0:0:
109,192,124488,1,2,0:0:0:0:
256,192,124488,1,4,0:0:0:0:
475,192,124488,1,8,0:0:0:0:
36,192,124488,1,0,0:0:0:0:
402,192,124563,1,0,0:0:0:0:
182,192,124638,1,0,0:0:0:0:
329,192,124638,1,0,0:0:0:0:
182,192,124713,128,0,124788:0:0:0:0:
329,192,124713,128,0,124788:0:0:0:0:
36,192,124788,128,2,124938:0:0:0:0:
109,192,124788,128,0,124938:0:0:0:0:
402,192,124788,1,0,0:0:0:0:
475,192,124788,1,0,0:0:0:0:
256,192,124863,1,0,0:0:0:0:
182,192,124938,128,0,125013:0:0:0:0:
402,192,124938,128,0,125013:0:0:0:0:
329,192,125013,1,0,0:0:0:0:
36,192,125088,1,2,0:0:0:0:
256,192,125088,1,8,0:0:0:0:
475,192,125088,1,0,0:0:0:70:cymbal_short.wav
109,192,125088,1,0,0:0:0:0:
36,192,125238,128,2,125613:0:0:0:0:
182,192,125238,128,0,125613:0:0:0:70:cymbal_short.wav
329,192,125238,128,0,125613:0:0:0:0:
475,192,125238,128,0,125613:0:0:0:0:
36,192,125688,1,8,0:0:0:0:
182,192,125688,1,2,0:0:0:0:
402,192,125688,1,0,0:0:0:0:
109,192,125688,1,0,0:0:0:0:
329,192,125763,1,0,0:0:0:0:
109,192,125838,128,2,125913:0:0:0:0:
182,192,125838,128,0,125913:0:0:0:0:
475,192,125838,1,0,0:0:0:0:
256,192,125913,128,0,125988:0:0:0:0:
329,192,125913,128,0,125988:0:0:0:0:
36,192,125988,128,2,126138:0:0:0:0:
109,192,125988,128,0,126138:0:0:0:0:
402,192,125988,1,0,0:0:0:0:
475,192,125988,1,0,0:0:0:0:
182,192,126063,1,2,0:0:0:0:
256,192,126063,1,0,0:0:0:0:
329,192,126138,1,2,0:0:0:0:
402,192,126138,128,0,126213:0:0:0:0:
475,192,126138,128,0,126213:0:0:0:0:
109,192,126288,1,8,0:0:0:0:
182,192,126288,1,2,0:0:0:0:
329,192,126288,1,0,0:0:0:70:cymbal_short.wav
402,192,126288,1,0,0:0:0:0:
36,192,126438,1,2,0:0:0:0:
109,192,126438,1,0,0:0:0:70:cymbal_short.wav
256,192,126438,1,0,0:0:0:0:
475,192,126438,1,0,0:0:0:0:
182,192,126513,128,0,126963:0:0:0:0:
329,192,126513,128,0,126888:0:0:0:0:
402,192,126588,1,0,0:0:0:0:
36,192,126663,1,0,0:0:0:0:
256,192,126738,1,0,0:0:0:0:
109,192,126813,1,0,0:0:0:0:
402,192,126888,1,6,0:0:0:0:
475,192,126888,1,8,0:0:0:0:
329,192,126963,128,0,127188:0:0:0:0:
182,192,127038,128,0,127263:0:0:0:0:
36,192,127113,1,0,0:0:0:0:
402,192,127188,1,2,0:0:0:0:
475,192,127188,1,0,0:0:0:0:
329,192,127263,128,0,127338:0:0:0:0:
182,192,127338,128,0,127413:0:0:0:0:
329,192,127413,128,0,127488:0:0:0:0:
109,192,127488,1,2,0:0:0:0:
182,192,127488,128,8,127563:0:0:0:0:
36,192,127488,1,0,0:0:0:0:
329,192,127563,128,0,127638:0:0:0:0:
182,192,127638,128,0,127713:0:0:0:0:
329,192,127713,128,0,127788:0:0:0:0:
36,192,127788,1,2,0:0:0:0:
182,192,127788,128,0,127838:0:0:0:0:
329,192,127838,128,0,127888:0:0:0:0:
475,192,127888,128,0,127938:0:0:0:0:
402,192,127938,128,0,127988:0:0:0:0:
256,192,127988,128,0,128038:0:0:0:0:
109,192,128038,128,0,128088:0:0:0:0:
36,192,128088,128,10,128138:0:0:0:0:
475,192,128088,1,0,0:0:0:0:
402,192,128088,1,0,0:0:0:0:
182,192,128138,128,0,128188:0:0:0:0:
329,192,128188,128,0,128238:0:0:0:0:
109,192,128238,1,0,0:0:0:0:
256,192,128313,1,0,0:0:0:0:
182,192,128388,1,2,0:0:0:0:
475,192,128388,1,0,0:0:0:0:
36,192,128388,1,0,0:0:0:0:
329,192,128463,1,0,0:0:0:0:
109,192,128538,1,0,0:0:0:0:
256,192,128613,1,0,0:0:0:0:
36,192,128688,1,8,0:0:0:0:
402,192,128688,1,2,0:0:0:0:
182,192,128688,1,0,0:0:0:0:
329,192,128763,1,0,0:0:0:0:
109,192,128838,1,2,0:0:0:0:
402,192,128838,1,0,0:0:0:0:
475,192,128838,1,0,0:0:0:0:
182,192,128913,1,0,0:0:0:0:
109,192,128988,1,2,0:0:0:0:
329,192,128988,1,8,0:0:0:0:
475,192,128988,1,0,0:0:0:70:cymbal_short.wav
36,192,128988,1,0,0:0:0:0:
256,192,129063,1,0,0:0:0:0:
36,192,129138,1,2,0:0:0:0:
475,192,129138,1,0,0:0:0:0:
402,192,129138,1,0,0:0:0:0:
182,192,129213,1,0,0:0:0:0:
402,192,129288,1,2,0:0:0:0:
109,192,129288,1,0,0:0:0:0:
329,192,129288,1,0,0:0:0:0:
256,192,129363,1,0,0:0:0:0:
36,192,129438,1,2,0:0:0:0:
329,192,129438,1,0,0:0:0:0:
475,192,129438,1,0,0:0:0:0:
182,192,129513,1,0,0:0:0:0:
109,192,129588,1,2,0:0:0:0:
402,192,129588,1,8,0:0:0:0:
36,192,129588,1,0,0:0:0:70:cymbal_short.wav
475,192,129588,1,0,0:0:0:0:
329,192,129663,1,0,0:0:0:0:
109,192,129738,1,2,0:0:0:0:
182,192,129738,1,0,0:0:0:0:
402,192,129738,1,0,0:0:0:0:
256,192,129813,1,0,0:0:0:0:
182,192,129888,1,2,0:0:0:0:
475,192,129888,1,0,0:0:0:0:
36,192,129888,1,0,0:0:0:0:
329,192,129963,1,0,0:0:0:0:
36,192,130038,1,2,0:0:0:0:
109,192,130038,1,0,0:0:0:0:
402,192,130038,1,0,0:0:0:0:
182,192,130113,1,2,0:0:0:0:
256,192,130113,1,0,0:0:0:0:
36,192,130188,1,2,0:0:0:0:
329,192,130188,1,0,0:0:0:70:cymbal_short.wav
475,192,130188,1,0,0:0:0:0:
402,192,130188,1,0,0:0:0:0:
109,192,130263,1,2,0:0:0:0:
182,192,130263,1,0,0:0:0:0:
36,192,130338,1,2,0:0:0:0:
402,192,130338,1,0,0:0:0:0:
475,192,130338,1,0,0:0:0:0:
256,192,130413,1,2,0:0:0:0:
329,192,130413,1,0,0:0:0:0:
109,192,130488,1,2,0:0:0:0:
402,192,130488,1,0,0:0:0:70:cymbal_short.wav
475,192,130488,1,0,0:0:0:0:
36,192,130488,1,0,0:0:0:0:
182,192,130563,1,2,0:0:0:0:
256,192,130563,1,0,0:0:0:0:
36,192,130638,1,2,0:0:0:0:
329,192,130638,1,0,0:0:0:0:
402,192,130638,1,0,0:0:0:0:
109,192,130713,1,2,0:0:0:0:
182,192,130713,1,0,0:0:0:0:
256,192,130788,1,2,0:0:0:0:
475,192,130788,1,4,0:0:0:0:
402,192,130825,1,2,0:0:0:0:
182,192,130863,1,2,0:0:0:0:
329,192,130863,1,0,0:0:0:0:
109,192,130900,1,2,0:0:0:0:
36,192,130938,1,2,0:0:0:0:
256,192,130938,1,0,0:0:0:0:
329,192,130975,1,2,0:0:0:0:
182,192,131013,1,2,0:0:0:0:
402,192,131013,1,0,0:0:0:0:
475,192,131050,1,2,0:0:0:0:
36,192,131088,1,2,0:0:0:0:
256,192,131088,1,4,0:0:0:0:
109,192,131125,1,2,0:0:0:0:
182,192,131163,1,2,0:0:0:0:
329,192,131163,1,0,0:0:0:0:
402,192,131200,1,2,0:0:0:0:
256,192,131238,1,2,0:0:0:0:
475,192,131238,1,0,0:0:0:0:
182,192,131275,1,2,0:0:0:0:
109,192,131313,1,2,0:0:0:0:
329,192,131313,1,0,0:0:0:0:
36,192,131350,1,2,0:0:0:0:
256,192,131388,1,2,0:0:0:0:
402,192,131388,1,4,0:0:0:0:
475,192,131388,1,0,0:0:0:70:winds.wav
182,192,131538,1,0,0:0:0:0:
329,192,131538,1,0,0:0:0:0:
109,192,131688,1,0,0:0:0:100:softbell.wav
256,192,131688,1,0,0:0:0:0:
402,192,131725,1,0,0:0:0:0:
36,192,131838,1,0,0:0:0:0:
182,192,131838,1,0,0:0:0:0:
329,192,131875,1,0,0:0:0:0:
475,192,131913,1,0,0:0:0:0:
256,192,131988,1,0,0:0:0:0:
402,192,131988,1,0,0:0:0:0:
182,192,132025,1,0,0:0:0:0:
109,192,132063,1,0,0:0:0:0:
36,192,132100,1,0,0:0:0:0:
329,192,132138,1,0,0:0:0:0:
475,192,132138,1,0,0:0:0:0:
182,192,132175,1,0,0:0:0:0:
109,192,132288,1,0,0:0:0:70:psy.wav
402,192,132288,1,0,0:0:0:0:
256,192,132325,1,0,0:0:0:0:
36,192,132588,1,2,0:0:0:0:
256,192,132588,1,4,0:0:0:0:
402,192,132588,1,0,0:0:0:0:
475,192,132588,1,0,0:0:0:0:
182,192,132663,1,0,0:0:0:0:
109,192,132738,1,0,0:0:0:0:
402,192,132738,1,0,0:0:0:0:
256,192,132813,1,0,0:0:0:0:
36,192,132888,1,2,0:0:0:0:
329,192,132888,1,8,0:0:0:0:
475,192,132888,1,0,0:0:0:0:
182,192,132963,1,0,0:0:0:0:
109,192,133038,1,0,0:0:0:0:
329,192,133038,1,0,0:0:0:0:
402,192,133038,1,0,0:0:0:0:
329,192,133113,1,0,0:0:0:0:
402,192,133113,1,0,0:0:0:0:
36,192,133188,1,2,0:0:0:0:
182,192,133188,1,0,0:0:0:0:
475,192,133188,1,0,0:0:0:0:
256,192,133263,1,0,0:0:0:0:
109,192,133338,1,0,0:0:0:0:
182,192,133338,1,0,0:0:0:0:
402,192,133338,1,0,0:0:0:0:
329,192,133413,1,0,0:0:0:0:
36,192,133488,1,8,0:0:0:0:
402,192,133488,1,2,0:0:0:0:
475,192,133488,1,0,0:0:0:0:
182,192,133563,1,0,0:0:0:0:
256,192,133563,1,0,0:0:0:0:
36,192,133638,1,0,0:0:0:0:
109,192,133638,1,0,0:0:0:0:
475,192,133638,1,0,0:0:0:0:
329,192,133713,1,0,0:0:0:0:
109,192,133788,1,2,0:0:0:0:
182,192,133788,1,0,0:0:0:0:
402,192,133788,1,0,0:0:0:0:
256,192,133863,1,0,0:0:0:0:
36,192,133938,1,0,0:0:0:0:
329,192,133938,1,0,0:0:0:0:
182,192,134013,1,0,0:0:0:0:
109,192,134013,1,0,0:0:0:0:
36,192,134088,1,2,0:0:0:0:
402,192,134088,1,8,0:0:0:0:
475,192,134088,1,0,0:0:0:0:
329,192,134163,1,0,0:0:0:0:
109,192,134238,1,0,0:0:0:0:
402,192,134238,1,0,0:0:0:0:
182,192,134313,1,0,0:0:0:0:
256,192,134313,1,0,0:0:0:0:
36,192,134388,1,2,0:0:0:0:
329,192,134388,1,0,0:0:0:0:
475,192,134388,1,0,0:0:0:0:
182,192,134463,1,0,0:0:0:0:
36,192,134538,1,0,0:0:0:0:
329,192,134538,1,0,0:0:0:0:
402,192,134538,1,0,0:0:0:0:
109,192,134613,1,0,0:0:0:0:
256,192,134613,1,0,0:0:0:0:
36,192,134688,1,8,0:0:0:0:
402,192,134688,1,2,0:0:0:0:
475,192,134688,1,0,0:0:0:70:cymbal_short.wav
256,192,134763,1,0,0:0:0:0:
329,192,134763,1,0,0:0:0:0:
36,192,134838,128,2,135213:0:0:0:0:
182,192,134838,128,0,135213:0:0:0:70:cymbal_short.wav
402,192,134838,128,0,135213:0:0:0:0:
475,192,134838,128,0,135213:0:0:0:0:
36,192,135288,1,2,0:0:0:0:
109,192,135288,1,8,0:0:0:0:
256,192,135288,1,4,0:0:0:0:
475,192,135288,1,0,0:0:0:0:
329,192,135363,1,0,0:0:0:0:
109,192,135438,1,0,0:0:0:0:
182,192,135438,1,0,0:0:0:0:
475,192,135438,1,0,0:0:0:0:
256,192,135513,1,0,0:0:0:0:
329,192,135513,1,0,0:0:0:0:
36,192,135588,1,2,0:0:0:0:
182,192,135588,1,0,0:0:0:0:
402,192,135588,1,0,0:0:0:0:
256,192,135663,1,0,0:0:0:0:
36,192,135738,1,0,0:0:0:0:
329,192,135738,1,0,0:0:0:0:
475,192,135738,1,0,0:0:0:0:
109,192,135813,1,0,0:0:0:0:
182,192,135813,1,0,0:0:0:0:
256,192,135888,1,8,0:0:0:0:
402,192,135888,1,2,0:0:0:0:
475,192,135888,1,0,0:0:0:0:
182,192,135963,1,0,0:0:0:0:
36,192,136038,1,0,0:0:0:0:
109,192,136038,1,0,0:0:0:0:
329,192,136038,1,0,0:0:0:0:
182,192,136113,1,0,0:0:0:0:
256,192,136113,1,0,0:0:0:0:
36,192,136188,1,2,0:0:0:0:
402,192,136188,1,0,0:0:0:0:
475,192,136188,1,0,0:0:0:0:
329,192,136263,1,0,0:0:0:0:
109,192,136338,1,0,0:0:0:0:
182,192,136338,1,0,0:0:0:0:
256,192,136338,1,0,0:0:0:0:
329,192,136413,1,0,0:0:0:0:
402,192,136413,1,0,0:0:0:0:
36,192,136488,1,2,0:0:0:0:
182,192,136488,1,8,0:0:0:0:
475,192,136488,1,0,0:0:0:0:
256,192,136563,1,0,0:0:0:0:
109,192,136638,1,0,0:0:0:0:
329,192,136638,1,0,0:0:0:0:
402,192,136638,1,0,0:0:0:0:
182,192,136713,1,0,0:0:0:0:
256,192,136713,1,0,0:0:0:0:
36,192,136788,1,2,0:0:0:0:
402,192,136788,1,0,0:0:0:70:cymbal_short.wav
475,192,136788,1,0,0:0:0:0:
329,192,136863,1,0,0:0:0:0:
36,192,136938,1,2,0:0:0:0:
109,192,136938,1,0,0:0:0:70:cymbal_short.wav
256,192,136938,1,0,0:0:0:0:
475,192,136938,1,0,0:0:0:0:
36,192,137238,1,2,0:0:0:0:
182,192,137238,128,0,137613:0:0:0:70:cymbal_short.wav
329,192,137238,128,0,137613:0:0:0:0:
475,192,137238,1,0,0:0:0:0:
36,192,137388,128,2,137613:0:0:0:0:
109,192,137388,1,0,0:0:0:0:
402,192,137388,1,0,0:0:0:0:
475,192,137388,128,0,137613:0:0:0:0:
36,192,137688,1,4,0:0:0:0:
256,192,137688,1,8,0:0:0:0:
402,192,137688,1,2,0:0:0:0:
475,192,137688,1,0,0:0:0:0:
109,192,137838,1,0,0:0:0:0:
182,192,137838,1,0,0:0:0:0:
329,192,137838,1,0,0:0:0:0:
109,192,137913,1,0,0:0:0:0:
182,192,137913,1,0,0:0:0:0:
36,192,137988,1,2,0:0:0:0:
402,192,137988,1,0,0:0:0:0:
475,192,137988,1,0,0:0:0:0:
256,192,138063,1,0,0:0:0:0:
329,192,138063,1,0,0:0:0:0:
36,192,138138,1,0,0:0:0:0:
109,192,138138,1,0,0:0:0:0:
475,192,138138,1,0,0:0:0:0:
36,192,138288,1,2,0:0:0:0:
182,192,138288,1,8,0:0:0:0:
329,192,138288,1,0,0:0:0:70:cymbal_short.wav
475,192,138288,1,0,0:0:0:0:
109,192,138438,128,2,138813:0:0:0:0:
182,192,138438,128,0,138813:0:0:0:70:cymbal_short.wav
329,192,138438,128,0,138813:0:0:0:0:
402,192,138438,128,0,138813:0:0:0:0:
36,192,138888,1,8,0:0:0:0:
182,192,138888,1,2,0:0:0:0:
256,192,138888,1,0,0:0:0:0:
475,192,138888,1,0,0:0:0:0:
109,192,139038,1,0,0:0:0:0:
329,192,139038,1,0,0:0:0:0:
402,192,139038,1,0,0:0:0:0:
329,192,139113,1,0,0:0:0:0:
402,192,139113,1,0,0:0:0:0:
36,192,139188,1,2,0:0:0:0:
182,192,139188,1,0,0:0:0:0:
475,192,139188,1,0,0:0:0:0:
256,192,139263,1,0,0:0:0:0:
329,192,139263,1,0,0:0:0:0:
36,192,139338,1,2,0:0:0:0:
109,192,139338,1,0,0:0:0:0:
402,192,139338,1,0,0:0:0:0:
182,192,139413,1,0,0:0:0:0:
256,192,139413,1,0,0:0:0:0:
109,192,139488,1,2,0:0:0:0:
329,192,139488,1,8,0:0:0:0:
475,192,139488,1,0,0:0:0:0:
256,192,139638,1,2,0:0:0:0:
402,192,139638,1,0,0:0:0:0:
36,192,139638,1,0,0:0:0:0:
182,192,139713,1,2,0:0:0:0:
36,192,139788,1,2,0:0:0:0:
329,192,139788,128,0,139863:0:0:0:0:
475,192,139788,1,0,0:0:0:0:
182,192,139863,128,0,139938:0:0:0:0:
256,192,139863,1,0,0:0:0:0:
329,192,139938,128,0,140013:0:0:0:0:
402,192,139938,1,0,0:0:0:0:
109,192,140013,1,0,0:0:0:0:
256,192,140013,128,0,140088:0:0:0:0:
36,192,140088,1,8,0:0:0:0:
402,192,140088,128,2,140163:0:0:0:0:
475,192,140088,1,0,0:0:0:0:
182,192,140163,128,0,140238:0:0:0:0:
329,192,140163,1,0,0:0:0:0:
109,192,140238,1,0,0:0:0:0:
256,192,140238,128,0,140313:0:0:0:0:
329,192,140313,128,0,140388:0:0:0:0:
402,192,140313,1,0,0:0:0:0:
36,192,140388,1,2,0:0:0:0:
182,192,140388,128,0,140463:0:0:0:0:
475,192,140388,1,0,0:0:0:0:
109,192,140463,128,0,140538:0:0:0:0:
329,192,140463,1,0,0:0:0:0:
256,192,140538,128,0,140613:0:0:0:0:
475,192,140538,1,0,0:0:0:0:
182,192,140613,128,0,140688:0:0:0:0:
402,192,140613,1,0,0:0:0:0:
36,192,140688,1,2,0:0:0:0:
329,192,140688,128,8,140763:0:0:0:0:
475,192,140688,1,0,0:0:0:0:
109,192,140763,128,0,140838:0:0:0:0:
256,192,140763,1,0,0:0:0:0:
182,192,140838,128,0,140913:0:0:0:0:
329,192,140838,1,0,0:0:0:0:
256,192,140913,128,0,140988:0:0:0:0:
402,192,140913,1,0,0:0:0:0:
475,192,140988,1,2,0:0:0:0:
109,192,140988,1,4,0:0:0:0:
36,192,140988,128,0,141138:0:0:0:0:
329,192,141038,1,0,0:0:0:0:
182,192,141088,1,0,0:0:0:0:
402,192,141138,1,0,0:0:0:0:
256,192,141188,1,0,0:0:0:0:
109,192,141238,1,0,0:0:0:0:
36,192,141288,1,8,0:0:0:0:
402,192,141288,1,2,0:0:0:0:
475,192,141288,1,4,0:0:0:0:
256,192,141325,1,2,0:0:0:0:
329,192,141325,1,0,0:0:0:0:
109,192,141363,1,2,0:0:0:0:
182,192,141363,1,0,0:0:0:0:
329,192,141438,1,2,0:0:0:0:
475,192,141438,1,0,0:0:0:0:
36,192,141513,1,2,0:0:0:0:
182,192,141513,1,0,0:0:0:0:
256,192,141588,128,2,141663:0:0:0:0:
402,192,141588,1,4,0:0:0:0:
475,192,141588,1,0,0:0:0:0:
329,192,141663,128,0,141738:0:0:0:0:
109,192,141738,1,2,0:0:0:0:
182,192,141738,128,0,142038:0:0:0:0:
402,192,141813,1,0,0:0:0:70:LR_Snare Drum 2.wav
475,192,141813,1,0,0:0:0:0:
36,192,141888,1,10,0:0:0:0:
256,192,141888,1,4,0:0:0:0:
329,192,141963,1,0,0:0:0:70:LR_Snare Drum 2.wav
402,192,141963,1,0,0:0:0:0:
109,192,142038,1,2,0:0:0:0:
475,192,142038,1,0,0:0:0:0:
182,192,142113,1,0,0:0:0:70:tom01.wav
256,192,142113,1,0,0:0:0:0:
36,192,142188,1,4,0:0:0:0:
109,192,142188,1,0,0:0:0:70:winds.wav
402,192,142188,1,0,0:0:0:0:
475,192,142188,1,0,0:0:0:0:
329,192,142263,1,0,0:0:0:0:
182,192,142338,1,0,0:0:0:0:
256,192,142413,1,0,0:0:0:0:
109,192,142488,1,0,0:0:0:0:
402,192,142563,1,0,0:0:0:0:
36,192,142638,128,0,142788:0:0:0:0:
182,192,142638,128,0,142788:0:0:0:0:
256,192,142713,1,0,0:0:0:0:
329,192,142788,128,0,142863:0:0:0:0:
475,192,142825,128,0,142863:0:0:0:0:
256,192,142938,128,0,143013:0:0:0:0:
402,192,142938,128,0,143013:0:0:0:0:
182,192,143088,128,0,143163:0:0:0:0:
329,192,143088,128,0,143163:0:0:0:0:
109,192,143238,128,0,143313:0:0:0:0:
256,192,143238,128,0,143313:0:0:0:0:
402,192,143313,1,0,0:0:0:0:
36,192,143388,128,0,143463:0:0:0:0:
182,192,143388,128,0,143463:0:0:0:0:
475,192,143388,1,0,0:0:0:0:
329,192,143425,1,0,0:0:0:0:
256,192,143463,1,0,0:0:0:0:
109,192,143538,1,0,0:0:0:0:
109,192,143613,1,0,0:0:0:0:
256,192,143688,128,0,143838:0:0:0:0:
475,192,143688,1,0,0:0:0:0:
109,192,143838,1,0,0:0:0:0:
182,192,143838,1,0,0:0:0:0:
402,192,143838,1,0,0:0:0:0:
402,192,143913,1,0,0:0:0:0:
36,192,143988,1,2,0:0:0:0:
109,192,143988,128,0,144063:0:0:0:70:cymbal_short.wav
256,192,143988,128,0,144063:0:0:0:0:
475,192,143988,1,0,0:0:0:0:
182,192,144063,128,0,144138:0:0:0:0:
329,192,144063,128,0,144138:0:0:0:0:
36,192,144138,128,2,144213:0:0:0:0:
256,192,144138,128,0,144213:0:0:0:70:cymbal_short.wav
402,192,144138,128,0,144213:0:0:0:0:
475,192,144138,128,0,144213:0:0:0:0:
36,192,144438,128,2,144813:0:0:0:0:
182,192,144438,128,0,144813:0:0:0:70:cymbal_short.wav
329,192,144438,128,0,144813:0:0:0:0:
475,192,144438,128,0,144813:0:0:0:0:
36,192,144888,1,4,0:0:0:0:
182,192,144888,1,2,0:0:0:0:
256,192,144888,1,8,0:0:0:0:
475,192,144888,1,0,0:0:0:0:
109,192,145038,1,0,0:0:0:0:
329,192,145038,1,0,0:0:0:0:
402,192,145038,1,0,0:0:0:0:
329,192,145113,1,0,0:0:0:0:
402,192,145113,1,0,0:0:0:0:
36,192,145188,128,2,145263:0:0:0:0:
182,192,145188,128,0,145263:0:0:0:0:
256,192,145188,128,0,145263:0:0:0:0:
475,192,145188,128,0,145263:0:0:0:0:
36,192,145338,1,0,0:0:0:0:
109,192,145338,1,0,0:0:0:0:
329,192,145338,1,0,0:0:0:0:
182,192,145413,1,0,0:0:0:0:
402,192,145413,1,0,0:0:0:0:
256,192,145488,128,2,145563:0:0:0:0:
329,192,145488,128,0,145563:0:0:0:0:
475,192,145488,128,0,145563:0:0:0:0:
36,192,145488,128,8,145563:0:0:0:0:
109,192,145638,1,0,0:0:0:0:
182,192,145638,1,0,0:0:0:0:
402,192,145638,1,0,0:0:0:0:
329,192,145713,1,0,0:0:0:0:
256,192,145713,1,0,0:0:0:0:
36,192,145788,128,2,145863:0:0:0:0:
182,192,145788,128,0,145863:0:0:0:0:
402,192,145788,128,0,145863:0:0:0:0:
475,192,145788,128,0,145863:0:0:0:0:
109,192,145938,1,0,0:0:0:0:
402,192,145938,1,0,0:0:0:0:
475,192,145938,1,0,0:0:0:0:
182,192,146013,1,0,0:0:0:0:
256,192,146013,1,0,0:0:0:0:
36,192,146088,128,2,146163:0:0:0:0:
109,192,146088,128,8,146163:0:0:0:0:
329,192,146088,128,0,146163:0:0:0:0:
475,192,146088,128,0,146163:0:0:0:0:
109,192,146238,1,0,0:0:0:0:
182,192,146238,1,0,0:0:0:0:
329,192,146238,1,0,0:0:0:0:
256,192,146313,1,0,0:0:0:0:
402,192,146313,1,0,0:0:0:0:
36,192,146388,1,2,0:0:0:0:
329,192,146388,1,0,0:0:0:70:cymbal_short.wav
475,192,146388,1,0,0:0:0:0:
182,192,146463,1,0,0:0:0:0:
109,192,146463,1,0,0:0:0:0:
36,192,146538,128,2,146613:0:0:0:0:
256,192,146538,128,0,146613:0:0:0:70:cymbal_short.wav
402,192,146538,128,0,146613:0:0:0:0:
475,192,146538,128,0,146613:0:0:0:0:
109,192,146688,1,8,0:0:0:0:
329,192,146688,1,2,0:0:0:0:
475,192,146688,1,0,0:0:0:0:
182,192,146763,1,0,0:0:0:0:
36,192,146838,1,2,0:0:0:0:
256,192,146838,1,0,0:0:0:0:
475,192,146838,1,0,0:0:0:0:
109,192,146913,1,2,0:0:0:0:
329,192,146913,1,0,0:0:0:0:
402,192,146913,1,0,0:0:0:0:
36,192,146988,128,2,147063:0:0:0:0:
256,192,146988,128,0,147063:0:0:0:70:cymbal_short.wav
182,192,146988,128,0,147063:0:0:0:0:
475,192,146988,128,0,147063:0:0:0:0:
109,192,147138,1,0,0:0:0:0:
329,192,147138,1,0,0:0:0:0:
182,192,147138,1,0,0:0:0:0:
182,192,147213,1,0,0:0:0:0:
109,192,147213,1,0,0:0:0:0:
36,192,147288,128,0,147363:0:0:0:0:
256,192,147288,128,0,147363:0:0:0:0:
475,192,147288,128,0,147363:0:0:0:0:
36,192,147438,128,2,147513:0:0:0:0:
182,192,147438,128,0,147513:0:0:0:70:cymbal_short.wav
402,192,147438,128,0,147513:0:0:0:0:
475,192,147438,128,0,147513:0:0:0:0:
109,192,147588,1,0,0:0:0:0:
182,192,147588,1,0,0:0:0:0:
329,192,147588,1,0,0:0:0:0:
256,192,147663,1,0,0:0:0:0:
402,192,147663,1,0,0:0:0:0:
36,192,147738,128,0,147813:0:0:0:0:
329,192,147738,128,0,147813:0:0:0:0:
475,192,147738,128,0,147813:0:0:0:0:
36,192,147888,128,8,148488:0:0:0:0:
182,192,147888,128,2,148488:0:0:0:0:
256,192,147888,128,4,148488:0:0:0:0:
475,192,147888,128,0,148488:0:0:0:70:winds.wav
329,192,148488,1,0,0:0:0:0:
109,192,148563,1,0,0:0:0:0:
329,192,148638,1,0,0:0:0:0:
402,192,148638,1,0,0:0:0:0:
475,192,148638,1,0,0:0:0:0:
36,192,148713,1,0,0:0:0:0:
109,192,148713,1,0,0:0:0:0:
182,192,148713,1,0,0:0:0:0:
256,192,148788,1,0,0:0:0:70:LR_Snare Drum 3.wav
402,192,148788,1,0,0:0:0:0:
475,192,148788,1,0,0:0:0:0:
36,192,148863,1,0,0:0:0:70:LR_Snare Drum 3.wav
109,192,148863,1,0,0:0:0:0:
329,192,148938,1,0,0:0:0:70:LR_Snare Drum 3.wav
402,192,148938,1,0,0:0:0:0:
36,192,149013,1,0,0:0:0:70:LR_Snare Drum 3.wav
182,192,149013,1,0,0:0:0:0:
475,192,149013,1,0,0:0:0:0:
256,192,149088,1,0,0:0:0:70:LR_Snare Drum 3.wav
329,192,149088,1,0,0:0:0:0:
402,192,149163,1,0,0:0:0:70:LR_Snare Drum 3.wav
475,192,149163,1,0,0:0:0:0:
36,192,149238,1,0,0:0:0:70:LR_Snare Drum.wav
109,192,149238,1,0,0:0:0:0:
256,192,149238,1,0,0:0:0:0:
182,192,149313,1,0,0:0:0:70:LR_Snare Drum.wav
329,192,149313,1,0,0:0:0:0:
402,192,149313,1,0,0:0:0:0:
36,192,149388,128,2,149463:0:0:0:0:
109,192,149388,128,4,149463:0:0:0:0:
256,192,149388,128,0,149463:0:0:0:0:
475,192,149388,128,0,149463:0:0:0:0:
182,192,149538,1,0,0:0:0:0:
329,192,149538,1,0,0:0:0:0:
402,192,149613,1,0,0:0:0:0:
475,192,149613,1,0,0:0:0:0:
36,192,149688,1,2,0:0:0:0:
109,192,149688,1,8,0:0:0:0:
256,192,149688,1,0,0:0:0:0:
329,192,149763,1,0,0:0:0:0:
182,192,149838,1,0,0:0:0:0:
402,192,149838,1,0,0:0:0:0:
475,192,149838,1,0,0:0:0:0:
36,192,149913,1,0,0:0:0:0:
256,192,149913,1,0,0:0:0:0:
109,192,149988,128,2,150063:0:0:0:0:
182,192,149988,128,0,150063:0:0:0:0:
329,192,149988,128,0,150063:0:0:0:0:
475,192,149988,128,0,150063:0:0:0:0:
109,192,150138,1,0,0:0:0:0:
329,192,150138,1,0,0:0:0:0:
256,192,150213,1,0,0:0:0:0:
475,192,150213,1,0,0:0:0:0:
36,192,150288,128,8,150363:0:0:0:0:
182,192,150288,128,2,150363:0:0:0:0:
402,192,150288,128,0,150363:0:0:0:0:
329,192,150363,1,0,0:0:0:0:
36,192,150438,128,2,150513:0:0:0:0:
109,192,150438,128,0,150513:0:0:0:0:
256,192,150438,128,0,150513:0:0:0:0:
475,192,150438,128,0,150513:0:0:0:0:
36,192,150588,128,2,150813:0:0:0:0:
182,192,150588,128,0,150813:0:0:0:0:
329,192,150588,128,0,150813:0:0:0:0:
475,192,150588,128,0,150813:0:0:0:0:
36,192,150888,128,2,150963:0:0:0:0:
109,192,150888,128,8,150963:0:0:0:0:
256,192,150888,128,0,150963:0:0:0:0:
402,192,150888,128,0,150963:0:0:0:0:
109,192,151038,1,0,0:0:0:0:
475,192,151038,1,0,0:0:0:0:
182,192,151113,1,0,0:0:0:0:
329,192,151113,1,0,0:0:0:0:
36,192,151188,128,2,151263:0:0:0:0:
256,192,151188,128,0,151263:0:0:0:0:
402,192,151188,128,0,151263:0:0:0:0:
475,192,151188,128,0,151263:0:0:0:0:
36,192,151338,1,2,0:0:0:0:
182,192,151338,1,0,0:0:0:0:
402,192,151338,1,0,0:0:0:0:
256,192,151413,1,0,0:0:0:0:
109,192,151488,128,8,151563:0:0:0:0:
182,192,151488,128,2,151563:0:0:0:0:
329,192,151488,128,0,151563:0:0:0:0:
475,192,151488,128,0,151563:0:0:0:0:
36,192,151638,1,2,0:0:0:0:
182,192,151638,1,0,0:0:0:0:
256,192,151638,1,0,0:0:0:0:
402,192,151713,1,2,0:0:0:0:
475,192,151713,1,0,0:0:0:0:
36,192,151788,1,2,0:0:0:0:
109,192,151788,128,0,151863:0:0:0:0:
329,192,151788,1,0,0:0:0:0:
182,192,151863,128,0,151938:0:0:0:0:
402,192,151863,1,0,0:0:0:0:
256,192,151938,128,0,152013:0:0:0:0:
475,192,151938,1,0,0:0:0:0:
109,192,152013,1,0,0:0:0:0:
329,192,152013,128,0,152088:0:0:0:0:
182,192,152088,128,2,152163:0:0:0:0:
402,192,152088,1,8,0:0:0:0:
475,192,152088,1,0,0:0:0:0:
36,192,152163,1,0,0:0:0:0:
256,192,152163,1,0,0:0:0:0:
109,192,152238,1,0,0:0:0:0:
402,192,152238,128,0,152313:0:0:0:0:
182,192,152313,1,0,0:0:0:0:
329,192,152313,128,0,152388:0:0:0:0:
36,192,152388,1,2,0:0:0:0:
109,192,152388,128,0,152463:0:0:0:0:
475,192,152388,1,0,0:0:0:0:
256,192,152463,128,0,152538:0:0:0:0:
402,192,152463,1,0,0:0:0:0:
36,192,152538,1,0,0:0:0:0:
182,192,152538,128,0,152613:0:0:0:0:
329,192,152613,128,0,152688:0:0:0:0:
402,192,152613,1,0,0:0:0:0:
36,192,152688,128,2,152763:0:0:0:0:
256,192,152688,1,8,0:0:0:0:
475,192,152688,1,0,0:0:0:0:
109,192,152763,128,0,152838:0:0:0:0:
329,192,152763,1,0,0:0:0:0:
182,192,152838,128,0,152913:0:0:0:0:
402,192,152838,1,0,0:0:0:0:
256,192,152913,128,0,152988:0:0:0:0:
475,192,152913,1,0,0:0:0:0:
36,192,152988,1,2,0:0:0:0:
109,192,152988,1,0,0:0:0:0:
329,192,152988,128,0,153063:0:0:0:0:
182,192,153063,128,0,153138:0:0:0:0:
475,192,153063,1,0,0:0:0:0:
36,192,153138,1,2,0:0:0:0:
256,192,153138,128,0,153213:0:0:0:0:
402,192,153138,1,0,0:0:0:0:
109,192,153213,1,0,0:0:0:0:
329,192,153213,128,0,153288:0:0:0:0:
182,192,153288,1,2,0:0:0:0:
402,192,153288,128,8,153363:0:0:0:0:
475,192,153288,1,0,0:0:0:0:
256,192,153363,1,0,0:0:0:0:
36,192,153438,1,2,0:0:0:0:
182,192,153438,128,0,153513:0:0:0:0:
475,192,153438,1,0,0:0:0:0:
329,192,153513,128,0,153588:0:0:0:0:
402,192,153513,1,0,0:0:0:0:
36,192,153588,1,2,0:0:0:0:
109,192,153588,1,0,0:0:0:0:
256,192,153588,1,0,0:0:0:0:
182,192,153663,1,2,0:0:0:0:
402,192,153663,1,0,0:0:0:0:
475,192,153663,1,0,0:0:0:0:
36,192,153738,1,2,0:0:0:0:
109,192,153738,1,0,0:0:0:0:
329,192,153738,1,0,0:0:0:0:
182,192,153813,1,2,0:0:0:0:
402,192,153813,1,0,0:0:0:0:
475,192,153813,1,0,0:0:0:0:
36,192,153888,1,2,0:0:0:0:
256,192,153888,1,8,0:0:0:0:
109,192,153925,1,2,0:0:0:0:
182,192,153963,1,2,0:0:0:0:
329,192,153963,1,0,0:0:0:0:
402,192,154000,1,2,0:0:0:0:
256,192,154038,1,2,0:0:0:0:
475,192,154038,1,0,0:0:0:0:
182,192,154075,1,2,0:0:0:0:
109,192,154113,1,2,0:0:0:0:
329,192,154113,1,0,0:0:0:0:
36,192,154150,1,2,0:0:0:0:
182,192,154188,1,4,0:0:0:0:
402,192,154188,1,2,0:0:0:0:
475,192,154188,1,0,0:0:0:70:winds.wav
256,192,154225,1,0,0:0:0:0:
329,192,154263,128,0,154638:0:0:0:0:
109,192,154338,1,0,0:0:0:0:
182,192,154488,128,0,154638:0:0:0:0:
36,192,154638,1,0,0:0:0:0:
109,192,154788,1,0,0:0:0:0:
256,192,154788,1,0,0:0:0:0:
402,192,154938,1,0,0:0:0:0:
182,192,155088,1,0,0:0:0:0:
329,192,155088,1,0,0:0:0:0:
109,192,155125,1,0,0:0:0:0:
36,192,155163,128,0,155688:0:0:0:0:
256,192,155388,128,0,155688:0:0:0:0:
109,192,155688,1,0,0:0:0:0:
329,192,155688,1,0,0:0:0:0:
182,192,155838,1,0,0:0:0:0:
36,192,155988,1,0,0:0:0:70:LR_Snare Drum 3.wav
402,192,155988,1,0,0:0:0:0:
329,192,156025,1,0,0:0:0:0:
256,192,156063,1,0,0:0:0:70:LR_Snare Drum 3.wav
109,192,156138,1,0,0:0:0:70:LR_Snare Drum 3.wav
402,192,156213,1,0,0:0:0:70:LR_Snare Drum 3.wav
182,192,156288,1,0,0:0:0:70:LR_Snare Drum.wav
256,192,156288,1,0,0:0:0:0:
329,192,156325,1,0,0:0:0:0:
475,192,156363,1,0,0:0:0:70:LR_Snare Drum.wav
36,192,156438,1,0,0:0:0:70:LR_Snare Drum.wav
109,192,156438,1,0,0:0:0:0:
402,192,156513,1,0,0:0:0:70:LR_Snare Drum.wav
182,192,156588,1,0,0:0:0:70:VEC4 Snares 151.wav
329,192,156588,1,0,0:0:0:0:
475,192,156663,1,0,0:0:0:70:VEC4 Snares 151.wav
109,192,156738,1,0,0:0:0:70:VEC4 Snares 151.wav
256,192,156738,1,0,0:0:0:0:
402,192,156813,1,0,0:0:0:70:VEC4 Snares 151.wav
475,192,156813,1,0,0:0:0:0:
36,192,156888,1,0,0:0:0:70:tom01.wav
182,192,156888,1,0,0:0:0:0:
256,192,156888,1,0,0:0:0:0:
329,192,156925,1,0,0:0:0:0:
402,192,156963,1,0,0:0:0:70:tom01.wav
475,192,156963,1,0,0:0:0:0:
36,192,157038,1,0,0:0:0:70:tom02.wav
109,192,157038,1,0,0:0:0:0:
256,192,157038,1,0,0:0:0:0:
329,192,157113,1,0,0:0:0:70:tom02.wav
402,192,157113,1,0,0:0:0:0:
36,192,157188,1,0,0:0:0:70:VEC4 Snares 151.wav
182,192,157188,1,0,0:0:0:0:
475,192,157188,1,0,0:0:0:0:
109,192,157188,1,0,0:0:0:0:
109,192,157338,1,2,0:0:0:0:
402,192,157338,1,0,0:0:0:0:
329,192,157338,1,0,0:0:0:0:
182,192,157413,1,2,0:0:0:0:
256,192,157413,1,0,0:0:0:0:
36,192,157488,1,0,0:0:0:70:VEC4 Snares 151.wav
109,192,157488,1,0,0:0:0:0:
402,192,157488,1,0,0:0:0:0:
475,192,157488,1,0,0:0:0:0:
256,192,157563,1,0,0:0:0:70:VEC4 Snares 151.wav
329,192,157563,1,0,0:0:0:0:
36,192,157638,1,2,0:0:0:0:
182,192,157638,1,0,0:0:0:0:
475,192,157638,1,0,0:0:0:0:
36,192,157788,128,2,158088:0:0:0:0:
182,192,157788,128,0,158088:0:0:0:70:cymbal_short.wav
329,192,157788,128,0,158088:0:0:0:0:
475,192,157788,128,0,158538:0:0:0:0:
36,192,158238,128,2,158538:0:0:0:0:
182,192,158238,128,0,158988:0:0:0:70:cymbal_short.wav
256,192,158238,128,0,158538:0:0:0:0:
402,192,158238,128,0,158538:0:0:0:0:
36,192,158688,128,4,159888:0:0:0:0:
109,192,158688,128,2,158988:0:0:0:0:
329,192,158688,128,0,158988:0:0:0:0:
475,192,158688,128,0,159888:0:0:0:0:
182,192,159138,1,0,0:0:0:0:
329,192,159213,1,0,0:0:0:0:
109,192,159288,1,0,0:0:0:0:
256,192,159363,1,0,0:0:0:0:
402,192,159438,1,0,0:0:0:0:
329,192,159513,1,0,0:0:0:0:
109,192,159588,1,0,0:0:0:0:
256,192,159625,1,0,0:0:0:0:
329,192,159663,1,0,0:0:0:0:
402,192,159700,1,0,0:0:0:0:
182,192,159738,1,0,0:0:0:0:
256,192,159788,1,0,0:0:0:0:
329,192,159838,1,0,0:0:0:0:
109,192,159888,128,0,159963:0:0:0:70:tom01.wav
402,192,159888,1,0,0:0:0:0:
182,192,159963,128,0,160038:0:0:0:70:tom02.wav
256,192,160038,128,0,160113:0:0:0:70:tom03.wav
475,192,160038,1,0,0:0:0:0:
329,192,160113,128,0,160188:0:0:0:0:
36,192,160188,128,2,160488:0:0:0:0:
109,192,160188,128,0,160938:0:0:0:70:cymbal_short.wav
402,192,160188,128,0,160488:0:0:0:0:
475,192,160188,128,0,160488:0:0:0:0:
36,192,160638,128,2,160938:0:0:0:0:
256,192,160638,128,0,160938:0:0:0:70:cymbal_short.wav
402,192,160638,128,0,161463:0:0:0:0:
475,192,160638,128,0,160938:0:0:0:0:
36,192,161088,128,2,161463:0:0:0:0:
182,192,161088,128,0,161463:0:0:0:70:cymbal_short.wav
256,192,161088,128,0,161913:0:0:0:0:
475,192,161088,128,0,161463:0:0:0:0:
36,192,161538,128,2,162363:0:0:0:0:
182,192,161538,128,0,161913:0:0:0:70:cymbal_short.wav
329,192,161538,128,0,161913:0:0:0:0:
475,192,161538,128,0,161913:0:0:0:0:
109,192,161988,128,2,162363:0:0:0:0:
256,192,161988,128,0,162363:0:0:0:70:cymbal_short.wav
329,192,161988,128,0,162363:0:0:0:0:
475,192,161988,128,0,162813:0:0:0:0:
36,192,162438,128,2,162813:0:0:0:0:
182,192,162438,128,0,163788:0:0:0:70:cymbal_short.wav
329,192,162438,128,0,162813:0:0:0:0:
402,192,162438,128,0,162813:0:0:0:0:
36,192,162888,128,2,163338:0:0:0:0:
256,192,162888,128,0,163338:0:0:0:70:cymbal_short.wav
329,192,162888,128,0,163338:0:0:0:0:
475,192,162888,128,0,163338:0:0:0:0:
109,192,163413,128,0,163488:0:0:0:0:
475,192,163488,128,0,163563:0:0:0:0:
402,192,163563,128,0,163638:0:0:0:0:
329,192,163638,128,0,163713:0:0:0:0:
256,192,163713,128,0,163788:0:0:0:0:
36,192,163788,1,2,0:0:0:0:
109,192,163788,1,4,0:0:0:0:
329,192,163788,128,0,164238:0:0:0:0:
475,192,163788,1,0,0:0:0:0:
182,192,163863,1,0,0:0:0:0:
36,192,163938,1,0,0:0:0:0:
402,192,163938,1,0,0:0:0:0:
256,192,164013,1,0,0:0:0:0:
109,192,164088,1,8,0:0:0:0:
402,192,164088,1,2,0:0:0:0:
475,192,164088,1,0,0:0:0:0:
182,192,164163,1,0,0:0:0:0:
36,192,164238,128,0,164388:0:0:0:0:
475,192,164238,1,0,0:0:0:0:
329,192,164313,1,0,0:0:0:0:
109,192,164388,1,2,0:0:0:0:
182,192,164388,128,0,164613:0:0:0:0:
402,192,164388,1,0,0:0:0:0:
256,192,164463,1,0,0:0:0:0:
329,192,164463,1,0,0:0:0:0:
36,192,164538,1,0,0:0:0:0:
475,192,164538,1,0,0:0:0:0:
256,192,164613,128,0,164838:0:0:0:0:
402,192,164613,1,0,0:0:0:0:
36,192,164688,1,8,0:0:0:0:
109,192,164688,1,2,0:0:0:0:
475,192,164688,1,0,0:0:0:0:
182,192,164763,1,0,0:0:0:0:
329,192,164763,1,0,0:0:0:0:
109,192,164838,1,0,0:0:0:0:
475,192,164838,128,0,164988:0:0:0:0:
256,192,164913,1,0,0:0:0:0:
402,192,164913,1,0,0:0:0:0:
36,192,164988,1,2,0:0:0:0:
109,192,164988,128,0,165438:0:0:0:0:
182,192,164988,1,0,0:0:0:0:
329,192,165063,1,0,0:0:0:0:
182,192,165138,1,0,0:0:0:0:
402,192,165138,1,0,0:0:0:0:
256,192,165213,1,0,0:0:0:0:
36,192,165288,1,8,0:0:0:0:
329,192,165288,1,2,0:0:0:0:
475,192,165288,1,0,0:0:0:0:
182,192,165363,1,0,0:0:0:0:
256,192,165438,128,0,165513:0:0:0:0:
402,192,165438,1,0,0:0:0:0:
109,192,165513,128,0,165588:0:0:0:0:
36,192,165588,1,2,0:0:0:0:
329,192,165588,128,0,165813:0:0:0:0:
475,192,165588,1,0,0:0:0:0:
182,192,165663,1,0,0:0:0:0:
256,192,165663,1,0,0:0:0:0:
109,192,165738,1,0,0:0:0:0:
475,192,165738,1,0,0:0:0:0:
182,192,165813,128,0,166038:0:0:0:0:
402,192,165813,1,0,0:0:0:0:
36,192,165888,1,2,0:0:0:0:
109,192,165888,1,8,0:0:0:0:
475,192,165888,1,0,0:0:0:0:
256,192,165963,1,0,0:0:0:0:
329,192,165963,1,0,0:0:0:0:
36,192,166038,128,0,166113:0:0:0:0:
402,192,166038,1,0,0:0:0:0:
109,192,166113,128,0,166488:0:0:0:0:
256,192,166113,1,0,0:0:0:0:
36,192,166188,1,2,0:0:0:0:
329,192,166188,1,0,0:0:0:0:
475,192,166188,1,0,0:0:0:0:
182,192,166263,1,0,0:0:0:0:
256,192,166338,1,0,0:0:0:0:
475,192,166338,1,0,0:0:0:0:
402,192,166413,1,0,0:0:0:0:
36,192,166488,1,8,0:0:0:0:
182,192,166488,1,2,0:0:0:0:
329,192,166488,128,0,166638:0:0:0:0:
475,192,166563,1,0,0:0:0:0:
109,192,166638,1,0,0:0:0:0:
256,192,166638,128,0,166713:0:0:0:0:
402,192,166713,128,0,166788:0:0:0:0:
36,192,166788,1,2,0:0:0:0:
182,192,166788,1,0,0:0:0:0:
329,192,166788,128,0,167013:0:0:0:0:
402,192,166863,1,0,0:0:0:0:
475,192,166863,1,0,0:0:0:0:
109,192,166938,1,0,0:0:0:0:
182,192,166938,1,0,0:0:0:0:
256,192,167013,128,0,167238:0:0:0:0:
402,192,167013,1,0,0:0:0:0:
36,192,167088,1,8,0:0:0:0:
109,192,167088,1,2,0:0:0:0:
475,192,167088,1,0,0:0:0:0:
182,192,167163,1,0,0:0:0:0:
329,192,167163,1,0,0:0:0:0:
36,192,167238,128,0,167388:0:0:0:0:
402,192,167238,1,0,0:0:0:0:
182,192,167313,1,0,0:0:0:0:
256,192,167313,1,0,0:0:0:0:
109,192,167388,128,2,167538:0:0:0:0:
402,192,167388,1,0,0:0:0:0:
475,192,167388,1,0,0:0:0:0:
329,192,167463,1,0,0:0:0:0:
36,192,167538,1,0,0:0:0:0:
256,192,167538,128,0,167688:0:0:0:0:
182,192,167613,1,0,0:0:0:0:
109,192,167688,1,2,0:0:0:0:
329,192,167688,1,8,0:0:0:0:
475,192,167688,1,0,0:0:0:0:
256,192,167763,1,0,0:0:0:0:
182,192,167838,1,0,0:0:0:0:
402,192,167838,128,0,167913:0:0:0:0:
475,192,167913,128,0,168138:0:0:0:0:
36,192,167988,1,2,0:0:0:0:
109,192,167988,1,0,0:0:0:0:
256,192,167988,1,0,0:0:0:0:
329,192,168063,1,0,0:0:0:0:
402,192,168063,1,0,0:0:0:0:
109,192,168138,1,0,0:0:0:0:
182,192,168138,128,0,168588:0:0:0:0:
256,192,168213,1,0,0:0:0:0:
329,192,168213,1,0,0:0:0:0:
36,192,168288,1,2,0:0:0:0:
402,192,168288,1,8,0:0:0:0:
475,192,168288,1,0,0:0:0:0:
109,192,168363,1,0,0:0:0:0:
256,192,168363,1,0,0:0:0:0:
329,192,168438,1,2,0:0:0:0:
475,192,168438,1,0,0:0:0:0:
36,192,168513,1,0,0:0:0:0:
109,192,168513,1,0,0:0:0:0:
256,192,168588,128,2,169338:0:0:0:0:
402,192,168588,1,0,0:0:0:0:
475,192,168588,1,0,0:0:0:0:
329,192,168663,1,0,0:0:0:0:
36,192,168738,1,0,0:0:0:0:
402,192,168738,1,0,0:0:0:0:
182,192,168813,1,0,0:0:0:0:
36,192,168888,1,2,0:0:0:0:
329,192,168888,1,8,0:0:0:0:
475,192,168888,1,0,0:0:0:0:
109,192,168963,1,0,0:0:0:0:
182,192,169038,1,0,0:0:0:0:
402,192,169038,1,0,0:0:0:0:
36,192,169113,1,0,0:0:0:0:
109,192,169188,1,2,0:0:0:0:
329,192,169188,1,0,0:0:0:0:
182,192,169188,1,0,0:0:0:0:
402,192,169263,1,0,0:0:0:0:
475,192,169263,1,0,0:0:0:0:
109,192,169338,128,0,169488:0:0:0:0:
36,192,169338,1,0,0:0:0:0:
182,192,169413,1,0,0:0:0:0:
329,192,169413,1,0,0:0:0:0:
402,192,169488,1,2,0:0:0:0:
475,192,169488,1,8,0:0:0:0:
36,192,169488,128,0,169638:0:0:0:0:
109,192,169563,1,0,0:0:0:0:
256,192,169563,1,0,0:0:0:0:
329,192,169638,1,0,0:0:0:0:
475,192,169638,128,0,169788:0:0:0:0:
182,192,169713,1,0,0:0:0:0:
36,192,169713,1,0,0:0:0:0:
256,192,169788,1,0,0:0:0:0:
329,192,169788,128,0,169863:0:0:0:0:
402,192,169788,1,2,0:0:0:0:
182,192,169863,128,0,169938:0:0:0:0:
329,192,169938,128,0,170088:0:0:0:0:
475,192,169938,1,0,0:0:0:0:
36,192,170013,1,0,0:0:0:0:
182,192,170088,1,2,0:0:0:0:
256,192,170088,128,8,170238:0:0:0:0:
402,192,170088,1,0,0:0:0:0:
36,192,170163,1,0,0:0:0:0:
109,192,170238,128,0,170388:0:0:0:0:
475,192,170238,1,0,0:0:0:0:
329,192,170313,1,0,0:0:0:0:
182,192,170388,1,2,0:0:0:0:
402,192,170388,1,0,0:0:0:0:
475,192,170388,1,0,0:0:0:0:
36,192,170463,1,0,0:0:0:0:
109,192,170463,1,0,0:0:0:0:
256,192,170538,1,0,0:0:0:0:
329,192,170538,128,0,170838:0:0:0:0:
109,192,170613,1,0,0:0:0:0:
182,192,170613,1,0,0:0:0:0:
36,192,170688,1,8,0:0:0:0:
402,192,170688,1,2,0:0:0:0:
475,192,170688,1,0,0:0:0:0:
182,192,170763,1,0,0:0:0:0:
256,192,170838,128,0,170913:0:0:0:0:
402,192,170838,1,0,0:0:0:0:
36,192,170913,1,0,0:0:0:0:
182,192,170913,128,0,170988:0:0:0:0:
109,192,170988,1,2,0:0:0:0:
329,192,170988,128,0,171438:0:0:0:0:
475,192,170988,1,0,0:0:0:0:
256,192,171063,1,0,0:0:0:0:
36,192,171138,1,0,0:0:0:0:
402,192,171138,1,0,0:0:0:0:
182,192,171213,1,0,0:0:0:0:
109,192,171288,1,2,0:0:0:0:
256,192,171288,1,8,0:0:0:0:
475,192,171288,1,0,0:0:0:0:
402,192,171363,1,0,0:0:0:0:
36,192,171438,1,0,0:0:0:0:
475,192,171438,128,0,171513:0:0:0:0:
182,192,171513,1,0,0:0:0:0:
329,192,171513,128,0,171588:0:0:0:0:
36,192,171588,1,2,0:0:0:0:
109,192,171588,1,0,0:0:0:0:
402,192,171588,1,0,0:0:0:0:
256,192,171663,1,0,0:0:0:0:
329,192,171663,1,0,0:0:0:0:
109,192,171738,1,0,0:0:0:0:
475,192,171738,1,0,0:0:0:0:
182,192,171813,1,0,0:0:0:0:
329,192,171813,1,0,0:0:0:0:
36,192,171888,1,2,0:0:0:0:
402,192,171888,1,8,0:0:0:0:
475,192,171888,1,0,0:0:0:0:
182,192,171963,1,0,0:0:0:0:
256,192,171963,1,0,0:0:0:0:
329,192,172038,1,0,0:0:0:0:
402,192,172038,1,0,0:0:0:0:
109,192,172113,1,0,0:0:0:0:
182,192,172113,1,0,0:0:0:0:
36,192,172188,1,2,0:0:0:0:
256,192,172188,1,0,0:0:0:0:
475,192,172188,1,0,0:0:0:0:
109,192,172263,1,0,0:0:0:0:
329,192,172263,1,0,0:0:0:0:
182,192,172338,1,0,0:0:0:0:
402,192,172338,1,0,0:0:0:0:
256,192,172413,1,0,0:0:0:0:
475,192,172413,1,0,0:0:0:0:
36,192,172488,1,8,0:0:0:0:
109,192,172488,1,2,0:0:0:0:
329,192,172488,1,0,0:0:0:0:
182,192,172548,1,0,0:0:0:0:
402,192,172548,1,0,0:0:0:0:
256,192,172608,1,0,0:0:0:0:
475,192,172608,1,0,0:0:0:0:
109,192,172668,1,0,0:0:0:0:
329,192,172668,1,0,0:0:0:0:
182,192,172728,1,0,0:0:0:0:
402,192,172728,1,0,0:0:0:0:
36,192,172788,1,2,0:0:0:0:
256,192,172788,1,0,0:0:0:0:
475,192,172788,1,0,0:0:0:0:
109,192,172863,1,0,0:0:0:0:
329,192,172863,1,0,0:0:0:0:
36,192,172938,1,2,0:0:0:0:
402,192,172938,1,0,0:0:0:0:
475,192,172938,1,0,0:0:0:0:
182,192,173013,1,0,0:0:0:0:
256,192,173013,1,0,0:0:0:0:
36,192,173088,1,8,0:0:0:0:
109,192,173088,1,2,0:0:0:0:
402,192,173088,1,0,0:0:0:0:
256,192,173163,1,2,0:0:0:0:
329,192,173163,1,0,0:0:0:0:
36,192,173238,1,2,0:0:0:0:
402,192,173238,1,0,0:0:0:0:
475,192,173238,1,0,0:0:0:0:
109,192,173313,1,2,0:0:0:0:
182,192,173313,1,0,0:0:0:0:
329,192,173313,1,0,0:0:0:0:
36,192,173388,128,0,173613:0:0:0:0:
256,192,173388,1,0,0:0:0:0:
475,192,173388,128,0,173613:0:0:0:0:
402,192,173463,1,0,0:0:0:0:
182,192,173538,1,0,0:0:0:0:
329,192,173613,1,0,0:0:0:0:
36,192,173688,1,4,0:0:0:0:
109,192,173688,1,8,0:0:0:0:
402,192,173688,1,2,0:0:0:0:
475,192,173688,1,0,0:0:0:0:
256,192,173763,1,0,0:0:0:0:
182,192,173838,1,0,0:0:0:0:
402,192,173838,1,0,0:0:0:0:
329,192,173913,1,0,0:0:0:0:
36,192,173988,1,2,0:0:0:0:
256,192,173988,128,0,174438:0:0:0:0:
475,192,173988,1,0,0:0:0:0:
182,192,174063,1,0,0:0:0:0:
109,192,174138,1,0,0:0:0:0:
402,192,174138,1,0,0:0:0:0:
329,192,174213,1,0,0:0:0:0:
36,192,174288,1,8,0:0:0:0:
182,192,174288,1,2,0:0:0:0:
475,192,174288,1,0,0:0:0:0:
402,192,174363,1,0,0:0:0:0:
109,192,174438,1,0,0:0:0:0:
329,192,174438,128,0,174513:0:0:0:0:
182,192,174513,1,0,0:0:0:0:
402,192,174513,128,0,174588:0:0:0:0:
36,192,174588,1,2,0:0:0:0:
109,192,174588,1,0,0:0:0:0:
256,192,174588,1,0,0:0:0:0:
475,192,174588,128,0,174688:0:0:0:0:
182,192,174688,128,0,174788:0:0:0:0:
329,192,174688,1,0,0:0:0:0:
256,192,174788,128,0,174888:0:0:0:0:
402,192,174788,1,0,0:0:0:0:
36,192,174888,1,8,0:0:0:0:
182,192,174888,1,2,0:0:0:0:
329,192,174888,128,0,174988:0:0:0:0:
475,192,174888,1,0,0:0:0:0:
109,192,174988,1,0,0:0:0:0:
402,192,174988,128,0,175088:0:0:0:0:
182,192,175088,1,0,0:0:0:0:
475,192,175088,128,0,175188:0:0:0:0:
36,192,175188,1,2,0:0:0:0:
109,192,175188,1,0,0:0:0:0:
256,192,175188,1,0,0:0:0:0:
329,192,175188,128,0,175288:0:0:0:0:
182,192,175288,128,0,175388:0:0:0:0:
402,192,175288,1,0,0:0:0:0:
256,192,175388,128,0,175488:0:0:0:0:
475,192,175388,1,0,0:0:0:0:
329,192,175488,128,2,175588:0:0:0:0:
182,192,175488,1,8,0:0:0:0:
36,192,175488,1,0,0:0:0:0:
402,192,175488,1,0,0:0:0:0:
109,192,175588,128,0,175688:0:0:0:0:
256,192,175588,1,0,0:0:0:0:
182,192,175688,128,0,175788:0:0:0:0:
329,192,175688,1,0,0:0:0:0:
36,192,175788,1,2,0:0:0:0:
256,192,175788,128,0,175863:0:0:0:0:
402,192,175788,1,0,0:0:0:0:
475,192,175788,1,0,0:0:0:0:
109,192,175863,128,0,175938:0:0:0:0:
182,192,175863,1,0,0:0:0:0:
329,192,175938,1,0,0:0:0:0:
182,192,176013,1,0,0:0:0:0:
256,192,176013,128,0,176088:0:0:0:0:
36,192,176088,1,8,0:0:0:0:
109,192,176088,1,2,0:0:0:0:
402,192,176088,1,0,0:0:0:0:
475,192,176088,128,0,176163:0:0:0:0:
256,192,176163,1,0,0:0:0:0:
329,192,176163,128,0,176238:0:0:0:0:
475,192,176238,1,0,0:0:0:0:
109,192,176238,128,0,176313:0:0:0:0:
182,192,176313,1,0,0:0:0:0:
402,192,176313,128,0,176388:0:0:0:0:
329,192,176388,1,2,0:0:0:0:
475,192,176388,128,0,176463:0:0:0:0:
256,192,176388,1,0,0:0:0:0:
36,192,176463,1,0,0:0:0:0:
109,192,176463,128,0,176538:0:0:0:0:
329,192,176538,128,0,176613:0:0:0:0:
402,192,176538,1,0,0:0:0:0:
182,192,176613,128,0,176688:0:0:0:0:
256,192,176613,1,0,0:0:0:0:
36,192,176688,1,8,0:0:0:0:
329,192,176688,1,2,0:0:0:0:
475,192,176688,128,0,176763:0:0:0:0:
109,192,176763,128,0,176838:0:0:0:0:
182,192,176763,1,0,0:0:0:0:
329,192,176838,1,0,0:0:0:0:
402,192,176838,128,0,176913:0:0:0:0:
109,192,176913,1,0,0:0:0:0:
256,192,176913,128,0,176988:0:0:0:0:
36,192,176988,1,2,0:0:0:0:
182,192,176988,1,0,0:0:0:0:
402,192,176988,1,0,0:0:0:0:
475,192,176988,128,0,177088:0:0:0:0:
256,192,177088,1,0,0:0:0:0:
329,192,177088,128,0,177188:0:0:0:0:
109,192,177188,1,0,0:0:0:0:
475,192,177188,128,0,177288:0:0:0:0:
36,192,177288,1,2,0:0:0:0:
182,192,177288,128,8,177388:0:0:0:0:
329,192,177288,1,0,0:0:0:0:
256,192,177388,128,0,177488:0:0:0:0:
402,192,177388,1,0,0:0:0:0:
109,192,177488,1,0,0:0:0:0:
182,192,177488,128,0,177588:0:0:0:0:
36,192,177588,1,2,0:0:0:0:
329,192,177588,1,0,0:0:0:0:
475,192,177588,128,0,177688:0:0:0:0:
256,192,177688,128,0,177788:0:0:0:0:
182,192,177688,1,0,0:0:0:0:
329,192,177788,128,0,177888:0:0:0:0:
402,192,177788,1,0,0:0:0:0:
36,192,177888,1,2,0:0:0:0:
256,192,177888,1,8,0:0:0:0:
475,192,177888,1,0,0:0:0:0:
402,192,177925,1,2,0:0:0:0:
182,192,177963,1,2,0:0:0:0:
329,192,177963,1,0,0:0:0:0:
109,192,178000,1,2,0:0:0:0:
36,192,178038,1,2,0:0:0:0:
475,192,178038,128,0,178075:0:0:0:0:
402,192,178075,128,2,178113:0:0:0:0:
182,192,178113,1,2,0:0:0:0:
329,192,178113,128,0,178150:0:0:0:0:
256,192,178150,128,2,178188:0:0:0:0:
36,192,178188,128,2,178488:0:0:0:0:
109,192,178188,128,0,178488:0:0:0:70:cymbal_short.wav
402,192,178188,128,0,178938:0:0:0:0:
475,192,178188,128,0,178488:0:0:0:0:
36,192,178638,128,2,178938:0:0:0:0:
182,192,178638,128,0,178938:0:0:0:70:cymbal_short.wav
256,192,178638,128,0,179913:0:0:0:0:
475,192,178638,128,0,178938:0:0:0:0:
36,192,179088,128,2,180288:0:0:0:0:
109,192,179088,128,4,179913:0:0:0:0:
329,192,179088,128,0,179913:0:0:0:70:winds.wav
475,192,179088,128,0,180288:0:0:0:0:
402,192,179988,1,0,0:0:0:0:
329,192,180025,1,0,0:0:0:0:
109,192,180063,1,0,0:0:0:0:
182,192,180138,1,0,0:0:0:0:
329,192,180188,1,0,0:0:0:0:
402,192,180238,1,0,0:0:0:0:
109,192,180288,1,0,0:0:0:70:tom01.wav
256,192,180288,128,0,180363:0:0:0:0:
402,192,180363,128,0,180438:0:0:0:70:tom02.wav
475,192,180363,1,0,0:0:0:0:
36,192,180438,1,0,0:0:0:70:tom03.wav
182,192,180438,128,0,180513:0:0:0:0:
256,192,180513,1,0,0:0:0:0:
329,192,180513,128,0,180588:0:0:0:0:
109,192,180588,128,2,180663:0:0:0:0:
182,192,180588,128,4,180663:0:0:0:0:
402,192,180588,128,0,180663:0:0:0:0:
475,192,180588,128,0,180663:0:0:0:0:
36,192,180738,1,2,0:0:0:0:
109,192,180738,1,0,0:0:0:0:
256,192,180738,1,0,0:0:0:0:
329,192,180738,1,0,0:0:0:0:
402,192,180813,1,0,0:0:0:0:
475,192,180813,1,0,0:0:0:0:
36,192,180888,1,2,0:0:0:0:
109,192,180888,1,8,0:0:0:0:
256,192,180888,1,0,0:0:0:0:
182,192,180963,1,0,0:0:0:0:
329,192,180963,1,0,0:0:0:0:
36,192,181038,1,2,0:0:0:0:
256,192,181038,1,0,0:0:0:0:
402,192,181038,1,0,0:0:0:0:
475,192,181038,1,0,0:0:0:0:
109,192,181113,1,0,0:0:0:0:
182,192,181113,1,0,0:0:0:0:
36,192,181188,128,2,181263:0:0:0:0:
329,192,181188,128,0,181263:0:0:0:0:
402,192,181188,128,0,181263:0:0:0:0:
475,192,181188,128,0,181263:0:0:0:0:
36,192,181338,1,2,0:0:0:0:
182,192,181338,1,0,0:0:0:0:
256,192,181338,1,0,0:0:0:0:
475,192,181338,1,0,0:0:0:0:
329,192,181413,1,0,0:0:0:0:
402,192,181413,1,0,0:0:0:0:
36,192,181488,1,2,0:0:0:0:
182,192,181488,1,8,0:0:0:0:
475,192,181488,1,0,0:0:0:0:
256,192,181563,1,0,0:0:0:0:
329,192,181563,1,0,0:0:0:0:
36,192,181638,1,2,0:0:0:0:
109,192,181638,1,0,0:0:0:0:
402,192,181638,1,0,0:0:0:0:
475,192,181638,1,0,0:0:0:0:
182,192,181713,1,2,0:0:0:0:
256,192,181713,1,0,0:0:0:0:
329,192,181713,1,0,0:0:0:0:
36,192,181788,1,2,0:0:0:0:
109,192,181788,1,4,0:0:0:0:
402,192,181788,1,0,0:0:0:0:
475,192,181788,1,0,0:0:0:0:
182,192,181863,1,2,0:0:0:0:
256,192,181863,1,0,0:0:0:0:
36,192,181938,1,2,0:0:0:0:
329,192,181938,1,0,0:0:0:0:
402,192,181938,1,0,0:0:0:0:
475,192,181938,1,0,0:0:0:0:
109,192,182013,1,2,0:0:0:0:
182,192,182013,1,0,0:0:0:0:
256,192,182013,1,0,0:0:0:0:
36,192,182088,1,2,0:0:0:0:
402,192,182088,1,8,0:0:0:0:
475,192,182088,1,0,0:0:0:0:
329,192,182125,1,2,0:0:0:0:
256,192,182163,1,2,0:0:0:0:
182,192,182200,1,2,0:0:0:0:
36,192,182238,1,2,0:0:0:0:
109,192,182238,1,0,0:0:0:0:
475,192,182238,1,0,0:0:0:0:
256,192,182313,1,2,0:0:0:0:
329,192,182313,1,0,0:0:0:0:
402,192,182313,1,0,0:0:0:0:
36,192,182388,128,2,182463:0:0:0:0:
109,192,182388,128,0,182463:0:0:0:70:cymbal_short.wav
182,192,182388,128,0,182463:0:0:0:0:
475,192,182388,128,0,182463:0:0:0:0:
109,192,182538,1,0,0:0:0:0:
256,192,182538,1,0,0:0:0:0:
182,192,182613,1,2,0:0:0:0:
329,192,182613,1,0,0:0:0:70:cymbal_short.wav
402,192,182613,1,0,0:0:0:0:
475,192,182613,1,0,0:0:0:0:
36,192,182688,1,0,0:0:0:0:
109,192,182688,1,0,0:0:0:0:
402,192,182763,1,0,0:0:0:0:
475,192,182763,1,0,0:0:0:0:
36,192,182838,1,2,0:0:0:0:
109,192,182838,1,0,0:0:0:70:cymbal_short.wav
256,192,182838,1,0,0:0:0:0:
329,192,182838,1,0,0:0:0:0:
182,192,182913,1,0,0:0:0:0:
402,192,182913,1,0,0:0:0:0:
36,192,182988,1,0,0:0:0:0:
256,192,182988,128,0,183288:0:0:0:0:
475,192,182988,1,0,0:0:0:0:
109,192,183063,1,0,0:0:0:0:
402,192,183138,1,0,0:0:0:0:
182,192,183213,1,0,0:0:0:0:
36,192,183288,1,4,0:0:0:0:
109,192,183288,1,8,0:0:0:0:
329,192,183288,1,2,0:0:0:0:
475,192,183288,1,0,0:0:0:0:
256,192,183363,1,0,0:0:0:0:
36,192,183438,1,0,0:0:0:0:
402,192,183438,1,0,0:0:0:0:
182,192,183438,128,0,183513:0:0:0:0:
109,192,183513,1,0,0:0:0:0:
256,192,183513,128,0,183588:0:0:0:0:
329,192,183513,1,0,0:0:0:0:
36,192,183588,1,2,0:0:0:0:
402,192,183588,128,0,183813:0:0:0:0:
475,192,183588,1,0,0:0:0:0:
182,192,183663,1,0,0:0:0:0:
256,192,183738,1,0,0:0:0:0:
329,192,183738,1,0,0:0:0:0:
36,192,183813,1,0,0:0:0:0:
109,192,183813,128,0,184038:0:0:0:0:
182,192,183813,1,0,0:0:0:0:
402,192,183888,1,2,0:0:0:0:
475,192,183888,1,8,0:0:0:0:
329,192,183888,1,0,0:0:0:0:
256,192,183963,1,0,0:0:0:0:
36,192,184038,1,0,0:0:0:0:
402,192,184038,128,0,184188:0:0:0:0:
475,192,184038,1,0,0:0:0:0:
182,192,184113,1,0,0:0:0:0:
36,192,184188,1,2,0:0:0:0:
109,192,184188,1,0,0:0:0:0:
329,192,184188,128,0,184263:0:0:0:0:
256,192,184263,1,0,0:0:0:0:
402,192,184263,1,0,0:0:0:0:
475,192,184263,128,0,184938:0:0:0:0:
109,192,184338,1,0,0:0:0:0:
182,192,184338,1,0,0:0:0:0:
329,192,184413,1,0,0:0:0:0:
36,192,184488,1,2,0:0:0:0:
182,192,184488,1,8,0:0:0:0:
256,192,184488,1,0,0:0:0:0:
402,192,184563,1,0,0:0:0:0:
109,192,184638,1,0,0:0:0:0:
256,192,184638,1,0,0:0:0:0:
329,192,184713,1,0,0:0:0:0:
36,192,184788,1,2,0:0:0:0:
182,192,184788,1,0,0:0:0:0:
402,192,184788,1,0,0:0:0:0:
256,192,184863,1,0,0:0:0:0:
109,192,184938,1,0,0:0:0:0:
329,192,184938,1,0,0:0:0:0:
182,192,185013,1,0,0:0:0:0:
36,192,185088,1,2,0:0:0:0:
256,192,185088,128,8,185238:0:0:0:0:
402,192,185088,1,0,0:0:0:0:
329,192,185163,1,0,0:0:0:0:
109,192,185238,128,0,185388:0:0:0:0:
182,192,185238,1,0,0:0:0:0:
475,192,185238,1,0,0:0:0:0:
256,192,185313,1,0,0:0:0:0:
36,192,185388,1,2,0:0:0:0:
329,192,185388,128,0,185463:0:0:0:0:
402,192,185388,1,0,0:0:0:0:
109,192,185463,1,0,0:0:0:0:
182,192,185463,1,0,0:0:0:0:
475,192,185463,128,0,185688:0:0:0:0:
256,192,185538,1,0,0:0:0:0:
329,192,185538,1,0,0:0:0:0:
36,192,185613,1,0,0:0:0:0:
109,192,185688,1,2,0:0:0:0:
182,192,185688,1,8,0:0:0:0:
256,192,185688,128,0,185988:0:0:0:0:
402,192,185688,1,0,0:0:0:0:
329,192,185763,1,0,0:0:0:0:
36,192,185838,1,0,0:0:0:0:
475,192,185838,1,0,0:0:0:0:
182,192,185913,1,0,0:0:0:0:
109,192,185988,128,2,186288:0:0:0:0:
329,192,185988,1,0,0:0:0:0:
402,192,185988,1,0,0:0:0:0:
256,192,186063,1,0,0:0:0:0:
182,192,186138,1,0,0:0:0:0:
475,192,186138,1,0,0:0:0:0:
329,192,186213,1,0,0:0:0:0:
36,192,186288,1,8,0:0:0:0:
256,192,186288,128,2,186588:0:0:0:0:
402,192,186288,1,0,0:0:0:0:
475,192,186288,1,0,0:0:0:0:
182,192,186363,1,0,0:0:0:0:
109,192,186438,1,0,0:0:0:0:
402,192,186438,1,0,0:0:0:0:
329,192,186513,1,0,0:0:0:0:
36,192,186588,1,2,0:0:0:0:
109,192,186588,128,0,186663:0:0:0:0:
402,192,186588,1,0,0:0:0:0:
182,192,186663,128,0,187038:0:0:0:0:
256,192,186663,1,0,0:0:0:0:
475,192,186663,1,0,0:0:0:0:
36,192,186738,1,0,0:0:0:0:
329,192,186738,1,0,0:0:0:0:
109,192,186813,1,0,0:0:0:0:
36,192,186888,1,2,0:0:0:0:
256,192,186888,1,8,0:0:0:0:
402,192,186888,1,0,0:0:0:0:
475,192,186888,1,0,0:0:0:0:
109,192,187038,1,0,0:0:0:0:
329,192,187038,1,0,0:0:0:0:
475,192,187038,128,0,187113:0:0:0:0:
182,192,187113,1,0,0:0:0:0:
256,192,187113,1,0,0:0:0:0:
402,192,187113,128,0,187188:0:0:0:0:
36,192,187188,1,2,0:0:0:0:
109,192,187188,1,0,0:0:0:0:
329,192,187188,128,0,187263:0:0:0:0:
256,192,187263,1,0,0:0:0:0:
402,192,187263,1,0,0:0:0:0:
475,192,187263,128,0,187788:0:0:0:0:
36,192,187338,1,0,0:0:0:0:
182,192,187338,1,0,0:0:0:0:
329,192,187413,1,0,0:0:0:0:
109,192,187488,1,2,0:0:0:0:
182,192,187488,1,8,0:0:0:0:
256,192,187488,1,0,0:0:0:0:
402,192,187488,1,0,0:0:0:0:
36,192,187638,1,2,0:0:0:0:
109,192,187638,1,0,0:0:0:0:
329,192,187638,1,0,0:0:0:0:
256,192,187713,1,0,0:0:0:0:
36,192,187788,1,0,0:0:0:0:
182,192,187788,1,0,0:0:0:0:
402,192,187788,128,0,187863:0:0:0:0:
109,192,187863,1,0,0:0:0:0:
329,192,187863,128,0,187938:0:0:0:0:
36,192,187938,1,0,0:0:0:0:
256,192,187938,128,0,188013:0:0:0:0:
475,192,187938,1,0,0:0:0:0:
182,192,188013,128,0,188088:0:0:0:0:
402,192,188013,1,0,0:0:0:0:
109,192,188088,1,4,0:0:0:0:
329,192,188088,128,8,188163:0:0:0:0:
475,192,188088,1,2,0:0:0:0:
36,192,188163,1,0,0:0:0:0:
256,192,188163,128,0,188238:0:0:0:0:
182,192,188238,128,0,188313:0:0:0:0:
402,192,188238,1,0,0:0:0:0:
475,192,188238,1,0,0:0:0:0:
109,192,188313,128,0,188388:0:0:0:0:
329,192,188313,1,0,0:0:0:0:
36,192,188388,1,2,0:0:0:0:
182,192,188388,1,0,0:0:0:0:
256,192,188388,128,0,188463:0:0:0:0:
402,192,188463,128,0,188538:0:0:0:0:
475,192,188463,1,0,0:0:0:0:
36,192,188538,1,0,0:0:0:0:
109,192,188538,128,0,188613:0:0:0:0:
256,192,188538,1,0,0:0:0:0:
329,192,188613,128,0,188688:0:0:0:0:
402,192,188613,1,0,0:0:0:0:
109,192,188688,1,8,0:0:0:0:
182,192,188688,128,2,188763:0:0:0:0:
475,192,188688,1,0,0:0:0:0:
256,192,188763,1,0,0:0:0:0:
329,192,188763,128,0,188838:0:0:0:0:
36,192,188838,1,0,0:0:0:0:
109,192,188838,128,0,188913:0:0:0:0:
402,192,188838,1,0,0:0:0:0:
182,192,188913,128,0,188988:0:0:0:0:
256,192,188913,1,0,0:0:0:0:
36,192,188988,128,2,189213:0:0:0:0:
109,192,188988,128,0,189213:0:0:0:0:
329,192,188988,1,0,0:0:0:0:
475,192,188988,1,0,0:0:0:0:
182,192,189063,1,0,0:0:0:0:
402,192,189138,1,0,0:0:0:0:
256,192,189213,1,0,0:0:0:0:
36,192,189288,1,8,0:0:0:0:
109,192,189288,1,2,0:0:0:0:
329,192,189288,1,0,0:0:0:0:
475,192,189288,1,0,0:0:0:0:
182,192,189363,1,0,0:0:0:0:
36,192,189438,1,0,0:0:0:0:
475,192,189438,1,0,0:0:0:0:
402,192,189438,1,0,0:0:0:0:
329,192,189513,1,0,0:0:0:0:
256,192,189513,1,0,0:0:0:0:
109,192,189513,1,0,0:0:0:0:
36,192,189588,128,2,189663:0:0:0:0:
182,192,189588,128,0,189663:0:0:0:0:
402,192,189588,128,0,189663:0:0:0:0:
475,192,189588,128,0,189663:0:0:0:0:
109,192,189738,1,0,0:0:0:0:
256,192,189738,1,0,0:0:0:0:
329,192,189813,1,0,0:0:0:0:
36,192,189888,1,8,0:0:0:0:
402,192,189888,1,2,0:0:0:0:
475,192,189888,1,0,0:0:0:0:
182,192,189963,1,0,0:0:0:0:
109,192,189963,1,0,0:0:0:0:
256,192,189963,1,0,0:0:0:0:
36,192,190038,1,2,0:0:0:0:
402,192,190038,1,0,0:0:0:0:
475,192,190038,1,0,0:0:0:0:
182,192,190113,1,0,0:0:0:0:
329,192,190113,1,0,0:0:0:0:
256,192,190113,1,0,0:0:0:0:
109,192,190188,128,0,190263:0:0:0:0:
36,192,190188,1,0,0:0:0:0:
329,192,190263,1,0,0:0:0:0:
402,192,190263,128,0,190413:0:0:0:0:
475,192,190263,128,0,190413:0:0:0:0:
182,192,190338,1,0,0:0:0:0:
256,192,190413,1,0,0:0:0:0:
36,192,190488,1,8,0:0:0:0:
109,192,190488,1,2,0:0:0:0:
329,192,190488,1,4,0:0:0:0:
475,192,190488,1,0,0:0:0:0:
182,192,190563,1,0,0:0:0:0:
402,192,190638,1,0,0:0:0:0:
109,192,190638,1,0,0:0:0:0:
475,192,190638,1,0,0:0:0:0:
256,192,190713,1,0,0:0:0:0:
329,192,190713,1,0,0:0:0:0:
182,192,190788,128,2,190863:0:0:0:0:
36,192,190788,1,0,0:0:0:0:
475,192,190788,1,0,0:0:0:0:
329,192,190863,128,0,191013:0:0:0:0:
402,192,190863,128,0,191013:0:0:0:0:
109,192,190863,1,0,0:0:0:0:
182,192,190938,1,0,0:0:0:0:
109,192,191013,128,0,191163:0:0:0:0:
36,192,191013,128,0,191163:0:0:0:0:
256,192,191013,1,0,0:0:0:0:
402,192,191088,1,2,0:0:0:0:
475,192,191088,1,8,0:0:0:0:
329,192,191163,1,0,0:0:0:0:
36,192,191238,128,0,191388:0:0:0:0:
475,192,191238,128,0,191388:0:0:0:0:
256,192,191238,1,0,0:0:0:0:
182,192,191313,1,0,0:0:0:0:
109,192,191388,1,2,0:0:0:0:
329,192,191388,128,0,191463:0:0:0:0:
256,192,191463,1,0,0:0:0:0:
402,192,191463,128,0,191688:0:0:0:0:
475,192,191463,128,0,191688:0:0:0:0:
182,192,191538,1,0,0:0:0:0:
329,192,191613,1,0,0:0:0:0:
36,192,191688,128,8,191838:0:0:0:0:
109,192,191688,128,2,191838:0:0:0:0:
256,192,191688,1,0,0:0:0:0:
182,192,191763,1,0,0:0:0:0:
402,192,191838,1,0,0:0:0:0:
475,192,191838,1,0,0:0:0:0:
329,192,191913,1,0,0:0:0:0:
36,192,191988,128,2,192138:0:0:0:0:
182,192,191988,1,0,0:0:0:0:
475,192,191988,128,0,192138:0:0:0:0:
256,192,192063,1,0,0:0:0:0:
109,192,192138,1,2,0:0:0:0:
402,192,192138,1,0,0:0:0:0:
182,192,192213,1,0,0:0:0:0:
36,192,192288,128,8,192363:0:0:0:0:
329,192,192288,128,2,192363:0:0:0:0:
256,192,192288,1,0,0:0:0:0:
109,192,192363,128,0,192438:0:0:0:0:
402,192,192363,128,0,192438:0:0:0:0:
182,192,192438,128,2,192513:0:0:0:0:
475,192,192438,128,0,192513:0:0:0:0:
36,192,192513,128,0,192588:0:0:0:0:
329,192,192513,128,2,192588:0:0:0:0:
182,192,192588,1,2,0:0:0:0:
402,192,192588,1,4,0:0:0:0:
475,192,192588,1,0,0:0:0:0:
109,192,192588,1,0,0:0:0:0:
256,192,192663,1,0,0:0:0:0:
329,192,192663,1,0,0:0:0:0:
36,192,192738,1,2,0:0:0:0:
109,192,192738,1,0,0:0:0:0:
402,192,192738,1,0,0:0:0:0:
182,192,192813,1,0,0:0:0:0:
36,192,192888,1,2,0:0:0:0:
329,192,192888,1,8,0:0:0:0:
475,192,192888,1,0,0:0:0:0:
182,192,192963,1,0,0:0:0:0:
256,192,192963,1,0,0:0:0:0:
36,192,193038,1,2,0:0:0:0:
109,192,193038,1,0,0:0:0:0:
402,192,193038,1,0,0:0:0:0:
256,192,193113,1,0,0:0:0:0:
329,192,193113,1,0,0:0:0:0:
109,192,193188,1,2,0:0:0:0:
402,192,193188,1,0,0:0:0:0:
475,192,193188,1,0,0:0:0:0:
182,192,193263,1,0,0:0:0:0:
256,192,193263,1,0,0:0:0:0:
36,192,193338,1,2,0:0:0:0:
329,192,193338,1,0,0:0:0:0:
475,192,193338,1,0,0:0:0:0:
109,192,193413,1,0,0:0:0:0:
182,192,193413,1,0,0:0:0:0:
36,192,193488,1,2,0:0:0:0:
329,192,193488,1,8,0:0:0:0:
402,192,193488,1,0,0:0:0:0:
182,192,193563,1,0,0:0:0:0:
256,192,193563,1,0,0:0:0:0:
36,192,193638,1,2,0:0:0:0:
109,192,193638,1,0,0:0:0:0:
475,192,193638,1,0,0:0:0:0:
256,192,193713,1,2,0:0:0:0:
329,192,193713,1,0,0:0:0:0:
402,192,193713,1,0,0:0:0:0:
36,192,193788,1,4,0:0:0:0:
109,192,193788,1,2,0:0:0:0:
182,192,193788,1,0,0:0:0:0:
475,192,193788,1,0,0:0:0:0:
329,192,193863,1,0,0:0:0:0:
36,192,193938,1,2,0:0:0:0:
256,192,193938,1,0,0:0:0:0:
402,192,193938,1,0,0:0:0:0:
475,192,193938,1,0,0:0:0:0:
182,192,194013,1,0,0:0:0:0:
36,192,194088,1,8,0:0:0:0:
109,192,194088,1,2,0:0:0:0:
329,192,194088,1,0,0:0:0:0:
475,192,194088,1,0,0:0:0:0:
256,192,194163,1,0,0:0:0:0:
36,192,194238,1,2,0:0:0:0:
109,192,194238,1,0,0:0:0:0:
329,192,194238,1,0,0:0:0:0:
402,192,194238,1,0,0:0:0:0:
182,192,194313,1,2,0:0:0:0:
256,192,194313,1,0,0:0:0:0:
36,192,194388,1,2,0:0:0:0:
109,192,194388,1,0,0:0:0:0:
402,192,194388,1,0,0:0:0:0:
475,192,194388,1,0,0:0:0:0:
329,192,194463,1,0,0:0:0:0:
109,192,194538,1,2,0:0:0:0:
182,192,194538,1,0,0:0:0:0:
402,192,194538,1,0,0:0:0:0:
475,192,194538,1,0,0:0:0:0:
256,192,194613,1,0,0:0:0:0:
36,192,194688,1,8,0:0:0:0:
109,192,194688,1,2,0:0:0:0:
182,192,194688,1,0,0:0:0:0:
475,192,194688,1,0,0:0:0:0:
329,192,194763,1,2,0:0:0:0:
402,192,194763,1,0,0:0:0:0:
36,192,194838,1,2,0:0:0:0:
109,192,194838,1,0,0:0:0:0:
256,192,194838,1,0,0:0:0:0:
475,192,194838,1,0,0:0:0:0:
182,192,194913,1,2,0:0:0:0:
329,192,194913,1,0,0:0:0:0:
36,192,194988,1,2,0:0:0:0:
402,192,194988,1,4,0:0:0:0:
475,192,194988,1,0,0:0:0:0:
109,192,195063,1,2,0:0:0:0:
182,192,195063,1,0,0:0:0:0:
256,192,195063,1,0,0:0:0:0:
36,192,195138,1,2,0:0:0:0:
329,192,195138,1,0,0:0:0:0:
402,192,195138,1,0,0:0:0:0:
109,192,195213,1,2,0:0:0:0:
182,192,195213,1,0,0:0:0:0:
475,192,195213,1,0,0:0:0:0:
36,192,195288,1,8,0:0:0:0:
256,192,195288,1,2,0:0:0:0:
329,192,195288,1,0,0:0:0:0:
182,192,195363,1,2,0:0:0:0:
402,192,195363,1,0,0:0:0:0:
475,192,195363,1,0,0:0:0:0:
36,192,195438,1,2,0:0:0:0:
109,192,195438,1,0,0:0:0:0:
329,192,195438,1,0,0:0:0:0:
256,192,195513,1,2,0:0:0:0:
402,192,195513,1,0,0:0:0:0:
475,192,195513,1,0,0:0:0:0:
36,192,195588,1,2,0:0:0:0:
109,192,195588,1,0,0:0:0:70:cymbal_short.wav
329,192,195588,1,0,0:0:0:0:
182,192,195663,1,2,0:0:0:0:
402,192,195663,1,0,0:0:0:0:
475,192,195663,1,0,0:0:0:0:
36,192,195738,1,2,0:0:0:0:
109,192,195738,1,0,0:0:0:70:cymbal_short.wav
256,192,195738,1,0,0:0:0:0:
329,192,195813,1,2,0:0:0:0:
402,192,195813,1,0,0:0:0:0:
475,192,195813,1,0,0:0:0:0:
36,192,195888,1,8,0:0:0:0:
109,192,195888,1,2,0:0:0:0:
182,192,195888,1,0,0:0:0:70:cymbal_short.wav
256,192,195963,1,2,0:0:0:0:
402,192,195963,1,0,0:0:0:0:
475,192,195963,1,0,0:0:0:0:
36,192,196038,1,2,0:0:0:0:
109,192,196038,1,0,0:0:0:70:cymbal_short.wav
329,192,196038,1,0,0:0:0:0:
182,192,196113,1,2,0:0:0:0:
402,192,196113,1,0,0:0:0:0:
475,192,196113,1,0,0:0:0:0:
36,192,196188,1,6,0:0:0:0:
329,192,196188,1,0,0:0:0:0:
109,192,196225,1,2,0:0:0:0:
256,192,196263,1,2,0:0:0:0:
402,192,196300,1,2,0:0:0:0:
475,192,196338,1,2,0:0:0:0:
329,192,196375,1,2,0:0:0:0:
182,192,196413,1,2,0:0:0:0:
36,192,196450,1,2,0:0:0:0:
475,192,196488,1,14,0:0:0:0:
109,192,196488,1,0,0:0:0:0:
402,192,196525,1,2,0:0:0:0:
256,192,196563,1,2,0:0:0:0:
109,192,196600,1,2,0:0:0:0:
36,192,196638,1,2,0:0:0:0:
182,192,196675,1,2,0:0:0:0:
329,192,196713,1,2,0:0:0:0:
475,192,196750,1,2,0:0:0:0:
36,192,196788,1,2,0:0:0:0:
256,192,196788,1,4,0:0:0:0:
109,192,196825,1,2,0:0:0:0:
182,192,196863,1,2,0:0:0:0:
329,192,196863,1,0,0:0:0:0:
402,192,196900,1,2,0:0:0:0:
256,192,196938,1,2,0:0:0:0:
475,192,196938,1,0,0:0:0:0:
182,192,196975,1,2,0:0:0:0:
109,192,197013,1,2,0:0:0:0:
329,192,197013,1,0,0:0:0:0:
36,192,197050,1,2,0:0:0:0:
256,192,197088,1,8,0:0:0:0:
402,192,197088,1,2,0:0:0:0:
475,192,197088,1,4,0:0:0:0:
109,192,197163,1,0,0:0:0:0:
182,192,197163,1,0,0:0:0:0:
329,192,197238,1,0,0:0:0:0:
402,192,197238,1,0,0:0:0:0:
36,192,197313,1,0,0:0:0:0:
109,192,197313,1,0,0:0:0:0:
256,192,197388,1,4,0:0:0:0:
329,192,197388,1,2,0:0:0:0:
402,192,197388,1,0,0:0:0:70:winds.wav
475,192,197388,1,0,0:0:0:0:
182,192,197425,1,0,0:0:0:0:
109,192,197463,1,0,0:0:0:0:
256,192,197838,1,0,0:0:0:0:
182,192,197950,1,0,0:0:0:0:
329,192,197988,1,0,0:0:0:0:
475,192,198025,1,0,0:0:0:0:
36,192,198138,1,0,0:0:0:0:
182,192,198288,1,0,0:0:0:0:
256,192,198438,1,0,0:0:0:0:
109,192,198550,1,0,0:0:0:0:
329,192,198588,1,0,0:0:0:0:
475,192,198625,1,0,0:0:0:0:
182,192,198738,1,0,0:0:0:0:
36,192,198888,1,0,0:0:0:0:
402,192,198888,1,0,0:0:0:0:
256,192,199038,1,0,0:0:0:0:
109,192,199188,1,0,0:0:0:0:
475,192,199188,1,0,0:0:0:0:
182,192,199338,1,0,0:0:0:0:
402,192,199488,1,0,0:0:0:0:
36,192,199600,1,0,0:0:0:0:
109,192,199600,1,0,0:0:0:0:
256,192,199638,1,0,0:0:0:0:
329,192,199675,1,0,0:0:0:0:
475,192,199713,1,0,0:0:0:0:
182,192,199788,1,0,0:0:0:0:
109,192,200238,1,0,0:0:0:0:
256,192,200238,1,0,0:0:0:0:
182,192,200388,1,0,0:0:0:0:
329,192,200388,1,0,0:0:0:0:
475,192,200388,1,0,0:0:0:0:
36,192,200538,1,0,0:0:0:0:
256,192,200688,1,0,0:0:0:0:
402,192,200688,1,0,0:0:0:0:
109,192,200838,1,0,0:0:0:0:
36,192,200988,1,0,0:0:0:0:
182,192,200988,1,0,0:0:0:0:
475,192,200988,1,0,0:0:0:0:
329,192,201025,1,0,0:0:0:0:
256,192,201138,1,0,0:0:0:0:
36,192,201288,1,0,0:0:0:0:
402,192,201288,1,0,0:0:0:0:
182,192,201438,1,0,0:0:0:0:
329,192,201438,1,0,0:0:0:0:
36,192,201588,1,0,0:0:0:0:
109,192,201588,1,0,0:0:0:0:
475,192,201588,1,0,0:0:0:0:
256,192,201738,1,0,0:0:0:0:
329,192,201738,1,0,0:0:0:0:
36,192,202000,1,0,0:0:0:0:
402,192,202000,1,0,0:0:0:0:
182,192,202038,1,0,0:0:0:0:
256,192,202075,1,0,0:0:0:0:
475,192,202188,1,0,0:0:0:0:
109,192,202488,1,0,0:0:0:0:
256,192,202488,1,0,0:0:0:0:
36,192,202788,1,0,0:0:0:0:
182,192,202788,1,0,0:0:0:0:
329,192,202938,1,0,0:0:0:0:
475,192,202938,1,0,0:0:0:0:
109,192,203088,1,0,0:0:0:0:
256,192,203088,1,0,0:0:0:0:
402,192,203200,1,0,0:0:0:0:
475,192,203200,1,0,0:0:0:0:
182,192,203238,1,0,0:0:0:0:
36,192,203275,1,0,0:0:0:0:
329,192,203388,1,0,0:0:0:0:
182,192,203838,1,0,0:0:0:0:
256,192,203988,1,0,0:0:0:0:
329,192,203988,1,0,0:0:0:0:
475,192,203988,1,0,0:0:0:0:
36,192,204138,1,0,0:0:0:0:
109,192,204138,1,0,0:0:0:0:
402,192,204288,1,0,0:0:0:0:
182,192,204438,1,0,0:0:0:0:
329,192,204438,1,0,0:0:0:0:
36,192,204588,1,0,0:0:0:0:
402,192,204588,1,0,0:0:0:0:
475,192,204588,1,0,0:0:0:0:
109,192,204625,1,0,0:0:0:0:
256,192,204663,1,0,0:0:0:0:
182,192,204738,1,0,0:0:0:0:
329,192,204813,1,0,0:0:0:0:
109,192,204888,1,0,0:0:0:0:
475,192,204888,1,0,0:0:0:0:
256,192,204963,1,0,0:0:0:0:
36,192,205038,1,0,0:0:0:0:
329,192,205113,1,0,0:0:0:0:
109,192,205188,1,0,0:0:0:0:
475,192,205188,1,0,0:0:0:0:
182,192,205263,1,0,0:0:0:0:
402,192,205338,1,0,0:0:0:0:
329,192,205413,1,0,0:0:0:0:
36,192,205488,1,0,0:0:0:0:
475,192,205488,1,0,0:0:0:0:
182,192,205563,1,0,0:0:0:0:
402,192,205638,1,0,0:0:0:0:
256,192,205713,1,0,0:0:0:0:
109,192,205788,1,0,0:0:0:0:
329,192,205788,1,0,0:0:0:0:
475,192,205788,128,0,206088:0:0:0:0:
256,192,206088,1,0,0:0:0:0:
402,192,206088,128,0,206388:0:0:0:0:
36,192,206388,1,0,0:0:0:0:
182,192,206388,128,0,206688:0:0:0:0:
329,192,206388,1,0,0:0:0:0:
402,192,206538,1,0,0:0:0:0:
256,192,206613,1,0,0:0:0:0:
109,192,206688,1,0,0:0:0:0:
329,192,206688,128,0,206988:0:0:0:0:
475,192,206688,1,0,0:0:0:0:
36,192,206988,128,2,207363:0:0:0:0:
109,192,206988,128,4,207363:0:0:0:0:
182,192,206988,128,0,207363:0:0:0:70:winds.wav
402,192,206988,128,0,207363:0:0:0:0:
475,192,206988,128,0,207363:0:0:0:0:
109,192,207438,128,0,207513:0:0:0:0:
256,192,207438,128,0,207513:0:0:0:0:
475,192,207438,1,0,0:0:0:0:
182,192,207513,128,0,207588:0:0:0:0:
329,192,207513,128,0,207588:0:0:0:0:
36,192,207588,1,0,0:0:0:0:
256,192,207588,128,0,207738:0:0:0:0:
402,192,207588,128,0,207738:0:0:0:0:
475,192,207588,1,0,0:0:0:0:
109,192,207738,1,0,0:0:0:0:
182,192,207738,128,0,207813:0:0:0:0:
329,192,207738,128,0,207813:0:0:0:0:
402,192,207813,128,0,207888:0:0:0:0:
475,192,207813,128,0,207888:0:0:0:0:
36,192,207888,1,0,0:0:0:0:
109,192,207888,128,0,207963:0:0:0:0:
256,192,207888,128,0,207963:0:0:0:0:
182,192,207963,128,0,208038:0:0:0:0:
329,192,207963,128,0,208038:0:0:0:0:
256,192,208038,1,0,0:0:0:0:
402,192,208038,128,0,208188:0:0:0:0:
329,192,208188,128,0,208338:0:0:0:0:
109,192,208188,128,0,208338:0:0:0:0:
36,192,208338,1,0,0:0:0:0:
182,192,208338,1,0,0:0:0:0:
36,192,208413,128,0,208488:0:0:0:0:
182,192,208413,128,0,208488:0:0:0:0:
256,192,208488,128,0,208638:0:0:0:0:
329,192,208488,1,0,0:0:0:0:
475,192,208488,128,0,208638:0:0:0:0:
109,192,208638,1,0,0:0:0:0:
402,192,208638,1,0,0:0:0:0:
109,192,208713,128,0,208788:0:0:0:0:
329,192,208713,128,0,208788:0:0:0:0:
36,192,208788,1,2,0:0:0:0:
256,192,208788,128,0,208863:0:0:0:70:cymbal_short.wav
402,192,208788,128,0,208863:0:0:0:0:
475,192,208788,1,0,0:0:0:0:
182,192,208863,128,0,208938:0:0:0:0:
329,192,208863,128,0,208938:0:0:0:0:
36,192,208938,128,2,209013:0:0:0:0:
109,192,208938,128,0,209013:0:0:0:70:cymbal_short.wav
256,192,208938,128,0,209013:0:0:0:0:
475,192,208938,128,0,209013:0:0:0:0:
36,192,209238,128,2,209613:0:0:0:0:
109,192,209238,128,0,209613:0:0:0:70:cymbal_short.wav
182,192,209238,128,0,209613:0:0:0:0:
402,192,209238,128,0,209613:0:0:0:0:
475,192,209238,128,0,209613:0:0:0:0:
36,192,209688,1,4,0:0:0:0:
109,192,209688,1,2,0:0:0:0:
329,192,209688,1,8,0:0:0:0:
475,192,209688,1,0,0:0:0:0:
256,192,209763,1,0,0:0:0:0:
109,192,209838,1,0,0:0:0:0:
182,192,209838,1,0,0:0:0:0:
402,192,209838,1,0,0:0:0:0:
109,192,209913,128,0,209988:0:0:0:0:
182,192,209913,128,0,209988:0:0:0:0:
36,192,209988,1,2,0:0:0:0:
329,192,209988,128,0,210138:0:0:0:0:
475,192,209988,128,0,210138:0:0:0:0:
36,192,210138,128,0,210213:0:0:0:0:
256,192,210138,128,0,210213:0:0:0:0:
402,192,210138,1,0,0:0:0:0:
109,192,210213,128,0,210288:0:0:0:0:
329,192,210213,128,0,210288:0:0:0:0:
36,192,210288,1,8,0:0:0:0:
182,192,210288,128,2,210438:0:0:0:0:
402,192,210288,128,0,210438:0:0:0:0:
475,192,210288,1,0,0:0:0:0:
109,192,210438,1,0,0:0:0:0:
329,192,210438,128,0,210513:0:0:0:0:
475,192,210438,128,0,210513:0:0:0:0:
256,192,210513,128,0,210588:0:0:0:0:
402,192,210513,128,0,210588:0:0:0:0:
36,192,210588,1,2,0:0:0:0:
109,192,210588,1,0,0:0:0:0:
182,192,210588,128,0,210738:0:0:0:0:
329,192,210588,128,0,210738:0:0:0:0:
109,192,210738,128,0,210813:0:0:0:0:
256,192,210738,128,0,210813:0:0:0:0:
402,192,210738,1,0,0:0:0:0:
182,192,210813,128,0,210888:0:0:0:0:
329,192,210813,128,0,210888:0:0:0:0:
36,192,210888,1,2,0:0:0:0:
256,192,210888,128,8,211038:0:0:0:0:
402,192,210888,128,0,211038:0:0:0:0:
475,192,210888,1,0,0:0:0:0:
109,192,211038,128,0,211113:0:0:0:0:
182,192,211038,128,0,211113:0:0:0:0:
475,192,211038,1,0,0:0:0:0:
256,192,211113,128,0,211188:0:0:0:0:
329,192,211113,128,0,211188:0:0:0:0:
36,192,211188,1,2,0:0:0:0:
109,192,211188,1,0,0:0:0:70:cymbal_short.wav
402,192,211188,128,0,211263:0:0:0:0:
475,192,211188,128,0,211263:0:0:0:0:
182,192,211263,128,0,211338:0:0:0:0:
256,192,211263,128,0,211338:0:0:0:0:
36,192,211338,1,2,0:0:0:0:
329,192,211338,128,0,211488:0:0:0:70:cymbal_short.wav
475,192,211338,128,0,211488:0:0:0:0:
402,192,211488,1,8,0:0:0:0:
182,192,211488,128,2,211563:0:0:0:0:
109,192,211488,1,0,0:0:0:0:
256,192,211563,128,0,211638:0:0:0:0:
36,192,211638,128,2,211713:0:0:0:0:
109,192,211638,128,0,211713:0:0:0:0:
402,192,211638,128,0,211713:0:0:0:0:
475,192,211638,128,0,211713:0:0:0:0:
182,192,211713,128,2,211788:0:0:0:0:
256,192,211713,128,0,211788:0:0:0:0:
329,192,211713,128,0,211788:0:0:0:0:
36,192,211788,128,2,211938:0:0:0:0:
109,192,211788,128,0,211938:0:0:0:70:cymbal_short.wav
402,192,211788,128,0,211938:0:0:0:0:
475,192,211788,128,0,211938:0:0:0:0:
182,192,211938,1,0,0:0:0:0:
329,192,211938,1,0,0:0:0:0:
182,192,212013,128,0,212088:0:0:0:0:
329,192,212013,128,0,212088:0:0:0:0:
109,192,212088,128,0,212163:0:0:0:0:
256,192,212088,128,0,212163:0:0:0:0:
402,192,212088,128,0,212163:0:0:0:0:
36,192,212238,128,2,212388:0:0:0:0:
182,192,212238,128,0,212388:0:0:0:70:cymbal_short.wav
329,192,212238,128,0,212388:0:0:0:0:
475,192,212238,128,0,212388:0:0:0:0:
109,192,212388,1,0,0:0:0:0:
402,192,212388,1,0,0:0:0:0:
109,192,212463,128,0,212538:0:0:0:0:
402,192,212463,128,0,212538:0:0:0:0:
256,192,212538,128,0,212613:0:0:0:0:
182,192,212538,128,0,212613:0:0:0:0:
329,192,212538,128,0,212613:0:0:0:0:
36,192,212688,128,8,213213:0:0:0:0:
109,192,212688,128,2,213213:0:0:0:0:
256,192,212688,128,4,213213:0:0:0:0:
402,192,212688,128,0,213213:0:0:0:70:winds.wav
475,192,212688,128,0,213213:0:0:0:0:
182,192,213288,1,0,0:0:0:0:
256,192,213325,1,0,0:0:0:0:
329,192,213363,1,0,0:0:0:0:
36,192,213438,1,0,0:0:0:0:
109,192,213438,1,0,0:0:0:0:
475,192,213438,1,0,0:0:0:0:
36,192,213513,128,0,213588:0:0:0:0:
109,192,213513,128,0,213588:0:0:0:0:
256,192,213588,1,0,0:0:0:70:LR_Snare Drum 3.wav
402,192,213588,128,0,213663:0:0:0:0:
475,192,213588,128,0,213663:0:0:0:0:
182,192,213663,1,0,0:0:0:70:LR_Snare Drum 3.wav
36,192,213738,1,0,0:0:0:70:LR_Snare Drum 3.wav
329,192,213738,128,0,213813:0:0:0:0:
402,192,213738,128,0,213813:0:0:0:0:
109,192,213813,128,0,213888:0:0:0:70:LR_Snare Drum 3.wav
182,192,213813,128,0,213888:0:0:0:0:
36,192,213888,1,0,0:0:0:70:LR_Snare Drum 3.wav
329,192,213888,1,0,0:0:0:0:
475,192,213888,1,0,0:0:0:0:
182,192,213963,128,0,214038:0:0:0:70:LR_Snare Drum 3.wav
256,192,213963,128,0,214038:0:0:0:0:
109,192,214038,1,0,0:0:0:70:LR_Snare Drum.wav
402,192,214038,128,0,214113:0:0:0:0:
475,192,214038,128,0,214113:0:0:0:0:
256,192,214113,128,0,214188:0:0:0:70:LR_Snare Drum.wav
329,192,214113,128,0,214188:0:0:0:0:
36,192,214188,128,2,214413:0:0:0:0:
109,192,214188,128,4,214413:0:0:0:0:
402,192,214188,128,0,214413:0:0:0:0:
475,192,214188,128,0,214413:0:0:0:0:
36,192,214488,1,2,0:0:0:0:
182,192,214488,128,8,214563:0:0:0:0:
402,192,214488,128,0,214563:0:0:0:0:
475,192,214488,1,0,0:0:0:0:
109,192,214563,128,0,214638:0:0:0:0:
329,192,214563,128,0,214638:0:0:0:0:
36,192,214638,1,0,0:0:0:0:
256,192,214638,128,0,214713:0:0:0:0:
475,192,214638,128,0,214713:0:0:0:0:
182,192,214713,128,0,214788:0:0:0:0:
402,192,214713,128,0,214788:0:0:0:0:
36,192,214788,128,2,214863:0:0:0:0:
109,192,214788,128,0,214863:0:0:0:0:
256,192,214788,128,0,214863:0:0:0:0:
475,192,214788,128,0,214863:0:0:0:0:
36,192,214938,1,0,0:0:0:0:
182,192,214938,128,0,215013:0:0:0:0:
402,192,214938,128,0,215013:0:0:0:0:
256,192,215013,128,0,215088:0:0:0:0:
329,192,215013,128,0,215088:0:0:0:0:
109,192,215088,1,8,0:0:0:0:
182,192,215088,128,2,215163:0:0:0:0:
475,192,215088,128,0,215163:0:0:0:0:
329,192,215163,128,0,215238:0:0:0:0:
402,192,215163,128,0,215238:0:0:0:0:
36,192,215238,128,2,215838:0:0:0:0:
109,192,215238,1,0,0:0:0:0:
256,192,215238,128,0,215838:0:0:0:0:
475,192,215238,1,0,0:0:0:0:
182,192,215388,128,2,215538:0:0:0:0:
329,192,215388,128,0,215538:0:0:0:0:
475,192,215388,128,0,215538:0:0:0:0:
109,192,215688,128,2,215838:0:0:0:0:
402,192,215688,128,8,215838:0:0:0:0:
475,192,215688,128,0,215838:0:0:0:0:
182,192,215838,1,0,0:0:0:0:
329,192,215838,1,0,0:0:0:0:
402,192,215913,1,0,0:0:0:0:
36,192,215988,128,2,216063:0:0:0:0:
109,192,215988,128,0,216063:0:0:0:0:
256,192,215988,128,0,216063:0:0:0:0:
475,192,215988,128,0,216063:0:0:0:0:
36,192,216138,128,2,216213:0:0:0:0:
182,192,216138,128,0,216213:0:0:0:0:
402,192,216138,1,0,0:0:0:0:
475,192,216138,1,0,0:0:0:0:
109,192,216213,128,0,216288:0:0:0:0:
256,192,216213,128,0,216288:0:0:0:0:
182,192,216288,1,8,0:0:0:0:
329,192,216288,1,2,0:0:0:0:
402,192,216288,1,0,0:0:0:0:
36,192,216363,128,2,216438:0:0:0:0:
109,192,216363,128,0,216438:0:0:0:0:
256,192,216438,128,2,216513:0:0:0:0:
329,192,216438,128,0,216513:0:0:0:0:
475,192,216438,1,0,0:0:0:0:
36,192,216513,1,2,0:0:0:0:
109,192,216513,128,0,216588:0:0:0:0:
182,192,216513,128,0,216588:0:0:0:0:
256,192,216588,128,2,216824:0:0:0:0:
329,192,216588,128,4,216824:0:0:0:0:
402,192,216588,128,0,216824:0:0:0:0:
475,192,216588,128,0,216824:0:0:0:0:
36,192,216745,1,2,0:0:0:0:
109,192,216745,1,0,0:0:0:0:
182,192,216745,1,0,0:0:0:0:
109,192,216903,1,8,0:0:0:0:
256,192,216903,128,2,216982:0:0:0:0:
402,192,216903,128,0,216982:0:0:0:0:
475,192,216903,1,0,0:0:0:0:
36,192,216982,128,0,217061:0:0:0:0:
182,192,216982,128,0,217061:0:0:0:0:
329,192,217061,128,2,217140:0:0:0:0:
402,192,217061,128,0,217140:0:0:0:0:
475,192,217061,1,0,0:0:0:0:
109,192,217140,128,0,217219:0:0:0:0:
182,192,217140,128,0,217219:0:0:0:0:
36,192,217219,128,2,217302:0:0:0:0:
256,192,217219,128,0,217302:0:0:0:0:
329,192,217219,128,0,217302:0:0:0:0:
475,192,217219,128,0,217302:0:0:0:0:
36,192,217385,1,2,0:0:0:0:
109,192,217385,1,0,0:0:0:0:
182,192,217385,128,0,217469:0:0:0:0:
329,192,217385,128,0,217469:0:0:0:0:
402,192,217469,128,0,217552:0:0:0:0:
475,192,217469,128,0,217552:0:0:0:0:
36,192,217552,1,8,0:0:0:0:
182,192,217552,1,2,0:0:0:0:
256,192,217552,1,0,0:0:0:0:
329,192,217635,128,0,217719:0:0:0:0:
402,192,217635,128,0,217719:0:0:0:0:
36,192,217719,1,2,0:0:0:0:
109,192,217719,128,0,217802:0:0:0:0:
475,192,217719,128,0,217802:0:0:0:0:
182,192,217802,1,2,0:0:0:0:
256,192,217802,128,0,217885:0:0:0:0:
329,192,217802,128,0,217885:0:0:0:0:
109,192,217885,1,2,0:0:0:0:
402,192,217885,1,4,0:0:0:0:
475,192,217885,1,0,0:0:0:0:
109,192,217973,1,2,0:0:0:0:
182,192,217973,1,0,0:0:0:0:
36,192,218061,1,2,0:0:0:0:
256,192,218061,1,0,0:0:0:0:
329,192,218061,1,0,0:0:0:0:
182,192,218149,1,2,0:0:0:0:
402,192,218149,1,0,0:0:0:0:
475,192,218149,1,0,0:0:0:0:
36,192,218237,1,2,0:0:0:0:
109,192,218237,1,8,0:0:0:0:
329,192,218237,1,0,0:0:0:0:
182,192,218326,1,2,0:0:0:0:
329,192,218326,1,0,0:0:0:0:
36,192,218414,1,2,0:0:0:0:
256,192,218414,1,0,0:0:0:0:
402,192,218414,1,0,0:0:0:0:
109,192,218502,1,2,0:0:0:0:
329,192,218502,1,0,0:0:0:0:
475,192,218502,1,0,0:0:0:0:
36,192,218590,1,2,0:0:0:0:
182,192,218590,1,0,0:0:0:0:
256,192,218636,1,2,0:0:0:0:
329,192,218683,1,2,0:0:0:0:
402,192,218730,1,2,0:0:0:0:
256,192,218777,1,2,0:0:0:0:
475,192,218777,1,0,0:0:0:0:
182,192,218824,1,2,0:0:0:0:
109,192,218871,1,2,0:0:0:0:
329,192,218871,1,0,0:0:0:0:
36,192,218918,1,2,0:0:0:0:
256,192,218965,1,2,0:0:0:0:
402,192,218965,128,8,219246:0:0:0:0:
475,192,218965,1,0,0:0:0:0:
109,192,219027,128,0,219246:0:0:0:0:
329,192,219090,128,0,219246:0:0:0:0:
36,192,219340,128,4,220090:0:0:0:0:
182,192,219340,128,2,220090:0:0:0:0:
256,192,219340,128,0,220940:0:0:0:70:winds.wav
402,192,219340,128,0,220090:0:0:0:0:
475,192,219340,128,0,220090:0:0:0:0:
109,192,220090,1,0,0:0:0:0:
329,192,220140,1,0,0:0:0:0:
475,192,220190,1,0,0:0:0:0:
36,192,220790,1,0,0:0:0:0:
182,192,220840,1,0,0:0:0:0:
329,192,220890,1,0,0:0:0:0:
109,192,220940,128,0,220990:0:0:0:0:
475,192,220940,1,0,0:0:0:0:
182,192,220990,128,0,221040:0:0:0:0:
329,192,221040,128,0,221090:0:0:0:0:
402,192,221090,128,0,221140:0:0:0:0:
182,192,221140,128,0,221190:0:0:0:0:
256,192,221190,128,0,221240:0:0:0:0:
36,192,221240,128,0,221290:0:0:0:0:
109,192,221290,128,0,221340:0:0:0:0:
329,192,221340,128,0,221390:0:0:0:0:
256,192,221390,128,0,221440:0:0:0:0:
475,192,221440,128,0,221490:0:0:0:0:
402,192,221490,128,0,221540:0:0:0:0:
182,192,221540,128,0,221590:0:0:0:0:
256,192,221590,128,0,221640:0:0:0:0:
36,192,221640,128,0,221690:0:0:0:0:
182,192,221690,128,0,221740:0:0:0:0:
329,192,221740,128,0,221790:0:0:0:0:
475,192,221790,128,0,221840:0:0:0:0:
109,192,221840,128,0,221890:0:0:0:0:
256,192,221890,128,0,221940:0:0:0:0:
402,192,221940,128,0,221990:0:0:0:0:
329,192,221990,128,0,222040:0:0:0:0:
182,192,222040,128,0,222090:0:0:0:0:
475,192,222090,128,0,222140:0:0:0:0:
36,192,222140,1,0,0:0:0:0:
109,192,222190,1,0,0:0:0:0:
256,192,222240,1,0,0:0:0:0:
329,192,222290,1,0,0:0:0:0:
475,192,222340,1,0,0:0:0:0:
402,192,222390,1,0,0:0:0:0:
182,192,222440,1,0,0:0:0:0:
109,192,222490,1,0,0:0:0:0:
36,192,222546,1,2,0:0:0:0:
256,192,222546,1,0,0:0:0:0:
329,192,222546,128,0,222696:0:0:0:0:
475,192,222546,1,0,0:0:0:0:
109,192,222696,1,0,0:0:0:0:
182,192,222696,1,0,0:0:0:0:
329,192,222771,1,0,0:0:0:0:
36,192,222846,1,2,0:0:0:0:
256,192,222846,128,8,222996:0:0:0:0:
402,192,222846,1,4,0:0:0:0:
475,192,222846,1,0,0:0:0:0:
109,192,222846,1,0,0:0:0:0:
182,192,222921,1,0,0:0:0:0:
36,192,222996,1,0,0:0:0:0:
329,192,222996,128,0,223146:0:0:0:0:
402,192,222996,1,0,0:0:0:0:
256,192,223071,1,0,0:0:0:0:
36,192,223146,1,2,0:0:0:0:
109,192,223146,1,0,0:0:0:0:
182,192,223146,1,0,0:0:0:0:
475,192,223146,1,0,0:0:0:0:
402,192,223221,1,0,0:0:0:0:
36,192,223296,128,0,223446:0:0:0:0:
182,192,223296,1,0,0:0:0:0:
475,192,223296,1,0,0:0:0:0:
256,192,223371,1,0,0:0:0:0:
109,192,223446,1,8,0:0:0:0:
329,192,223446,128,2,223596:0:0:0:0:
402,192,223446,1,0,0:0:0:0:
475,192,223446,1,0,0:0:0:0:
182,192,223521,1,0,0:0:0:0:
36,192,223596,1,0,0:0:0:0:
256,192,223596,128,0,223746:0:0:0:0:
402,192,223596,1,0,0:0:0:0:
182,192,223671,1,0,0:0:0:0:
36,192,223746,1,2,0:0:0:0:
109,192,223746,1,0,0:0:0:0:
329,192,223746,1,0,0:0:0:0:
475,192,223746,128,0,223896:0:0:0:0:
256,192,223821,1,0,0:0:0:0:
182,192,223896,1,0,0:0:0:0:
402,192,223896,1,0,0:0:0:0:
329,192,223971,1,0,0:0:0:0:
36,192,224046,1,2,0:0:0:0:
109,192,224046,1,8,0:0:0:0:
256,192,224046,128,0,224196:0:0:0:0:
475,192,224046,1,0,0:0:0:0:
329,192,224121,1,0,0:0:0:0:
109,192,224196,1,0,0:0:0:0:
182,192,224196,1,0,0:0:0:0:
402,192,224196,128,0,224346:0:0:0:0:
256,192,224271,1,0,0:0:0:0:
36,192,224346,1,2,0:0:0:0:
329,192,224346,1,0,0:0:0:0:
475,192,224346,1,0,0:0:0:0:
109,192,224421,1,0,0:0:0:0:
182,192,224496,1,0,0:0:0:0:
256,192,224496,128,0,224646:0:0:0:0:
402,192,224496,1,0,0:0:0:0:
109,192,224571,1,0,0:0:0:0:
36,192,224646,1,8,0:0:0:0:
329,192,224646,1,2,0:0:0:0:
402,192,224646,128,0,224796:0:0:0:0:
475,192,224646,1,0,0:0:0:0:
182,192,224721,1,0,0:0:0:0:
36,192,224796,1,0,0:0:0:0:
109,192,224796,1,0,0:0:0:0:
329,192,224796,128,0,224946:0:0:0:0:
256,192,224871,1,0,0:0:0:0:
109,192,224946,1,2,0:0:0:0:
182,192,224946,1,0,0:0:0:0:
402,192,224946,1,0,0:0:0:0:
475,192,224946,128,0,225096:0:0:0:0:
329,192,225021,1,0,0:0:0:0:
36,192,225096,1,0,0:0:0:0:
182,192,225096,1,0,0:0:0:0:
256,192,225171,1,0,0:0:0:0:
36,192,225246,1,2,0:0:0:0:
109,192,225246,128,8,225396:0:0:0:0:
329,192,225246,1,0,0:0:0:0:
475,192,225246,1,0,0:0:0:0:
182,192,225321,1,0,0:0:0:0:
256,192,225396,1,0,0:0:0:0:
402,192,225396,1,0,0:0:0:0:
475,192,225396,128,0,225546:0:0:0:0:
182,192,225471,1,0,0:0:0:0:
36,192,225546,1,2,0:0:0:0:
109,192,225546,1,0,0:0:0:0:
329,192,225546,1,0,0:0:0:0:
256,192,225621,1,0,0:0:0:0:
182,192,225696,128,0,225846:0:0:0:0:
402,192,225696,1,0,0:0:0:0:
475,192,225696,1,0,0:0:0:0:
329,192,225771,1,0,0:0:0:0:
36,192,225846,1,8,0:0:0:0:
109,192,225846,1,2,0:0:0:0:
402,192,225846,1,0,0:0:0:0:
475,192,225846,128,0,225996:0:0:0:0:
182,192,225921,1,0,0:0:0:0:
36,192,225996,1,0,0:0:0:0:
256,192,225996,1,0,0:0:0:0:
329,192,225996,128,0,226146:0:0:0:0:
109,192,226071,1,0,0:0:0:0:
36,192,226146,1,2,0:0:0:0:
182,192,226146,1,0,0:0:0:0:
402,192,226146,128,0,226296:0:0:0:0:
475,192,226146,1,0,0:0:0:0:
329,192,226221,1,0,0:0:0:0:
109,192,226296,1,0,0:0:0:0:
182,192,226296,1,0,0:0:0:0:
256,192,226371,1,0,0:0:0:0:
36,192,226446,1,2,0:0:0:0:
109,192,226446,128,8,226596:0:0:0:0:
329,192,226446,1,0,0:0:0:0:
475,192,226446,1,0,0:0:0:0:
182,192,226521,1,0,0:0:0:0:
36,192,226596,1,0,0:0:0:0:
329,192,226596,128,0,226746:0:0:0:0:
402,192,226596,1,0,0:0:0:0:
256,192,226671,1,0,0:0:0:0:
109,192,226746,1,2,0:0:0:0:
182,192,226746,128,0,226896:0:0:0:0:
402,192,226746,1,0,0:0:0:0:
475,192,226746,1,0,0:0:0:0:
329,192,226821,1,0,0:0:0:0:
36,192,226896,1,0,0:0:0:0:
256,192,226896,1,0,0:0:0:0:
109,192,226971,1,0,0:0:0:0:
36,192,227046,1,8,0:0:0:0:
182,192,227046,1,2,0:0:0:0:
402,192,227046,128,0,227196:0:0:0:0:
475,192,227046,1,0,0:0:0:0:
329,192,227121,1,0,0:0:0:0:
36,192,227196,1,2,0:0:0:0:
109,192,227196,1,0,0:0:0:0:
256,192,227196,128,0,227346:0:0:0:0:
475,192,227196,1,0,0:0:0:0:
109,192,227346,1,0,0:0:0:0:
182,192,227346,128,0,227496:0:0:0:0:
329,192,227346,1,0,0:0:0:0:
256,192,227496,1,0,0:0:0:0:
36,192,227496,1,0,0:0:0:0:
329,192,227571,1,0,0:0:0:0:
402,192,227646,128,4,227796:0:0:0:0:
182,192,227646,1,8,0:0:0:0:
36,192,227646,1,2,0:0:0:0:
475,192,227646,1,0,0:0:0:0:
109,192,227646,1,0,0:0:0:0:
256,192,227721,1,0,0:0:0:0:
475,192,227796,1,0,0:0:0:0:
329,192,227796,1,0,0:0:0:0:
109,192,227796,128,0,227946:0:0:0:0:
182,192,227871,1,0,0:0:0:0:
36,192,227946,1,2,0:0:0:0:
256,192,227946,1,0,0:0:0:0:
402,192,227946,1,0,0:0:0:0:
109,192,228021,1,0,0:0:0:0:
182,192,228096,1,0,0:0:0:0:
329,192,228096,128,0,228246:0:0:0:0:
475,192,228096,1,0,0:0:0:0:
109,192,228171,1,0,0:0:0:0:
36,192,228246,1,2,0:0:0:0:
256,192,228246,128,8,228396:0:0:0:0:
402,192,228246,1,0,0:0:0:0:
475,192,228246,1,0,0:0:0:0:
182,192,228321,1,0,0:0:0:0:
109,192,228396,1,0,0:0:0:0:
329,192,228396,1,0,0:0:0:0:
402,192,228396,128,0,228546:0:0:0:0:
256,192,228471,1,0,0:0:0:0:
36,192,228546,1,2,0:0:0:0:
109,192,228546,1,0,0:0:0:0:
182,192,228546,1,0,0:0:0:0:
475,192,228546,128,0,228696:0:0:0:0:
329,192,228621,1,0,0:0:0:0:
182,192,228696,1,0,0:0:0:0:
402,192,228696,1,0,0:0:0:0:
256,192,228771,1,0,0:0:0:0:
36,192,228846,128,8,228996:0:0:0:0:
109,192,228846,1,2,0:0:0:0:
329,192,228846,1,0,0:0:0:0:
475,192,228846,1,0,0:0:0:0:
182,192,228921,1,0,0:0:0:0:
256,192,228996,1,0,0:0:0:0:
402,192,228996,128,0,229146:0:0:0:0:
475,192,228996,1,0,0:0:0:0:
182,192,229071,1,0,0:0:0:0:
36,192,229146,1,2,0:0:0:0:
109,192,229146,1,0,0:0:0:0:
329,192,229146,1,0,0:0:0:0:
256,192,229221,1,0,0:0:0:0:
109,192,229296,1,0,0:0:0:0:
182,192,229296,128,0,229446:0:0:0:0:
475,192,229296,1,0,0:0:0:0:
329,192,229371,1,0,0:0:0:0:
36,192,229446,1,2,0:0:0:0:
256,192,229446,128,8,229596:0:0:0:0:
402,192,229446,1,0,0:0:0:0:
475,192,229446,1,0,0:0:0:0:
109,192,229521,1,0,0:0:0:0:
182,192,229596,1,0,0:0:0:0:
329,192,229596,128,0,229746:0:0:0:0:
402,192,229596,1,0,0:0:0:0:
36,192,229671,1,0,0:0:0:0:
109,192,229746,1,2,0:0:0:0:
182,192,229746,1,0,0:0:0:0:
256,192,229746,1,0,0:0:0:0:
475,192,229746,128,0,229896:0:0:0:0:
402,192,229821,1,0,0:0:0:0:
36,192,229896,1,0,0:0:0:0:
329,192,229896,1,0,0:0:0:0:
182,192,229971,1,0,0:0:0:0:
36,192,230046,1,8,0:0:0:0:
109,192,230046,1,2,0:0:0:0:
256,192,230046,1,0,0:0:0:0:
475,192,230046,1,0,0:0:0:0:
402,192,230121,1,0,0:0:0:0:
329,192,230121,1,0,0:0:0:0:
109,192,230196,1,0,0:0:0:0:
182,192,230196,1,0,0:0:0:0:
475,192,230196,128,0,230346:0:0:0:0:
256,192,230271,1,0,0:0:0:0:
36,192,230346,1,2,0:0:0:0:
329,192,230346,1,0,0:0:0:0:
402,192,230346,1,0,0:0:0:0:
182,192,230421,1,0,0:0:0:0:
109,192,230496,128,0,230646:0:0:0:0:
402,192,230496,1,0,0:0:0:0:
475,192,230496,1,0,0:0:0:0:
329,192,230571,1,0,0:0:0:0:
36,192,230646,1,2,0:0:0:0:
182,192,230646,1,8,0:0:0:0:
256,192,230646,128,0,230796:0:0:0:0:
475,192,230646,1,0,0:0:0:0:
402,192,230721,1,0,0:0:0:0:
36,192,230796,1,0,0:0:0:0:
109,192,230796,1,0,0:0:0:0:
329,192,230796,128,0,230946:0:0:0:0:
256,192,230871,1,0,0:0:0:0:
109,192,230946,1,2,0:0:0:0:
182,192,230946,1,0,0:0:0:0:
402,192,230946,1,0,0:0:0:0:
475,192,230946,128,0,231021:0:0:0:0:
329,192,231021,1,0,0:0:0:0:
36,192,231096,1,0,0:0:0:0:
182,192,231096,1,0,0:0:0:0:
475,192,231096,128,0,231171:0:0:0:0:
329,192,231171,1,0,0:0:0:0:
36,192,231246,1,8,0:0:0:0:
109,192,231246,1,2,0:0:0:0:
402,192,231246,128,0,231321:0:0:0:0:
475,192,231246,1,0,0:0:0:0:
256,192,231321,1,0,0:0:0:0:
109,192,231396,1,0,0:0:0:0:
182,192,231396,1,0,0:0:0:0:
402,192,231396,128,0,231471:0:0:0:0:
329,192,231471,1,0,0:0:0:0:
36,192,231546,1,2,0:0:0:0:
182,192,231546,128,0,231621:0:0:0:0:
256,192,231546,1,0,0:0:0:0:
475,192,231546,1,0,0:0:0:0:
402,192,231621,1,0,0:0:0:0:
36,192,231696,1,2,0:0:0:0:
109,192,231696,1,0,0:0:0:0:
182,192,231696,128,0,231771:0:0:0:0:
475,192,231696,1,0,0:0:0:0:
256,192,231771,1,0,0:0:0:0:
36,192,231846,128,2,231921:0:0:0:0:
329,192,231846,1,8,0:0:0:0:
402,192,231846,1,0,0:0:0:0:
475,192,231846,1,0,0:0:0:0:
109,192,231921,1,2,0:0:0:0:
182,192,231921,1,0,0:0:0:0:
36,192,231996,128,2,232071:0:0:0:0:
329,192,231996,1,0,0:0:0:0:
402,192,231996,1,0,0:0:0:0:
182,192,232071,1,2,0:0:0:0:
256,192,232071,1,0,0:0:0:0:
36,192,232146,1,2,0:0:0:0:
109,192,232146,1,4,0:0:0:0:
402,192,232146,1,0,0:0:0:0:
475,192,232146,128,0,232296:0:0:0:0:
329,192,232146,1,0,0:0:0:0:
109,192,232296,1,0,0:0:0:0:
182,192,232296,1,0,0:0:0:0:
256,192,232371,1,0,0:0:0:0:
36,192,232446,1,2,0:0:0:0:
329,192,232446,128,8,232596:0:0:0:0:
402,192,232446,1,0,0:0:0:0:
475,192,232446,1,0,0:0:0:0:
182,192,232521,1,0,0:0:0:0:
36,192,232596,1,0,0:0:0:0:
109,192,232596,1,0,0:0:0:0:
402,192,232596,128,0,232746:0:0:0:0:
256,192,232671,1,0,0:0:0:0:
109,192,232746,1,2,0:0:0:0:
182,192,232746,1,0,0:0:0:0:
329,192,232746,1,0,0:0:0:0:
475,192,232746,1,0,0:0:0:0:
36,192,232821,1,0,0:0:0:0:
182,192,232896,128,0,233046:0:0:0:0:
256,192,232896,1,0,0:0:0:0:
402,192,232896,1,0,0:0:0:0:
109,192,232971,1,0,0:0:0:0:
36,192,233046,1,8,0:0:0:0:
256,192,233046,128,2,233196:0:0:0:0:
329,192,233046,1,0,0:0:0:0:
475,192,233046,1,0,0:0:0:0:
182,192,233121,1,0,0:0:0:0:
36,192,233196,1,0,0:0:0:0:
402,192,233196,1,0,0:0:0:0:
475,192,233196,1,0,0:0:0:0:
109,192,233271,1,0,0:0:0:0:
329,192,233271,1,0,0:0:0:0:
36,192,233346,1,2,0:0:0:0:
256,192,233346,1,0,0:0:0:0:
475,192,233346,1,0,0:0:0:0:
182,192,233421,1,0,0:0:0:0:
402,192,233421,1,0,0:0:0:0:
109,192,233496,1,0,0:0:0:0:
329,192,233496,1,0,0:0:0:0:
36,192,233571,1,0,0:0:0:0:
256,192,233571,1,0,0:0:0:0:
182,192,233646,1,2,0:0:0:0:
402,192,233646,1,8,0:0:0:0:
475,192,233646,1,0,0:0:0:0:
109,192,233721,1,0,0:0:0:0:
329,192,233721,1,0,0:0:0:0:
36,192,233796,1,0,0:0:0:0:
256,192,233796,1,0,0:0:0:0:
475,192,233796,1,0,0:0:0:0:
109,192,233871,1,0,0:0:0:0:
329,192,233871,1,0,0:0:0:0:
182,192,233946,1,2,0:0:0:0:
402,192,233946,1,0,0:0:0:0:
36,192,234021,1,0,0:0:0:0:
256,192,234021,1,0,0:0:0:0:
109,192,234096,1,0,0:0:0:0:
329,192,234096,1,0,0:0:0:0:
475,192,234096,1,0,0:0:0:0:
182,192,234171,1,0,0:0:0:0:
402,192,234171,1,0,0:0:0:0:
36,192,234246,1,8,0:0:0:0:
256,192,234246,1,2,0:0:0:0:
475,192,234246,1,0,0:0:0:0:
109,192,234321,1,0,0:0:0:0:
329,192,234321,1,0,0:0:0:0:
36,192,234396,1,0,0:0:0:0:
182,192,234396,1,0,0:0:0:0:
402,192,234396,1,0,0:0:0:0:
256,192,234471,1,0,0:0:0:0:
475,192,234471,1,0,0:0:0:0:
36,192,234546,1,2,0:0:0:0:
109,192,234546,128,0,234646:0:0:0:0:
329,192,234546,128,0,234646:0:0:0:0:
182,192,234646,128,0,234746:0:0:0:0:
475,192,234646,128,0,234746:0:0:0:0:
109,192,234746,128,0,234846:0:0:0:0:
329,192,234746,128,0,234846:0:0:0:0:
36,192,234846,1,2,0:0:0:0:
256,192,234846,128,8,234946:0:0:0:0:
402,192,234846,128,0,234946:0:0:0:0:
475,192,234846,1,0,0:0:0:0:
109,192,234946,128,0,235046:0:0:0:0:
329,192,234946,128,0,235046:0:0:0:0:
182,192,235046,128,0,235146:0:0:0:0:
475,192,235046,128,0,235146:0:0:0:0:
36,192,235146,128,2,235246:0:0:0:0:
256,192,235146,128,0,235246:0:0:0:0:
402,192,235146,1,0,0:0:0:0:
109,192,235246,128,0,235346:0:0:0:0:
329,192,235246,128,0,235346:0:0:0:0:
182,192,235346,128,0,235446:0:0:0:0:
402,192,235346,128,0,235446:0:0:0:0:
36,192,235446,1,8,0:0:0:0:
109,192,235446,1,2,0:0:0:0:
256,192,235446,128,0,235546:0:0:0:0:
475,192,235446,128,0,235546:0:0:0:0:
182,192,235546,128,0,235646:0:0:0:0:
329,192,235546,128,0,235646:0:0:0:0:
256,192,235646,128,0,235746:0:0:0:0:
402,192,235646,128,0,235746:0:0:0:0:
36,192,235746,1,2,0:0:0:0:
329,192,235746,128,0,235846:0:0:0:0:
475,192,235746,128,0,235846:0:0:0:0:
109,192,235846,128,0,235946:0:0:0:0:
182,192,235846,128,0,235946:0:0:0:0:
256,192,235946,128,0,236046:0:0:0:0:
402,192,235946,128,0,236046:0:0:0:0:
36,192,236046,1,2,0:0:0:0:
109,192,236046,128,8,236146:0:0:0:0:
329,192,236046,128,0,236146:0:0:0:0:
475,192,236046,1,0,0:0:0:0:
182,192,236146,128,0,236246:0:0:0:0:
402,192,236146,128,0,236246:0:0:0:0:
256,192,236246,128,0,236346:0:0:0:0:
475,192,236246,128,0,236346:0:0:0:0:
36,192,236346,1,2,0:0:0:0:
109,192,236346,1,0,0:0:0:0:
329,192,236346,1,0,0:0:0:0:
182,192,236421,1,0,0:0:0:0:
402,192,236421,1,0,0:0:0:0:
36,192,236496,1,0,0:0:0:0:
109,192,236496,1,0,0:0:0:0:
329,192,236496,1,0,0:0:0:0:
182,192,236571,1,0,0:0:0:0:
475,192,236571,1,0,0:0:0:0:
36,192,236646,1,8,0:0:0:0:
256,192,236646,1,2,0:0:0:0:
402,192,236646,1,0,0:0:0:0:
182,192,236721,1,0,0:0:0:0:
329,192,236721,1,0,0:0:0:0:
109,192,236796,1,2,0:0:0:0:
256,192,236796,1,0,0:0:0:0:
475,192,236796,1,0,0:0:0:0:
36,192,236871,1,0,0:0:0:0:
182,192,236871,1,0,0:0:0:0:
329,192,236946,1,0,0:0:0:0:
402,192,236946,1,0,0:0:0:0:
475,192,236946,1,0,0:0:0:0:
182,192,237021,1,0,0:0:0:0:
256,192,237021,1,0,0:0:0:0:
36,192,237096,1,0,0:0:0:0:
109,192,237096,1,0,0:0:0:0:
402,192,237096,1,0,0:0:0:0:
256,192,237171,1,0,0:0:0:0:
329,192,237171,1,0,0:0:0:0:
36,192,237246,1,4,0:0:0:0:
182,192,237246,1,8,0:0:0:0:
402,192,237246,1,2,0:0:0:0:
475,192,237246,1,0,0:0:0:0:
109,192,237246,1,0,0:0:0:0:
109,192,237396,1,0,0:0:0:0:
329,192,237396,1,0,0:0:0:0:
475,192,237396,1,0,0:0:0:0:
36,192,237471,1,0,0:0:0:0:
256,192,237471,1,0,0:0:0:0:
182,192,237546,1,2,0:0:0:0:
402,192,237546,1,0,0:0:0:0:
475,192,237546,1,0,0:0:0:0:
109,192,237621,1,0,0:0:0:0:
329,192,237621,1,0,0:0:0:0:
36,192,237696,1,0,0:0:0:0:
256,192,237696,1,0,0:0:0:0:
402,192,237696,1,0,0:0:0:0:
36,192,237846,1,2,0:0:0:0:
109,192,237846,1,8,0:0:0:0:
256,192,237846,1,0,0:0:0:0:
402,192,237921,1,0,0:0:0:0:
475,192,237921,1,0,0:0:0:0:
109,192,237996,1,0,0:0:0:0:
182,192,237996,1,0,0:0:0:0:
329,192,237996,1,0,0:0:0:0:
256,192,238071,1,0,0:0:0:0:
402,192,238071,1,0,0:0:0:0:
36,192,238146,1,2,0:0:0:0:
109,192,238146,1,4,0:0:0:0:
329,192,238146,1,0,0:0:0:0:
475,192,238146,1,0,0:0:0:0:
182,192,238221,1,0,0:0:0:0:
402,192,238221,1,0,0:0:0:0:
36,192,238296,1,0,0:0:0:0:
256,192,238296,1,0,0:0:0:0:
475,192,238296,1,0,0:0:0:0:
109,192,238371,1,0,0:0:0:0:
329,192,238371,1,0,0:0:0:0:
36,192,238446,1,8,0:0:0:0:
182,192,238446,1,2,0:0:0:0:
402,192,238446,1,0,0:0:0:0:
475,192,238446,1,0,0:0:0:0:
109,192,238521,1,0,0:0:0:0:
256,192,238521,1,0,0:0:0:0:
182,192,238596,1,0,0:0:0:0:
329,192,238596,1,0,0:0:0:0:
402,192,238596,1,0,0:0:0:0:
36,192,238671,1,0,0:0:0:0:
109,192,238671,1,0,0:0:0:0:
256,192,238746,1,2,0:0:0:0:
329,192,238746,1,0,0:0:0:0:
402,192,238746,1,0,0:0:0:0:
475,192,238746,1,0,0:0:0:0:
109,192,238821,1,0,0:0:0:0:
182,192,238821,1,0,0:0:0:0:
36,192,238896,1,0,0:0:0:0:
329,192,238896,1,0,0:0:0:0:
475,192,238896,1,0,0:0:0:0:
182,192,238971,1,0,0:0:0:0:
256,192,238971,1,0,0:0:0:0:
36,192,239046,1,2,0:0:0:0:
109,192,239046,1,8,0:0:0:0:
402,192,239046,1,0,0:0:0:0:
475,192,239046,1,0,0:0:0:0:
256,192,239121,1,0,0:0:0:0:
329,192,239121,1,0,0:0:0:0:
36,192,239196,1,2,0:0:0:0:
109,192,239196,1,0,0:0:0:0:
402,192,239196,1,0,0:0:0:0:
475,192,239196,1,0,0:0:0:0:
182,192,239271,1,0,0:0:0:0:
256,192,239271,1,0,0:0:0:0:
36,192,239346,1,2,0:0:0:0:
109,192,239346,1,4,0:0:0:0:
329,192,239346,1,0,0:0:0:0:
402,192,239346,1,0,0:0:0:0:
475,192,239421,1,0,0:0:0:0:
36,192,239496,1,2,0:0:0:0:
182,192,239496,1,0,0:0:0:0:
256,192,239496,1,0,0:0:0:0:
329,192,239496,1,0,0:0:0:0:
402,192,239571,1,0,0:0:0:0:
109,192,239646,1,8,0:0:0:0:
182,192,239646,1,2,0:0:0:0:
256,192,239646,1,0,0:0:0:0:
475,192,239646,1,0,0:0:0:0:
329,192,239721,1,0,0:0:0:0:
36,192,239796,1,2,0:0:0:0:
109,192,239796,1,0,0:0:0:0:
402,192,239796,1,0,0:0:0:0:
475,192,239796,1,0,0:0:0:0:
182,192,239871,1,0,0:0:0:0:
36,192,239946,1,2,0:0:0:0:
109,192,239946,1,0,0:0:0:0:
256,192,239946,1,0,0:0:0:0:
329,192,239946,1,0,0:0:0:0:
402,192,240021,1,2,0:0:0:0:
475,192,240021,1,0,0:0:0:0:
36,192,240096,1,2,0:0:0:0:
109,192,240096,1,0,0:0:0:0:
182,192,240096,1,0,0:0:0:0:
256,192,240096,1,0,0:0:0:0:
329,192,240171,1,2,0:0:0:0:
402,192,240171,1,0,0:0:0:0:
36,192,240246,1,2,0:0:0:0:
109,192,240246,1,8,0:0:0:0:
475,192,240246,1,0,0:0:0:0:
182,192,240283,1,2,0:0:0:0:
256,192,240321,1,2,0:0:0:0:
329,192,240321,1,0,0:0:0:0:
36,192,240396,1,2,0:0:0:0:
109,192,240396,1,0,0:0:0:0:
402,192,240396,1,0,0:0:0:0:
475,192,240396,1,0,0:0:0:0:
182,192,240471,1,2,0:0:0:0:
256,192,240471,1,0,0:0:0:0:
36,192,240546,128,2,240621:0:0:0:0:
109,192,240546,128,0,240621:0:0:0:70:cymbal_short.wav
329,192,240546,128,0,240621:0:0:0:0:
402,192,240546,128,0,240621:0:0:0:0:
475,192,240546,128,0,240621:0:0:0:0:
36,192,240696,128,2,240771:0:0:0:0:
109,192,240696,128,0,240771:0:0:0:70:cymbal_short.wav
329,192,240696,128,0,240771:0:0:0:0:
402,192,240696,128,0,240771:0:0:0:0:
475,192,240696,128,0,240771:0:0:0:0:
36,192,240996,128,2,241596:0:0:0:0:
182,192,240996,128,4,241296:0:0:0:0:
256,192,240996,128,0,241671:0:0:0:0:
329,192,240996,128,0,241221:0:0:0:0:
475,192,240996,128,0,241446:0:0:0:0:
329,192,241296,1,0,0:0:0:0:
182,192,241371,1,0,0:0:0:0:
402,192,241446,1,0,0:0:0:0:
109,192,241521,1,0,0:0:0:0:
329,192,241596,1,0,0:0:0:0:
36,192,241671,1,0,0:0:0:0:
182,192,241746,1,0,0:0:0:0:
329,192,241746,1,0,0:0:0:0:
402,192,241821,1,0,0:0:0:0:
475,192,241821,1,0,0:0:0:0:
109,192,241896,1,0,0:0:0:0:
256,192,241896,1,0,0:0:0:0:
329,192,241971,1,0,0:0:0:70:VEC4 Snares 151.wav
402,192,241971,1,0,0:0:0:0:
36,192,242046,1,2,0:0:0:0:
109,192,242046,1,0,0:0:0:0:
182,192,242046,1,0,0:0:0:0:
36,192,242346,128,4,243246:0:0:0:0:
182,192,242346,128,2,243321:0:0:0:0:
256,192,242346,128,0,243546:0:0:0:70:winds.wav
402,192,242346,128,0,244471:0:0:0:0:
475,192,242346,128,0,244471:0:0:0:0:
36,192,243302,1,0,0:0:0:0:
182,192,243396,1,0,0:0:0:0:
109,192,243452,1,0,0:0:0:0:
329,192,243546,128,0,245721:0:0:0:0:
402,192,244531,1,0,0:0:0:0:
182,192,244617,1,0,0:0:0:0:
256,192,244727,128,0,248946:0:0:0:0:
109,192,244727,128,0,248946:0:0:0:0:
36,192,245696,1,0,0:0:0:0:
182,192,245771,1,0,0:0:0:0:
329,192,245833,1,0,0:0:0:0:
402,192,245852,1,0,0:0:0:0:
475,192,245927,128,0,248946:0:0:0:0:
