osu file format v14

[General]
AudioFilename: audio.mp3
AudioLeadIn: 0
PreviewTime: 37977
Countdown: 0
SampleSet: Soft
StackLeniency: 0.7
Mode: 3
LetterboxInBreaks: 0
SpecialStyle: 0
WidescreenStoryboard: 0

[Editor]
DistanceSpacing: 0.9
BeatDivisor: 4
GridSize: 8
TimelineZoom: 1

[Metadata]
Title:DANGEROOOOUS JUNGLE
TitleUnicode:DANGEROOOOUS JUNGLE
Artist:Laur
ArtistUnicode:Laur
Creator:Critical_Star
Version:Normal
Source:WACCA Reverse
Tags:ワッカ Hardcore J-Core Orchestral EDM HARDCORE TANO*C オリジナル Original Video Game Electronic Instrumental dangerous
BeatmapID:3670788
BeatmapSetID:1791283

[Difficulty]
HPDrainRate:7
CircleSize:7
OverallDifficulty:7
ApproachRate:5
SliderMultiplier:1.4
SliderTickRate:1

[Events]
//Background and Video events
0,0,"BG.jpg",0,0
//Break Periods
//Storyboard Layer 0 (Background)
//Storyboard Layer 1 (Fail)
//Storyboard Layer 2 (Pass)
//Storyboard Layer 3 (Foreground)
//Storyboard Layer 4 (Overlay)
//Storyboard Sound Samples

[TimingPoints]
1977,375,4,2,1,60,1,0
39477,-100,4,2,1,60,0,1
40602,-100,4,2,1,60,0,0
40977,-100,4,2,1,60,0,1
42102,-100,4,2,1,60,0,0
42477,-100,4,2,1,60,0,1
43602,-100,4,2,1,60,0,0
43977,-100,4,2,1,60,0,1
45102,-100,4,2,1,60,0,0
45477,-100,4,2,1,60,0,1
49977,-100,4,2,1,60,0,0
51477,-100,4,2,1,60,0,1
52602,-100,4,2,1,60,0,0
52977,-100,4,2,1,60,0,1
54102,-100,4,2,1,60,0,0
54477,-100,4,2,1,60,0,1
55602,-100,4,2,1,60,0,0
57477,-100,4,2,1,60,0,1
58602,-100,4,2,1,60,0,0
58977,-100,4,2,1,60,0,1
60102,-100,4,2,1,60,0,0
60477,-100,4,2,1,60,0,1
61602,-100,4,2,1,60,0,0
108477,-100,4,2,1,60,0,1
114477,-100,4,2,1,60,0,0
120477,-100,4,2,1,60,0,1
124977,-100,4,2,1,60,0,0

[HitObjects]
256,192,1977,5,0,0:0:0:0:
256,192,2258,1,0,0:0:0:0:
256,192,2539,1,0,0:0:0:0:
109,192,2727,128,0,3102:0:0:0:0:
402,192,3102,128,0,3477:0:0:0:0:
36,192,3477,1,0,0:0:0:0:
182,192,3477,1,0,0:0:0:0:
109,192,3852,1,0,0:0:0:0:
109,192,4602,1,0,0:0:0:0:
402,192,5352,1,0,0:0:0:0:
402,192,6102,1,0,0:0:0:0:
182,192,6852,1,0,0:0:0:0:
182,192,7602,1,0,0:0:0:0:
329,192,8352,1,0,0:0:0:0:
329,192,9102,1,0,0:0:0:0:
36,192,9477,1,0,0:0:0:0:
36,192,9852,1,0,0:0:0:0:
36,192,10227,1,0,0:0:0:0:
36,192,10602,1,0,0:0:0:0:
475,192,10977,1,0,0:0:0:0:
475,192,11352,1,0,0:0:0:0:
475,192,11727,1,0,0:0:0:0:
475,192,12102,1,0,0:0:0:0:
109,192,12477,1,0,0:0:0:0:
109,192,12852,1,0,0:0:0:0:
109,192,13227,1,0,0:0:0:0:
109,192,13602,1,0,0:0:0:0:
402,192,13977,1,0,0:0:0:0:
402,192,14352,1,0,0:0:0:0:
402,192,14727,1,0,0:0:0:0:
402,192,15102,1,0,0:0:0:0:
36,192,15477,1,0,0:0:0:0:
256,192,15477,1,0,0:0:0:0:
256,192,15852,1,0,0:0:0:0:
475,192,15852,1,0,0:0:0:0:
109,192,16227,1,0,0:0:0:0:
402,192,16602,1,0,0:0:0:0:
256,192,16977,1,0,0:0:0:0:
36,192,17352,1,0,0:0:0:0:
475,192,17727,1,0,0:0:0:0:
182,192,18102,1,0,0:0:0:0:
256,192,18477,1,0,0:0:0:0:
475,192,18477,1,0,0:0:0:0:
36,192,18852,1,0,0:0:0:0:
256,192,18852,1,0,0:0:0:0:
402,192,19227,1,0,0:0:0:0:
109,192,19602,1,0,0:0:0:0:
256,192,19977,1,0,0:0:0:0:
475,192,20352,1,0,0:0:0:0:
36,192,20727,1,0,0:0:0:0:
402,192,21102,1,0,0:0:0:0:
109,192,21477,1,0,0:0:0:0:
256,192,21477,1,0,0:0:0:0:
256,192,21852,1,0,0:0:0:0:
402,192,21852,1,0,0:0:0:0:
182,192,22227,1,0,0:0:0:0:
402,192,22602,1,0,0:0:0:0:
109,192,22977,1,0,0:0:0:0:
329,192,23352,1,0,0:0:0:0:
36,192,23727,1,0,0:0:0:0:
182,192,24102,1,0,0:0:0:0:
256,192,24477,1,0,0:0:0:0:
402,192,24477,1,0,0:0:0:0:
109,192,24852,1,0,0:0:0:0:
256,192,24852,1,0,0:0:0:0:
329,192,25227,1,0,0:0:0:0:
475,192,25602,1,0,0:0:0:0:
109,192,25977,1,0,0:0:0:0:
329,192,26352,1,0,0:0:0:0:
182,192,26727,1,0,0:0:0:0:
256,192,27102,1,0,0:0:0:0:
329,192,27477,1,0,0:0:0:0:
475,192,27477,1,0,0:0:0:0:
36,192,27852,1,0,0:0:0:0:
182,192,27852,1,0,0:0:0:0:
329,192,28227,1,0,0:0:0:0:
475,192,28227,1,0,0:0:0:0:
36,192,28602,1,0,0:0:0:0:
182,192,28602,1,0,0:0:0:0:
329,192,28977,1,0,0:0:0:0:
475,192,28977,1,0,0:0:0:0:
36,192,29352,1,0,0:0:0:0:
182,192,29352,1,0,0:0:0:0:
329,192,29727,1,0,0:0:0:0:
475,192,29727,1,0,0:0:0:0:
36,192,30102,1,0,0:0:0:0:
182,192,30102,1,0,0:0:0:0:
256,192,30289,1,0,0:0:0:0:
329,192,30477,1,0,0:0:0:0:
402,192,30477,1,0,0:0:0:0:
109,192,30852,1,0,0:0:0:0:
182,192,30852,1,0,0:0:0:0:
329,192,31227,1,0,0:0:0:0:
402,192,31227,1,0,0:0:0:0:
109,192,31602,1,0,0:0:0:0:
182,192,31602,1,0,0:0:0:0:
329,192,31977,1,0,0:0:0:0:
402,192,31977,1,0,0:0:0:0:
109,192,32352,1,0,0:0:0:0:
182,192,32352,1,0,0:0:0:0:
329,192,32727,1,0,0:0:0:0:
402,192,32727,1,0,0:0:0:0:
109,192,33102,1,0,0:0:0:0:
182,192,33102,1,0,0:0:0:0:
256,192,33289,1,0,0:0:0:0:
36,192,33477,1,0,0:0:0:0:
329,192,33477,1,0,0:0:0:0:
109,192,33664,1,0,0:0:0:0:
182,192,33852,1,0,0:0:0:0:
256,192,34039,1,0,0:0:0:0:
329,192,34227,1,0,0:0:0:0:
402,192,34414,1,0,0:0:0:0:
475,192,34602,1,0,0:0:0:0:
256,192,34789,1,0,0:0:0:0:
475,192,34977,1,0,0:0:0:0:
36,192,34977,1,0,0:0:0:0:
402,192,35164,1,0,0:0:0:0:
329,192,35352,1,0,0:0:0:0:
256,192,35539,1,0,0:0:0:0:
182,192,35727,1,0,0:0:0:0:
109,192,35914,1,0,0:0:0:0:
36,192,36102,1,0,0:0:0:0:
256,192,36289,1,0,0:0:0:0:
36,192,36477,1,0,0:0:0:0:
402,192,36477,1,0,0:0:0:0:
182,192,36664,1,0,0:0:0:0:
475,192,36852,1,0,0:0:0:0:
329,192,37039,1,0,0:0:0:0:
36,192,37227,1,0,0:0:0:0:
182,192,37227,1,0,0:0:0:0:
256,192,37414,1,0,0:0:0:0:
329,192,37602,1,0,0:0:0:0:
475,192,37602,1,0,0:0:0:0:
182,192,37789,1,0,0:0:0:0:
36,192,37977,1,0,0:0:0:0:
475,192,37977,1,0,0:0:0:0:
109,192,39477,1,0,0:0:0:0:
402,192,39477,1,0,0:0:0:0:
182,192,39852,1,0,0:0:0:0:
329,192,40039,1,0,0:0:0:0:
182,192,40227,1,0,0:0:0:0:
329,192,40414,1,0,0:0:0:0:
36,192,40602,1,0,0:0:0:0:
109,192,40602,1,0,0:0:0:0:
256,192,40977,1,0,0:0:0:0:
475,192,40977,1,0,0:0:0:0:
329,192,41352,1,0,0:0:0:0:
182,192,41539,1,0,0:0:0:0:
329,192,41727,1,0,0:0:0:0:
182,192,41914,1,0,0:0:0:0:
402,192,42102,1,0,0:0:0:0:
475,192,42102,1,0,0:0:0:0:
36,192,42477,1,0,0:0:0:0:
256,192,42477,1,0,0:0:0:0:
182,192,42852,1,0,0:0:0:0:
329,192,43039,1,0,0:0:0:0:
182,192,43227,1,0,0:0:0:0:
329,192,43414,1,0,0:0:0:0:
36,192,43602,1,0,0:0:0:0:
109,192,43602,1,0,0:0:0:0:
182,192,43977,1,0,0:0:0:0:
475,192,43977,1,0,0:0:0:0:
329,192,44164,1,0,0:0:0:0:
36,192,44352,1,0,0:0:0:0:
182,192,44539,1,0,0:0:0:0:
402,192,44727,1,0,0:0:0:0:
109,192,44914,1,0,0:0:0:0:
256,192,45102,128,0,45477:0:0:0:0:
475,192,45102,1,0,0:0:0:0:
36,192,45477,1,0,0:0:0:0:
182,192,45477,1,0,0:0:0:0:
329,192,45852,1,0,0:0:0:0:
475,192,45852,1,0,0:0:0:0:
36,192,46227,1,0,0:0:0:0:
182,192,46227,1,0,0:0:0:0:
329,192,46602,1,0,0:0:0:0:
475,192,46602,1,0,0:0:0:0:
109,192,46977,1,0,0:0:0:0:
182,192,46977,1,0,0:0:0:0:
329,192,47352,1,0,0:0:0:0:
402,192,47352,1,0,0:0:0:0:
109,192,47727,1,0,0:0:0:0:
182,192,47727,1,0,0:0:0:0:
329,192,48102,1,0,0:0:0:0:
402,192,48102,1,0,0:0:0:0:
36,192,48477,1,0,0:0:0:0:
109,192,48477,1,0,0:0:0:0:
402,192,48852,1,0,0:0:0:0:
475,192,48852,1,0,0:0:0:0:
36,192,49227,1,0,0:0:0:0:
109,192,49227,1,0,0:0:0:0:
402,192,49602,1,0,0:0:0:0:
475,192,49602,1,0,0:0:0:0:
256,192,49977,128,0,51102:0:0:0:0:
109,192,51477,1,0,0:0:0:0:
182,192,51477,1,0,0:0:0:0:
402,192,51664,1,0,0:0:0:0:
109,192,51852,1,0,0:0:0:0:
182,192,51852,1,0,0:0:0:0:
402,192,52039,1,0,0:0:0:0:
109,192,52227,1,0,0:0:0:0:
182,192,52227,1,0,0:0:0:0:
402,192,52414,1,0,0:0:0:0:
36,192,52602,1,0,0:0:0:0:
182,192,52602,1,0,0:0:0:0:
329,192,52977,1,0,0:0:0:0:
402,192,52977,1,0,0:0:0:0:
109,192,53164,1,0,0:0:0:0:
329,192,53352,1,0,0:0:0:0:
402,192,53352,1,0,0:0:0:0:
109,192,53539,1,0,0:0:0:0:
329,192,53727,1,0,0:0:0:0:
402,192,53727,1,0,0:0:0:0:
109,192,53914,1,0,0:0:0:0:
329,192,54102,1,0,0:0:0:0:
475,192,54102,1,0,0:0:0:0:
109,192,54477,1,0,0:0:0:0:
182,192,54477,1,0,0:0:0:0:
329,192,54664,1,0,0:0:0:0:
109,192,54852,1,0,0:0:0:0:
182,192,54852,1,0,0:0:0:0:
329,192,55039,1,0,0:0:0:0:
109,192,55227,1,0,0:0:0:0:
182,192,55227,1,0,0:0:0:0:
329,192,55414,1,0,0:0:0:0:
36,192,55602,1,0,0:0:0:0:
182,192,55602,1,0,0:0:0:0:
256,192,55977,1,0,0:0:0:0:
402,192,56352,1,0,0:0:0:0:
475,192,56352,1,0,0:0:0:0:
256,192,56727,128,0,57102:0:0:0:0:
36,192,57477,1,0,0:0:0:0:
402,192,57477,1,0,0:0:0:0:
182,192,57664,1,0,0:0:0:0:
36,192,57852,1,0,0:0:0:0:
402,192,57852,1,0,0:0:0:0:
256,192,58039,1,0,0:0:0:0:
36,192,58227,1,0,0:0:0:0:
402,192,58227,1,0,0:0:0:0:
182,192,58414,1,0,0:0:0:0:
36,192,58602,1,0,0:0:0:0:
475,192,58602,1,0,0:0:0:0:
109,192,58977,1,0,0:0:0:0:
475,192,58977,1,0,0:0:0:0:
329,192,59164,1,0,0:0:0:0:
109,192,59352,1,0,0:0:0:0:
475,192,59352,1,0,0:0:0:0:
256,192,59539,1,0,0:0:0:0:
109,192,59727,1,0,0:0:0:0:
475,192,59727,1,0,0:0:0:0:
329,192,59914,1,0,0:0:0:0:
36,192,60102,1,0,0:0:0:0:
475,192,60102,1,0,0:0:0:0:
36,192,60477,1,0,0:0:0:0:
402,192,60477,1,0,0:0:0:0:
182,192,60664,1,0,0:0:0:0:
36,192,60852,1,0,0:0:0:0:
402,192,60852,1,0,0:0:0:0:
256,192,61039,1,0,0:0:0:0:
36,192,61227,1,0,0:0:0:0:
402,192,61227,1,0,0:0:0:0:
182,192,61414,1,0,0:0:0:0:
36,192,61602,1,0,0:0:0:0:
475,192,61602,1,0,0:0:0:0:
256,192,62727,128,0,63102:0:0:0:0:
109,192,63102,1,0,0:0:0:0:
402,192,63102,1,0,0:0:0:0:
256,192,64227,128,0,66102:0:0:0:0:
256,192,66477,1,0,0:0:0:0:
402,192,66477,128,0,67039:0:0:0:0:
256,192,67227,1,0,0:0:0:0:
402,192,67227,128,0,67789:0:0:0:0:
109,192,67977,128,0,68539:0:0:0:0:
329,192,67977,1,0,0:0:0:0:
109,192,68727,128,0,69289:0:0:0:0:
329,192,68727,1,0,0:0:0:0:
182,192,69477,1,0,0:0:0:0:
475,192,69477,128,0,70039:0:0:0:0:
182,192,70227,1,0,0:0:0:0:
475,192,70227,128,0,70789:0:0:0:0:
36,192,70977,128,0,71539:0:0:0:0:
402,192,70977,1,0,0:0:0:0:
36,192,71727,128,0,72102:0:0:0:0:
402,192,71727,1,0,0:0:0:0:
329,192,72477,1,0,0:0:0:0:
475,192,72477,1,0,0:0:0:0:
109,192,72852,1,0,0:0:0:0:
182,192,72852,1,0,0:0:0:0:
329,192,73227,1,0,0:0:0:0:
475,192,73227,1,0,0:0:0:0:
109,192,73602,1,0,0:0:0:0:
182,192,73602,1,0,0:0:0:0:
329,192,73977,1,0,0:0:0:0:
402,192,73977,1,0,0:0:0:0:
36,192,74352,1,0,0:0:0:0:
182,192,74352,1,0,0:0:0:0:
329,192,74727,1,0,0:0:0:0:
402,192,74727,1,0,0:0:0:0:
36,192,75102,1,0,0:0:0:0:
182,192,75102,1,0,0:0:0:0:
402,192,75477,1,0,0:0:0:0:
475,192,75477,1,0,0:0:0:0:
36,192,75852,1,0,0:0:0:0:
109,192,75852,1,0,0:0:0:0:
182,192,76227,1,0,0:0:0:0:
475,192,76227,1,0,0:0:0:0:
329,192,76414,1,0,0:0:0:0:
36,192,76602,1,0,0:0:0:0:
475,192,76602,1,0,0:0:0:0:
182,192,76789,1,0,0:0:0:0:
256,192,76977,1,0,0:0:0:0:
475,192,76977,1,0,0:0:0:0:
36,192,77352,1,0,0:0:0:0:
256,192,77352,1,0,0:0:0:0:
329,192,77727,1,0,0:0:0:0:
182,192,78102,1,0,0:0:0:0:
36,192,78477,1,0,0:0:0:0:
475,192,78477,1,0,0:0:0:0:
36,192,79977,1,0,0:0:0:0:
36,192,80352,1,0,0:0:0:0:
109,192,80727,1,0,0:0:0:0:
182,192,81102,1,0,0:0:0:0:
329,192,81102,1,0,0:0:0:0:
36,192,81477,1,0,0:0:0:0:
475,192,81477,1,0,0:0:0:0:
256,192,81852,1,0,0:0:0:0:
256,192,82227,1,0,0:0:0:0:
182,192,82602,1,0,0:0:0:0:
329,192,82789,1,0,0:0:0:0:
36,192,82977,1,0,0:0:0:0:
475,192,82977,1,0,0:0:0:0:
256,192,83352,1,0,0:0:0:0:
256,192,83727,1,0,0:0:0:0:
329,192,84102,1,0,0:0:0:0:
182,192,84289,1,0,0:0:0:0:
36,192,84477,1,0,0:0:0:0:
475,192,84477,1,0,0:0:0:0:
256,192,84852,1,0,0:0:0:0:
256,192,85227,1,0,0:0:0:0:
256,192,85602,1,0,0:0:0:0:
256,192,85977,1,0,0:0:0:0:
256,192,86352,1,0,0:0:0:0:
256,192,86727,1,0,0:0:0:0:
109,192,86914,1,0,0:0:0:0:
256,192,87102,1,0,0:0:0:0:
402,192,87289,1,0,0:0:0:0:
36,192,87477,1,0,0:0:0:0:
475,192,87477,1,0,0:0:0:0:
256,192,87852,1,0,0:0:0:0:
256,192,88227,1,0,0:0:0:0:
182,192,88602,1,0,0:0:0:0:
329,192,88789,1,0,0:0:0:0:
36,192,88977,1,0,0:0:0:0:
475,192,88977,1,0,0:0:0:0:
256,192,89352,1,0,0:0:0:0:
256,192,89727,1,0,0:0:0:0:
329,192,90102,1,0,0:0:0:0:
182,192,90289,1,0,0:0:0:0:
36,192,90477,1,0,0:0:0:0:
475,192,90477,1,0,0:0:0:0:
402,192,90852,1,0,0:0:0:0:
109,192,91039,1,0,0:0:0:0:
329,192,91227,1,0,0:0:0:0:
475,192,91227,1,0,0:0:0:0:
109,192,91602,1,0,0:0:0:0:
402,192,91789,1,0,0:0:0:0:
182,192,91977,1,0,0:0:0:0:
256,192,92352,1,0,0:0:0:0:
329,192,92727,128,0,93477:0:0:0:0:
36,192,93477,1,0,0:0:0:0:
109,192,93477,1,0,0:0:0:0:
109,192,93852,1,0,0:0:0:0:
402,192,94227,1,0,0:0:0:0:
402,192,94602,1,0,0:0:0:0:
182,192,94977,1,0,0:0:0:0:
256,192,95352,1,0,0:0:0:0:
329,192,95727,1,0,0:0:0:0:
182,192,96102,1,0,0:0:0:0:
402,192,96477,1,0,0:0:0:0:
475,192,96477,1,0,0:0:0:0:
402,192,96852,1,0,0:0:0:0:
109,192,97227,1,0,0:0:0:0:
109,192,97602,1,0,0:0:0:0:
329,192,97977,1,0,0:0:0:0:
182,192,98352,1,0,0:0:0:0:
256,192,98727,1,0,0:0:0:0:
329,192,99102,1,0,0:0:0:0:
36,192,99477,1,0,0:0:0:0:
402,192,99477,1,0,0:0:0:0:
256,192,99664,1,0,0:0:0:0:
109,192,99852,1,0,0:0:0:0:
329,192,100039,1,0,0:0:0:0:
182,192,100227,1,0,0:0:0:0:
402,192,100414,1,0,0:0:0:0:
256,192,100602,1,0,0:0:0:0:
36,192,100602,1,0,0:0:0:0:
109,192,100977,1,0,0:0:0:0:
475,192,100977,1,0,0:0:0:0:
256,192,101164,1,0,0:0:0:0:
402,192,101352,1,0,0:0:0:0:
182,192,101539,1,0,0:0:0:0:
329,192,101727,1,0,0:0:0:0:
109,192,101914,1,0,0:0:0:0:
475,192,102102,1,0,0:0:0:0:
256,192,102102,1,0,0:0:0:0:
402,192,102477,1,0,0:0:0:0:
109,192,102664,1,0,0:0:0:0:
402,192,102852,1,0,0:0:0:0:
109,192,103039,1,0,0:0:0:0:
329,192,103227,1,0,0:0:0:0:
475,192,103227,1,0,0:0:0:0:
182,192,103414,1,0,0:0:0:0:
329,192,103602,1,0,0:0:0:0:
475,192,103602,1,0,0:0:0:0:
182,192,103789,1,0,0:0:0:0:
36,192,103977,1,0,0:0:0:0:
475,192,103977,1,0,0:0:0:0:
36,192,105477,1,0,0:0:0:0:
182,192,105477,1,0,0:0:0:0:
182,192,105852,1,0,0:0:0:0:
329,192,106227,1,0,0:0:0:0:
475,192,106227,1,0,0:0:0:0:
329,192,106602,1,0,0:0:0:0:
36,192,106977,1,0,0:0:0:0:
256,192,106977,1,0,0:0:0:0:
256,192,107352,1,0,0:0:0:0:
475,192,107352,1,0,0:0:0:0:
36,192,107727,1,0,0:0:0:0:
256,192,107727,1,0,0:0:0:0:
36,192,108477,1,0,0:0:0:0:
109,192,108477,1,0,0:0:0:0:
329,192,108664,1,0,0:0:0:0:
36,192,108852,1,0,0:0:0:0:
109,192,108852,1,0,0:0:0:0:
329,192,109039,1,0,0:0:0:0:
402,192,109227,1,0,0:0:0:0:
475,192,109227,1,0,0:0:0:0:
256,192,109414,1,0,0:0:0:0:
402,192,109602,1,0,0:0:0:0:
475,192,109602,1,0,0:0:0:0:
256,192,109789,1,0,0:0:0:0:
36,192,109977,1,0,0:0:0:0:
182,192,109977,1,0,0:0:0:0:
329,192,110164,1,0,0:0:0:0:
36,192,110352,1,0,0:0:0:0:
182,192,110352,1,0,0:0:0:0:
256,192,110539,1,0,0:0:0:0:
329,192,110727,1,0,0:0:0:0:
475,192,110727,1,0,0:0:0:0:
109,192,110914,1,0,0:0:0:0:
329,192,111102,1,0,0:0:0:0:
475,192,111102,1,0,0:0:0:0:
182,192,111289,1,0,0:0:0:0:
36,192,111477,1,0,0:0:0:0:
256,192,111477,1,0,0:0:0:0:
109,192,111664,1,0,0:0:0:0:
256,192,111852,1,0,0:0:0:0:
475,192,111852,1,0,0:0:0:0:
402,192,112039,1,0,0:0:0:0:
109,192,112227,1,0,0:0:0:0:
256,192,112227,1,0,0:0:0:0:
36,192,112414,1,0,0:0:0:0:
256,192,112602,1,0,0:0:0:0:
402,192,112602,1,0,0:0:0:0:
475,192,112789,1,0,0:0:0:0:
36,192,112977,1,0,0:0:0:0:
182,192,112977,1,0,0:0:0:0:
256,192,113164,1,0,0:0:0:0:
329,192,113352,1,0,0:0:0:0:
475,192,113352,1,0,0:0:0:0:
109,192,113539,1,0,0:0:0:0:
402,192,113727,128,0,114102:0:0:0:0:
36,192,114102,1,0,0:0:0:0:
182,192,114102,1,0,0:0:0:0:
329,192,114477,1,0,0:0:0:0:
402,192,114477,1,0,0:0:0:0:
329,192,114852,1,0,0:0:0:0:
402,192,114852,1,0,0:0:0:0:
329,192,115227,1,0,0:0:0:0:
402,192,115227,1,0,0:0:0:0:
329,192,115602,1,0,0:0:0:0:
402,192,115602,1,0,0:0:0:0:
109,192,115977,1,0,0:0:0:0:
182,192,115977,1,0,0:0:0:0:
109,192,116352,1,0,0:0:0:0:
182,192,116352,1,0,0:0:0:0:
329,192,116445,1,0,0:0:0:0:
109,192,116727,1,0,0:0:0:0:
182,192,116727,1,0,0:0:0:0:
109,192,117008,1,0,0:0:0:0:
182,192,117008,1,0,0:0:0:0:
329,192,117102,1,0,0:0:0:0:
256,192,117289,1,0,0:0:0:0:
36,192,117477,1,0,0:0:0:0:
182,192,117477,1,0,0:0:0:0:
329,192,117664,1,0,0:0:0:0:
475,192,117664,1,0,0:0:0:0:
36,192,117852,1,0,0:0:0:0:
182,192,117852,1,0,0:0:0:0:
109,192,118133,1,0,0:0:0:0:
329,192,118227,1,0,0:0:0:0:
475,192,118227,1,0,0:0:0:0:
182,192,118320,1,0,0:0:0:0:
402,192,118508,1,0,0:0:0:0:
36,192,118602,1,0,0:0:0:0:
182,192,118602,1,0,0:0:0:0:
329,192,118789,1,0,0:0:0:0:
256,192,118977,128,0,119727:0:0:0:0:
475,192,118977,1,0,0:0:0:0:
256,192,120102,1,0,0:0:0:0:
36,192,120477,1,0,0:0:0:0:
109,192,120477,1,0,0:0:0:0:
256,192,120664,1,0,0:0:0:0:
402,192,120852,1,0,0:0:0:0:
475,192,120852,1,0,0:0:0:0:
256,192,121039,1,0,0:0:0:0:
36,192,121227,1,0,0:0:0:0:
109,192,121227,1,0,0:0:0:0:
256,192,121414,1,0,0:0:0:0:
402,192,121602,1,0,0:0:0:0:
475,192,121602,1,0,0:0:0:0:
329,192,121789,1,0,0:0:0:0:
109,192,121977,1,0,0:0:0:0:
182,192,121977,1,0,0:0:0:0:
256,192,122164,1,0,0:0:0:0:
329,192,122352,1,0,0:0:0:0:
402,192,122352,1,0,0:0:0:0:
256,192,122539,1,0,0:0:0:0:
109,192,122727,1,0,0:0:0:0:
182,192,122727,1,0,0:0:0:0:
256,192,122914,1,0,0:0:0:0:
329,192,123102,1,0,0:0:0:0:
475,192,123102,1,0,0:0:0:0:
109,192,123289,1,0,0:0:0:0:
402,192,123477,1,0,0:0:0:0:
475,192,123477,1,0,0:0:0:0:
256,192,123664,1,0,0:0:0:0:
36,192,123852,1,0,0:0:0:0:
109,192,123852,1,0,0:0:0:0:
256,192,124039,1,0,0:0:0:0:
402,192,124227,1,0,0:0:0:0:
475,192,124227,1,0,0:0:0:0:
329,192,124414,1,0,0:0:0:0:
36,192,124602,1,0,0:0:0:0:
109,192,124602,1,0,0:0:0:0:
182,192,124789,1,0,0:0:0:0:
256,192,124977,128,0,125727:0:0:0:0:
109,192,125727,1,0,0:0:0:0:
109,192,126477,1,0,0:0:0:0:
402,192,126477,1,0,0:0:0:0:
109,192,126852,1,0,0:0:0:0:
402,192,126852,1,0,0:0:0:0:
109,192,127227,1,0,0:0:0:0:
402,192,127227,1,0,0:0:0:0:
256,192,127602,1,0,0:0:0:0:
36,192,127977,1,0,0:0:0:0:
475,192,127977,1,0,0:0:0:0:
36,192,128352,1,0,0:0:0:0:
475,192,128352,1,0,0:0:0:0:
36,192,128727,1,0,0:0:0:0:
475,192,128727,1,0,0:0:0:0:
256,192,129102,1,0,0:0:0:0:
182,192,129477,1,0,0:0:0:0:
329,192,129477,1,0,0:0:0:0:
182,192,129852,1,0,0:0:0:0:
329,192,129852,1,0,0:0:0:0:
256,192,130039,1,0,0:0:0:0:
109,192,130227,1,0,0:0:0:0:
402,192,130414,1,0,0:0:0:0:
36,192,130602,1,0,0:0:0:0:
475,192,130789,1,0,0:0:0:0:
109,192,130977,128,0,131539:0:0:0:0:
256,192,131727,128,0,132102:0:0:0:0:
109,192,132102,1,0,0:0:0:0:
402,192,132102,1,0,0:0:0:0:
