osu file format v14

[General]
AudioFilename: audio.mp3
AudioLeadIn: 0
PreviewTime: 37977
Countdown: 0
SampleSet: Soft
StackLeniency: 0.7
Mode: 3
LetterboxInBreaks: 0
SpecialStyle: 0
WidescreenStoryboard: 0

[Editor]
Bookmarks: 48477
DistanceSpacing: 0.9
BeatDivisor: 6
GridSize: 8
TimelineZoom: 1.6

[Metadata]
Title:DANGEROOOOUS JUNGLE
TitleUnicode:DANGEROOOOUS JUNGLE
Artist:Laur
ArtistUnicode:Laur
Creator:Critical_Star
Version:EXPERT
Source:WACCA Reverse
Tags:ワッカ Hardcore J-Core Orchestral EDM HARDCORE TANO*C オリジナル Original Video Game Electronic Instrumental dangerous
BeatmapID:3670785
BeatmapSetID:1791283

[Difficulty]
HPDrainRate:8
CircleSize:7
OverallDifficulty:8
ApproachRate:5
SliderMultiplier:1.4
SliderTickRate:1

[Events]
//Background and Video events
0,0,"BG.jpg",0,0
//Break Periods
//Storyboard Layer 0 (Background)
//Storyboard Layer 1 (Fail)
//Storyboard Layer 2 (Pass)
//Storyboard Layer 3 (Foreground)
//Storyboard Layer 4 (Overlay)
//Storyboard Sound Samples

[TimingPoints]
1977,375,4,2,1,60,1,0
39477,-100,4,2,1,60,0,1
40602,-100,4,2,1,60,0,0
40977,-100,4,2,1,60,0,1
42102,-100,4,2,1,60,0,0
42477,-100,4,2,1,60,0,1
43602,-100,4,2,1,60,0,0
43977,-100,4,2,1,60,0,1
45102,-100,4,2,1,60,0,0
45477,-100,4,2,1,60,0,1
49977,-100,4,2,1,60,0,0
51477,-100,4,2,1,60,0,1
52602,-100,4,2,1,60,0,0
52977,-100,4,2,1,60,0,1
54102,-100,4,2,1,60,0,0
54477,-100,4,2,1,60,0,1
55602,-100,4,2,1,60,0,0
57477,-100,4,2,1,60,0,1
58602,-100,4,2,1,60,0,0
58977,-100,4,2,1,60,0,1
60102,-100,4,2,1,60,0,0
60477,-100,4,2,1,60,0,1
61602,-100,4,2,1,60,0,0
108477,-100,4,2,1,60,0,1
114477,-100,4,2,1,60,0,0
120477,-100,4,2,1,60,0,1
124977,-100,4,2,1,60,0,0

[HitObjects]
182,192,1977,5,0,0:0:0:0:
329,192,1977,1,0,0:0:0:0:
182,192,2258,1,0,0:0:0:0:
329,192,2258,1,0,0:0:0:0:
182,192,2539,1,0,0:0:0:0:
329,192,2539,1,0,0:0:0:0:
36,192,2727,1,0,0:0:0:0:
256,192,2789,1,0,0:0:0:0:
109,192,2852,1,0,0:0:0:0:
475,192,2914,1,0,0:0:0:0:
256,192,2977,1,0,0:0:0:0:
402,192,3039,1,0,0:0:0:0:
109,192,3102,1,0,0:0:0:0:
256,192,3164,1,0,0:0:0:0:
36,192,3227,1,0,0:0:0:0:
182,192,3289,1,0,0:0:0:0:
329,192,3414,1,0,0:0:0:0:
36,192,3477,1,0,0:0:0:0:
256,192,3477,1,0,0:0:0:0:
475,192,3477,1,0,0:0:0:0:
109,192,3664,1,0,0:0:0:0:
329,192,3852,1,0,0:0:0:0:
182,192,3945,1,0,0:0:0:0:
256,192,4133,1,0,0:0:0:0:
256,192,4320,1,0,0:0:0:0:
402,192,4414,1,0,0:0:0:0:
36,192,4602,128,0,4789:0:0:0:0:
475,192,4977,1,0,0:0:0:0:
402,192,5164,1,0,0:0:0:0:
182,192,5352,1,0,0:0:0:0:
329,192,5445,1,0,0:0:0:0:
256,192,5633,1,0,0:0:0:0:
256,192,5820,1,0,0:0:0:0:
109,192,5914,1,0,0:0:0:0:
475,192,6102,1,0,0:0:0:0:
402,192,6289,1,0,0:0:0:0:
256,192,6477,1,0,0:0:0:0:
109,192,6664,1,0,0:0:0:0:
329,192,6852,1,0,0:0:0:0:
182,192,6945,1,0,0:0:0:0:
256,192,7133,1,0,0:0:0:0:
256,192,7320,1,0,0:0:0:0:
402,192,7414,1,0,0:0:0:0:
36,192,7602,128,0,7789:0:0:0:0:
329,192,7789,1,0,0:0:0:0:
182,192,7883,1,0,0:0:0:0:
36,192,7977,1,0,0:0:0:0:
256,192,8164,1,0,0:0:0:0:
402,192,8352,1,0,0:0:0:0:
256,192,8445,1,0,0:0:0:0:
329,192,8633,1,0,0:0:0:0:
475,192,8820,1,0,0:0:0:0:
329,192,8914,1,0,0:0:0:0:
109,192,9102,1,0,0:0:0:0:
402,192,9289,1,0,0:0:0:0:
36,192,9477,1,0,0:0:0:0:
182,192,9477,1,0,0:0:0:0:
109,192,9664,1,0,0:0:0:0:
36,192,9852,1,0,0:0:0:0:
329,192,9852,1,0,0:0:0:0:
182,192,9945,1,0,0:0:0:0:
256,192,10133,1,0,0:0:0:0:
36,192,10227,1,0,0:0:0:0:
256,192,10320,1,0,0:0:0:0:
402,192,10414,1,0,0:0:0:0:
36,192,10602,1,0,0:0:0:0:
182,192,10602,128,0,10789:0:0:0:0:
256,192,10977,1,0,0:0:0:0:
475,192,10977,1,0,0:0:0:0:
402,192,11164,1,0,0:0:0:0:
182,192,11352,1,0,0:0:0:0:
475,192,11352,1,0,0:0:0:0:
329,192,11445,1,0,0:0:0:0:
256,192,11633,1,0,0:0:0:0:
475,192,11727,1,0,0:0:0:0:
256,192,11820,1,0,0:0:0:0:
109,192,11914,1,0,0:0:0:0:
329,192,12102,1,0,0:0:0:0:
475,192,12102,1,0,0:0:0:0:
402,192,12289,1,0,0:0:0:0:
36,192,12477,1,0,0:0:0:0:
256,192,12477,1,0,0:0:0:0:
109,192,12664,1,0,0:0:0:0:
36,192,12852,1,0,0:0:0:0:
329,192,12852,1,0,0:0:0:0:
182,192,12945,1,0,0:0:0:0:
256,192,13133,1,0,0:0:0:0:
36,192,13227,1,0,0:0:0:0:
256,192,13320,1,0,0:0:0:0:
402,192,13414,1,0,0:0:0:0:
36,192,13602,1,0,0:0:0:0:
182,192,13602,128,0,13789:0:0:0:0:
329,192,13789,1,0,0:0:0:0:
182,192,13883,1,0,0:0:0:0:
36,192,13977,1,0,0:0:0:0:
475,192,13977,1,0,0:0:0:0:
256,192,14164,1,0,0:0:0:0:
402,192,14352,1,0,0:0:0:0:
475,192,14352,1,0,0:0:0:0:
256,192,14445,1,0,0:0:0:0:
329,192,14633,1,0,0:0:0:0:
36,192,14727,1,0,0:0:0:0:
182,192,14727,1,0,0:0:0:0:
402,192,14789,1,0,0:0:0:0:
256,192,14852,1,0,0:0:0:0:
109,192,14914,1,0,0:0:0:0:
329,192,14977,1,0,0:0:0:0:
182,192,15039,1,0,0:0:0:0:
36,192,15102,1,0,0:0:0:0:
475,192,15102,1,0,0:0:0:0:
329,192,15164,1,0,0:0:0:0:
182,192,15227,1,0,0:0:0:0:
402,192,15289,1,0,0:0:0:0:
109,192,15352,1,0,0:0:0:0:
256,192,15414,1,0,0:0:0:0:
36,192,15477,1,0,0:0:0:0:
329,192,15477,128,0,15664:0:0:0:0:
475,192,15477,128,0,15664:0:0:0:0:
36,192,15852,128,0,16039:0:0:0:0:
182,192,15852,128,0,16039:0:0:0:0:
475,192,15852,1,0,0:0:0:0:
109,192,16227,1,0,0:0:0:0:
36,192,16227,1,0,0:0:0:0:
256,192,16414,1,0,0:0:0:0:
402,192,16602,1,0,0:0:0:0:
475,192,16602,1,0,0:0:0:0:
109,192,16977,1,0,0:0:0:0:
329,192,16977,1,0,0:0:0:0:
36,192,17164,1,0,0:0:0:0:
256,192,17352,1,0,0:0:0:0:
475,192,17352,1,0,0:0:0:0:
182,192,17539,1,0,0:0:0:0:
402,192,17727,1,0,0:0:0:0:
109,192,17727,1,0,0:0:0:0:
329,192,17914,1,0,0:0:0:0:
475,192,18102,1,0,0:0:0:0:
256,192,18102,1,0,0:0:0:0:
109,192,18477,1,0,0:0:0:0:
402,192,18477,128,0,18664:0:0:0:0:
475,192,18477,128,0,18664:0:0:0:0:
36,192,18852,128,0,19039:0:0:0:0:
109,192,18852,128,0,19039:0:0:0:0:
402,192,18852,1,0,0:0:0:0:
256,192,19227,1,0,0:0:0:0:
475,192,19227,1,0,0:0:0:0:
182,192,19414,1,0,0:0:0:0:
329,192,19602,1,0,0:0:0:0:
36,192,19602,1,0,0:0:0:0:
256,192,19789,1,0,0:0:0:0:
182,192,19977,1,0,0:0:0:0:
475,192,19977,1,0,0:0:0:0:
329,192,20164,1,0,0:0:0:0:
256,192,20352,1,0,0:0:0:0:
36,192,20352,1,0,0:0:0:0:
402,192,20539,1,0,0:0:0:0:
329,192,20727,1,0,0:0:0:0:
109,192,20727,1,0,0:0:0:0:
475,192,20914,1,0,0:0:0:0:
402,192,21102,1,0,0:0:0:0:
182,192,21102,1,0,0:0:0:0:
36,192,21477,128,0,21664:0:0:0:0:
109,192,21477,128,0,21664:0:0:0:0:
256,192,21477,1,0,0:0:0:0:
256,192,21852,1,0,0:0:0:0:
402,192,21852,128,0,22039:0:0:0:0:
475,192,21852,128,0,22039:0:0:0:0:
182,192,22227,1,0,0:0:0:0:
36,192,22227,1,0,0:0:0:0:
329,192,22414,1,0,0:0:0:0:
256,192,22602,1,0,0:0:0:0:
109,192,22602,1,0,0:0:0:0:
402,192,22789,1,0,0:0:0:0:
329,192,22977,1,0,0:0:0:0:
475,192,22977,1,0,0:0:0:0:
256,192,23164,1,0,0:0:0:0:
109,192,23352,1,0,0:0:0:0:
402,192,23352,1,0,0:0:0:0:
256,192,23539,1,0,0:0:0:0:
475,192,23727,1,0,0:0:0:0:
36,192,23727,1,0,0:0:0:0:
256,192,23914,1,0,0:0:0:0:
402,192,24102,1,0,0:0:0:0:
109,192,24102,1,0,0:0:0:0:
109,192,24477,128,0,24664:0:0:0:0:
182,192,24477,128,0,24664:0:0:0:0:
475,192,24477,1,0,0:0:0:0:
36,192,24852,1,0,0:0:0:0:
329,192,24852,128,0,25039:0:0:0:0:
402,192,24852,128,0,25039:0:0:0:0:
256,192,25227,1,0,0:0:0:0:
475,192,25227,1,0,0:0:0:0:
329,192,25414,1,0,0:0:0:0:
182,192,25602,1,0,0:0:0:0:
402,192,25602,1,0,0:0:0:0:
256,192,25789,1,0,0:0:0:0:
109,192,25977,1,0,0:0:0:0:
329,192,25977,1,0,0:0:0:0:
182,192,26164,1,0,0:0:0:0:
36,192,26352,1,0,0:0:0:0:
256,192,26352,1,0,0:0:0:0:
329,192,26539,1,0,0:0:0:0:
182,192,26727,1,0,0:0:0:0:
402,192,26820,1,0,0:0:0:0:
256,192,26914,1,0,0:0:0:0:
402,192,27008,1,0,0:0:0:0:
109,192,27102,1,0,0:0:0:0:
256,192,27195,1,0,0:0:0:0:
109,192,27289,1,0,0:0:0:0:
329,192,27383,1,0,0:0:0:0:
36,192,27477,1,0,0:0:0:0:
182,192,27477,1,0,0:0:0:0:
475,192,27477,1,0,0:0:0:0:
109,192,27664,1,0,0:0:0:0:
182,192,27664,1,0,0:0:0:0:
36,192,27852,1,0,0:0:0:0:
329,192,27852,1,0,0:0:0:0:
475,192,27852,1,0,0:0:0:0:
329,192,28039,1,0,0:0:0:0:
402,192,28039,1,0,0:0:0:0:
36,192,28227,1,0,0:0:0:0:
182,192,28227,1,0,0:0:0:0:
475,192,28227,1,0,0:0:0:0:
109,192,28414,1,0,0:0:0:0:
182,192,28414,1,0,0:0:0:0:
36,192,28602,1,0,0:0:0:0:
329,192,28602,1,0,0:0:0:0:
475,192,28602,1,0,0:0:0:0:
329,192,28789,1,0,0:0:0:0:
402,192,28789,1,0,0:0:0:0:
182,192,28883,1,0,0:0:0:0:
36,192,28977,1,0,0:0:0:0:
402,192,28977,1,0,0:0:0:0:
475,192,28977,1,0,0:0:0:0:
256,192,29164,1,0,0:0:0:0:
402,192,29164,1,0,0:0:0:0:
36,192,29352,1,0,0:0:0:0:
109,192,29352,1,0,0:0:0:0:
475,192,29352,1,0,0:0:0:0:
109,192,29539,1,0,0:0:0:0:
256,192,29539,1,0,0:0:0:0:
36,192,29727,1,0,0:0:0:0:
402,192,29727,1,0,0:0:0:0:
475,192,29727,1,0,0:0:0:0:
256,192,29914,1,0,0:0:0:0:
402,192,29914,1,0,0:0:0:0:
36,192,30102,1,0,0:0:0:0:
109,192,30102,1,0,0:0:0:0:
475,192,30102,1,0,0:0:0:0:
109,192,30289,1,0,0:0:0:0:
256,192,30289,1,0,0:0:0:0:
475,192,30289,1,0,0:0:0:0:
36,192,30477,1,0,0:0:0:0:
256,192,30477,1,0,0:0:0:0:
402,192,30477,1,0,0:0:0:0:
36,192,30664,1,0,0:0:0:0:
402,192,30664,1,0,0:0:0:0:
109,192,30852,1,0,0:0:0:0:
256,192,30852,1,0,0:0:0:0:
475,192,30852,1,0,0:0:0:0:
109,192,31039,1,0,0:0:0:0:
475,192,31039,1,0,0:0:0:0:
36,192,31227,1,0,0:0:0:0:
256,192,31227,1,0,0:0:0:0:
402,192,31227,1,0,0:0:0:0:
36,192,31414,1,0,0:0:0:0:
402,192,31414,1,0,0:0:0:0:
109,192,31602,1,0,0:0:0:0:
256,192,31602,1,0,0:0:0:0:
475,192,31602,1,0,0:0:0:0:
109,192,31789,1,0,0:0:0:0:
475,192,31789,1,0,0:0:0:0:
182,192,31883,1,0,0:0:0:0:
36,192,31977,1,0,0:0:0:0:
256,192,31977,1,0,0:0:0:0:
402,192,31977,1,0,0:0:0:0:
36,192,32164,1,0,0:0:0:0:
329,192,32164,1,0,0:0:0:0:
329,192,32258,1,0,0:0:0:0:
36,192,32352,1,0,0:0:0:0:
182,192,32352,1,0,0:0:0:0:
475,192,32352,1,0,0:0:0:0:
182,192,32539,1,0,0:0:0:0:
475,192,32539,1,0,0:0:0:0:
36,192,32727,1,0,0:0:0:0:
256,192,32727,1,0,0:0:0:0:
402,192,32727,1,0,0:0:0:0:
109,192,32914,1,0,0:0:0:0:
256,192,32914,1,0,0:0:0:0:
36,192,33102,1,0,0:0:0:0:
182,192,33102,1,0,0:0:0:0:
475,192,33102,1,0,0:0:0:0:
36,192,33289,1,0,0:0:0:0:
182,192,33289,1,0,0:0:0:0:
256,192,33383,1,0,0:0:0:0:
109,192,33477,1,0,0:0:0:0:
329,192,33477,1,0,0:0:0:0:
475,192,33477,1,0,0:0:0:0:
36,192,33570,1,0,0:0:0:0:
182,192,33664,1,0,0:0:0:0:
402,192,33664,1,0,0:0:0:0:
109,192,33758,1,0,0:0:0:0:
256,192,33852,1,0,0:0:0:0:
475,192,33852,1,0,0:0:0:0:
182,192,33945,1,0,0:0:0:0:
36,192,34039,1,0,0:0:0:0:
329,192,34039,1,0,0:0:0:0:
256,192,34133,1,0,0:0:0:0:
109,192,34227,1,0,0:0:0:0:
402,192,34227,1,0,0:0:0:0:
329,192,34320,1,0,0:0:0:0:
182,192,34414,1,0,0:0:0:0:
475,192,34414,1,0,0:0:0:0:
402,192,34508,1,0,0:0:0:0:
36,192,34602,1,0,0:0:0:0:
256,192,34602,1,0,0:0:0:0:
182,192,34695,1,0,0:0:0:0:
109,192,34789,1,0,0:0:0:0:
329,192,34789,1,0,0:0:0:0:
256,192,34883,1,0,0:0:0:0:
36,192,34977,1,0,0:0:0:0:
182,192,34977,1,0,0:0:0:0:
402,192,34977,1,0,0:0:0:0:
329,192,35070,1,0,0:0:0:0:
256,192,35164,1,0,0:0:0:0:
475,192,35164,1,0,0:0:0:0:
402,192,35258,1,0,0:0:0:0:
109,192,35352,1,0,0:0:0:0:
329,192,35352,1,0,0:0:0:0:
36,192,35445,1,0,0:0:0:0:
182,192,35539,1,0,0:0:0:0:
402,192,35539,1,0,0:0:0:0:
109,192,35633,1,0,0:0:0:0:
256,192,35727,1,0,0:0:0:0:
475,192,35727,1,0,0:0:0:0:
182,192,35820,1,0,0:0:0:0:
36,192,35914,1,0,0:0:0:0:
329,192,35914,1,0,0:0:0:0:
256,192,36008,1,0,0:0:0:0:
109,192,36102,1,0,0:0:0:0:
402,192,36102,1,0,0:0:0:0:
329,192,36195,1,0,0:0:0:0:
182,192,36289,1,0,0:0:0:0:
475,192,36289,1,0,0:0:0:0:
402,192,36383,1,0,0:0:0:0:
36,192,36477,1,0,0:0:0:0:
109,192,36477,1,0,0:0:0:0:
256,192,36477,1,0,0:0:0:0:
475,192,36570,1,0,0:0:0:0:
182,192,36664,1,0,0:0:0:0:
329,192,36664,1,0,0:0:0:0:
475,192,36758,1,0,0:0:0:0:
256,192,36852,1,0,0:0:0:0:
402,192,36852,1,0,0:0:0:0:
36,192,36945,1,0,0:0:0:0:
182,192,37039,1,0,0:0:0:0:
329,192,37039,1,0,0:0:0:0:
36,192,37133,1,0,0:0:0:0:
109,192,37227,1,0,0:0:0:0:
256,192,37227,1,0,0:0:0:0:
329,192,37273,1,0,0:0:0:0:
402,192,37320,1,0,0:0:0:0:
475,192,37367,1,0,0:0:0:0:
182,192,37414,1,0,0:0:0:0:
256,192,37461,1,0,0:0:0:0:
329,192,37508,1,0,0:0:0:0:
402,192,37555,1,0,0:0:0:0:
109,192,37602,1,0,0:0:0:0:
182,192,37648,1,0,0:0:0:0:
256,192,37695,1,0,0:0:0:0:
329,192,37742,1,0,0:0:0:0:
36,192,37789,1,0,0:0:0:0:
109,192,37836,1,0,0:0:0:0:
182,192,37883,1,0,0:0:0:0:
256,192,37930,1,0,0:0:0:0:
36,192,37977,1,0,0:0:0:0:
329,192,37977,1,0,0:0:0:0:
475,192,37977,1,0,0:0:0:0:
182,192,38070,1,0,0:0:0:0:
182,192,38258,1,0,0:0:0:0:
329,192,38352,1,0,0:0:0:0:
329,192,38539,1,0,0:0:0:0:
182,192,38633,1,0,0:0:0:0:
182,192,38820,1,0,0:0:0:0:
329,192,38914,1,0,0:0:0:0:
182,192,39008,1,0,0:0:0:0:
402,192,39102,1,0,0:0:0:0:
256,192,39148,128,0,39477:0:0:0:0:
109,192,39195,1,0,0:0:0:0:
36,192,39477,1,0,0:0:0:0:
182,192,39477,1,0,0:0:0:0:
475,192,39477,1,0,0:0:0:0:
256,192,39758,1,0,0:0:0:0:
36,192,39852,1,0,0:0:0:0:
182,192,39914,1,0,0:0:0:0:
475,192,39977,1,0,0:0:0:0:
329,192,40039,1,0,0:0:0:0:
182,192,40102,1,0,0:0:0:0:
36,192,40164,1,0,0:0:0:0:
329,192,40227,1,0,0:0:0:0:
475,192,40289,1,0,0:0:0:0:
36,192,40352,1,0,0:0:0:0:
182,192,40414,1,0,0:0:0:0:
475,192,40477,1,0,0:0:0:0:
329,192,40539,1,0,0:0:0:0:
36,192,40602,1,0,0:0:0:0:
109,192,40602,1,0,0:0:0:0:
182,192,40602,1,0,0:0:0:0:
36,192,40977,1,0,0:0:0:0:
256,192,40977,1,0,0:0:0:0:
475,192,40977,1,0,0:0:0:0:
256,192,41258,1,0,0:0:0:0:
475,192,41352,1,0,0:0:0:0:
329,192,41414,1,0,0:0:0:0:
36,192,41477,1,0,0:0:0:0:
182,192,41539,1,0,0:0:0:0:
329,192,41602,1,0,0:0:0:0:
475,192,41664,1,0,0:0:0:0:
182,192,41727,1,0,0:0:0:0:
36,192,41789,1,0,0:0:0:0:
256,192,41852,1,0,0:0:0:0:
109,192,41914,1,0,0:0:0:0:
329,192,41977,1,0,0:0:0:0:
182,192,42039,1,0,0:0:0:0:
36,192,42102,1,0,0:0:0:0:
402,192,42102,1,0,0:0:0:0:
475,192,42102,1,0,0:0:0:0:
36,192,42477,1,0,0:0:0:0:
256,192,42477,1,0,0:0:0:0:
475,192,42477,1,0,0:0:0:0:
256,192,42758,1,0,0:0:0:0:
475,192,42852,1,0,0:0:0:0:
329,192,42914,1,0,0:0:0:0:
36,192,42977,1,0,0:0:0:0:
182,192,43039,1,0,0:0:0:0:
329,192,43102,1,0,0:0:0:0:
475,192,43164,1,0,0:0:0:0:
182,192,43227,1,0,0:0:0:0:
36,192,43289,1,0,0:0:0:0:
475,192,43352,1,0,0:0:0:0:
329,192,43414,1,0,0:0:0:0:
36,192,43477,1,0,0:0:0:0:
182,192,43539,1,0,0:0:0:0:
329,192,43602,1,0,0:0:0:0:
402,192,43602,1,0,0:0:0:0:
475,192,43602,1,0,0:0:0:0:
36,192,43977,1,0,0:0:0:0:
256,192,43977,1,0,0:0:0:0:
475,192,43977,1,0,0:0:0:0:
402,192,44039,1,0,0:0:0:0:
329,192,44102,1,0,0:0:0:0:
182,192,44164,1,0,0:0:0:0:
109,192,44227,1,0,0:0:0:0:
36,192,44289,1,0,0:0:0:0:
329,192,44352,1,0,0:0:0:0:
475,192,44352,1,0,0:0:0:0:
256,192,44414,1,0,0:0:0:0:
402,192,44477,1,0,0:0:0:0:
36,192,44539,1,0,0:0:0:0:
182,192,44539,1,0,0:0:0:0:
256,192,44602,1,0,0:0:0:0:
109,192,44664,1,0,0:0:0:0:
402,192,44727,1,0,0:0:0:0:
475,192,44727,1,0,0:0:0:0:
329,192,44773,1,0,0:0:0:0:
256,192,44820,1,0,0:0:0:0:
109,192,44914,1,0,0:0:0:0:
182,192,44961,1,0,0:0:0:0:
256,192,45008,1,0,0:0:0:0:
402,192,45008,1,0,0:0:0:0:
36,192,45102,1,0,0:0:0:0:
109,192,45102,1,0,0:0:0:0:
475,192,45102,1,0,0:0:0:0:
402,192,45195,1,0,0:0:0:0:
256,192,45242,1,0,0:0:0:0:
109,192,45289,1,0,0:0:0:0:
256,192,45383,1,0,0:0:0:0:
36,192,45477,1,0,0:0:0:0:
182,192,45477,1,0,0:0:0:0:
475,192,45477,1,0,0:0:0:0:
329,192,45570,1,0,0:0:0:0:
329,192,45758,1,0,0:0:0:0:
36,192,45852,1,0,0:0:0:0:
256,192,45852,1,0,0:0:0:0:
475,192,45852,1,0,0:0:0:0:
182,192,46039,1,0,0:0:0:0:
329,192,46039,1,0,0:0:0:0:
36,192,46227,1,0,0:0:0:0:
256,192,46227,1,0,0:0:0:0:
475,192,46227,1,0,0:0:0:0:
182,192,46320,1,0,0:0:0:0:
182,192,46508,1,0,0:0:0:0:
36,192,46602,1,0,0:0:0:0:
329,192,46602,1,0,0:0:0:0:
475,192,46602,1,0,0:0:0:0:
182,192,46789,1,0,0:0:0:0:
329,192,46789,1,0,0:0:0:0:
36,192,46977,1,0,0:0:0:0:
402,192,46977,1,0,0:0:0:0:
475,192,46977,1,0,0:0:0:0:
256,192,47070,1,0,0:0:0:0:
256,192,47258,1,0,0:0:0:0:
36,192,47352,1,0,0:0:0:0:
109,192,47352,1,0,0:0:0:0:
475,192,47352,1,0,0:0:0:0:
182,192,47539,1,0,0:0:0:0:
329,192,47539,1,0,0:0:0:0:
36,192,47727,1,0,0:0:0:0:
109,192,47727,1,0,0:0:0:0:
475,192,47727,1,0,0:0:0:0:
256,192,47820,1,0,0:0:0:0:
256,192,48008,1,0,0:0:0:0:
36,192,48102,1,0,0:0:0:0:
402,192,48102,1,0,0:0:0:0:
475,192,48102,1,0,0:0:0:0:
182,192,48289,1,0,0:0:0:0:
329,192,48289,1,0,0:0:0:0:
36,192,48477,1,0,0:0:0:0:
256,192,48477,1,0,0:0:0:0:
475,192,48477,1,0,0:0:0:0:
182,192,48570,1,0,0:0:0:0:
182,192,48758,1,0,0:0:0:0:
36,192,48852,1,0,0:0:0:0:
329,192,48852,1,0,0:0:0:0:
475,192,48852,1,0,0:0:0:0:
182,192,49039,1,0,0:0:0:0:
329,192,49039,1,0,0:0:0:0:
36,192,49227,1,0,0:0:0:0:
256,192,49227,1,0,0:0:0:0:
475,192,49227,1,0,0:0:0:0:
329,192,49320,1,0,0:0:0:0:
329,192,49508,1,0,0:0:0:0:
36,192,49602,1,0,0:0:0:0:
182,192,49602,1,0,0:0:0:0:
475,192,49602,1,0,0:0:0:0:
182,192,49789,1,0,0:0:0:0:
329,192,49789,1,0,0:0:0:0:
109,192,49977,1,0,0:0:0:0:
256,192,50039,1,0,0:0:0:0:
109,192,50102,1,0,0:0:0:0:
475,192,50164,1,0,0:0:0:0:
329,192,50227,1,0,0:0:0:0:
475,192,50289,1,0,0:0:0:0:
109,192,50352,1,0,0:0:0:0:
256,192,50414,1,0,0:0:0:0:
109,192,50477,1,0,0:0:0:0:
475,192,50539,1,0,0:0:0:0:
329,192,50602,1,0,0:0:0:0:
475,192,50664,1,0,0:0:0:0:
36,192,50727,128,0,50820:0:0:0:0:
109,192,50914,128,0,51008:0:0:0:0:
182,192,51102,128,0,51195:0:0:0:0:
256,192,51289,128,0,51383:0:0:0:0:
36,192,51477,1,0,0:0:0:0:
402,192,51477,1,0,0:0:0:0:
109,192,51539,1,0,0:0:0:0:
182,192,51602,1,0,0:0:0:0:
475,192,51664,1,0,0:0:0:0:
329,192,51727,1,0,0:0:0:0:
182,192,51789,1,0,0:0:0:0:
36,192,51852,1,0,0:0:0:0:
402,192,51852,1,0,0:0:0:0:
109,192,51914,1,0,0:0:0:0:
182,192,51977,1,0,0:0:0:0:
475,192,52039,1,0,0:0:0:0:
329,192,52102,1,0,0:0:0:0:
182,192,52164,1,0,0:0:0:0:
36,192,52227,1,0,0:0:0:0:
402,192,52227,1,0,0:0:0:0:
109,192,52289,1,0,0:0:0:0:
182,192,52352,1,0,0:0:0:0:
475,192,52414,1,0,0:0:0:0:
329,192,52477,1,0,0:0:0:0:
182,192,52539,1,0,0:0:0:0:
36,192,52602,1,0,0:0:0:0:
256,192,52602,1,0,0:0:0:0:
475,192,52602,1,0,0:0:0:0:
109,192,52977,1,0,0:0:0:0:
475,192,52977,1,0,0:0:0:0:
402,192,53039,1,0,0:0:0:0:
329,192,53102,1,0,0:0:0:0:
36,192,53164,1,0,0:0:0:0:
182,192,53227,1,0,0:0:0:0:
329,192,53289,1,0,0:0:0:0:
109,192,53352,1,0,0:0:0:0:
475,192,53352,1,0,0:0:0:0:
402,192,53414,1,0,0:0:0:0:
329,192,53477,1,0,0:0:0:0:
36,192,53539,1,0,0:0:0:0:
182,192,53602,1,0,0:0:0:0:
329,192,53664,1,0,0:0:0:0:
109,192,53727,1,0,0:0:0:0:
475,192,53727,1,0,0:0:0:0:
402,192,53789,1,0,0:0:0:0:
329,192,53852,1,0,0:0:0:0:
36,192,53914,1,0,0:0:0:0:
182,192,53977,1,0,0:0:0:0:
329,192,54039,1,0,0:0:0:0:
36,192,54102,1,0,0:0:0:0:
256,192,54102,1,0,0:0:0:0:
475,192,54102,1,0,0:0:0:0:
36,192,54477,1,0,0:0:0:0:
402,192,54477,1,0,0:0:0:0:
109,192,54539,1,0,0:0:0:0:
182,192,54602,1,0,0:0:0:0:
475,192,54664,1,0,0:0:0:0:
329,192,54727,1,0,0:0:0:0:
182,192,54789,1,0,0:0:0:0:
36,192,54852,1,0,0:0:0:0:
402,192,54852,1,0,0:0:0:0:
109,192,54914,1,0,0:0:0:0:
182,192,54977,1,0,0:0:0:0:
475,192,55039,1,0,0:0:0:0:
329,192,55102,1,0,0:0:0:0:
182,192,55164,1,0,0:0:0:0:
36,192,55227,1,0,0:0:0:0:
402,192,55227,1,0,0:0:0:0:
109,192,55289,1,0,0:0:0:0:
182,192,55352,1,0,0:0:0:0:
475,192,55414,1,0,0:0:0:0:
329,192,55477,1,0,0:0:0:0:
182,192,55539,1,0,0:0:0:0:
36,192,55602,1,0,0:0:0:0:
256,192,55602,1,0,0:0:0:0:
475,192,55602,1,0,0:0:0:0:
109,192,55977,128,0,56164:0:0:0:0:
402,192,55977,128,0,56164:0:0:0:0:
36,192,56352,1,0,0:0:0:0:
256,192,56352,1,0,0:0:0:0:
475,192,56352,1,0,0:0:0:0:
109,192,56727,1,0,0:0:0:0:
182,192,56727,1,0,0:0:0:0:
329,192,56820,1,0,0:0:0:0:
402,192,56820,1,0,0:0:0:0:
109,192,56914,1,0,0:0:0:0:
182,192,56914,1,0,0:0:0:0:
329,192,57008,1,0,0:0:0:0:
402,192,57008,1,0,0:0:0:0:
109,192,57102,1,0,0:0:0:0:
182,192,57102,1,0,0:0:0:0:
256,192,57477,1,0,0:0:0:0:
402,192,57477,1,0,0:0:0:0:
475,192,57477,1,0,0:0:0:0:
182,192,57570,1,0,0:0:0:0:
329,192,57664,1,0,0:0:0:0:
36,192,57758,1,0,0:0:0:0:
109,192,57758,1,0,0:0:0:0:
182,192,57852,1,0,0:0:0:0:
402,192,57852,1,0,0:0:0:0:
475,192,57852,1,0,0:0:0:0:
329,192,57945,1,0,0:0:0:0:
402,192,58039,1,0,0:0:0:0:
475,192,58039,1,0,0:0:0:0:
182,192,58133,1,0,0:0:0:0:
36,192,58227,1,0,0:0:0:0:
109,192,58227,1,0,0:0:0:0:
329,192,58320,1,0,0:0:0:0:
182,192,58414,1,0,0:0:0:0:
402,192,58508,1,0,0:0:0:0:
475,192,58508,1,0,0:0:0:0:
36,192,58602,1,0,0:0:0:0:
109,192,58602,1,0,0:0:0:0:
256,192,58602,128,0,58789:0:0:0:0:
36,192,58977,1,0,0:0:0:0:
109,192,58977,1,0,0:0:0:0:
329,192,59070,1,0,0:0:0:0:
182,192,59164,1,0,0:0:0:0:
402,192,59258,1,0,0:0:0:0:
475,192,59258,1,0,0:0:0:0:
36,192,59352,1,0,0:0:0:0:
109,192,59352,1,0,0:0:0:0:
329,192,59352,1,0,0:0:0:0:
182,192,59445,1,0,0:0:0:0:
36,192,59539,1,0,0:0:0:0:
109,192,59539,1,0,0:0:0:0:
329,192,59633,1,0,0:0:0:0:
402,192,59727,1,0,0:0:0:0:
475,192,59727,1,0,0:0:0:0:
182,192,59820,1,0,0:0:0:0:
329,192,59914,1,0,0:0:0:0:
36,192,60008,1,0,0:0:0:0:
109,192,60008,1,0,0:0:0:0:
256,192,60102,128,0,60289:0:0:0:0:
402,192,60102,1,0,0:0:0:0:
475,192,60102,1,0,0:0:0:0:
402,192,60477,1,0,0:0:0:0:
475,192,60477,1,0,0:0:0:0:
182,192,60570,1,0,0:0:0:0:
329,192,60664,1,0,0:0:0:0:
36,192,60758,1,0,0:0:0:0:
109,192,60758,1,0,0:0:0:0:
182,192,60852,1,0,0:0:0:0:
402,192,60852,1,0,0:0:0:0:
475,192,60852,1,0,0:0:0:0:
329,192,60945,1,0,0:0:0:0:
402,192,61039,1,0,0:0:0:0:
475,192,61039,1,0,0:0:0:0:
182,192,61133,1,0,0:0:0:0:
36,192,61227,1,0,0:0:0:0:
109,192,61227,1,0,0:0:0:0:
329,192,61320,1,0,0:0:0:0:
182,192,61414,1,0,0:0:0:0:
402,192,61508,1,0,0:0:0:0:
475,192,61508,1,0,0:0:0:0:
36,192,61602,1,0,0:0:0:0:
109,192,61602,1,0,0:0:0:0:
256,192,61602,128,0,61789:0:0:0:0:
256,192,62352,128,0,62539:0:0:0:0:
36,192,62727,1,0,0:0:0:0:
109,192,62727,1,0,0:0:0:0:
182,192,62789,1,0,0:0:0:0:
402,192,62852,1,0,0:0:0:0:
475,192,62852,1,0,0:0:0:0:
329,192,62914,1,0,0:0:0:0:
36,192,62977,1,0,0:0:0:0:
109,192,62977,1,0,0:0:0:0:
182,192,63039,1,0,0:0:0:0:
256,192,63102,1,0,0:0:0:0:
329,192,63102,1,0,0:0:0:0:
402,192,63102,1,0,0:0:0:0:
475,192,63102,1,0,0:0:0:0:
256,192,64227,128,0,66102:0:0:0:0:
36,192,64789,1,0,0:0:0:0:
109,192,64883,1,0,0:0:0:0:
182,192,64977,1,0,0:0:0:0:
36,192,65070,1,0,0:0:0:0:
182,192,65164,1,0,0:0:0:0:
329,192,65258,1,0,0:0:0:0:
475,192,65352,1,0,0:0:0:0:
402,192,65445,1,0,0:0:0:0:
329,192,65539,1,0,0:0:0:0:
182,192,65633,1,0,0:0:0:0:
36,192,65727,1,0,0:0:0:0:
182,192,65820,1,0,0:0:0:0:
109,192,65914,1,0,0:0:0:0:
402,192,66008,1,0,0:0:0:0:
182,192,66102,1,0,0:0:0:0:
329,192,66102,1,0,0:0:0:0:
256,192,66195,1,0,0:0:0:0:
109,192,66289,1,0,0:0:0:0:
402,192,66289,1,0,0:0:0:0:
36,192,66477,1,0,0:0:0:0:
256,192,66477,1,0,0:0:0:0:
475,192,66477,128,0,67039:0:0:0:0:
329,192,66664,1,0,0:0:0:0:
36,192,66758,1,0,0:0:0:0:
256,192,66852,1,0,0:0:0:0:
36,192,67039,1,0,0:0:0:0:
182,192,67133,1,0,0:0:0:0:
256,192,67227,1,0,0:0:0:0:
475,192,67227,128,0,67789:0:0:0:0:
109,192,67414,1,0,0:0:0:0:
256,192,67508,1,0,0:0:0:0:
36,192,67602,1,0,0:0:0:0:
182,192,67695,1,0,0:0:0:0:
256,192,67789,1,0,0:0:0:0:
475,192,67883,1,0,0:0:0:0:
36,192,67977,128,0,68539:0:0:0:0:
329,192,67977,1,0,0:0:0:0:
182,192,68164,1,0,0:0:0:0:
329,192,68258,1,0,0:0:0:0:
256,192,68352,1,0,0:0:0:0:
475,192,68445,1,0,0:0:0:0:
329,192,68539,1,0,0:0:0:0:
182,192,68633,1,0,0:0:0:0:
36,192,68727,128,0,69289:0:0:0:0:
402,192,68727,1,0,0:0:0:0:
256,192,68914,1,0,0:0:0:0:
402,192,69008,1,0,0:0:0:0:
182,192,69102,1,0,0:0:0:0:
402,192,69289,1,0,0:0:0:0:
109,192,69477,1,0,0:0:0:0:
402,192,69477,128,0,70039:0:0:0:0:
256,192,69664,1,0,0:0:0:0:
109,192,69758,1,0,0:0:0:0:
182,192,69852,1,0,0:0:0:0:
109,192,70039,1,0,0:0:0:0:
329,192,70133,1,0,0:0:0:0:
36,192,70227,1,0,0:0:0:0:
402,192,70227,128,0,70789:0:0:0:0:
182,192,70414,1,0,0:0:0:0:
36,192,70508,1,0,0:0:0:0:
256,192,70602,1,0,0:0:0:0:
36,192,70789,1,0,0:0:0:0:
182,192,70883,1,0,0:0:0:0:
256,192,70977,128,0,71539:0:0:0:0:
475,192,70977,1,0,0:0:0:0:
329,192,71164,1,0,0:0:0:0:
475,192,71258,1,0,0:0:0:0:
402,192,71352,1,0,0:0:0:0:
475,192,71539,1,0,0:0:0:0:
36,192,71633,1,0,0:0:0:0:
256,192,71727,128,0,72102:0:0:0:0:
402,192,71727,1,0,0:0:0:0:
109,192,71914,1,0,0:0:0:0:
329,192,72102,1,0,0:0:0:0:
475,192,72102,1,0,0:0:0:0:
256,192,72195,1,0,0:0:0:0:
36,192,72289,1,0,0:0:0:0:
182,192,72289,1,0,0:0:0:0:
109,192,72477,1,0,0:0:0:0:
329,192,72477,1,0,0:0:0:0:
475,192,72477,1,0,0:0:0:0:
256,192,72664,1,0,0:0:0:0:
402,192,72758,1,0,0:0:0:0:
475,192,72758,1,0,0:0:0:0:
36,192,72852,1,0,0:0:0:0:
329,192,72852,1,0,0:0:0:0:
109,192,72945,1,0,0:0:0:0:
256,192,73039,1,0,0:0:0:0:
475,192,73039,1,0,0:0:0:0:
402,192,73133,1,0,0:0:0:0:
36,192,73227,1,0,0:0:0:0:
182,192,73227,1,0,0:0:0:0:
402,192,73414,1,0,0:0:0:0:
36,192,73508,1,0,0:0:0:0:
182,192,73508,1,0,0:0:0:0:
329,192,73602,1,0,0:0:0:0:
475,192,73602,1,0,0:0:0:0:
329,192,73789,1,0,0:0:0:0:
475,192,73789,1,0,0:0:0:0:
182,192,73883,1,0,0:0:0:0:
36,192,73977,1,0,0:0:0:0:
402,192,73977,1,0,0:0:0:0:
256,192,74164,1,0,0:0:0:0:
36,192,74258,1,0,0:0:0:0:
109,192,74258,1,0,0:0:0:0:
182,192,74352,1,0,0:0:0:0:
475,192,74352,1,0,0:0:0:0:
402,192,74445,1,0,0:0:0:0:
36,192,74539,1,0,0:0:0:0:
256,192,74539,1,0,0:0:0:0:
109,192,74633,1,0,0:0:0:0:
329,192,74727,1,0,0:0:0:0:
475,192,74727,1,0,0:0:0:0:
109,192,74914,1,0,0:0:0:0:
329,192,75008,1,0,0:0:0:0:
475,192,75008,1,0,0:0:0:0:
36,192,75102,1,0,0:0:0:0:
182,192,75102,1,0,0:0:0:0:
402,192,75195,1,0,0:0:0:0:
36,192,75289,1,0,0:0:0:0:
182,192,75289,1,0,0:0:0:0:
329,192,75383,1,0,0:0:0:0:
36,192,75477,1,0,0:0:0:0:
109,192,75477,1,0,0:0:0:0:
475,192,75477,1,0,0:0:0:0:
256,192,75664,1,0,0:0:0:0:
402,192,75758,1,0,0:0:0:0:
475,192,75758,1,0,0:0:0:0:
36,192,75852,1,0,0:0:0:0:
329,192,75852,1,0,0:0:0:0:
109,192,75945,1,0,0:0:0:0:
256,192,76039,1,0,0:0:0:0:
475,192,76039,1,0,0:0:0:0:
402,192,76133,1,0,0:0:0:0:
36,192,76227,1,0,0:0:0:0:
182,192,76227,1,0,0:0:0:0:
475,192,76320,1,0,0:0:0:0:
329,192,76414,1,0,0:0:0:0:
402,192,76508,1,0,0:0:0:0:
475,192,76508,1,0,0:0:0:0:
36,192,76602,1,0,0:0:0:0:
182,192,76602,1,0,0:0:0:0:
475,192,76695,1,0,0:0:0:0:
109,192,76789,1,0,0:0:0:0:
256,192,76789,1,0,0:0:0:0:
475,192,76883,1,0,0:0:0:0:
36,192,76977,1,0,0:0:0:0:
182,192,76977,1,0,0:0:0:0:
329,192,76977,1,0,0:0:0:0:
402,192,76977,1,0,0:0:0:0:
36,192,77352,1,0,0:0:0:0:
182,192,77352,1,0,0:0:0:0:
329,192,77352,1,0,0:0:0:0:
402,192,77352,1,0,0:0:0:0:
256,192,77727,1,0,0:0:0:0:
402,192,77820,1,0,0:0:0:0:
182,192,77914,1,0,0:0:0:0:
329,192,78008,1,0,0:0:0:0:
109,192,78102,1,0,0:0:0:0:
182,192,78195,1,0,0:0:0:0:
36,192,78289,1,0,0:0:0:0:
109,192,78383,1,0,0:0:0:0:
182,192,78477,1,0,0:0:0:0:
329,192,78477,1,0,0:0:0:0:
402,192,78477,1,0,0:0:0:0:
475,192,78477,1,0,0:0:0:0:
329,192,79836,1,0,0:0:0:0:
256,192,79883,1,0,0:0:0:0:
182,192,79930,1,0,0:0:0:0:
36,192,79977,1,0,0:0:0:0:
475,192,79977,1,0,0:0:0:0:
329,192,80102,1,0,0:0:0:0:
475,192,80227,1,0,0:0:0:0:
36,192,80352,1,0,0:0:0:0:
182,192,80477,1,0,0:0:0:0:
36,192,80602,1,0,0:0:0:0:
256,192,80727,1,0,0:0:0:0:
36,192,81102,1,0,0:0:0:0:
182,192,81102,1,0,0:0:0:0:
329,192,81102,1,0,0:0:0:0:
475,192,81102,1,0,0:0:0:0:
36,192,81477,1,0,0:0:0:0:
109,192,81477,1,0,0:0:0:0:
256,192,81477,1,0,0:0:0:0:
475,192,81477,1,0,0:0:0:0:
256,192,81852,1,0,0:0:0:0:
475,192,81852,1,0,0:0:0:0:
109,192,82039,1,0,0:0:0:0:
109,192,82133,1,0,0:0:0:0:
256,192,82227,1,0,0:0:0:0:
475,192,82227,1,0,0:0:0:0:
109,192,82320,1,0,0:0:0:0:
329,192,82414,1,0,0:0:0:0:
475,192,82508,1,0,0:0:0:0:
36,192,82602,1,0,0:0:0:0:
109,192,82602,1,0,0:0:0:0:
256,192,82602,1,0,0:0:0:0:
182,192,82789,1,0,0:0:0:0:
329,192,82789,1,0,0:0:0:0:
36,192,82977,1,0,0:0:0:0:
256,192,82977,1,0,0:0:0:0:
402,192,82977,1,0,0:0:0:0:
475,192,82977,1,0,0:0:0:0:
36,192,83352,1,0,0:0:0:0:
256,192,83352,1,0,0:0:0:0:
402,192,83539,1,0,0:0:0:0:
402,192,83633,1,0,0:0:0:0:
256,192,83727,1,0,0:0:0:0:
36,192,83727,1,0,0:0:0:0:
329,192,83820,1,0,0:0:0:0:
182,192,83914,1,0,0:0:0:0:
36,192,84008,1,0,0:0:0:0:
256,192,84102,1,0,0:0:0:0:
402,192,84102,1,0,0:0:0:0:
475,192,84102,1,0,0:0:0:0:
182,192,84289,1,0,0:0:0:0:
329,192,84289,1,0,0:0:0:0:
36,192,84477,1,0,0:0:0:0:
109,192,84477,1,0,0:0:0:0:
256,192,84477,1,0,0:0:0:0:
475,192,84477,1,0,0:0:0:0:
256,192,84852,1,0,0:0:0:0:
475,192,84852,1,0,0:0:0:0:
109,192,85039,1,0,0:0:0:0:
109,192,85133,1,0,0:0:0:0:
256,192,85227,1,0,0:0:0:0:
475,192,85227,1,0,0:0:0:0:
182,192,85320,1,0,0:0:0:0:
329,192,85414,1,0,0:0:0:0:
182,192,85508,1,0,0:0:0:0:
36,192,85602,1,0,0:0:0:0:
256,192,85602,1,0,0:0:0:0:
402,192,85695,1,0,0:0:0:0:
109,192,85789,1,0,0:0:0:0:
402,192,85883,1,0,0:0:0:0:
256,192,85977,1,0,0:0:0:0:
475,192,85977,1,0,0:0:0:0:
182,192,86070,1,0,0:0:0:0:
329,192,86164,1,0,0:0:0:0:
182,192,86258,1,0,0:0:0:0:
36,192,86352,1,0,0:0:0:0:
256,192,86352,1,0,0:0:0:0:
402,192,86445,1,0,0:0:0:0:
109,192,86539,1,0,0:0:0:0:
402,192,86633,1,0,0:0:0:0:
182,192,86727,1,0,0:0:0:0:
329,192,86789,1,0,0:0:0:0:
182,192,86852,1,0,0:0:0:0:
402,192,86914,1,0,0:0:0:0:
256,192,86977,1,0,0:0:0:0:
402,192,87039,1,0,0:0:0:0:
36,192,87102,1,0,0:0:0:0:
182,192,87164,1,0,0:0:0:0:
36,192,87227,1,0,0:0:0:0:
329,192,87289,1,0,0:0:0:0:
182,192,87352,1,0,0:0:0:0:
329,192,87414,1,0,0:0:0:0:
36,192,87477,1,0,0:0:0:0:
109,192,87477,1,0,0:0:0:0:
256,192,87477,1,0,0:0:0:0:
475,192,87477,1,0,0:0:0:0:
256,192,87852,1,0,0:0:0:0:
475,192,87852,1,0,0:0:0:0:
402,192,88039,1,0,0:0:0:0:
402,192,88133,1,0,0:0:0:0:
36,192,88227,1,0,0:0:0:0:
256,192,88227,1,0,0:0:0:0:
329,192,88320,1,0,0:0:0:0:
109,192,88414,1,0,0:0:0:0:
109,192,88508,1,0,0:0:0:0:
256,192,88602,1,0,0:0:0:0:
402,192,88602,1,0,0:0:0:0:
475,192,88602,1,0,0:0:0:0:
182,192,88789,1,0,0:0:0:0:
329,192,88789,1,0,0:0:0:0:
36,192,88977,1,0,0:0:0:0:
109,192,88977,1,0,0:0:0:0:
256,192,88977,1,0,0:0:0:0:
475,192,88977,1,0,0:0:0:0:
36,192,89352,1,0,0:0:0:0:
475,192,89352,1,0,0:0:0:0:
182,192,89539,1,0,0:0:0:0:
182,192,89633,1,0,0:0:0:0:
36,192,89727,1,0,0:0:0:0:
475,192,89727,1,0,0:0:0:0:
256,192,89820,1,0,0:0:0:0:
402,192,89914,1,0,0:0:0:0:
329,192,90008,1,0,0:0:0:0:
36,192,90102,1,0,0:0:0:0:
182,192,90102,1,0,0:0:0:0:
475,192,90102,1,0,0:0:0:0:
402,192,90195,1,0,0:0:0:0:
109,192,90289,1,0,0:0:0:0:
256,192,90289,1,0,0:0:0:0:
36,192,90477,1,0,0:0:0:0:
182,192,90477,1,0,0:0:0:0:
329,192,90477,1,0,0:0:0:0:
475,192,90477,1,0,0:0:0:0:
402,192,90852,1,0,0:0:0:0:
109,192,90852,1,0,0:0:0:0:
402,192,90945,1,0,0:0:0:0:
182,192,91039,1,0,0:0:0:0:
36,192,91039,1,0,0:0:0:0:
36,192,91227,1,0,0:0:0:0:
256,192,91227,1,0,0:0:0:0:
329,192,91227,1,0,0:0:0:0:
475,192,91227,1,0,0:0:0:0:
402,192,91602,1,0,0:0:0:0:
109,192,91602,1,0,0:0:0:0:
109,192,91695,1,0,0:0:0:0:
329,192,91789,1,0,0:0:0:0:
475,192,91789,1,0,0:0:0:0:
36,192,91977,1,0,0:0:0:0:
109,192,91977,1,0,0:0:0:0:
256,192,92102,1,0,0:0:0:0:
329,192,92102,1,0,0:0:0:0:
109,192,92227,1,0,0:0:0:0:
182,192,92227,1,0,0:0:0:0:
329,192,92352,1,0,0:0:0:0:
402,192,92352,1,0,0:0:0:0:
182,192,92477,1,0,0:0:0:0:
256,192,92477,1,0,0:0:0:0:
402,192,92602,1,0,0:0:0:0:
475,192,92602,1,0,0:0:0:0:
36,192,92727,1,0,0:0:0:0:
109,192,92727,1,0,0:0:0:0:
256,192,92727,128,0,93477:0:0:0:0:
36,192,93477,1,0,0:0:0:0:
182,192,93477,1,0,0:0:0:0:
402,192,93477,1,0,0:0:0:0:
475,192,93477,1,0,0:0:0:0:
402,192,93664,1,0,0:0:0:0:
475,192,93664,1,0,0:0:0:0:
36,192,93852,1,0,0:0:0:0:
109,192,93852,1,0,0:0:0:0:
36,192,94039,1,0,0:0:0:0:
109,192,94039,1,0,0:0:0:0:
329,192,94227,1,0,0:0:0:0:
475,192,94227,1,0,0:0:0:0:
329,192,94414,1,0,0:0:0:0:
475,192,94414,1,0,0:0:0:0:
36,192,94602,1,0,0:0:0:0:
182,192,94602,1,0,0:0:0:0:
36,192,94789,1,0,0:0:0:0:
182,192,94789,1,0,0:0:0:0:
256,192,94977,1,0,0:0:0:0:
402,192,94977,1,0,0:0:0:0:
256,192,95164,1,0,0:0:0:0:
402,192,95164,1,0,0:0:0:0:
182,192,95352,1,0,0:0:0:0:
329,192,95352,1,0,0:0:0:0:
182,192,95539,1,0,0:0:0:0:
329,192,95539,1,0,0:0:0:0:
109,192,95727,1,0,0:0:0:0:
256,192,95727,1,0,0:0:0:0:
109,192,95914,1,0,0:0:0:0:
256,192,95914,1,0,0:0:0:0:
329,192,96102,1,0,0:0:0:0:
475,192,96102,1,0,0:0:0:0:
182,192,96195,1,0,0:0:0:0:
329,192,96289,1,0,0:0:0:0:
475,192,96289,1,0,0:0:0:0:
36,192,96477,1,0,0:0:0:0:
256,192,96477,1,0,0:0:0:0:
475,192,96477,1,0,0:0:0:0:
36,192,96664,1,0,0:0:0:0:
256,192,96664,1,0,0:0:0:0:
109,192,96852,1,0,0:0:0:0:
329,192,96852,1,0,0:0:0:0:
475,192,96852,1,0,0:0:0:0:
109,192,97039,1,0,0:0:0:0:
329,192,97039,1,0,0:0:0:0:
36,192,97227,1,0,0:0:0:0:
256,192,97227,1,0,0:0:0:0:
475,192,97227,1,0,0:0:0:0:
256,192,97414,1,0,0:0:0:0:
475,192,97414,1,0,0:0:0:0:
36,192,97602,1,0,0:0:0:0:
182,192,97602,1,0,0:0:0:0:
402,192,97602,1,0,0:0:0:0:
182,192,97789,1,0,0:0:0:0:
402,192,97789,1,0,0:0:0:0:
36,192,97977,1,0,0:0:0:0:
109,192,97977,1,0,0:0:0:0:
329,192,97977,1,0,0:0:0:0:
109,192,98164,1,0,0:0:0:0:
329,192,98164,1,0,0:0:0:0:
182,192,98352,1,0,0:0:0:0:
402,192,98352,1,0,0:0:0:0:
475,192,98352,1,0,0:0:0:0:
182,192,98539,1,0,0:0:0:0:
402,192,98539,1,0,0:0:0:0:
36,192,98727,1,0,0:0:0:0:
256,192,98727,1,0,0:0:0:0:
475,192,98727,1,0,0:0:0:0:
256,192,98914,1,0,0:0:0:0:
475,192,98914,1,0,0:0:0:0:
36,192,99102,1,0,0:0:0:0:
182,192,99102,1,0,0:0:0:0:
475,192,99164,1,0,0:0:0:0:
329,192,99227,1,0,0:0:0:0:
475,192,99289,1,0,0:0:0:0:
182,192,99352,1,0,0:0:0:0:
256,192,99414,1,0,0:0:0:0:
36,192,99477,1,0,0:0:0:0:
109,192,99477,1,0,0:0:0:0:
329,192,99477,1,0,0:0:0:0:
109,192,99664,1,0,0:0:0:0:
182,192,99664,1,0,0:0:0:0:
402,192,99664,1,0,0:0:0:0:
182,192,99852,1,0,0:0:0:0:
256,192,99852,1,0,0:0:0:0:
475,192,99852,1,0,0:0:0:0:
36,192,100039,1,0,0:0:0:0:
256,192,100039,1,0,0:0:0:0:
329,192,100039,1,0,0:0:0:0:
109,192,100227,1,0,0:0:0:0:
329,192,100227,1,0,0:0:0:0:
402,192,100227,1,0,0:0:0:0:
182,192,100414,1,0,0:0:0:0:
402,192,100414,1,0,0:0:0:0:
475,192,100414,1,0,0:0:0:0:
36,192,100602,128,0,100789:0:0:0:0:
256,192,100602,128,0,100789:0:0:0:0:
475,192,100602,128,0,100789:0:0:0:0:
182,192,100977,1,0,0:0:0:0:
402,192,100977,1,0,0:0:0:0:
475,192,100977,1,0,0:0:0:0:
109,192,101164,1,0,0:0:0:0:
329,192,101164,1,0,0:0:0:0:
402,192,101164,1,0,0:0:0:0:
36,192,101352,1,0,0:0:0:0:
256,192,101352,1,0,0:0:0:0:
329,192,101352,1,0,0:0:0:0:
182,192,101539,1,0,0:0:0:0:
256,192,101539,1,0,0:0:0:0:
475,192,101539,1,0,0:0:0:0:
109,192,101727,1,0,0:0:0:0:
182,192,101727,1,0,0:0:0:0:
402,192,101727,1,0,0:0:0:0:
36,192,101914,1,0,0:0:0:0:
109,192,101914,1,0,0:0:0:0:
329,192,101914,1,0,0:0:0:0:
36,192,102102,128,0,102289:0:0:0:0:
256,192,102102,128,0,102289:0:0:0:0:
475,192,102102,128,0,102289:0:0:0:0:
36,192,102477,1,0,0:0:0:0:
402,192,102477,1,0,0:0:0:0:
256,192,102570,1,0,0:0:0:0:
36,192,102664,1,0,0:0:0:0:
402,192,102664,1,0,0:0:0:0:
256,192,102758,1,0,0:0:0:0:
109,192,102852,1,0,0:0:0:0:
475,192,102852,1,0,0:0:0:0:
329,192,102945,1,0,0:0:0:0:
109,192,103039,1,0,0:0:0:0:
475,192,103039,1,0,0:0:0:0:
329,192,103133,1,0,0:0:0:0:
36,192,103227,1,0,0:0:0:0:
182,192,103227,1,0,0:0:0:0:
256,192,103273,1,0,0:0:0:0:
329,192,103320,1,0,0:0:0:0:
402,192,103367,1,0,0:0:0:0:
109,192,103414,1,0,0:0:0:0:
182,192,103461,1,0,0:0:0:0:
256,192,103508,1,0,0:0:0:0:
329,192,103555,1,0,0:0:0:0:
36,192,103602,1,0,0:0:0:0:
402,192,103602,1,0,0:0:0:0:
109,192,103648,1,0,0:0:0:0:
182,192,103695,1,0,0:0:0:0:
256,192,103742,1,0,0:0:0:0:
475,192,103789,1,0,0:0:0:0:
402,192,103836,1,0,0:0:0:0:
329,192,103883,1,0,0:0:0:0:
256,192,103930,1,0,0:0:0:0:
36,192,103977,1,0,0:0:0:0:
182,192,103977,1,0,0:0:0:0:
475,192,103977,1,0,0:0:0:0:
329,192,104070,1,0,0:0:0:0:
329,192,104258,1,0,0:0:0:0:
182,192,104352,1,0,0:0:0:0:
182,192,104539,1,0,0:0:0:0:
329,192,104633,1,0,0:0:0:0:
182,192,104820,1,0,0:0:0:0:
402,192,104914,1,0,0:0:0:0:
256,192,105008,1,0,0:0:0:0:
36,192,105102,1,0,0:0:0:0:
182,192,105148,128,0,105477:0:0:0:0:
329,192,105195,1,0,0:0:0:0:
36,192,105477,1,0,0:0:0:0:
475,192,105477,1,0,0:0:0:0:
329,192,105523,1,0,0:0:0:0:
402,192,105664,1,0,0:0:0:0:
256,192,105711,1,0,0:0:0:0:
329,192,105852,1,0,0:0:0:0:
182,192,105898,1,0,0:0:0:0:
256,192,106039,1,0,0:0:0:0:
109,192,106086,1,0,0:0:0:0:
402,192,106227,1,0,0:0:0:0:
475,192,106227,1,0,0:0:0:0:
256,192,106273,1,0,0:0:0:0:
329,192,106414,1,0,0:0:0:0:
182,192,106461,1,0,0:0:0:0:
256,192,106602,1,0,0:0:0:0:
109,192,106648,1,0,0:0:0:0:
182,192,106789,1,0,0:0:0:0:
36,192,106836,1,0,0:0:0:0:
36,192,106977,1,0,0:0:0:0:
329,192,106977,1,0,0:0:0:0:
475,192,106977,1,0,0:0:0:0:
182,192,107039,1,0,0:0:0:0:
402,192,107102,1,0,0:0:0:0:
109,192,107164,1,0,0:0:0:0:
329,192,107227,1,0,0:0:0:0:
36,192,107289,1,0,0:0:0:0:
256,192,107352,1,0,0:0:0:0:
402,192,107352,1,0,0:0:0:0:
475,192,107352,1,0,0:0:0:0:
36,192,107414,1,0,0:0:0:0:
329,192,107477,1,0,0:0:0:0:
109,192,107539,1,0,0:0:0:0:
402,192,107602,1,0,0:0:0:0:
182,192,107664,1,0,0:0:0:0:
36,192,107727,1,0,0:0:0:0:
329,192,107727,1,0,0:0:0:0:
475,192,107727,1,0,0:0:0:0:
182,192,107789,1,0,0:0:0:0:
402,192,107852,1,0,0:0:0:0:
256,192,107914,1,0,0:0:0:0:
109,192,107977,1,0,0:0:0:0:
329,192,108039,1,0,0:0:0:0:
182,192,108102,128,0,108289:0:0:0:0:
36,192,108477,1,0,0:0:0:0:
402,192,108477,1,0,0:0:0:0:
475,192,108477,1,0,0:0:0:0:
182,192,108570,1,0,0:0:0:0:
36,192,108664,1,0,0:0:0:0:
329,192,108664,1,0,0:0:0:0:
182,192,108758,1,0,0:0:0:0:
36,192,108852,1,0,0:0:0:0:
256,192,108852,1,0,0:0:0:0:
475,192,108852,1,0,0:0:0:0:
329,192,108945,1,0,0:0:0:0:
109,192,109039,1,0,0:0:0:0:
402,192,109039,1,0,0:0:0:0:
36,192,109227,1,0,0:0:0:0:
182,192,109227,1,0,0:0:0:0:
475,192,109227,1,0,0:0:0:0:
329,192,109320,1,0,0:0:0:0:
182,192,109414,1,0,0:0:0:0:
475,192,109414,1,0,0:0:0:0:
329,192,109508,1,0,0:0:0:0:
36,192,109602,1,0,0:0:0:0:
256,192,109602,1,0,0:0:0:0:
475,192,109602,1,0,0:0:0:0:
182,192,109695,1,0,0:0:0:0:
109,192,109789,1,0,0:0:0:0:
402,192,109789,1,0,0:0:0:0:
36,192,109977,1,0,0:0:0:0:
329,192,109977,1,0,0:0:0:0:
475,192,109977,1,0,0:0:0:0:
182,192,110070,1,0,0:0:0:0:
36,192,110164,1,0,0:0:0:0:
329,192,110164,1,0,0:0:0:0:
182,192,110258,1,0,0:0:0:0:
36,192,110352,1,0,0:0:0:0:
256,192,110352,1,0,0:0:0:0:
475,192,110352,1,0,0:0:0:0:
329,192,110445,1,0,0:0:0:0:
109,192,110539,1,0,0:0:0:0:
402,192,110539,1,0,0:0:0:0:
36,192,110727,1,0,0:0:0:0:
182,192,110727,1,0,0:0:0:0:
475,192,110727,1,0,0:0:0:0:
402,192,110820,1,0,0:0:0:0:
109,192,110914,1,0,0:0:0:0:
256,192,110914,1,0,0:0:0:0:
402,192,111008,1,0,0:0:0:0:
475,192,111008,1,0,0:0:0:0:
36,192,111102,1,0,0:0:0:0:
182,192,111102,1,0,0:0:0:0:
329,192,111102,1,0,0:0:0:0:
402,192,111195,1,0,0:0:0:0:
475,192,111195,1,0,0:0:0:0:
256,192,111289,128,0,111477:0:0:0:0:
36,192,111477,1,0,0:0:0:0:
182,192,111477,1,0,0:0:0:0:
475,192,111477,1,0,0:0:0:0:
402,192,111570,1,0,0:0:0:0:
109,192,111664,1,0,0:0:0:0:
256,192,111664,1,0,0:0:0:0:
402,192,111758,1,0,0:0:0:0:
36,192,111852,1,0,0:0:0:0:
182,192,111852,1,0,0:0:0:0:
475,192,111852,1,0,0:0:0:0:
329,192,111945,1,0,0:0:0:0:
182,192,112039,1,0,0:0:0:0:
475,192,112039,1,0,0:0:0:0:
36,192,112227,1,0,0:0:0:0:
329,192,112227,1,0,0:0:0:0:
475,192,112227,1,0,0:0:0:0:
109,192,112320,1,0,0:0:0:0:
402,192,112414,1,0,0:0:0:0:
256,192,112414,1,0,0:0:0:0:
109,192,112508,1,0,0:0:0:0:
475,192,112602,1,0,0:0:0:0:
329,192,112602,1,0,0:0:0:0:
36,192,112602,1,0,0:0:0:0:
182,192,112695,1,0,0:0:0:0:
329,192,112789,1,0,0:0:0:0:
36,192,112789,1,0,0:0:0:0:
36,192,112977,1,0,0:0:0:0:
109,192,112977,1,0,0:0:0:0:
475,192,112977,1,0,0:0:0:0:
402,192,113070,1,0,0:0:0:0:
109,192,113164,1,0,0:0:0:0:
256,192,113164,1,0,0:0:0:0:
402,192,113258,1,0,0:0:0:0:
36,192,113352,1,0,0:0:0:0:
182,192,113352,1,0,0:0:0:0:
475,192,113352,1,0,0:0:0:0:
256,192,113398,1,0,0:0:0:0:
329,192,113445,1,0,0:0:0:0:
402,192,113492,1,0,0:0:0:0:
109,192,113539,1,0,0:0:0:0:
182,192,113539,1,0,0:0:0:0:
256,192,113633,1,0,0:0:0:0:
329,192,113727,1,0,0:0:0:0:
475,192,113727,1,0,0:0:0:0:
36,192,113820,1,0,0:0:0:0:
182,192,113820,1,0,0:0:0:0:
329,192,113914,1,0,0:0:0:0:
475,192,113914,1,0,0:0:0:0:
36,192,114008,1,0,0:0:0:0:
182,192,114008,1,0,0:0:0:0:
256,192,114102,1,0,0:0:0:0:
402,192,114102,1,0,0:0:0:0:
475,192,114102,1,0,0:0:0:0:
256,192,114289,1,0,0:0:0:0:
36,192,114477,128,0,114664:0:0:0:0:
109,192,114477,128,0,114664:0:0:0:0:
182,192,114477,1,0,0:0:0:0:
475,192,114477,128,0,114664:0:0:0:0:
256,192,114664,1,0,0:0:0:0:
36,192,114852,128,0,115039:0:0:0:0:
109,192,114852,128,0,115039:0:0:0:0:
329,192,114852,1,0,0:0:0:0:
475,192,114852,128,0,115039:0:0:0:0:
256,192,115039,1,0,0:0:0:0:
182,192,115227,1,0,0:0:0:0:
402,192,115227,128,0,115414:0:0:0:0:
475,192,115227,128,0,115414:0:0:0:0:
36,192,115227,128,0,115414:0:0:0:0:
256,192,115414,1,0,0:0:0:0:
329,192,115602,1,0,0:0:0:0:
402,192,115602,128,0,115789:0:0:0:0:
475,192,115602,128,0,115789:0:0:0:0:
36,192,115602,128,0,115789:0:0:0:0:
256,192,115789,1,0,0:0:0:0:
36,192,115977,128,0,116164:0:0:0:0:
109,192,115977,128,0,116164:0:0:0:0:
402,192,115977,1,0,0:0:0:0:
475,192,115977,128,0,116164:0:0:0:0:
256,192,116164,1,0,0:0:0:0:
36,192,116352,1,0,0:0:0:0:
109,192,116352,1,0,0:0:0:0:
182,192,116352,1,0,0:0:0:0:
256,192,116445,1,0,0:0:0:0:
402,192,116445,1,0,0:0:0:0:
475,192,116445,1,0,0:0:0:0:
36,192,116727,1,0,0:0:0:0:
182,192,116727,1,0,0:0:0:0:
329,192,116727,1,0,0:0:0:0:
475,192,116727,1,0,0:0:0:0:
256,192,117008,1,0,0:0:0:0:
402,192,117008,1,0,0:0:0:0:
475,192,117008,1,0,0:0:0:0:
36,192,117102,1,0,0:0:0:0:
109,192,117102,1,0,0:0:0:0:
182,192,117102,1,0,0:0:0:0:
256,192,117289,1,0,0:0:0:0:
36,192,117477,1,0,0:0:0:0:
109,192,117477,1,0,0:0:0:0:
329,192,117477,1,0,0:0:0:0:
475,192,117477,1,0,0:0:0:0:
182,192,117664,1,0,0:0:0:0:
256,192,117664,1,0,0:0:0:0:
402,192,117664,1,0,0:0:0:0:
36,192,117852,1,0,0:0:0:0:
109,192,117852,1,0,0:0:0:0:
329,192,117852,1,0,0:0:0:0:
475,192,117852,1,0,0:0:0:0:
36,192,118133,1,0,0:0:0:0:
182,192,118133,1,0,0:0:0:0:
256,192,118180,1,0,0:0:0:0:
329,192,118227,1,0,0:0:0:0:
402,192,118227,1,0,0:0:0:0:
475,192,118227,1,0,0:0:0:0:
36,192,118320,1,0,0:0:0:0:
109,192,118320,1,0,0:0:0:0:
182,192,118320,1,0,0:0:0:0:
256,192,118508,1,0,0:0:0:0:
329,192,118508,1,0,0:0:0:0:
475,192,118508,1,0,0:0:0:0:
36,192,118602,1,0,0:0:0:0:
109,192,118602,1,0,0:0:0:0:
182,192,118602,1,0,0:0:0:0:
402,192,118695,1,0,0:0:0:0:
475,192,118695,1,0,0:0:0:0:
36,192,118789,1,0,0:0:0:0:
109,192,118789,1,0,0:0:0:0:
402,192,118883,1,0,0:0:0:0:
475,192,118883,1,0,0:0:0:0:
36,192,118977,1,0,0:0:0:0:
109,192,118977,1,0,0:0:0:0:
182,192,118977,1,0,0:0:0:0:
475,192,119039,1,0,0:0:0:0:
329,192,119102,1,0,0:0:0:0:
182,192,119164,1,0,0:0:0:0:
329,192,119227,1,0,0:0:0:0:
475,192,119289,1,0,0:0:0:0:
36,192,119352,1,0,0:0:0:0:
182,192,119414,1,0,0:0:0:0:
329,192,119477,1,0,0:0:0:0:
182,192,119539,1,0,0:0:0:0:
36,192,119602,1,0,0:0:0:0:
475,192,119664,1,0,0:0:0:0:
256,192,119727,128,0,119914:0:0:0:0:
109,192,120102,1,0,0:0:0:0:
256,192,120102,1,0,0:0:0:0:
402,192,120102,1,0,0:0:0:0:
36,192,120477,1,0,0:0:0:0:
109,192,120477,1,0,0:0:0:0:
256,192,120477,1,0,0:0:0:0:
329,192,120477,1,0,0:0:0:0:
182,192,120570,1,0,0:0:0:0:
402,192,120664,1,0,0:0:0:0:
475,192,120664,1,0,0:0:0:0:
182,192,120758,1,0,0:0:0:0:
36,192,120852,1,0,0:0:0:0:
329,192,120852,1,0,0:0:0:0:
475,192,120852,1,0,0:0:0:0:
109,192,120945,1,0,0:0:0:0:
329,192,121039,1,0,0:0:0:0:
402,192,121039,1,0,0:0:0:0:
109,192,121133,1,0,0:0:0:0:
36,192,121227,1,0,0:0:0:0:
256,192,121227,1,0,0:0:0:0:
475,192,121227,1,0,0:0:0:0:
182,192,121320,1,0,0:0:0:0:
402,192,121414,1,0,0:0:0:0:
475,192,121414,1,0,0:0:0:0:
182,192,121508,1,0,0:0:0:0:
36,192,121602,1,0,0:0:0:0:
329,192,121602,1,0,0:0:0:0:
475,192,121602,1,0,0:0:0:0:
182,192,121695,1,0,0:0:0:0:
36,192,121789,1,0,0:0:0:0:
402,192,121789,1,0,0:0:0:0:
256,192,121977,1,0,0:0:0:0:
402,192,121977,1,0,0:0:0:0:
475,192,121977,1,0,0:0:0:0:
329,192,122070,1,0,0:0:0:0:
36,192,122164,1,0,0:0:0:0:
109,192,122164,1,0,0:0:0:0:
329,192,122258,1,0,0:0:0:0:
36,192,122352,1,0,0:0:0:0:
182,192,122352,1,0,0:0:0:0:
475,192,122352,1,0,0:0:0:0:
402,192,122445,1,0,0:0:0:0:
109,192,122539,1,0,0:0:0:0:
182,192,122539,1,0,0:0:0:0:
402,192,122633,1,0,0:0:0:0:
36,192,122727,1,0,0:0:0:0:
256,192,122727,1,0,0:0:0:0:
475,192,122727,1,0,0:0:0:0:
329,192,122820,1,0,0:0:0:0:
36,192,122914,1,0,0:0:0:0:
109,192,122914,1,0,0:0:0:0:
329,192,123008,1,0,0:0:0:0:
256,192,123008,1,0,0:0:0:0:
36,192,123102,1,0,0:0:0:0:
182,192,123102,1,0,0:0:0:0:
475,192,123102,1,0,0:0:0:0:
329,192,123195,1,0,0:0:0:0:
109,192,123289,1,0,0:0:0:0:
475,192,123289,1,0,0:0:0:0:
36,192,123477,1,0,0:0:0:0:
109,192,123477,1,0,0:0:0:0:
256,192,123477,1,0,0:0:0:0:
182,192,123570,1,0,0:0:0:0:
402,192,123664,1,0,0:0:0:0:
475,192,123664,1,0,0:0:0:0:
182,192,123758,1,0,0:0:0:0:
36,192,123852,1,0,0:0:0:0:
329,192,123852,1,0,0:0:0:0:
475,192,123852,1,0,0:0:0:0:
109,192,123945,1,0,0:0:0:0:
182,192,124039,1,0,0:0:0:0:
402,192,124039,1,0,0:0:0:0:
475,192,124227,1,0,0:0:0:0:
256,192,124227,1,0,0:0:0:0:
402,192,124227,1,0,0:0:0:0:
329,192,124320,1,0,0:0:0:0:
109,192,124414,1,0,0:0:0:0:
36,192,124414,1,0,0:0:0:0:
329,192,124508,1,0,0:0:0:0:
475,192,124602,1,0,0:0:0:0:
182,192,124602,1,0,0:0:0:0:
36,192,124602,1,0,0:0:0:0:
402,192,124695,1,0,0:0:0:0:
329,192,124789,1,0,0:0:0:0:
109,192,124789,1,0,0:0:0:0:
36,192,124977,1,0,0:0:0:0:
256,192,124977,128,0,125727:0:0:0:0:
475,192,124977,1,0,0:0:0:0:
109,192,125727,1,0,0:0:0:0:
402,192,125727,1,0,0:0:0:0:
182,192,125914,1,0,0:0:0:0:
329,192,125961,1,0,0:0:0:0:
109,192,126008,1,0,0:0:0:0:
402,192,126055,1,0,0:0:0:0:
256,192,126102,1,0,0:0:0:0:
182,192,126195,1,0,0:0:0:0:
329,192,126289,1,0,0:0:0:0:
475,192,126289,1,0,0:0:0:0:
36,192,126477,128,0,126664:0:0:0:0:
402,192,126477,128,0,126664:0:0:0:0:
475,192,126477,128,0,126664:0:0:0:0:
109,192,126477,1,0,0:0:0:0:
329,192,126664,1,0,0:0:0:0:
36,192,126852,128,0,127039:0:0:0:0:
402,192,126852,128,0,127039:0:0:0:0:
475,192,126852,128,0,127039:0:0:0:0:
109,192,126852,1,0,0:0:0:0:
329,192,127039,1,0,0:0:0:0:
36,192,127227,128,0,127414:0:0:0:0:
402,192,127227,128,0,127414:0:0:0:0:
475,192,127227,128,0,127414:0:0:0:0:
109,192,127227,1,0,0:0:0:0:
256,192,127414,1,0,0:0:0:0:
36,192,127602,1,0,0:0:0:0:
182,192,127602,1,0,0:0:0:0:
329,192,127602,1,0,0:0:0:0:
475,192,127602,1,0,0:0:0:0:
256,192,127789,1,0,0:0:0:0:
329,192,127883,1,0,0:0:0:0:
36,192,127977,128,0,128164:0:0:0:0:
109,192,127977,128,0,128164:0:0:0:0:
402,192,127977,1,0,0:0:0:0:
475,192,127977,128,0,128164:0:0:0:0:
182,192,128164,1,0,0:0:0:0:
36,192,128352,128,0,128539:0:0:0:0:
109,192,128352,128,0,128539:0:0:0:0:
402,192,128352,1,0,0:0:0:0:
475,192,128352,128,0,128539:0:0:0:0:
182,192,128539,1,0,0:0:0:0:
475,192,128727,128,0,128914:0:0:0:0:
36,192,128727,128,0,128914:0:0:0:0:
402,192,128727,1,0,0:0:0:0:
109,192,128727,128,0,128914:0:0:0:0:
256,192,128914,1,0,0:0:0:0:
36,192,129102,1,0,0:0:0:0:
182,192,129102,1,0,0:0:0:0:
329,192,129102,1,0,0:0:0:0:
475,192,129102,1,0,0:0:0:0:
402,192,129289,1,0,0:0:0:0:
182,192,129383,1,0,0:0:0:0:
256,192,129477,128,0,129664:0:0:0:0:
36,192,129477,128,0,129664:0:0:0:0:
475,192,129477,128,0,129664:0:0:0:0:
329,192,129477,1,0,0:0:0:0:
36,192,129852,1,0,0:0:0:0:
256,192,129852,1,0,0:0:0:0:
402,192,129852,1,0,0:0:0:0:
109,192,130039,1,0,0:0:0:0:
475,192,130039,1,0,0:0:0:0:
329,192,130133,1,0,0:0:0:0:
36,192,130227,1,0,0:0:0:0:
182,192,130227,1,0,0:0:0:0:
402,192,130320,1,0,0:0:0:0:
109,192,130414,1,0,0:0:0:0:
256,192,130414,1,0,0:0:0:0:
475,192,130508,1,0,0:0:0:0:
36,192,130602,1,0,0:0:0:0:
182,192,130648,1,0,0:0:0:0:
329,192,130695,1,0,0:0:0:0:
402,192,130742,1,0,0:0:0:0:
109,192,130789,1,0,0:0:0:0:
256,192,130836,1,0,0:0:0:0:
402,192,130883,1,0,0:0:0:0:
475,192,130930,1,0,0:0:0:0:
36,192,130977,128,0,131539:0:0:0:0:
182,192,130977,1,0,0:0:0:0:
256,192,131352,128,0,131539:0:0:0:0:
36,192,131727,1,0,0:0:0:0:
109,192,131727,1,0,0:0:0:0:
182,192,131789,1,0,0:0:0:0:
402,192,131852,1,0,0:0:0:0:
475,192,131852,1,0,0:0:0:0:
329,192,131914,1,0,0:0:0:0:
36,192,131977,1,0,0:0:0:0:
109,192,131977,1,0,0:0:0:0:
182,192,132039,1,0,0:0:0:0:
256,192,132102,1,0,0:0:0:0:
329,192,132102,1,0,0:0:0:0:
402,192,132102,1,0,0:0:0:0:
475,192,132102,1,0,0:0:0:0:
