osu file format v14

[General]
AudioFilename: audio.mp3
AudioLeadIn: 0
PreviewTime: 100858
Countdown: 0
SampleSet: Soft
StackLeniency: 0.7
Mode: 2
LetterboxInBreaks: 0
WidescreenStoryboard: 1

[Editor]
Bookmarks: 13127,25514,27359,129552,141939,231746,234842,263488
DistanceSpacing: 1
BeatDivisor: 4
GridSize: 8
TimelineZoom: 3.1

[Metadata]
Title:Collapse feat. Aitsuki Nakuru
TitleUnicode:Collapse feat. 藍月なくる
Artist:Laur
ArtistUnicode:Laur
Creator:Ymiir
Version:Torrent
Source:
Tags:Collapse classical hardcore orchestral electronic japanese female vocals fii -wwwww
BeatmapID:4296418
BeatmapSetID:2056091

[Difficulty]
HPDrainRate:5
CircleSize:4
OverallDifficulty:9.4
ApproachRate:9.4
SliderMultiplier:2.2
SliderTickRate:2

[Events]
//Background and Video events
0,0,"water.jpg",0,0
//Break Periods
2,25714,26819
2,129752,138302
2,231945,233528
//Storyboard Layer 0 (Background)
//Storyboard Layer 1 (Fail)
//Storyboard Layer 2 (Pass)
//Storyboard Layer 3 (Foreground)
//Storyboard Layer 4 (Overlay)
//Storyboard Sound Samples

[TimingPoints]
13127,774.193548387097,4,2,4,45,1,0
13127,-83.3333333333333,4,2,4,45,0,0
17772,-83.3333333333333,4,2,4,55,0,0
18546,-83.3333333333333,4,2,4,65,0,0
19320,-83.3333333333333,4,2,4,45,0,0
23965,-83.3333333333333,4,2,1,55,0,0
25127,-83.3333333333333,4,2,1,65,0,0
27359,387.096774193548,4,2,1,60,1,0
27359,-100,4,2,1,60,0,0
52133,-100,4,2,1,65,0,0
59100,-71.4285714285714,4,2,1,65,0,0
59488,-100,4,2,1,65,0,0
62633,-70.4225352112676,4,2,1,65,0,0
62778,-100,4,2,1,65,0,0
76133,-100,4,2,1,70,0,0
76520,-100,4,2,1,75,0,0
76907,-100,4,2,50,80,0,1
77681,-100,4,2,2,80,0,0
78455,-83.3333333333333,4,2,2,80,0,0
78842,-86.9565217391304,4,2,2,80,0,0
79229,-100,4,2,2,80,0,0
79617,-100,4,2,2,75,0,0
80004,-100,4,2,2,80,0,0
82713,-100,4,2,2,75,0,0
83100,-83.3333333333333,4,2,2,80,0,1
83488,-100,4,2,2,80,0,1
83875,-100,4,2,2,80,0,0
85810,-100,4,2,2,75,0,0
86197,-100,4,2,2,80,0,0
89294,-100,4,2,2,80,0,1
89681,-100,4,2,2,80,0,1
90068,-100,4,2,2,80,0,0
92004,-100,4,2,2,75,0,0
92391,-58.8235294117647,4,2,2,80,0,0
93939,-100,4,2,2,80,0,0
94713,-100,4,2,2,85,0,0
94778,-100,4,2,4,85,0,0
95100,-100,4,2,2,80,0,0
95197,-100,4,2,4,80,0,0
95294,-100,4,2,2,75,0,0
95391,-100,4,2,4,75,0,0
95488,-100,4,2,2,80,0,1
95681,-100,4,2,2,75,0,1
96262,-100,4,2,2,75,0,0
98197,-100,4,2,2,80,0,0
98585,-100,4,2,2,85,0,0
98971,-100,4,2,2,80,0,0
99020,-100,4,2,4,80,0,0
99358,-100,4,2,2,80,0,0
100907,-100,4,2,2,85,0,0
101681,-40,4,2,1,90,0,1
102455,-100,4,2,2,90,0,1
107488,-83.3333333333333,4,2,2,90,0,1
107875,-100,4,2,2,90,0,1
111746,-76.9230769230769,4,2,2,90,0,1
112133,-100,4,2,2,90,0,1
115907,-71.4285714285714,4,2,2,90,0,1
116197,-100,4,2,2,90,0,1
118326,-100,4,2,2,90,0,1
118713,-153.846153846154,4,2,2,85,0,1
119875,-222.222222222222,4,2,4,80,0,1
120262,-142.857142857143,4,2,1,75,0,0
120455,-142.857142857143,4,2,1,60,0,0
123358,-125,4,2,1,60,0,0
124133,-142.857142857143,4,2,1,60,0,0
126262,-111.111111111111,4,2,1,60,0,0
129552,-100,4,2,90,75,0,0
141552,-100,4,2,4,35,0,0
141939,-100,4,2,4,55,0,0
151229,-100,4,2,4,60,0,0
152778,-100,4,2,4,65,0,0
153552,-55.5555555555556,4,2,1,65,0,0
153939,-55.5555555555556,4,2,11,70,0,0
154133,-55.5555555555556,4,2,1,70,0,0
154326,-100,4,2,50,80,0,0
154423,-100,4,2,5,75,0,0
157423,-76.9230769230769,4,2,5,75,0,0
157810,-100,4,2,5,75,0,0
161100,-81.9672131147541,4,2,5,75,0,0
161488,-100,4,2,5,75,0,0
166326,-100,4,2,5,80,0,0
166713,-100,4,2,5,85,0,0
166907,-100,4,2,5,75,0,0
178326,-100,4,2,5,80,0,0
178713,-100,4,2,5,85,0,0
179100,-100,4,2,3,90,0,0
179197,-100,4,2,1,40,0,0
181810,-100,4,2,1,50,0,0
181907,-100,4,2,1,55,0,0
182004,-100,4,2,1,60,0,0
182100,-100,4,2,1,65,0,0
182197,-100,4,2,1,70,0,0
182971,-100,4,2,1,55,0,0
194584,-100,4,2,2,60,0,0
200778,-100,4,2,1,70,0,0
202326,-100,4,2,1,72,0,0
202713,-100,4,2,1,74,0,0
203100,-100,4,2,1,76,0,0
203488,-100,4,2,1,78,0,0
203875,-100,4,2,1,80,0,0
204649,-100,4,2,1,85,0,0
205423,-100,4,2,1,80,0,0
206197,-100,4,2,1,85,0,0
206971,-71.4285714285714,4,2,1,75,0,1
207068,-71.4285714285714,4,2,1,65,0,1
207746,-100,4,2,1,55,0,0
208907,-100,4,2,1,65,0,0
209294,-100,4,2,2,75,0,0
209488,-100,4,2,2,80,0,0
210068,-100,4,2,2,95,0,1
210165,-100,4,2,2,90,0,1
212778,-88.4955752212389,4,2,2,90,0,1
213165,-100,4,2,2,90,0,1
213358,-83.3333333333333,4,2,2,90,0,1
213746,-100,4,2,2,90,0,1
218584,-100,4,2,2,90,0,0
219358,-100,4,2,2,95,0,1
219455,-100,4,2,2,90,0,1
225552,-125,4,2,1,75,0,0
225649,-125,4,2,1,55,0,0
234068,-100,4,2,1,60,0,0
234358,-100,4,2,1,65,0,0
234649,-100,4,2,1,70,0,0
234842,-100,4,2,5,80,0,0
235036,-100,4,2,5,75,0,0
241617,-81.9672131147541,4,2,5,75,0,0
242004,-100,4,2,5,75,0,0
246842,-100,4,2,5,85,0,0
247036,-100,4,2,5,75,0,0
247229,-100,4,2,5,85,0,0
247617,-100,4,2,5,75,0,0
251488,-100,4,2,5,80,0,0
251681,-100,4,2,5,85,0,0
251875,-100,4,2,99,90,0,0
251971,-100,4,2,5,75,0,0
253423,-100,4,2,5,55,0,0
254584,-250,4,2,4,40,0,0
260971,-100,4,2,4,40,0,0
263488,-100,4,2,90,60,0,0

[Colours]
Combo1 : 166,200,255
Combo2 : 151,0,151
Combo3 : 191,0,96
Combo4 : 220,155,255
Combo5 : 113,145,255

[HitObjects]
469,359,13127,6,0,P|500:233|263:165,1,395.999987915039,2|0,0:0|0:0,0:0:0:0:
157,211,14675,2,0,P|41:184|114:76,1,263.99999194336
256,192,16223,12,0,16804,0:0:0:0:
256,192,16997,12,0,18933,0:0:0:0:
156,10,19320,6,0,P|125:136|362:204,1,395.999987915039,2|0,0:0|0:0,0:0:0:0:
208,215,20868,2,0,P|324:242|251:350,1,263.99999194336
107,148,22030,1,0,0:0:0:0:
409,80,22417,5,2,0:0:0:0:
256,192,22804,12,0,24739,0:0:0:0:
256,192,24788,12,0,25127,0:0:0:0:
256,192,25175,12,0,25514,0:0:0:0:
69,20,27359,6,0,B|146:57|278:62|289:269|149:158|81:76|51:127|-17:207|92:248,1,440,0|0,1:0|0:0,0:0:0:0:
291,191,28520,1,0,3:0:0:0:
176,242,28617,1,0,3:0:0:0:
176,242,28713,6,0,B|191:267|191:267|277:257|323:191|323:191|274:199,1,220
410,204,29294,2,0,P|384:116|254:85,1,220
270,79,29875,1,0,0:0:0:0:
135,124,30068,1,2,0:0:0:0:
314,215,30455,6,0,P|351:314|454:339,1,220,0|0,1:0|0:0,0:0:0:0:
434,304,30939,1,0,0:0:0:0:
378,274,31036,1,0,0:0:0:0:
249,289,31229,1,0,0:0:0:0:
390,97,31617,1,0,0:0:0:0:
111,257,32004,6,0,P|53:151|244:88,2,330,0|0|2,0:0|0:0|0:0,0:0:0:0:
259,348,33358,1,0,3:0:0:0:
253,319,33407,1,0,3:0:0:0:
241,291,33455,1,0,3:0:0:0:
331,298,33552,6,0,P|378:179|467:142,1,220,0|0,1:0|0:0,0:0:0:0:
335,33,34133,2,0,L|396:51,1,55,0|0,3:0|3:0,0:0:0:0:
226,38,34713,2,0,P|194:51|91:73,1,110
262,129,35100,6,0,P|343:203|379:349,1,220
147,338,35875,2,0,P|184:235|265:162,1,220,0|2,0:0|0:0,0:0:0:0:
74,296,36455,1,0,0:0:0:0:
244,199,36649,6,0,P|207:100|104:75,1,220,0|0,1:0|0:0,0:0:0:0:
160,100,37133,1,0,0:0:0:0:
180,140,37230,1,0,0:0:0:0:
309,125,37423,1,0,0:0:0:0:
123,335,37811,1,0,0:0:0:0:
426,29,38197,6,0,B|385:115|385:115|350:49|247:40|247:40|219:64|158:73,1,330
74,145,38971,2,0,P|64:212|213:305,1,220,0|2,0:0|3:2,0:0:0:0:
287,277,39455,1,0,3:0:0:0:
266,253,39504,1,0,3:0:0:0:
229,237,39552,1,0,3:0:0:0:
192,221,39600,1,0,3:0:0:0:
171,197,39649,1,0,3:0:0:0:
351,187,39746,6,0,P|439:245|442:351,1,220,0|0,1:0|0:0,0:0:0:0:
220,42,40520,2,0,P|225:103|266:261,1,220
333,345,41100,1,0,0:0:0:0:
396,150,41294,2,0,P|297:101|191:77,1,220
213,199,42068,5,0,0:0:0:0:
302,196,42165,1,0,0:0:0:0:
254,119,42262,1,0,0:0:0:0:
139,247,42455,2,0,L|109:293,1,55,2|0,0:0|3:0,0:0:0:0:
179,278,42600,1,0,3:0:0:0:
394,241,42842,6,0,P|357:340|254:365,1,220,0|0,1:0|0:0,0:0:0:0:
274,330,43326,1,0,0:0:0:0:
330,300,43423,1,0,0:0:0:0:
459,304,43616,1,0,0:0:0:0:
356,152,43810,1,0,3:0:0:0:
242,22,43908,1,0,3:0:0:0:
261,77,44004,1,0,0:0:0:0:
299,124,44100,1,0,3:0:0:0:
162,96,44391,5,0,0:0:0:0:
120,161,44488,1,0,0:0:0:0:
55,206,44585,1,0,0:0:0:0:
243,182,44875,2,0,L|249:209,1,27.5,0|0,3:0|3:0,0:0:0:0:
55,79,45165,5,0,0:0:0:0:
253,203,45552,1,2,3:2:0:0:
161,246,45649,1,0,3:0:0:0:
182,270,45698,1,0,3:0:0:0:
219,286,45746,1,0,3:0:0:0:
256,302,45794,1,0,3:0:0:0:
277,326,45843,1,0,3:0:0:0:
191,376,45939,5,0,1:0:0:0:
309,310,46133,1,0,0:0:0:0:
129,261,46326,1,0,0:0:0:0:
294,201,46713,2,0,P|259:78|180:13,1,220
290,345,47294,2,0,L|296:280,1,55,0|0,0:0|3:0,0:0:0:0:
408,310,47488,6,0,P|305:288|256:188,2,220,0|0|0,3:0|0:0|0:0,0:0:0:0:
352,284,48359,1,0,0:0:0:0:
332,244,48456,1,0,0:0:0:0:
203,259,48649,1,2,0:0:0:0:
431,131,49036,6,0,B|456:86|456:86|424:68|342:130|305:38,1,220,0|0,1:0|0:0,0:0:0:0:
187,150,49617,2,0,L|198:122,2,27.5,0|0|0,3:0|3:0|3:0,0:0:0:0:
102,197,49810,1,0,0:0:0:0:
26,131,50004,1,0,0:0:0:0:
58,47,50197,1,0,0:0:0:0:
165,46,50391,6,0,P|214:32|266:-4,1,110
248,50,50681,1,0,0:0:0:0:
200,111,50778,1,0,0:0:0:0:
375,309,51092,1,0,3:0:0:0:
380,343,51165,5,0,0:0:0:0:
269,305,51262,1,0,0:0:0:0:
232,234,51359,1,0,0:0:0:0:
240,135,51552,1,0,0:0:0:0:
304,57,51746,1,0,0:0:0:0:
483,20,51939,1,0,0:0:0:0:
120,57,52133,6,0,P|151:103|197:142,1,110,2|0,1:3|0:0,0:0:0:0:
286,104,52423,2,0,P|232:166|160:205,1,165,0|0,1:0|1:0,0:0:0:0:
103,216,52810,1,0,0:0:0:0:
309,298,52907,5,8,0:0:0:0:
431,120,53100,1,0,0:0:0:0:
406,72,53196,1,0,0:0:0:0:
346,41,53293,1,0,0:0:0:0:
228,31,53488,1,0,0:0:0:0:
55,91,53681,6,0,P|84:148|236:217,1,220,2|2,0:0|0:0,0:0:0:0:
294,198,54165,1,0,3:0:0:0:
121,214,54358,1,0,3:0:0:0:
314,192,54455,2,0,P|260:286|162:331,1,220,8|2,0:0|0:0,0:0:0:0:
105,317,54939,1,0,0:0:0:0:
162,353,55036,1,0,0:0:0:0:
424,97,55229,5,2,1:2:0:0:
345,196,55326,2,0,P|402:211|447:238,1,110,0|0,0:0|1:0,0:0:0:0:
419,285,55617,1,0,0:0:0:0:
353,301,55713,1,0,0:0:0:0:
200,73,56004,5,8,0:0:0:0:
208,90,56052,1,0,3:0:0:0:
223,106,56100,1,0,3:0:0:0:
304,110,56197,2,0,L|238:119,1,55
349,197,56391,2,0,P|401:204|456:227,1,110,2|0,0:0|0:0,0:0:0:0:
149,54,56778,6,0,B|125:72|125:72|133:86|166:112|234:118|293:150|291:225|258:255|258:255|271:235|249:203,1,330,2|0,0:0|0:0,0:0:0:0:
182,211,57455,1,0,0:0:0:0:
376,48,57552,1,8,0:0:0:0:
217,347,57939,1,2,0:0:0:0:
400,263,58133,2,0,L|413:321,1,55,2|0,0:0|0:0,0:0:0:0:
245,337,58326,6,0,L|267:212,1,110,2|0,1:2|0:0,0:0:0:0:
168,289,58617,2,0,L|149:181,1,110,0|0,1:0|0:0,0:0:0:0:
54,233,58907,2,0,L|44:287,1,55,0|0,1:0|0:0,0:0:0:0:
267,4,59100,6,0,B|299:30|299:30|262:17|262:17|286:76|259:118|259:118|230:99|230:99|197:122|170:112|170:112|182:73,1,307.999990600586,8|2,0:0|0:0,0:0:0:0:
228,10,59536,1,0,3:0:0:0:
97,42,59681,1,0,0:0:0:0:
274,367,59875,6,0,P|262:313|241:262,1,110,2|0,0:0|0:0,0:0:0:0:
196,232,60165,1,0,0:0:0:0:
121,218,60262,1,0,0:0:0:0:
135,300,60358,1,0,0:0:0:0:
234,43,60455,1,0,0:0:0:0:
214,119,60552,1,0,0:0:0:0:
423,323,60649,6,0,P|435:269|456:218,1,110,8|0,0:0|0:0,0:0:0:0:
295,0,61036,2,0,P|357:24|477:45,1,165,2|0,0:0|0:0,0:0:0:0:
241,321,61423,6,0,L|221:212,1,110,2|0,1:2|0:0,0:0:0:0:
325,148,61714,2,0,L|316:203,1,55,0|0,1:0|0:0,0:0:0:0:
413,27,61907,2,0,L|424:90,1,55,0|0,0:0|1:0,0:0:0:0:
223,224,62197,5,8,0:0:0:0:
327,160,62294,2,0,L|352:211,1,55
160,38,62584,1,2,0:0:0:0:
152,61,62633,2,0,P|198:72|267:100,1,117.149994101029,0|0,3:0|3:0,0:0:0:0:
254,118,62826,1,0,3:0:0:0:
41,346,62971,5,2,0:0:0:0:
16,296,63068,1,0,3:0:0:0:
17,264,63117,1,0,3:0:0:0:
31,243,63165,1,0,0:0:0:0:
98,214,63262,1,0,3:0:0:0:
128,210,63310,1,0,3:0:0:0:
152,216,63358,2,0,P|113:185|41:154,1,110
380,117,63746,6,0,P|404:222|331:310,1,220,8|2,0:0|0:0,0:0:0:0:
284,339,64229,1,0,0:0:0:0:
205,189,64326,1,0,3:0:0:0:
261,209,64375,1,0,3:0:0:0:
316,217,64423,1,0,0:0:0:0:
139,9,64520,6,0,P|91:32|33:50,1,110,2|0,1:3|0:0,0:0:0:0:
208,205,64810,2,0,L|213:142,1,55,0|0,1:0|0:0,0:0:0:0:
257,126,64955,1,0,3:0:0:0:
241,102,65004,1,0,3:0:0:0:
209,81,65052,1,0,3:0:0:0:
160,79,65100,2,0,P|185:63|220:55,1,55,2|0,1:2|0:0,0:0:0:0:
438,48,65294,6,0,P|464:58|490:64,2,55,8|0|0,0:0|0:0|0:0,0:0:0:0:
321,362,65681,1,2,0:0:0:0:
333,332,65729,1,0,3:0:0:0:
358,303,65777,1,0,3:0:0:0:
434,252,65874,1,0,0:0:0:0:
276,190,66068,5,2,0:0:0:0:
338,240,66165,1,0,0:0:0:0:
362,299,66262,1,0,0:0:0:0:
164,357,66455,2,0,P|122:315|10:258,1,165,0|0,1:0|0:0,0:0:0:0:
199,25,66842,6,0,L|207:83,1,55,10|0,0:0|0:0,0:0:0:0:
310,52,67036,2,0,P|371:83|430:100,1,110,0|2,0:0|0:0,0:0:0:0:
467,98,67326,1,0,0:0:0:0:
410,95,67423,1,0,0:0:0:0:
121,356,67617,6,0,P|152:310|198:271,1,110,2|0,1:2|0:0,0:0:0:0:
287,309,67907,2,0,P|233:247|161:208,1,165,0|0,1:0|1:0,0:0:0:0:
78,198,68294,1,0,0:0:0:0:
281,133,68391,5,8,0:0:0:0:
411,223,68584,1,0,0:0:0:0:
269,338,68778,1,0,0:0:0:0:
438,50,68971,1,0,0:0:0:0:
385,86,69068,1,0,0:0:0:0:
184,194,69165,6,0,P|114:162|129:87,1,165,2|0,0:0|0:0,0:0:0:0:
172,59,69552,1,0,1:0:0:0:
243,55,69649,1,0,0:0:0:0:
172,59,69746,1,0,0:0:0:0:
435,176,69939,6,0,P|464:246|402:292,1,165,8|0,0:0|0:0,0:0:0:0:
354,253,70326,2,0,P|368:199|467:179,1,165,2|0,0:0|0:0,0:0:0:0:
271,351,70713,6,0,P|220:331|166:321,1,110,2|0,1:2|0:0,0:0:0:0:
220,297,71004,1,0,1:0:0:0:
115,241,71100,2,0,P|46:256|-28:291,1,110,0|0,0:0|1:0,0:0:0:0:
282,84,71488,6,0,L|260:46,2,27.5,8|0|0,0:0|3:0|3:0,0:0:0:0:
381,7,71681,2,0,L|345:57,1,55
444,71,71875,1,2,0:0:0:0:
495,87,71971,1,0,0:0:0:0:
445,97,72068,1,2,0:0:0:0:
119,119,72262,6,0,P|77:82|51:35,1,110,2|0,0:0|0:0,0:0:0:0:
90,225,72552,1,0,0:0:0:0:
174,196,72649,1,0,1:0:0:0:
202,180,72697,1,0,3:0:0:0:
218,152,72745,1,0,3:0:0:0:
153,309,72842,1,0,0:0:0:0:
486,270,73036,6,0,L|501:200,1,55,10|0,0:0|0:0,0:0:0:0:
287,96,73229,1,0,0:0:0:0:
102,161,73423,2,0,L|87:91,1,55,2|0,0:0|0:0,0:0:0:0:
280,84,73616,1,0,0:0:0:0:
98,104,73713,1,0,0:0:0:0:
290,77,73810,6,0,P|381:114|377:173,1,165,2|0,1:2|1:0,0:0:0:0:
347,201,74197,1,2,0:0:0:0:
306,215,74246,1,0,3:0:0:0:
341,205,74294,1,0,0:0:0:0:
141,339,74391,2,0,L|27:314,1,110,2|8,1:2|0:0,0:0:0:0:
61,264,74681,1,0,0:0:0:0:
116,231,74778,1,0,0:0:0:0:
269,216,74971,1,0,0:0:0:0:
83,110,75165,1,2,0:0:0:0:
430,96,75358,5,2,0:0:0:0:
256,192,75552,12,14,76907,0:0:0:0:
216,23,77681,6,0,P|164:40|99:52,2,110,8|2|2,0:0|0:0|0:0,0:0:0:0:
385,57,78262,2,0,L|324:71,1,55
166,270,78455,6,0,P|213:348|331:373,1,197.99999395752,0|0,1:0|0:0,0:0:0:0:
395,349,78842,2,0,P|437:276|353:232,1,189.750003619194,2|0,0:0|0:0,0:0:0:0:
191,267,79229,6,0,P|198:294|216:314,1,55,8|8,0:0|0:0,0:0:0:0:
329,373,79423,2,0,P|322:346|304:326,1,55,8|8,0:3|0:3,0:0:0:0:
125,174,79617,1,4,0:3:0:0:
177,272,79714,1,4,0:3:0:0:
202,96,79811,1,4,0:3:0:0:
254,191,79908,1,4,0:3:0:0:
75,82,80004,6,0,L|54:196,1,110,6|0,1:2|0:0,0:0:0:0:
46,234,80294,1,0,0:0:0:0:
152,202,80391,2,0,L|173:316,1,110,2|2,0:3|0:3,0:0:0:0:
326,317,80778,1,10,0:0:0:0:
250,274,80875,1,0,0:0:0:0:
174,232,80971,1,2,0:0:0:0:
349,92,81165,1,0,0:0:0:0:
155,124,81358,2,0,P|191:137|210:153,1,55,2|2,0:0|0:0,0:0:0:0:
405,206,81552,6,0,B|437:248|355:298|277:270|236:348,1,220,0|2,1:0|0:0,0:0:0:0:
104,184,82133,1,0,0:0:0:0:
235,7,82326,6,0,L|250:71,1,55,10|8,0:3|0:3,0:0:0:0:
333,22,82520,2,0,L|263:35,1,55,8|8,0:3|0:3,0:0:0:0:
223,341,82713,2,0,L|153:328,1,55,4|4,0:3|0:3,0:0:0:0:
280,328,82907,2,0,L|210:315,1,55,4|4,0:3|0:3,0:0:0:0:
422,306,83100,6,0,P|418:223|311:156,1,197.99999395752,6|0,1:2|0:0,0:0:0:0:
135,313,83488,2,0,L|144:367,1,55,2|2,0:3|3:0,0:0:0:0:
305,292,83681,1,2,0:3:0:0:
225,261,83777,1,0,0:0:0:0:
198,212,83875,2,0,P|196:153|325:35,1,220,10|0,0:0|0:0,0:0:0:0:
137,68,84455,2,0,L|218:91,1,55,2|0,0:0|0:0,0:0:0:0:
391,303,84649,6,0,P|458:303|516:324,1,110,0|0,1:0|0:0,0:0:0:0:
304,302,84939,1,0,0:0:0:0:
390,272,85036,2,0,P|442:224|469:172,1,110,2|0,0:0|0:0,0:0:0:0:
348,181,85423,6,0,P|342:154|330:129,1,55,8|8,0:0|0:0,0:0:0:0:
230,183,85617,2,0,P|203:181|175:184,1,55,8|8,0:0|0:0,0:0:0:0:
365,192,85810,2,0,P|359:165|347:140,1,55,8|8,0:3|0:3,0:0:0:0:
264,201,86004,2,0,P|237:203|209:200,1,55,8|8,0:3|0:3,0:0:0:0:
26,220,86197,6,0,P|13:154|149:74,1,220,6|2,1:2|0:3,0:0:0:0:
263,333,86778,1,2,0:3:0:0:
227,291,86874,1,0,0:0:0:0:
162,268,86971,1,10,0:0:0:0:
97,245,87068,1,0,0:0:0:0:
61,203,87164,1,2,0:0:0:0:
193,165,87358,2,0,L|255:189,1,55,2|0,0:3|0:0,0:0:0:0:
57,376,87552,2,0,L|115:350,1,55,2|0,0:0|0:0,0:0:0:0:
322,20,87746,6,0,P|265:39|192:52,1,110,0|0,1:0|0:0,0:0:0:0:
61,84,88133,2,0,B|29:126|111:176|189:148|230:226,1,220,2|8,0:0|0:3,0:0:0:0:
169,265,88617,1,8,0:3:0:0:
76,270,88713,1,8,0:3:0:0:
259,123,88907,1,6,0:3:0:0:
76,75,89100,1,6,0:3:0:0:
388,7,89294,6,0,P|365:60|284:145,1,165,6|0,1:2|0:0,0:0:0:0:
492,218,89681,2,0,L|499:164,1,55,2|2,0:3|0:3,0:0:0:0:
340,206,89875,2,0,P|351:258|394:326,1,110,2|10,1:3|0:2,0:0:0:0:
421,339,90165,1,0,0:0:0:0:
488,363,90262,1,2,0:0:0:0:
317,66,90455,2,0,P|364:40|442:27,1,110,2|0,0:0|0:0,0:0:0:0:
478,21,90745,1,0,0:0:0:0:
276,384,90842,6,0,P|195:324|75:279,1,220,2|2,1:2|0:0,0:0:0:0:
231,133,91423,2,0,L|240:79,1,55,8|8,0:3|0:3,0:0:0:0:
39,250,91617,6,0,P|45:277|57:302,1,55,8|8,0:0|0:0,0:0:0:0:
157,248,91811,2,0,P|184:250|212:247,1,55,8|8,0:3|0:3,0:0:0:0:
428,231,92004,2,0,P|422:258|410:283,1,55,4|4,0:3|0:3,0:0:0:0:
218,264,92198,2,0,P|245:262|273:265,1,55,4|4,0:3|0:3,0:0:0:0:
56,50,92391,6,0,B|54:79|54:79|72:94|72:94|85:189|167:279|167:279|220:109|355:105|355:105|382:64|382:64|418:96|464:98,1,654.500012483597,6|2,1:2|0:0,0:0:0:0:
56,333,93165,6,0,B|54:304|54:304|72:289|72:289|85:194|167:104|167:104|220:274|355:278|355:278|382:319|382:319|418:287|464:285,1,654.500012483597,6|2,1:2|0:0,0:0:0:0:
58,185,93939,5,6,1:2:0:0:
207,341,94326,6,0,L|131:321,1,55,8|0,1:2|3:0,0:0:0:0:
226,333,94520,2,0,L|150:313,1,55,8|0,1:2|3:0,0:0:0:0:
331,68,94713,5,10,0:2:0:0:
356,105,94778,1,2,0:0:0:0:
364,143,94842,1,2,0:0:0:0:
343,181,94906,1,2,0:0:0:0:
310,200,94971,1,2,0:0:0:0:
265,202,95036,1,2,0:0:0:0:
212,190,95100,1,2,1:2:0:0:
279,185,95197,1,2,0:0:0:0:
331,211,95293,1,2,0:0:0:0:
352,262,95390,1,2,0:0:0:0:
59,51,95488,6,0,P|45:101|41:161,1,110,6|0,1:2|1:0,0:0:0:0:
199,374,95875,1,2,0:0:0:0:
223,321,95971,1,0,0:0:0:0:
266,272,96068,1,2,1:2:0:0:
438,59,96262,1,8,0:0:0:0:
267,105,96455,1,2,1:2:0:0:
457,28,96649,2,0,P|472:81|476:136,1,110,2|2,0:0|0:0,0:0:0:0:
33,305,97036,6,0,L|15:115,1,165,2|0,1:2|0:0,0:0:0:0:
193,163,97423,2,0,L|182:273,1,110,2|0,0:0|1:0,0:0:0:0:
120,194,97713,1,0,1:0:0:0:
300,245,97810,2,0,L|315:388,1,110,10|8,0:0|0:0,0:0:0:0:
132,199,98100,1,8,0:0:0:0:
437,297,98197,2,0,L|455:107,1,165,10|0,1:2|0:0,0:0:0:0:
144,204,98584,5,6,1:2:0:0:
440,107,98971,5,6,1:2:0:0:
418,146,99036,1,2,0:0:0:0:
378,162,99100,1,2,0:0:0:0:
327,160,99165,1,2,1:2:0:0:
287,176,99229,1,2,0:0:0:0:
265,215,99294,1,2,0:0:0:0:
344,248,99358,5,8,1:2:0:0:
174,174,99552,1,8,1:2:0:0:
363,84,99746,1,8,1:2:0:0:
197,26,99939,2,0,P|168:30|137:43,1,55,10|0,1:2|1:0,0:0:0:0:
339,375,100133,5,6,1:2:0:0:
270,317,100229,1,0,1:0:0:0:
236,252,100326,1,0,1:0:0:0:
233,188,100423,1,0,1:0:0:0:
256,138,100520,1,0,1:0:0:0:
297,184,100617,1,0,1:0:0:0:
351,210,100713,1,0,1:0:0:0:
417,223,100810,1,0,1:0:0:0:
186,30,100907,6,8,L|228:38,1,27.5,10|10,1:2|1:2,0:0:0:0:
346,293,101004,2,0,L|394:304,1,27.5,8|0,1:2|1:0,0:0:0:0:
499,106,101100,2,0,L|488:165,1,55,8|0,1:2|1:0,0:0:0:0:
255,203,101294,2,0,L|319:211,1,55,10|0,1:2|1:0,0:0:0:0:
112,75,101488,2,0,L|97:134,1,55,10|0,1:2|1:0,0:0:0:0:
317,366,101681,6,0,B|379:357|410:329|439:281|388:161|369:149|369:149|311:236|311:236|264:222|216:224|216:224|203:250|171:285|171:285|92:205|119:114|139:65|198:17|198:17|239:45|270:97|270:97|312:57|312:57|346:71|406:73|406:73,1,1100,6|8,1:2|0:0,0:0:0:0:
136,133,102746,5,2,0:0:0:0:
218,219,102842,2,0,P|261:243|343:250,1,110,2|2,0:0|0:0,0:0:0:0:
497,223,103229,6,0,P|478:146|352:109,1,220,0|2,1:0|0:0,0:0:0:0:
262,20,103810,2,0,P|282:9|316:0,1,55,2|0,0:0|0:0,0:0:0:0:
151,197,104004,5,8,0:0:0:0:
95,171,104101,1,2,0:3:0:0:
69,116,104197,1,2,0:3:0:0:
97,60,104294,1,2,0:3:0:0:
182,353,104391,2,0,P|143:334|64:310,1,110,2|2,0:0|0:0,0:0:0:0:
435,52,104778,6,0,P|445:82|454:114,1,55,2|0,1:2|0:0,0:0:0:0:
291,169,104971,2,0,P|295:203|296:231,1,55,2|0,0:3|0:0,0:0:0:0:
198,209,105165,2,0,P|194:241|189:274,1,55,2|0,3:0|0:0,0:0:0:0:
94,227,105358,2,0,P|80:257|63:285,1,55,2|0,0:3|0:0,0:0:0:0:
243,67,105552,6,0,P|181:71|112:93,1,110,10|0,0:0|0:0,0:0:0:0:
82,111,105842,1,0,0:0:0:0:
242,340,105939,2,0,P|297:352|354:352,1,110,2|2,0:0|0:0,0:0:0:0:
190,192,106326,5,2,1:2:0:0:
201,244,106423,1,0,0:0:0:0:
237,295,106519,1,0,0:0:0:0:
331,301,106616,1,0,0:0:0:0:
382,321,106713,1,2,1:2:0:0:
457,334,106810,1,0,0:0:0:0:
216,125,106906,2,0,L|261:113,1,27.5,0|0,1:0|1:0,0:0:0:0:
360,97,107003,2,0,L|400:85,1,27.5,0|0,1:0|1:0,0:0:0:0:
251,285,107100,6,0,P|191:299|128:328,1,110,10|0,0:0|1:0,0:0:0:0:
317,342,107391,1,0,1:0:0:0:
121,334,107488,2,0,P|68:254|152:188,1,197.99999395752,10|0,0:0|0:0,0:0:0:0:
357,7,107875,6,0,P|358:56|206:96,1,220,6|2,1:2|0:3,0:0:0:0:
377,122,108455,1,2,0:0:0:0:
89,29,108649,5,10,0:0:0:0:
150,43,108746,1,2,0:0:0:0:
196,81,108843,1,2,0:0:0:0:
212,144,108939,1,2,0:0:0:0:
183,201,109036,2,0,L|57:226,1,110,2|2,0:3|0:3,0:0:0:0:
21,193,109326,1,0,0:0:0:0:
229,354,109423,6,0,P|163:329|-29:302,1,220,0|2,1:2|0:0,0:0:0:0:
134,222,110004,2,0,L|68:236,1,55,2|2,0:3|0:0,0:0:0:0:
300,252,110197,2,0,P|377:223|511:144,1,220,8|2,0:0|0:0,0:0:0:0:
387,298,110778,2,0,L|451:315,1,55,2|2,0:3|0:0,0:0:0:0:
261,32,110971,5,0,1:0:0:0:
140,230,111165,1,0,0:0:0:0:
149,264,111262,1,0,0:0:0:0:
244,326,111358,2,0,P|190:330|128:347,1,110,2|2,0:0|0:0,0:0:0:0:
461,259,111746,6,0,B|511:215|502:160|502:160|459:115|398:146|398:146|371:123|376:82,1,285.99998690796,8|2,0:0|0:3,0:0:0:0:
492,367,112326,1,0,1:0:0:0:
214,231,112521,5,10,1:2:0:0:
126,108,112617,1,2,0:0:0:0:
166,46,112714,1,0,1:0:0:0:
242,38,112811,1,10,1:2:0:0:
331,161,112908,1,2,0:0:0:0:
291,223,113004,1,0,1:0:0:0:
121,212,113100,6,0,L|139:191,1,27.5,10|0,1:2|1:0,0:0:0:0:
269,334,113197,2,0,L|253:311,1,27.5,0|0,1:0|1:0,0:0:0:0:
123,370,113294,6,0,P|164:334|212:308,1,110,10|0,0:0|1:0,0:0:0:0:
308,83,113584,1,0,1:0:0:0:
93,299,113681,2,0,P|45:273|3:237,1,110,10|2,0:0|0:0,0:0:0:0:
435,233,114068,6,0,B|467:275|385:325|307:297|266:375,1,220,6|2,1:2|0:3,0:0:0:0:
436,366,114649,1,2,0:3:0:0:
54,39,114842,2,0,P|66:93|105:154,1,110,8|10,0:0|0:0,0:0:0:0:
210,172,115133,1,2,0:0:0:0:
259,93,115229,2,0,P|204:93|151:80,1,110,2|0,1:2|1:0,0:0:0:0:
442,233,115617,6,0,P|469:185|482:132,1,110,0|0,1:0|0:0,0:0:0:0:
380,193,115908,2,0,P|408:255|475:318,1,153.999995300293,2|0,1:2|0:0,0:0:0:0:
251,267,116198,2,0,P|272:267|295:273,1,27.5,2|0,1:2|1:0,0:0:0:0:
396,162,116295,2,0,P|417:162|440:156,1,27.5,0|0,1:0|1:0,0:0:0:0:
269,45,116391,5,10,0:0:0:0:
149,223,116584,2,0,P|188:211|208:196,1,55,0|0,1:0|1:0,0:0:0:0:
31,166,116777,2,0,P|23:193|22:220,1,55,10|8,0:0|0:0,0:0:0:0:
132,78,116971,2,0,P|102:51|79:41,1,55,0|0,1:0|1:0,0:0:0:0:
266,59,117165,6,0,P|226:78|156:101,1,110,0|8,1:0|0:0,0:0:0:0:
347,167,117455,1,10,0:0:0:0:
262,144,117551,5,10,0:3:0:0:
313,121,117648,5,0,1:0:0:0:
266,195,117745,5,8,0:3:0:0:
319,209,117842,5,4,0:3:0:0:
130,318,117939,6,0,P|170:299|240:276,1,110,0|8,1:0|0:0,0:0:0:0:
262,272,118181,1,0,0:0:0:0:
407,370,118229,2,0,L|363:382,1,27.5,8|0,0:0|0:0,0:0:0:0:
231,255,118326,6,0,P|224:297|228:371,1,110,12|8,0:3|0:0,0:0:0:0:
396,236,118617,1,0,1:0:0:0:
147,284,118713,6,0,P|87:148|303:72,1,428.999980361939,6|2,1:2|0:0,0:0:0:0:
264,98,119971,1,2,0:0:0:0:
195,123,120068,1,2,1:2:0:0:
402,280,120262,6,0,B|383:275|373:246|425:239|484:261|473:333|390:383|269:295|291:164|291:164|392:157|477:66|477:66|460:50|424:45,1,615.999981201173,6|0,0:0|0:0,0:0:0:0:
212,72,122971,2,0,L|310:55,1,76.9999976501466,2|2,0:0|0:0,0:0:0:0:
151,276,123358,6,0,B|90:304|144:159|176:264|199:220|276:359|352:321|449:334|371:235|359:279,1,352,2|0,0:0|0:0,0:0:0:0:
272,257,124907,2,0,P|177:194|143:86,1,230.99999295044,2|0,0:0|0:0,0:0:0:0:
275,224,125681,2,0,P|327:279|357:350,1,153.999995300293
231,161,126262,6,0,B|195:65|279:0|279:0|331:122|240:197|240:197|142:87|35:152|35:152|107:238|226:185|226:185|260:161|348:131|425:217|425:217|336:270|239:192|239:192|196:222|153:287|200:377|200:377|296:300|243:184,1,1682.99994863892,2|2,0:0|0:0,0:0:0:0:
256,192,138842,12,0,141552,0:0:0:0:
174,333,141939,5,0,0:0:0:0:
132,362,141988,2,0,P|94:301|57:173,1,192.5,2|0,0:0|0:0,0:0:0:0:
150,202,142713,2,0,P|175:148|320:59,2,220
362,202,143875,2,0,P|337:148|192:59,2,220
191,338,145036,1,2,0:0:0:0:
438,336,145810,6,0,P|452:275|327:212,1,220
110,225,146584,2,0,P|96:164|221:101,2,220
130,246,147407,1,2,0:0:0:0:
191,275,147479,1,0,0:0:0:0:
353,124,147746,1,0,0:0:0:0:
123,54,148133,6,0,B|110:94|110:94|173:70|248:61|248:61|313:163|355:169|421:145|421:145|361:122,1,440,2|0,0:0|0:0,0:0:0:0:
222,354,149294,1,0,0:0:0:0:
459,311,149681,2,0,P|451:203|396:108,1,220
246,219,150455,2,0,P|204:252|40:287,1,220
343,199,151229,6,0,B|356:159|356:159|293:183|218:192|218:192|153:90|111:84|45:108|45:108|105:131,1,440,2|0,0:0|0:0,0:0:0:0:
425,321,152391,2,0,P|415:255|300:147,2,220,0|2|0,0:0|0:0|0:0,0:0:0:0:
166,343,153552,6,0,B|222:127|393:32|393:32|210:50|210:50|193:69|193:69|6:42,1,791.999975830079,2|14,0:0|1:2,0:0:0:0:
433,136,154520,5,8,0:0:0:0:
321,109,154713,1,0,0:0:0:0:
327,169,154809,1,0,0:0:0:0:
333,229,154906,1,0,0:0:0:0:
186,247,155100,2,0,L|173:131,1,110,8|8,0:0|0:3,0:0:0:0:
137,100,155391,1,0,0:0:0:0:
73,70,155488,1,4,0:3:0:0:
168,33,155584,1,8,0:3:0:0:
77,177,155681,1,8,0:0:0:0:
347,249,155875,6,0,P|301:274|239:292,1,110,0|8,1:2|0:0,0:0:0:0:
294,304,156165,1,0,0:0:0:0:
392,333,156262,2,0,P|438:308|500:290,1,110
409,160,156552,2,0,L|420:219,1,55,0|10,0:0|0:0,0:0:0:0:
154,56,157036,2,0,L|261:119,1,110,2|8,0:3|0:3,0:0:0:0:
310,50,157294,1,8,0:3:0:0:
257,74,157359,1,8,0:3:0:0:
92,189,157423,6,0,B|32:209|24:263|24:263|59:344|136:290|178:359,1,285.99998690796,2|8,1:3|0:0,0:0:0:0:
135,357,157858,1,0,0:0:0:0:
276,133,158197,1,0,0:0:0:0:
270,193,158293,1,0,0:0:0:0:
264,253,158390,1,0,0:0:0:0:
373,156,158584,1,8,0:0:0:0:
171,220,158778,1,8,0:3:0:0:
467,112,158971,6,8,L|478:339,1,220,10|8,1:2|0:0,0:0:0:0:
374,144,159455,1,8,0:3:0:0:
453,164,159551,1,8,0:0:0:0:
257,253,159746,1,2,0:0:0:0:
341,290,159842,1,0,0:0:0:0:
336,344,159939,1,0,0:0:0:0:
151,31,160133,2,0,P|95:86|11:116,1,165,10|0,0:0|0:0,0:0:0:0:
177,374,160520,6,0,P|230:358|284:347,1,110,2|8,1:2|0:0,0:0:0:0:
248,312,160810,1,0,0:0:0:0:
173,284,160907,1,0,0:0:0:0:
476,69,161100,2,0,B|475:59|479:99|479:99|421:82|407:31|407:31|331:7|299:79,1,268.399988942261,8|0,0:0|0:0,0:0:0:0:
48,68,161681,2,0,L|62:138,1,55,8|0,0:0|0:0,0:0:0:0:
222,149,161875,2,0,L|208:219,1,55
407,0,162068,6,0,L|427:220,1,220,0|10,1:0|0:0,0:0:0:0:
288,139,162649,2,0,L|299:194,1,55,8|0,0:0|0:0,0:0:0:0:
136,82,162842,2,0,L|116:302,1,220,2|10,1:2|0:0,0:0:0:0:
212,218,163326,2,0,L|153:206,1,55
326,182,163520,1,0,0:0:0:0:
145,296,163617,6,0,L|30:272,2,110,2|0|10,1:3|0:0|0:0,0:0:0:0:
115,307,164052,1,0,0:0:0:0:
384,333,164391,1,0,0:0:0:0:
143,121,164778,1,0,1:0:0:0:
316,60,164875,1,0,0:0:0:0:
122,259,164972,6,0,L|111:40,1,220,10|0,0:0|1:0,0:0:0:0:
363,83,165552,2,0,L|378:302,1,220,10|0,0:0|1:0,0:0:0:0:
439,352,166036,1,8,0:3:0:0:
250,374,166133,1,8,0:3:0:0:
157,363,166230,1,8,0:3:0:0:
378,302,166326,1,4,1:2:0:0:
81,141,166713,5,4,1:0:0:0:
384,52,166907,1,8,0:0:0:0:
239,100,167100,2,0,P|268:114|299:122,1,55,0|8,1:0|0:3,0:0:0:0:
231,117,167294,2,0,P|201:131|169:137,1,55,8|8,0:3|0:3,0:0:0:0:
345,370,167488,2,0,P|412:337|389:240,1,165,10|0,0:3|0:0,0:0:0:0:
340,220,167876,1,0,1:0:0:0:
476,298,168069,1,8,0:0:0:0:
153,286,168262,6,0,P|199:311|261:329,1,110,0|8,1:0|0:0,0:0:0:0:
206,341,168552,1,0,0:0:0:0:
108,370,168649,2,0,P|62:345|0:327,1,110,4|0,0:3|0:0,0:0:0:0:
56,302,168939,1,0,0:0:0:0:
251,231,169036,2,0,P|271:136|170:72,1,220,10|8,0:0|0:0,0:0:0:0:
482,231,169617,1,14,0:3:0:0:
494,263,169681,1,8,0:3:0:0:
436,325,169746,1,8,0:3:0:0:
287,66,169810,6,0,P|267:161|368:225,1,220,6|8,1:2|0:0,0:0:0:0:
386,217,170246,1,0,0:0:0:0:
194,321,170584,1,0,0:0:0:0:
267,297,170680,1,0,0:0:0:0:
194,321,170777,1,0,0:0:0:0:
92,250,170971,1,8,0:0:0:0:
392,373,171165,1,8,0:0:0:0:
244,293,171358,6,0,B|244:268|224:252|224:252|246:191|343:221|371:170,1,220,0|8,1:0|0:0,0:0:0:0:
348,131,171842,1,0,0:0:0:0:
308,100,171938,1,0,0:0:0:0:
166,114,172133,1,8,0:3:0:0:
207,167,172229,1,8,0:3:0:0:
279,185,172326,1,8,0:3:0:0:
10,255,172520,2,0,P|66:310|150:340,1,165,8|0,0:0|0:0,0:0:0:0:
355,384,172907,6,0,P|302:368|248:357,1,110,0|0,1:0|1:0,0:0:0:0:
284,322,173197,1,0,0:0:0:0:
359,294,173294,1,8,0:0:0:0:
455,255,173488,1,0,1:0:0:0:
508,163,173681,1,0,1:0:0:0:
456,75,173875,1,8,0:0:0:0:
292,142,174068,2,0,L|355:161,1,55,8|8,0:3|0:3,0:0:0:0:
277,161,174262,2,0,L|340:180,1,55,8|8,0:3|0:3,0:0:0:0:
168,67,174455,6,0,P|122:77|53:74,1,110,0|0,1:0|1:0,0:0:0:0:
8,46,174746,1,0,0:0:0:0:
200,148,174842,2,0,P|212:185|228:320,1,165,8|0,0:0|0:0,0:0:0:0:
309,277,175229,6,0,P|352:310|401:337,1,110,0|0,1:0|1:0,0:0:0:0:
135,262,175616,2,0,P|84:290|35:307,1,110,8|2,0:0|0:3,0:0:0:0:
381,68,176004,6,0,P|434:73|496:92,2,110,0|0|10,1:0|1:0|0:0,0:0:0:0:
411,56,176439,1,0,0:0:0:0:
203,185,176778,2,0,L|223:238,1,55,8|8,0:3|0:3,0:0:0:0:
309,217,176971,2,0,L|367:240,1,55,8|8,0:3|0:3,0:0:0:0:
191,342,177165,2,0,P|227:282|305:223,1,165,8|0,0:0|0:0,0:0:0:0:
140,210,177552,6,0,L|141:192,1,18.3333333333333,0|0,1:0|0:0,0:0:0:0:
175,112,177681,2,0,L|187:98,1,18.3333333333333,0|0,1:0|0:0,0:0:0:0:
269,70,177810,2,0,L|287:64,1,18.3333333333333,0|0,1:0|0:0,0:0:0:0:
381,236,177939,6,0,L|380:249,1,13.75,8|0,1:2|0:0,0:0:0:0:
360,300,178036,2,0,L|351:319,1,13.75,0|0,1:0|0:0,0:0:0:0:
317,348,178133,2,0,L|298:365,1,13.75,0|0,1:0|0:0,0:0:0:0:
253,372,178229,2,0,L|235:378,1,18.3333333333333,0|0,1:0|0:0,0:0:0:0:
296,348,178326,5,10,1:3:0:0:
205,328,178423,1,8,1:3:0:0:
169,250,178520,1,8,1:3:0:0:
210,178,178617,1,8,1:3:0:0:
387,85,178713,5,2,1:3:0:0:
199,64,178810,5,2,1:3:0:0:
300,5,178907,5,2,1:3:0:0:
338,199,179004,5,2,1:3:0:0:
43,351,179100,5,6,1:2:0:0:
256,192,180068,12,0,180092,0:0:0:0:
256,192,180262,12,0,180287,0:0:0:0:
256,192,180649,12,0,181423,0:0:0:0:
256,192,181447,12,0,181617,0:0:0:0:
256,192,181641,12,0,181811,0:0:0:0:
256,192,181834,12,0,181907,0:0:0:0:
256,192,181931,12,0,182004,0:0:0:0:
256,192,182028,12,0,182101,0:0:0:0:
256,192,182125,12,4,182198,0:1:0:0:
341,38,182971,6,0,P|391:54|458:67,2,110
162,361,183552,2,0,B|141:327|137:209|206:154|289:224|319:148|319:148|300:136,1,330
61,339,184520,1,0,0:0:0:0:
277,369,184907,2,0,P|234:350|171:334,1,110,2|0,0:0|0:0,0:0:0:0:
284,360,185294,1,2,0:0:0:0:
416,64,186068,5,0,0:0:0:0:
320,110,186262,1,0,0:0:0:0:
287,209,186455,1,0,0:0:0:0:
326,296,186649,1,0,0:0:0:0:
413,344,186842,1,2,0:0:0:0:
280,367,187229,5,2,0:0:0:0:
144,333,187617,5,2,0:0:0:0:
355,184,188004,5,2,0:0:0:0:
146,70,188391,1,2,0:0:0:0:
265,219,188778,2,0,P|308:200|371:184,1,110
156,203,189552,6,0,P|199:222|262:238,1,110
160,19,189939,1,2,0:0:0:0:
291,6,190326,5,2,0:0:0:0:
426,32,190713,6,0,B|448:60|439:130|439:130|414:94|372:86|372:86|353:99|342:119,1,220,2|2,0:0|0:0,0:0:0:0:
180,328,191488,5,0,0:0:0:0:
367,255,191875,2,0,L|362:365,1,110
171,346,192455,2,0,P|121:330|54:317,2,110
10,376,193036,1,2,0:0:0:0:
265,165,193810,6,0,P|308:184|371:200,1,110
260,146,194197,2,0,P|207:159|156:181,1,110
345,372,194584,5,4,1:2:0:0:
177,343,194777,1,0,0:0:0:0:
79,266,194971,1,0,0:0:0:0:
41,152,195164,1,0,0:0:0:0:
76,49,195358,1,0,0:0:0:0:
194,6,195552,2,0,L|184:76,1,55,2|0,0:0|0:0,0:0:0:0:
272,141,195746,2,0,L|158:174,1,110,2|0,0:0|0:0,0:0:0:0:
318,6,196133,5,2,0:0:0:0:
479,108,196520,1,0,0:0:0:0:
502,205,196713,1,0,0:0:0:0:
460,295,196907,1,0,0:0:0:0:
377,348,197100,1,0,0:0:0:0:
239,165,197294,1,2,0:0:0:0:
337,262,197439,1,0,3:0:0:0:
310,277,197488,1,0,3:0:0:0:
171,31,197681,5,2,0:0:0:0:
80,86,197875,1,0,0:0:0:0:
40,182,198068,1,2,0:0:0:0:
49,232,198165,1,0,0:0:0:0:
79,276,198262,1,0,0:0:0:0:
271,99,198455,5,2,0:0:0:0:
362,143,198649,1,0,0:0:0:0:
402,232,198842,1,2,0:0:0:0:
380,295,198939,1,0,0:0:0:0:
322,342,199036,1,0,0:0:0:0:
57,371,199229,5,2,0:0:0:0:
319,352,199423,1,0,0:0:0:0:
402,311,199617,1,0,0:0:0:0:
414,239,199762,1,0,3:0:0:0:
446,231,199810,1,0,3:0:0:0:
445,142,200004,1,0,0:0:0:0:
388,73,200197,1,0,0:0:0:0:
275,304,200391,6,0,L|381:330,1,110,2|2,0:0|0:0,0:0:0:0:
106,265,200778,5,0,1:0:0:0:
248,280,200971,1,2,0:0:0:0:
94,125,201165,1,0,1:0:0:0:
82,266,201358,1,2,0:0:0:0:
260,140,201552,1,0,1:0:0:0:
252,269,201745,1,2,0:0:0:0:
420,134,201939,1,0,1:0:0:0:
430,266,202132,1,2,0:0:0:0:
259,146,202326,5,2,1:2:0:0:
430,266,202519,1,2,1:0:0:0:
257,288,202713,5,2,1:2:0:0:
263,136,202907,1,2,1:0:0:0:
87,281,203100,5,2,1:2:0:0:
259,146,203293,1,2,1:0:0:0:
84,102,203487,5,2,1:2:0:0:
97,275,203680,1,2,1:0:0:0:
402,339,203875,5,2,1:2:0:0:
360,265,203972,1,2,0:0:0:0:
371,199,204069,1,2,0:0:0:0:
427,145,204165,1,2,0:0:0:0:
504,147,204262,1,2,0:0:0:0:
471,213,204359,1,2,0:0:0:0:
392,236,204456,1,2,0:0:0:0:
214,191,204553,1,2,0:0:0:0:
294,223,204649,5,6,1:2:0:0:
116,178,204746,1,2,0:0:0:0:
45,199,204843,1,2,0:0:0:0:
4,267,204940,1,2,0:0:0:0:
91,258,205037,1,2,0:0:0:0:
139,187,205133,1,2,0:0:0:0:
122,105,205230,1,2,0:0:0:0:
52,51,205327,1,2,0:0:0:0:
295,88,205424,6,0,L|281:71,1,13.75,0|0,1:0|0:0,0:0:0:0:
217,88,205520,2,0,L|233:69,1,13.75,0|0,1:0|0:0,0:0:0:0:
282,128,205617,2,0,L|304:118,1,13.75,0|0,1:0|0:0,0:0:0:0:
230,128,205714,2,0,L|206:120,1,13.75,0|0,1:0|0:0,0:0:0:0:
295,88,205810,6,0,L|281:71,1,13.75,0|0,1:0|0:0,0:0:0:0:
217,88,205906,2,0,L|233:69,1,13.75,0|0,1:0|0:0,0:0:0:0:
301,167,206003,2,0,L|323:157,1,13.75,0|0,1:0|0:0,0:0:0:0:
209,166,206100,2,0,L|185:158,1,13.75,0|0,1:0|0:0,0:0:0:0:
256,17,206197,5,0,1:0:0:0:
256,17,206293,1,0,1:0:0:0:
175,74,206391,1,8,0:0:0:0:
337,74,206488,1,8,0:0:0:0:
256,301,206584,2,0,L|256:222,1,55,8|8,1:3|1:3,0:0:0:0:
96,16,206778,1,4,1:3:0:0:
416,16,206875,1,4,1:3:0:0:
202,95,206971,6,0,P|190:295|298:91,1,615.999981201173,4|0,0:0|0:0,0:0:0:0:
229,292,208520,5,2,0:0:0:0:
280,72,208713,1,2,0:0:0:0:
229,94,208907,1,2,0:0:0:0:
280,312,209100,1,2,0:0:0:0:
96,347,209294,6,0,L|249:326,1,110,0|8,1:0|0:0,0:0:0:0:
339,352,209552,1,8,0:0:0:0:
321,302,209616,1,8,0:0:0:0:
236,245,209681,2,0,L|253:180,1,55,0|0,1:0|1:0,0:0:0:0:
448,145,209875,1,0,1:0:0:0:
89,35,210068,6,0,L|78:107,1,55,4|0,1:0|1:0,0:0:0:0:
242,126,210262,2,0,L|234:185,1,55,8|0,0:0|1:0,0:0:0:0:
330,276,210455,1,8,0:0:0:0:
425,84,210552,1,8,0:0:0:0:
330,71,210649,1,8,0:3:0:0:
235,327,210746,1,8,0:3:0:0:
463,309,210842,6,0,P|480:238|481:176,1,110,2|2,1:2|0:0,0:0:0:0:
424,236,211133,1,0,0:0:0:0:
322,249,211229,2,0,P|395:252|461:237,1,110,8|2,0:0|0:3,0:0:0:0:
116,18,211617,5,2,1:2:0:0:
138,70,211714,1,2,0:0:0:0:
176,106,211810,1,2,0:0:0:0:
93,315,211907,1,2,1:2:0:0:
130,275,212004,1,2,0:0:0:0:
197,249,212101,1,2,0:0:0:0:
354,216,212197,2,0,L|309:228,1,27.5,2|0,1:2|1:0,0:0:0:0:
183,254,212294,2,0,L|143:266,1,27.5,0|0,1:0|1:0,0:0:0:0:
319,56,212391,6,0,P|379:42|442:13,1,110,10|0,0:0|1:0,0:0:0:0:
278,207,212778,2,0,P|295:261|419:320,1,186.450000569,10|0,0:0|0:0,0:0:0:0:
226,132,213165,6,0,L|217:78,1,55,0|0,1:0|1:0,0:0:0:0:
125,264,213358,2,0,P|72:303|12:329,1,131.99999597168,8|10,0:0|0:0,0:0:0:0:
149,248,213746,2,0,P|123:238|97:231,1,55,2|2,1:3|0:3,0:0:0:0:
267,59,213939,5,10,0:0:0:0:
337,113,214036,1,2,0:0:0:0:
354,195,214133,1,2,0:0:0:0:
306,266,214229,1,2,0:0:0:0:
219,275,214326,1,2,1:3:0:0:
260,207,214423,1,2,0:3:0:0:
331,186,214520,1,2,1:3:0:0:
429,199,214617,1,2,0:3:0:0:
209,115,214713,6,0,P|141:88|90:52,1,110,2|2,1:2|0:0,0:0:0:0:
103,34,215004,1,0,0:0:0:0:
194,305,215100,2,0,P|124:326|69:356,1,110,2|2,1:2|0:0,0:0:0:0:
365,29,215488,6,0,L|370:95,1,55,10|2,0:0|0:0,0:0:0:0:
283,74,215681,2,0,L|290:134,1,55,2|2,0:0|0:0,0:0:0:0:
382,346,215875,1,2,0:3:0:0:
324,315,215972,1,2,0:3:0:0:
297,265,216068,1,2,0:3:0:0:
327,211,216165,1,2,0:3:0:0:
507,25,216262,5,2,1:2:0:0:
480,67,216359,1,2,0:0:0:0:
438,100,216455,1,2,0:0:0:0:
380,119,216552,1,2,0:0:0:0:
317,119,216649,2,0,L|425:141,1,110,10|2,0:0|0:0,0:0:0:0:
103,225,217036,5,10,0:0:0:0:
133,278,217133,1,2,0:0:0:0:
187,312,217229,1,2,0:0:0:0:
50,305,217423,1,8,0:0:0:0:
181,122,217617,2,0,P|155:117|127:117,1,55,0|0,1:0|1:0,0:0:0:0:
358,24,217810,6,0,P|388:64|406:132,1,110,10|0,1:2|0:0,0:0:0:0:
309,29,218101,2,0,P|352:56|393:113,1,110,2|0,1:2|0:0,0:0:0:0:
272,54,218391,2,0,P|286:51|300:54,1,27.5,2|0,1:2|1:0,0:0:0:0:
428,212,218488,2,0,P|449:212|472:206,1,27.5,0|0,1:0|1:0,0:0:0:0:
289,232,218584,6,0,P|234:239|179:235,1,110,10|0,0:0|1:0,0:0:0:0:
231,216,218875,1,0,1:0:0:0:
28,235,218971,2,0,P|43:182|69:134,1,110,10|2,0:0|0:3,0:0:0:0:
412,274,219358,6,0,L|464:257,1,55,12|0,1:2|1:0,0:0:0:0:
179,269,219649,1,0,1:0:0:0:
344,346,219746,1,10,0:0:0:0:
48,366,219939,2,0,L|106:347,1,55,0|0,1:0|1:0,0:0:0:0:
306,65,220133,6,0,P|254:49|210:17,1,110,10|2,0:0|0:0,0:0:0:0:
156,56,220423,1,2,0:0:0:0:
378,189,220520,2,0,P|422:157|474:141,1,110,0|0,1:0|1:0,0:0:0:0:
109,254,220907,6,0,L|123:188,1,55,8|0,1:2|1:0,0:0:0:0:
313,271,221198,1,0,1:0:0:0:
197,335,221295,1,10,0:0:0:0:
389,357,221488,2,0,L|346:342,1,27.5,0|0,1:0|1:0,0:0:0:0:
242,156,221584,2,0,L|199:171,1,27.5,0|0,1:0|1:0,0:0:0:0:
389,154,221681,5,10,0:0:0:0:
443,235,221778,1,2,0:0:0:0:
464,167,221875,1,2,0:0:0:0:
453,108,221971,1,2,0:0:0:0:
417,67,222068,1,2,1:3:0:0:
367,55,222165,1,2,1:3:0:0:
307,67,222262,1,2,1:3:0:0:
378,140,222358,1,2,1:3:0:0:
187,307,222455,6,0,P|136:295|61:286,1,110,0|0,1:0|1:0,0:0:0:0:
277,248,222746,1,0,1:0:0:0:
190,295,222842,2,0,P|147:331|109:400,1,110,10|0,0:0|1:0,0:0:0:0:
439,183,223229,6,0,L|446:305,1,110,10|10,0:0|0:0,0:0:0:0:
255,206,223520,2,0,L|247:145,1,55,2|0,0:0|1:0,0:0:0:0:
83,294,223810,1,8,1:2:0:0:
378,105,224004,6,0,P|421:132|462:189,1,110,10|0,1:2|0:0,0:0:0:0:
186,350,224295,2,0,P|143:323|102:266,1,110,2|0,1:2|0:0,0:0:0:0:
214,323,224585,2,0,P|193:323|170:317,1,27.5,2|0,1:2|1:0,0:0:0:0:
27,178,224682,2,0,P|40:176|54:176,1,27.5,0|0,1:0|1:0,0:0:0:0:
205,51,224778,6,0,P|257:70|325:77,1,110,10|10,0:0|0:0,0:0:0:0:
93,49,225068,1,8,0:0:0:0:
304,166,225165,2,0,L|246:182,1,55,10|10,1:2|1:2,0:0:0:0:
460,22,225358,2,0,L|480:74,1,55,10|10,1:2|1:2,0:0:0:0:
208,36,225552,6,0,B|188:3|-40:2|102:113|-67:154|-19:184|-3:110|49:182|96:262|353:149|213:73|40:96|83:58|193:11|371:244|215:234|140:264|116:231|97:194|60:214|30:315|30:315,1,704,4|0,0:2|0:0,0:0:0:0:
201,105,228262,2,0,P|212:68|248:12,1,88
392,72,228649,6,0,B|450:95|450:95|456:137|423:160|389:179|371:144|348:114|278:142|133:132|299:350|402:306|442:271|280:292|149:221|391:177|434:190|482:258|497:188|542:216|384:255|517:359|304:358|285:327,1,704,2|0,0:0|0:0,0:0:0:0:
170,75,230971,2,0,P|181:162|221:256,1,176
86,172,231552,2,0,P|75:209|39:265,1,88,0|2,0:0|0:0,0:0:0:0:
450,50,234068,6,0,L|295:107,2,165
35,143,234842,6,0,P|56:227|176:266,1,220,4|8,1:0|0:0,0:0:0:0:
228,254,235326,1,0,0:0:0:0:
172,266,235423,1,0,0:0:0:0:
228,254,235520,1,0,0:0:0:0:
392,194,235617,2,0,P|371:110|251:71,1,220,8|0,0:0|0:0,0:0:0:0:
283,114,236100,1,0,0:0:0:0:
343,134,236197,1,8,0:0:0:0:
73,326,236391,6,0,L|63:217,1,110,8|0,1:2|0:0,0:0:0:0:
58,171,236681,1,0,0:0:0:0:
229,352,236778,2,0,L|249:132,1,220,8|8,0:0|0:0,0:0:0:0:
404,203,237358,1,0,1:0:0:0:
143,77,237552,1,8,0:0:0:0:
300,41,237746,1,12,0:3:0:0:
275,86,237810,1,12,0:3:0:0:
235,120,237875,1,12,0:3:0:0:
397,119,237939,6,0,P|486:186|451:278,1,220,8|0,1:2|1:0,0:0:0:0:
346,301,238520,1,0,1:0:0:0:
166,349,238713,1,8,0:0:0:0:
135,304,238809,1,8,0:3:0:0:
137,250,238906,1,0,0:3:0:0:
171,207,239003,1,8,0:3:0:0:
223,192,239100,1,4,0:3:0:0:
86,112,239294,1,8,0:0:0:0:
261,47,239488,6,0,L|281:275,1,220,0|0,1:0|1:0,0:0:0:0:
347,298,239971,1,0,0:0:0:0:
305,360,240068,1,8,0:0:0:0:
179,129,240262,1,8,0:0:0:0:
274,114,240358,1,0,0:0:0:0:
316,52,240455,1,0,0:0:0:0:
168,294,240649,2,0,P|125:308|67:339,1,110,8|0,1:2|0:0,0:0:0:0:
357,279,241036,6,0,P|306:257|253:241,1,110,8|0,1:2|1:0,0:0:0:0:
288,206,241326,1,0,1:0:0:0:
346,187,241423,1,0,1:0:0:0:
25,86,241617,2,0,B|26:76|22:116|22:116|80:99|94:48|94:48|170:24|202:96,1,268.399988942261,8|0,0:0|1:0,0:0:0:0:
327,236,242197,2,0,L|317:290,1,55,8|8,0:0|0:3,0:0:0:0:
396,312,242391,2,0,L|407:258,1,55,8|8,0:3|0:3,0:0:0:0:
300,300,242584,6,0,P|231:219|174:188,1,165,8|0,0:0|0:0,0:0:0:0:
74,178,242971,1,0,1:0:0:0:
222,53,243165,2,0,L|161:63,1,55,8|8,0:3|0:3,0:0:0:0:
335,170,243358,2,0,P|404:89|512:45,1,220,8|8,0:0|0:0,0:0:0:0:
459,79,243842,1,8,0:3:0:0:
365,328,243939,2,0,L|422:341,1,55,8|8,0:0|0:3,0:0:0:0:
224,251,244133,6,0,L|208:26,1,220,0|8,1:0|0:0,0:0:0:0:
165,19,244568,1,0,0:0:0:0:
419,225,244907,1,0,1:0:0:0:
184,357,245294,2,0,L|127:370,1,55,0|0,1:0|1:0,0:0:0:0:
240,282,245488,6,0,L|256:57,1,220,8|0,0:0|1:0,0:0:0:0:
420,95,245971,1,0,1:0:0:0:
206,45,246068,2,0,P|119:99|146:199,1,220,8|0,0:0|1:0,0:0:0:0:
191,222,246552,1,8,0:3:0:0:
256,231,246649,1,8,0:0:0:0:
174,265,246746,1,8,0:3:0:0:
334,300,246842,1,12,0:0:0:0:
70,222,247036,1,12,1:3:0:0:
477,241,247229,5,14,1:2:0:0:
340,213,247616,2,0,P|351:183|369:157,1,55,8|8,0:0|0:3,0:0:0:0:
262,247,247810,2,0,P|284:272|298:301,1,55,8|8,0:3|0:3,0:0:0:0:
271,162,248004,2,0,P|204:170|108:148,1,165,6|0,0:3|0:0,0:0:0:0:
219,137,248392,1,8,0:0:0:0:
72,325,248584,1,2,1:3:0:0:
400,68,248778,6,0,L|410:177,1,110,8|0,1:2|0:0,0:0:0:0:
415,223,249068,1,0,0:0:0:0:
244,42,249165,2,0,L|224:262,1,220,8|8,0:0|0:0,0:0:0:0:
89,198,249745,1,0,0:0:0:0:
355,326,249939,1,10,0:0:0:0:
209,119,250133,1,12,3:0:0:0:
234,74,250197,1,12,3:0:0:0:
274,40,250262,1,12,3:0:0:0:
132,321,250326,6,0,P|27:259|8:167,2,220,0|8|0,1:0|0:0|1:0,0:0:0:0:
233,282,251197,2,0,L|181:264,1,55,8|0,0:0|1:0,0:0:0:0:
291,373,251488,2,0,L|303:275,1,55,8|0,0:0|1:0,0:0:0:0:
478,337,251681,2,0,L|418:320,1,55,8|0,0:0|1:0,0:0:0:0:
121,127,251875,6,0,B|154:139|154:139|178:70|178:70|212:82|212:82|121:127|121:127|154:139|154:139|178:70|178:70|212:82|212:82|121:127|121:127|154:139|154:139|178:70|178:70|212:82|212:82|121:127|121:127|154:139|154:139|178:70|178:70|212:82,1,880,6|0,0:0|0:0,0:0:0:0:
298,343,254584,53,0,0:0:0:0:
371,327,254778,1,0,0:0:0:0:
413,302,254971,2,0,B|503:230|510:171|478:54|406:102|313:103|365:202|394:176,1,352,2|0,0:0|0:0,0:0:0:0:
78,334,257681,5,0,0:0:0:0:
91,288,257875,1,0,0:0:0:0:
104,245,258068,2,0,L|154:63,1,176,2|0,0:0|0:0,0:0:0:0:
162,90,259617,5,0,0:0:0:0:
383,207,260391,1,0,0:0:0:0:
372,222,260778,1,0,0:0:0:0:
187,101,260971,2,0,B|154:137|91:123|91:123|134:15|288:-13|383:93|383:93|329:152|280:107|233:151|195:221|167:336|167:336|194:232|228:193|228:193|255:201|327:317|327:317|289:254|229:198|229:198|255:355,1,1430,2|2,0:0|0:0,0:0:0:0:
