osu file format v14

[General]
AudioFilename: audio.mp3
AudioLeadIn: 0
PreviewTime: 105157
Countdown: 1
SampleSet: Normal
StackLeniency: 0.7
Mode: 0
LetterboxInBreaks: 0
WidescreenStoryboard: 0

[Editor]
DistanceSpacing: 0.6
BeatDivisor: 4
GridSize: 16
TimelineZoom: 0.9000031

[Metadata]
Title:Automaton
TitleUnicode:Automaton
Artist:Laur
ArtistUnicode:Laur
Creator:Critality
Version:Beep boop
Source:
Tags:
BeatmapID:2081309
BeatmapSetID:995052

[Difficulty]
HPDrainRate:3
CircleSize:4
OverallDifficulty:9.6
ApproachRate:9.8
SliderMultiplier:2
SliderTickRate:1

[Events]
//Background and Video events
0,0,"daab50028f853ec20c31f4640946512e.jpg",0,0
//Break Periods
//Storyboard Layer 0 (Background)
//Storyboard Layer 1 (Fail)
//Storyboard Layer 2 (Pass)
//Storyboard Layer 3 (Foreground)
//Storyboard Sound Samples

[TimingPoints]
430,272.727272727273,4,1,0,67,1,0
18975,-58.8235294117647,4,1,0,67,0,0
20066,-71.4285714285714,4,1,0,67,0,0
22248,-100,4,1,0,67,0,0
23339,-66.6666666666667,4,1,0,67,0,0
24430,-76.9230769230769,4,1,0,67,0,0
25520,-142.857142857143,4,1,0,67,0,0
26611,-66.6666666666667,4,1,0,67,0,0
33293,-1000,4,1,0,67,0,0
34248,-100,4,1,0,67,0,0
35339,-100,4,1,0,67,0,0
37384,-50,4,1,0,67,0,0
37452,-100,4,1,0,5,0,0
37520,-100,4,1,0,67,0,0
38339,-50,4,1,0,67,0,0
38884,-100,4,1,0,67,0,0
39157,-66.6666666666667,4,1,0,67,0,0
39430,-58.8235294117647,4,1,0,67,0,0
39702,-100,4,1,0,67,0,0
41611,-50,4,1,0,67,0,0
41884,-100,4,1,0,67,0,0
42430,-50,4,1,0,67,0,0
42975,-62.5,4,1,0,67,0,0
43111,-58.8235294117647,4,1,0,67,0,0
43248,-55.5555555555556,4,1,0,67,0,0
43384,-52.6315789473684,4,1,0,67,0,0
43520,-50,4,1,0,67,0,0
43657,-47.6190476190476,4,1,0,67,0,0
43793,-200,4,1,0,67,0,0
44066,-100,4,1,0,67,0,0
46793,-50,4,1,0,67,0,0
47339,-100,4,1,0,67,0,0
49657,-50,4,1,0,67,0,0
50884,-100,4,1,0,67,0,0
52520,-50,4,1,0,67,0,0
52793,-100,4,1,0,67,0,0
53611,-200,4,1,0,67,0,0
53884,-100,4,1,0,67,0,0
57975,-58.8235294117647,4,1,0,67,0,0
58793,-100,4,1,0,67,0,0
60702,-83.3333333333333,4,1,0,67,0,0
60975,-71.4285714285714,4,1,0,67,0,0
61248,-62.5,4,1,0,67,0,0
61793,-100,4,1,0,67,0,0
62339,-50,4,1,0,67,0,0
63702,-100,4,1,0,67,0,0
64793,-50,4,1,0,67,0,0
66157,-100,4,1,0,67,0,0
66702,-50,4,1,0,67,0,0
68066,-133.333333333333,4,1,0,67,0,0
70248,-222.222222222221,4,1,0,67,0,0
86611,-100,4,1,0,67,0,0
87702,-100,4,1,0,67,0,1
96157,-200,4,1,0,67,0,0
96430,-100,4,1,0,67,0,1
102975,-1000,4,1,0,67,0,0
104066,-100,4,1,0,67,0,0
105157,-100,4,1,0,67,0,0
106793,-50,4,1,0,67,0,0
107066,-100,4,1,0,67,0,0
108157,-50,4,1,0,67,0,0
109248,-100,4,1,0,67,0,0
111157,-50,4,1,0,67,0,0
111430,-100,4,1,0,67,0,0
113066,-76.9230769230769,4,1,0,67,0,0
113339,-100,4,1,0,67,0,0
113611,-200,4,1,0,67,0,0
113884,-100,4,1,0,67,0,0
114430,-50,4,1,0,67,0,0
116611,-133.333333333333,4,1,0,67,0,0
117157,-50,4,1,0,67,0,0
120430,-100,4,1,0,67,0,0
120702,-100,4,1,0,5,0,0
121520,-100,4,1,0,67,0,0
122611,-50,4,1,0,67,0,0
122884,-100,4,1,0,67,0,0
123975,-50,4,1,0,67,0,0
124793,-100,4,1,0,67,0,0
125475,-50,4,1,0,67,0,0
125884,-55.5555555555556,4,1,0,67,0,0
126020,-100,4,1,0,67,0,0
126157,-50,4,1,0,67,0,0
126293,-100,4,1,0,67,0,0
126430,-71.4285714285714,4,1,0,67,0,0
126566,-142.857142857143,4,1,0,67,0,0
126702,-125,4,1,0,67,0,0
126839,-333.333333333333,4,1,0,67,0,0
126975,-50,4,1,0,67,0,0
127248,-100,4,1,0,67,0,0
128339,-50,4,1,0,67,0,0
128611,-100,4,1,0,67,0,0
131339,-50,4,1,0,67,0,0
131612,-100,4,1,0,67,0,0
132703,-50,4,1,0,67,0,0
133521,-100,4,1,0,67,0,0
134203,-50,4,1,0,67,0,0
134612,-55.5555555555556,4,1,0,67,0,0
134748,-100,4,1,0,67,0,0
134885,-50,4,1,0,67,0,0
135021,-100,4,1,0,67,0,0
135158,-71.4285714285714,4,1,0,67,0,0
135294,-142.857142857143,4,1,0,67,0,0
135430,-125,4,1,0,67,0,0
135703,-50,4,1,0,67,0,0
136248,-50,4,1,0,67,0,0
136520,-52.6315789473684,4,1,0,67,0,0
136793,-62.5,4,1,0,67,0,0
137066,-76.9230769230769,4,1,0,67,0,0
137339,-100,4,1,0,67,0,0
137611,-142.857142857143,4,1,0,67,0,0
137884,-200,4,1,0,67,0,0
138157,-333.333333333333,4,1,0,67,0,0
138430,-500,4,1,0,67,0,0
138702,-1000,4,1,0,67,0,0
138975,-200,4,1,0,67,0,0
140066,-100,4,1,0,67,0,0
141975,-50,4,1,0,67,0,0
142111,-100,4,1,0,67,0,0
144157,-50,4,1,0,67,0,0
144293,-100,4,1,0,67,0,0
146066,-50,4,1,0,67,0,0
146611,-100,4,1,0,67,0,0
147702,-100,4,1,0,67,0,0
147839,-50,4,1,0,67,0,0
147975,-66.6666666666667,4,1,0,67,0,0
148111,-83.3333333333333,4,1,0,67,0,0
148248,-111.111111111111,4,1,0,67,0,0
148384,-166.666666666667,4,1,0,67,0,0
148520,-50,4,1,0,67,0,0
148657,-100,4,1,0,67,0,0
149339,-50,4,1,0,67,0,0
150157,-100,4,1,0,67,0,0
150430,-50,4,1,0,67,0,0
150975,-100,4,1,0,67,0,0
153702,-50,4,1,0,67,0,0
155339,-153.846153846154,4,1,0,67,0,0
173884,-142.857142857143,4,1,0,67,0,0

[HitObjects]
34,344,17884,6,0,B|144:225|144:225|161:293|211:323|279:308|279:308|239:285|239:285|287:238|272:173|209:153|209:153|312:43,1,700
355,1,18975,6,0,B|236:123|236:123|242:94|242:94|240:104|240:104|228:77|228:77|232:87|232:87|200:72|200:72|215:81|215:81|172:83|172:83|194:83|194:83|157:109|157:109|178:94|178:94|155:134|155:134|167:114|167:114|166:150|166:150|166:135|166:135|173:159|173:159|170:175|170:175|145:212|145:212|162:201|162:201|127:224|127:224|149:219|149:219|106:228|106:228|123:235|123:235|83:219|83:219|88:234|88:234|66:220|55:198|55:198|73:223|123:232|149:201|149:201|267:182|303:287,1,1190.00002269745
327,357,20066,6,0,B|296:235|245:212|245:212|208:199|216:224|216:224|230:260|417:61|407:49|407:49|407:49|407:49|407:49|407:49|407:49|407:49|407:49|407:49|407:49|407:49|407:49|407:49|407:49|407:49|407:49|407:49|407:49|407:49|407:49|407:49|407:49|407:49|407:49|407:49|407:49|407:49|407:49|407:49|407:49|407:49|407:49|407:49|407:49|407:49|407:49|407:49|407:49|407:49|407:49|407:49|407:49|407:49|407:49|407:49|407:49|407:49|407:49|407:49|407:49|407:49|413:56|407:49|407:49|413:56|413:56|407:49|407:49|413:56|413:56|407:49|407:49|413:56|413:56|407:49|407:49|413:56|413:56|407:49|407:49|413:56|413:56|407:49|407:49|413:56|413:56|407:49|407:49|413:56|413:56|407:49|407:49|413:56|413:56|407:49|407:49|413:56|413:56|407:49|407:49|413:56|413:56|407:49|407:49|413:56|413:56|407:49|407:49|413:56|413:56|407:49|407:49|413:56|413:56|407:49|407:49|413:56|413:56|407:49|407:49|413:56|413:56|407:49|407:49|413:56|413:56|407:49|407:49|413:56|413:56|407:49|407:49|413:56|413:56|407:49|407:49|413:56|413:56|407:49|407:49|413:56|413:56|407:49|407:49|413:56|413:56|407:49|407:49|413:56|413:56|407:49|407:49|413:56|413:56|407:49|407:49|413:56|413:56|407:49|407:49|413:56|413:56|407:49|407:49|413:56|413:56|407:49|407:49|413:56|413:56|407:49|407:49|413:56|413:56|407:49|407:49|413:56|413:56,1,979.999970092774
505,86,21157,6,0,B|369:252|369:252|330:177|279:168,1,279.999991455078
226,101,21566,1,0,0:0:0:0:
205,90,21634,1,0,0:0:0:0:
141,66,21702,2,0,L|107:56,21,23.3333326212565
43,43,22248,2,0,B|23:99|23:99|125:135|191:229|193:329|193:329|250:246|250:246|265:330|265:330|294:292|294:292|299:318|299:318|325:309|325:309|336:331|336:331|381:328,1,700
458,329,23339,6,0,B|154:330|154:330|158:309|158:309|153:318|153:318|144:296|144:296|148:307|148:307|127:286|127:286|134:297|134:297|111:286|111:286|121:292|121:292|95:297|95:297|107:295|107:295|88:311|88:311|98:304|98:304|87:325|87:325|94:312|94:312|94:331|94:331|65:332|65:332|94:331|94:331|18:333|18:333|19:156|19:156|19:170|19:170|19:156|19:156|19:170|19:170|19:156|19:156|19:169|19:169|19:156|19:156|19:162|19:162|19:147|19:147|19:155|19:155|19:146|19:146|19:159|19:159|19:135,1,1050.00004005432
8,55,24430,6,0,B|49:138|49:138|69:136|81:121|81:121|111:106|111:106|105:170|130:172|130:172|114:204|114:204|152:202|152:202,1,259.999988098145
238,277,24839,1,0,0:0:0:0:
212,281,24907,1,0,0:0:0:0:
160,262,24975,2,0,P|180:193|276:171,1,129.999994049073
386,328,25248,1,0,0:0:0:0:
487,124,25520,6,0,P|493:56|454:-13,3,139.999995727539
461,0,26611,6,0,P|492:55|483:134,1,150.000005722046
350,321,26884,1,0,0:0:0:0:
375,79,27157,1,0,0:0:0:0:
350,321,27430,1,0,0:0:0:0:
50,390,27702,6,0,P|19:328|29:250,1,150.000005722046
114,108,27975,1,0,0:0:0:0:
116,122,28043,1,0,0:0:0:0:
118,134,28111,2,0,L|133:217,1,75.0000028610231
194,197,28248,1,0,0:0:0:0:
189,182,28316,1,0,0:0:0:0:
186,166,28384,2,0,L|170:86,1,75.0000028610231
229,38,28520,2,0,P|292:77|396:53,1,150.000005722046
512,99,28793,6,0,P|528:168|486:235,1,150.000005722046
286,348,29066,1,0,0:0:0:0:
411,139,29339,1,0,0:0:0:0:
286,348,29612,1,0,0:0:0:0:
0,284,29884,6,0,P|-16:215|25:148,1,150.000005722046
162,55,30157,1,0,0:0:0:0:
158,69,30225,1,0,0:0:0:0:
153,83,30293,2,0,L|125:164,1,75.0000028610231
194,170,30430,1,0,0:0:0:0:
199,154,30498,1,0,0:0:0:0:
204,138,30566,2,0,L|229:58,1,75.0000028610231
295,42,30702,2,0,P|355:86|510:72,1,225.000008583069
430,99,30975,6,0,P|430:201|468:300,1,150.000005722046
496,370,31248,1,0,0:0:0:0:
412,345,31657,1,0,0:0:0:0:
381,161,31930,1,0,0:0:0:0:
311,327,32066,5,0,0:0:0:0:
282,336,32134,1,0,0:0:0:0:
253,333,32202,1,0,0:0:0:0:
229,316,32270,1,0,0:0:0:0:
218,288,32338,1,0,0:0:0:0:
216,258,32406,1,0,0:0:0:0:
215,228,32475,1,0,0:0:0:0:
213,198,32543,1,0,0:0:0:0:
206,169,32611,1,0,0:0:0:0:
191,143,32679,1,0,0:0:0:0:
169,123,32747,1,0,0:0:0:0:
141,113,32816,1,0,0:0:0:0:
111,116,32884,1,0,0:0:0:0:
85,130,32952,1,0,0:0:0:0:
67,154,33020,1,0,0:0:0:0:
61,183,33088,1,0,0:0:0:0:
68,212,33156,5,0,0:0:0:0:
159,265,33293,2,0,L|218:264,1,60
297,264,34248,6,0,L|317:206,1,50
426,165,34384,1,0,0:0:0:0:
426,165,34452,1,0,0:0:0:0:
426,165,34520,2,0,L|413:110,1,50
281,67,34657,2,0,P|224:91|194:92,1,50
122,104,34793,5,0,0:0:0:0:
234,227,34930,1,0,0:0:0:0:
122,104,35066,1,0,0:0:0:0:
234,227,35202,1,0,0:0:0:0:
52,309,35339,6,0,L|73:176,1,100
314,38,35611,2,0,L|304:155,1,100
207,378,35884,2,0,L|86:357,1,100
36,83,36157,2,0,L|169:104,1,100
299,264,36430,6,0,L|278:397,1,100
199,118,36702,2,0,L|221:18,1,100
342,302,36975,2,0,L|234:330,1,100
245,59,37248,1,0,0:0:0:0:
336,202,37384,2,0,P|295:236|264:282,1,100
172,349,37520,6,0,L|112:217,1,100
259,38,37792,2,0,L|314:147,1,100
26,114,38065,2,0,L|139:52,1,100
295,253,38339,1,0,0:0:0:0:
102,370,38476,1,0,0:0:0:0:
142,192,38612,6,0,P|188:209|220:247,1,100
222,346,38748,2,0,P|176:329|144:291,1,100
214,131,38884,6,0,P|292:114|302:120,1,50
368,209,39020,2,0,P|348:221|284:209,1,50
233,32,39157,2,0,P|265:29|312:47,1,75.0000028610231
244,225,39293,2,0,P|201:220|167:204,1,75.0000028610231
67,56,39430,6,0,B|46:49|66:25|66:25|89:37|108:115|19:211|93:283,1,255.000004863739
74,351,39702,6,0,L|158:242,1,100
316,60,39975,2,0,L|243:153,1,100
209,332,40248,2,0,L|272:241,1,100
433,21,40520,2,0,L|369:103,1,100
374,334,40793,6,0,L|352:206,1,100
248,19,41066,2,0,L|270:150,1,100
278,343,41339,2,0,L|256:215,1,100
152,28,41612,2,0,P|170:101|152:162,1,100
82,217,41748,2,0,P|114:172|170:146,1,100
304,147,41884,6,0,L|434:138,1,100
324,327,42157,2,0,L|189:342,1,100
61,231,42430,5,0,0:0:0:0:
64,36,42566,2,0,P|106:75|136:122,1,100
166,204,42702,1,0,0:0:0:0:
9,240,42839,2,0,P|59:199|108:178,1,100
264,197,42975,6,0,P|269:167|271:113,1,80
258,55,43111,2,0,P|303:125|315:160,1,85.0000016212464
333,194,43248,2,0,P|327:92|312:58,1,89.9999972534181
318,28,43384,2,0,P|351:83|365:130,1,94.9999974632264
406,204,43520,2,0,P|412:124|400:57,1,100
405,8,43657,2,0,P|440:110|444:152,1,104.999996795654
458,268,43793,2,0,L|435:273,1,18.75
373,288,44066,5,0,0:0:0:0:
490,20,44202,1,0,0:0:0:0:
361,183,44339,2,0,L|290:281,1,100
236,94,44611,2,0,L|299:5,1,100
224,266,44884,2,0,L|165:353,1,100
140,47,45157,6,0,L|265:70,1,100
332,234,45430,1,0,0:0:0:0:
152,40,45566,1,0,0:0:0:0:
412,107,45702,6,0,P|390:94|373:77,1,50
373,76,45838,2,0,P|394:64|413:47,1,50
365,26,45974,2,0,P|371:51|372:76,1,50
373,77,46111,2,0,P|350:66|325:64,1,50
102,123,46248,6,0,L|189:210,1,100
403,265,46520,2,0,L|306:167,1,100
23,297,46793,6,0,P|60:291|132:298,1,100
189,328,46930,2,0,P|118:329|69:319,1,100
23,297,47066,2,0,P|60:291|132:298,1,100
189,328,47203,2,0,P|118:329|69:319,1,100
30,144,47339,6,0,L|157:180,1,100
286,216,47611,1,0,0:0:0:0:
136,51,47748,1,0,0:0:0:0:
363,138,47884,2,0,L|236:88,1,100
30,144,48157,1,0,0:0:0:0:
78,157,48225,1,0,0:0:0:0:
126,171,48293,1,0,0:0:0:0:
334,232,48430,5,0,0:0:0:0:
291,5,48566,1,0,0:0:0:0:
211,216,48702,2,0,L|230:345,1,100
432,150,48975,2,0,L|413:37,1,100
271,142,49248,1,0,0:0:0:0:
437,282,49384,1,0,0:0:0:0:
252,376,49520,5,0,0:0:0:0:
171,136,49657,6,0,P|223:180|249:240,1,100
284,291,49793,1,0,0:0:0:0:
435,89,49930,2,0,P|414:147|411:196,1,100
407,271,50066,1,0,0:0:0:0:
160,175,50202,2,0,P|227:181|283:215,1,100
341,237,50338,1,0,0:0:0:0:
455,169,50475,2,0,P|411:212|388:255,1,100
352,322,50611,6,0,P|262:369|137:361,1,200
57,321,50884,6,0,P|71:281|72:235,1,50
51,119,51020,1,0,0:0:0:0:
51,119,51089,1,0,0:0:0:0:
51,119,51157,1,0,0:0:0:0:
51,119,51225,1,0,0:0:0:0:
51,119,51293,6,0,P|109:146|128:148,1,50
251,10,51430,1,0,0:0:0:0:
251,10,51499,1,0,0:0:0:0:
251,10,51567,1,0,0:0:0:0:
251,10,51635,1,0,0:0:0:0:
251,10,51703,6,0,P|227:55|227:90,1,50
375,195,51839,1,0,0:0:0:0:
375,195,51908,1,0,0:0:0:0:
375,195,51976,1,0,0:0:0:0:
375,195,52044,1,0,0:0:0:0:
375,195,52112,6,0,P|317:177|294:178,1,50
174,303,52248,1,0,0:0:0:0:
174,303,52317,1,0,0:0:0:0:
174,303,52385,1,0,0:0:0:0:
174,303,52453,1,0,0:0:0:0:
174,303,52521,6,0,P|205:288|247:295,1,50
423,294,52793,6,0,L|418:154,1,100
142,345,53066,2,0,L|68:257,1,100
372,143,53339,2,0,L|375:242,1,100
372,196,53612,2,0,L|331:148,1,50
10,251,53884,6,0,L|74:327,1,100
204,345,54157,1,0,0:0:0:0:
13,147,54293,1,0,0:0:0:0:
219,216,54430,2,0,L|295:286,1,100
95,128,54702,2,0,L|44:20,1,100
307,125,54975,6,0,L|172:91,1,100
37,56,55248,1,0,0:0:0:0:
374,102,55384,2,0,L|239:68,1,100
104,33,55657,1,0,0:0:0:0:
311,124,55793,2,0,L|203:94,1,100
265,246,56066,6,0,L|350:277,1,50
504,327,56202,1,0,0:0:0:0:
456,312,56270,1,0,0:0:0:0:
407,297,56339,2,0,L|297:258,1,100
89,197,56611,5,0,0:0:0:0:
340,50,56748,1,0,0:0:0:0:
74,19,56884,2,0,P|83:42|88:66,1,50
81,136,57020,2,0,P|68:114|63:89,1,50
251,22,57157,6,0,L|226:121,1,100
181,325,57430,2,0,L|209:221,1,100
332,54,57702,2,0,L|307:156,1,100
277,309,57975,6,0,P|299:274|338:246,1,85.0000016212464
426,243,58111,2,0,P|372:262|319:261,1,85.0000016212464
224,297,58248,2,0,P|254:247|307:221,1,85.0000016212464
452,209,58384,2,0,P|384:208|321:189,1,85.0000016212464
173,231,58520,1,0,0:0:0:0:
431,143,58657,1,0,0:0:0:0:
199,120,58793,2,0,P|226:89|264:71,1,50
344,62,58929,2,0,P|287:71|250:63,1,50
120,29,59066,6,0,L|-1:86,1,100
37,281,59339,1,0,0:0:0:0:
151,189,59475,2,0,P|282:196|302:189,1,150
373,157,59748,1,0,0:0:0:0:
238,204,59884,2,0,P|237:274|308:359,1,150
362,376,60157,1,0,0:0:0:0:
241,286,60293,2,0,P|264:278|289:275,1,50
452,337,60430,5,0,0:0:0:0:
458,112,60566,1,0,0:0:0:0:
408,327,60702,6,0,P|428:287|438:251,1,59.9999981689454
499,111,60838,2,0,P|486:153|483:184,1,59.9999981689454
367,301,60975,6,0,P|407:267|434:232,1,69.9999978637696
512,127,61111,2,0,P|505:167|487:200,1,69.9999978637696
452,337,61248,6,0,P|458:277|309:263,1,240
269,338,61520,5,0,0:0:0:0:
145,67,61657,1,0,0:0:0:0:
115,299,61793,2,0,L|170:180,1,100
284,47,62066,2,0,L|235:143,1,100
188,340,62339,6,0,P|178:322|159:234,1,100
217,85,62475,2,0,P|227:103|246:191,1,100
267,230,62611,2,0,P|257:212|238:124,1,100
398,47,62748,2,0,P|408:65|427:153,1,100
402,332,62884,1,0,0:0:0:0:
402,332,63020,2,0,P|373:279|358:213,1,100
426,141,63157,2,0,P|339:76|251:107,1,200
25,309,63430,1,0,0:0:0:0:
73,297,63498,1,0,0:0:0:0:
121,285,63566,1,0,0:0:0:0:
258,100,63702,6,0,L|150:181,1,100
188,382,63975,2,0,L|270:311,1,100
464,140,64248,2,0,P|439:151|400:182,1,50
320,212,64384,1,0,0:0:0:0:
324,198,64452,1,0,0:0:0:0:
324,179,64520,1,0,0:0:0:0:
285,181,64589,1,0,0:0:0:0:
243,163,64657,1,0,0:0:0:0:
213,134,64725,1,0,0:0:0:0:
192,92,64793,6,0,P|187:66|226:2,1,100
385,64,64930,2,0,P|393:104|359:162,1,100
162,94,65066,2,0,P|155:60|206:-23,1,100
412,56,65203,2,0,P|422:108|378:183,1,100
197,171,65339,6,0,B|97:137|111:26|111:26|95:42|95:42|101:37|101:37|89:54|89:54|91:50|91:50|83:67|83:67|85:62|85:62|79:81|79:81|80:76|80:76|80:92|80:92|79:87|79:87|83:107|83:107|81:102|81:102|88:117|88:117|79:122|79:122|83:120|83:120|68:134|68:134|73:128|73:128|57:152|57:152|62:145|62:145|52:171|52:171|55:162|55:162|47:181|47:181|46:198|46:198|50:213|50:213|92:208|128:197|168:247,1,600
293,278,65884,5,0,0:0:0:0:
512,132,66020,1,0,0:0:0:0:
289,132,66157,2,0,L|168:183,1,100
380,268,66430,2,0,L|462:227,1,50
496,93,66566,1,0,0:0:0:0:
474,104,66634,1,0,0:0:0:0:
452,117,66702,2,0,P|394:145|335:150,1,100
214,21,66839,2,0,P|281:13|335:23,1,100
256,220,66975,5,0,0:0:0:0:
275,12,67111,2,0,P|330:37|363:75,1,100
178,178,67248,1,0,0:0:0:0:
381,237,67384,2,0,P|343:302|268:345,1,100
182,352,67520,5,0,0:0:0:0:
230,335,67589,1,0,0:0:0:0:
263,298,67657,1,0,0:0:0:0:
270,248,67725,1,0,0:0:0:0:
253,201,67793,1,0,0:0:0:0:
224,160,67861,1,0,0:0:0:0:
213,110,67930,1,0,0:0:0:0:
227,62,67998,1,0,0:0:0:0:
269,35,68066,6,0,B|301:54|301:54|345:53,1,75.0000028610231
459,51,68339,1,0,0:0:0:0:
404,148,68475,1,0,0:0:0:0:
396,148,68543,1,0,0:0:0:0:
388,148,68611,1,0,0:0:0:0:
380,148,68680,1,0,0:0:0:0:
372,148,68748,1,0,0:0:0:0:
364,148,68816,1,0,0:0:0:0:
325,150,68884,1,0,0:0:0:0:
200,149,69020,2,0,B|167:174|167:174,1,37.5000014305115
99,239,69157,5,0,0:0:0:0:
211,240,69293,2,0,L|258:208,1,37.5000014305115
247,330,69430,2,0,L|213:358,1,37.5000014305115
99,357,69566,1,0,0:0:0:0:
0,278,69702,1,0,0:0:0:0:
10,267,69770,1,0,0:0:0:0:
18,261,69839,2,0,L|47:228,1,37.5000014305115
106,166,69975,1,0,0:0:0:0:
207,166,70248,6,0,B|241:158|288:172|296:231|296:231|369:211|369:211|340:128|281:86|203:96|203:96|232:25|232:25|183:104|88:97|75:56|103:40|103:40|124:27|147:46|123:123|123:123|107:171|26:185|21:256|21:256|82:279|144:215|144:215|219:338|351:286,1,1349.99995880127
464,210,74611,6,0,B|390:317|320:200|259:324|259:324|214:315|214:315|297:156|375:277|449:172|449:172|358:119|358:119|397:60|397:60|439:85|459:42|419:19|419:19|383:3|347:69|248:44|248:44|189:157|189:157|139:107|44:135|44:213,1,1349.99995880127
256,192,78975,12,0,83339,0:0:0:0:
256,192,83407,12,0,85520,0:0:0:0:
258,3,86611,6,0,L|94:49,1,150
29,113,86884,5,0,0:0:0:0:
56,139,86952,1,0,0:0:0:0:
94,146,87020,1,0,0:0:0:0:
133,137,87089,1,0,0:0:0:0:
168,108,87157,6,0,L|205:69,3,50
299,113,87430,6,0,L|250:124,3,50
198,178,87702,5,0,0:0:0:0:
180,219,87770,1,0,0:0:0:0:
190,263,87839,1,0,0:0:0:0:
225,290,87907,1,0,0:0:0:0:
269,287,87975,1,0,0:0:0:0:
299,253,88043,1,0,0:0:0:0:
341,238,88111,1,0,0:0:0:0:
382,257,88180,1,0,0:0:0:0:
396,299,88248,1,0,0:0:0:0:
388,343,88316,1,0,0:0:0:0:
348,363,88384,1,0,0:0:0:0:
304,353,88452,1,0,0:0:0:0:
275,318,88520,1,0,0:0:0:0:
233,300,88589,1,0,0:0:0:0:
188,307,88657,1,0,0:0:0:0:
150,330,88725,1,0,0:0:0:0:
127,368,88793,5,0,0:0:0:0:
132,323,88861,1,0,0:0:0:0:
108,284,88930,1,0,0:0:0:0:
68,263,88998,1,0,0:0:0:0:
38,228,89066,1,0,0:0:0:0:
41,183,89134,1,0,0:0:0:0:
73,152,89202,1,0,0:0:0:0:
117,150,89270,1,0,0:0:0:0:
153,176,89339,1,0,0:0:0:0:
195,189,89407,1,0,0:0:0:0:
238,178,89475,1,0,0:0:0:0:
267,144,89543,1,0,0:0:0:0:
272,99,89611,1,0,0:0:0:0:
252,58,89680,1,0,0:0:0:0:
209,42,89748,1,0,0:0:0:0:
165,51,89816,1,0,0:0:0:0:
144,90,89884,5,0,0:0:0:0:
130,47,89952,1,0,0:0:0:0:
88,29,90020,1,0,0:0:0:0:
43,38,90089,1,0,0:0:0:0:
22,77,90157,1,0,0:0:0:0:
35,119,90225,1,0,0:0:0:0:
73,142,90293,1,0,0:0:0:0:
109,167,90361,1,0,0:0:0:0:
127,208,90430,1,0,0:0:0:0:
117,251,90498,1,0,0:0:0:0:
80,276,90566,1,0,0:0:0:0:
58,315,90634,1,0,0:0:0:0:
69,358,90702,1,0,0:0:0:0:
111,373,90770,1,0,0:0:0:0:
153,357,90839,1,0,0:0:0:0:
173,317,90907,1,0,0:0:0:0:
168,272,90975,6,0,P|135:281|107:304,1,50
6,255,91111,2,0,P|63:236|85:223,1,50
164,203,91248,2,0,P|196:199|242:181,3,50
74,132,91520,2,0,P|17:151|-5:164,1,50
170,100,91657,2,0,P|227:81|249:68,1,50
77,33,91793,2,0,P|25:61|11:77,3,50
165,24,92066,5,0,0:0:0:0:
204,44,92134,1,0,0:0:0:0:
248,50,92202,1,0,0:0:0:0:
289,32,92270,1,0,0:0:0:0:
327,8,92339,1,0,0:0:0:0:
371,2,92407,1,0,0:0:0:0:
411,21,92475,1,0,0:0:0:0:
437,57,92543,1,0,0:0:0:0:
429,101,92611,1,0,0:0:0:0:
401,137,92680,1,0,0:0:0:0:
356,142,92748,1,0,0:0:0:0:
313,127,92816,1,0,0:0:0:0:
268,128,92884,1,0,0:0:0:0:
236,159,92952,1,0,0:0:0:0:
238,203,93020,1,0,0:0:0:0:
273,231,93089,1,0,0:0:0:0:
317,236,93157,5,0,0:0:0:0:
286,203,93225,1,0,0:0:0:0:
241,194,93293,1,0,0:0:0:0:
202,216,93361,1,0,0:0:0:0:
181,256,93430,1,0,0:0:0:0:
153,291,93498,1,0,0:0:0:0:
113,311,93566,1,0,0:0:0:0:
68,306,93634,1,0,0:0:0:0:
39,271,93702,1,0,0:0:0:0:
43,226,93770,1,0,0:0:0:0:
78,197,93839,1,0,0:0:0:0:
103,159,93907,1,0,0:0:0:0:
116,116,93975,1,0,0:0:0:0:
98,74,94043,1,0,0:0:0:0:
53,68,94111,1,0,0:0:0:0:
20,99,94180,1,0,0:0:0:0:
20,143,94248,6,0,P|25:167|37:189,3,50
35,304,94520,2,0,P|60:302|85:304,3,50
173,358,94793,5,0,0:0:0:0:
182,319,94861,1,0,0:0:0:0:
188,279,94930,2,0,P|190:239|182:201,1,50
62,273,95066,1,0,0:0:0:0:
59,233,95134,1,0,0:0:0:0:
69,194,95202,2,0,P|81:160|93:144,1,50
181,191,95339,5,0,0:0:0:0:
220,200,95407,1,0,0:0:0:0:
260,206,95476,2,0,P|300:208|338:200,1,50
266,80,95612,1,0,0:0:0:0:
306,77,95680,1,0,0:0:0:0:
345,87,95748,2,0,P|379:99|395:111,1,50
512,202,95884,5,0,0:0:0:0:
479,157,95952,1,0,0:0:0:0:
424,154,96020,1,0,0:0:0:0:
400,204,96089,1,0,0:0:0:0:
423,253,96157,2,0,P|456:233|511:234,1,75
444,328,96430,5,0,0:0:0:0:
411,290,96498,1,0,0:0:0:0:
365,267,96567,1,0,0:0:0:0:
315,264,96635,1,0,0:0:0:0:
266,276,96703,1,0,0:0:0:0:
224,304,96771,1,0,0:0:0:0:
177,321,96839,1,0,0:0:0:0:
126,321,96908,1,0,0:0:0:0:
78,304,96976,5,0,0:0:0:0:
127,294,97044,1,0,0:0:0:0:
170,270,97112,1,0,0:0:0:0:
202,232,97180,1,0,0:0:0:0:
224,187,97248,1,0,0:0:0:0:
237,138,97317,1,0,0:0:0:0:
263,95,97385,1,0,0:0:0:0:
305,68,97453,1,0,0:0:0:0:
354,64,97521,1,0,0:0:0:0:
400,82,97589,1,0,0:0:0:0:
424,126,97658,1,0,0:0:0:0:
421,175,97726,1,0,0:0:0:0:
391,214,97794,1,0,0:0:0:0:
348,239,97862,1,0,0:0:0:0:
298,238,97930,1,0,0:0:0:0:
249,251,97998,1,0,0:0:0:0:
213,286,98067,5,0,0:0:0:0:
261,276,98135,1,0,0:0:0:0:
309,286,98203,1,0,0:0:0:0:
347,317,98271,1,0,0:0:0:0:
393,335,98339,1,0,0:0:0:0:
443,329,98408,1,0,0:0:0:0:
478,294,98476,1,0,0:0:0:0:
486,244,98544,1,0,0:0:0:0:
479,195,98611,5,0,0:0:0:0:
461,160,98680,1,0,0:0:0:0:
419,113,98748,1,0,0:0:0:0:
395,93,98816,1,0,0:0:0:0:
346,78,98884,1,0,0:0:0:0:
324,78,98952,1,0,0:0:0:0:
271,84,99020,1,0,0:0:0:0:
260,89,99089,1,0,0:0:0:0:
227,124,99157,5,0,0:0:0:0:
233,131,99225,1,0,0:0:0:0:
265,170,99293,1,0,0:0:0:0:
268,176,99361,1,0,0:0:0:0:
283,216,99430,1,0,0:0:0:0:
283,216,99498,1,0,0:0:0:0:
284,254,99566,1,0,0:0:0:0:
284,254,99634,1,0,0:0:0:0:
273,288,99703,6,0,P|297:300|316:322,1,50
447,345,99839,2,0,P|424:354|400:360,1,50
183,346,99976,2,0,P|213:355|263:357,3,50
140,239,100248,2,0,P|83:258|61:271,1,50
180,145,100385,2,0,P|237:126|259:113,1,50
79,92,100521,2,0,P|27:120|13:136,3,50
165,24,100794,5,0,0:0:0:0:
208,58,100862,1,0,0:0:0:0:
261,69,100930,1,0,0:0:0:0:
315,59,100998,1,0,0:0:0:0:
364,33,101067,1,0,0:0:0:0:
418,36,101135,1,0,0:0:0:0:
464,65,101203,1,0,0:0:0:0:
485,115,101271,1,0,0:0:0:0:
473,168,101339,5,0,0:0:0:0:
423,142,101408,1,0,0:0:0:0:
368,136,101476,1,0,0:0:0:0:
314,148,101544,1,0,0:0:0:0:
272,183,101612,1,0,0:0:0:0:
221,204,101680,1,0,0:0:0:0:
166,203,101748,1,0,0:0:0:0:
117,175,101817,1,0,0:0:0:0:
69,147,101885,1,0,0:0:0:0:
16,163,101953,1,0,0:0:0:0:
0,215,102021,1,0,0:0:0:0:
35,257,102089,1,0,0:0:0:0:
90,249,102158,1,0,0:0:0:0:
128,210,102226,1,0,0:0:0:0:
180,193,102294,1,0,0:0:0:0:
233,205,102362,1,0,0:0:0:0:
268,246,102430,5,0,0:0:0:0:
291,196,102498,1,0,0:0:0:0:
302,142,102566,2,0,P|307:99|307:73,1,50
151,19,102703,1,0,0:0:0:0:
127,68,102771,1,0,0:0:0:0:
131,122,102839,2,0,P|136:157|147:192,1,50
184,304,102975,5,0,0:0:0:0:
313,313,103111,2,0,L|317:283,1,30
329,239,104066,5,0,0:0:0:0:
281,31,104202,1,0,0:0:0:0:
271,79,104270,1,0,0:0:0:0:
261,128,104339,2,0,L|249:192,1,50
230,274,104475,1,0,0:0:0:0:
176,39,104611,5,0,0:0:0:0:
125,265,104748,1,0,0:0:0:0:
176,39,104884,5,0,0:0:0:0:
125,265,105021,5,0,0:0:0:0:
104,84,105157,6,0,L|174:250,1,100
309,346,105430,2,0,L|266:246,1,100
241,37,105702,1,0,0:0:0:0:
329,216,105839,1,0,0:0:0:0:
465,36,105975,2,0,L|457:167,1,100
438,350,106248,5,0,0:0:0:0:
280,88,106384,1,0,0:0:0:0:
415,180,106520,1,0,0:0:0:0:
130,249,106657,1,0,0:0:0:0:
293,294,106793,2,0,P|298:230|290:168,1,100
283,54,106930,2,0,P|270:113|272:162,1,100
357,326,107066,2,0,L|474:305,1,100
465,103,107339,5,0,0:0:0:0:
184,54,107475,1,0,0:0:0:0:
405,39,107611,2,0,L|371:177,1,100
326,323,107884,1,0,0:0:0:0:
100,126,108020,1,0,0:0:0:0:
194,334,108157,2,0,P|247:296|270:249,1,100
369,98,108293,2,0,P|332:157|329:213,1,100
357,350,108430,5,0,0:0:0:0:
213,127,108566,1,0,0:0:0:0:
198,279,108702,1,0,0:0:0:0:
0,161,108839,1,0,0:0:0:0:
172,42,108975,1,0,0:0:0:0:
87,306,109111,2,0,B|79:299|75:279|85:273|85:273|95:268|95:253|82:253|82:253|78:213,1,100
59,37,109248,2,0,L|101:146,1,100
183,339,109520,6,0,L|313:321,1,100
438,209,109793,1,0,0:0:0:0:
166,237,109930,1,0,0:0:0:0:
198,50,110066,5,0,0:0:0:0:
223,279,110202,1,0,0:0:0:0:
392,74,110339,2,0,L|291:87,1,100
78,109,110611,5,0,0:0:0:0:
207,304,110748,1,0,0:0:0:0:
230,189,110884,1,0,0:0:0:0:
13,291,111020,1,0,0:0:0:0:
97,83,111157,2,0,P|85:121|78:201,1,100
88,350,111293,2,0,P|96:296|84:185,1,100
172,90,111430,2,0,L|310:92,1,100
424,277,111702,5,0,0:0:0:0:
512,171,111839,2,0,P|381:178|361:171,1,150
273,116,112111,1,0,0:0:0:0:
424,185,112248,2,0,P|425:255|354:340,1,150
275,370,112520,1,0,0:0:0:0:
416,278,112657,2,0,P|392:270|367:267,1,50
169,341,112793,5,0,0:0:0:0:
134,142,112930,1,0,0:0:0:0:
254,145,113066,6,0,P|213:165|173:176,1,64.9999970245363
37,236,113201,2,0,P|78:222|109:219,1,64.9999970245363
228,104,113339,6,0,P|208:137|179:156,1,50
53,275,113474,2,0,P|93:241|121:226,1,50
278,196,113611,2,0,L|279:215,1,12.5
279,228,113884,5,0,0:0:0:0:
8,321,114020,1,0,0:0:0:0:
139,384,114157,1,0,0:0:0:0:
46,132,114293,1,0,0:0:0:0:
70,331,114430,6,0,P|79:286|103:219,1,100
173,72,114566,2,0,P|160:139|145:179,1,100
13,248,114702,2,0,P|156:243|244:287,1,200
346,380,114975,5,0,0:0:0:0:
451,151,115111,1,0,0:0:0:0:
471,305,115248,2,0,P|437:276|401:218,1,100
294,107,115384,2,0,P|328:136|364:194,1,100
341,332,115520,6,0,P|361:292|372:225,1,100
427,81,115657,1,0,0:0:0:0:
427,81,115725,1,0,0:0:0:0:
427,81,115793,2,0,P|407:121|183:154,1,200
64,128,116066,6,0,P|118:98|168:84,1,100
315,64,116202,2,0,P|261:94|211:108,1,100
45,44,116339,2,0,P|64:160|42:253,1,200
0,384,116611,6,0,P|34:360|54:354,1,37.5000014305115
59,339,116748,6,0,P|25:363|5:369,1,37.5000014305115
0,384,116884,6,0,P|34:360|54:354,1,37.5000014305115
59,339,117020,6,0,P|25:363|5:369,1,37.5000014305115
141,352,117157,5,0,0:0:0:0:
36,109,117293,1,0,0:0:0:0:
59,339,117430,2,0,P|88:287|101:233,1,100
189,101,117566,2,0,P|160:153|147:207,1,100
139,350,117702,2,0,P|269:355|292:346,1,100
380,304,117839,2,0,P|288:306|248:317,1,100
48,342,117975,1,0,0:0:0:0:
59,338,118043,1,0,0:0:0:0:
71,335,118111,1,0,0:0:0:0:
169,273,118248,5,0,0:0:0:0:
140,14,118384,1,0,0:0:0:0:
63,144,118520,1,0,0:0:0:0:
318,68,118657,1,0,0:0:0:0:
180,158,118793,6,0,P|240:159|282:146,1,100
446,139,118930,2,0,P|386:138|344:151,1,100
208,256,119066,1,0,0:0:0:0:
402,205,119202,1,0,0:0:0:0:
417,230,119270,1,0,0:0:0:0:
442,246,119339,5,0,0:0:0:0:
404,292,119407,1,0,0:0:0:0:
345,303,119475,1,0,0:0:0:0:
292,274,119543,1,0,0:0:0:0:
277,215,119611,1,0,0:0:0:0:
306,162,119680,1,0,0:0:0:0:
298,102,119748,1,0,0:0:0:0:
250,65,119816,1,0,0:0:0:0:
190,65,119884,1,0,0:0:0:0:
144,103,119952,1,0,0:0:0:0:
135,162,120020,1,0,0:0:0:0:
92,204,120089,1,0,0:0:0:0:
32,195,120157,6,0,P|48:232|54:278,1,50
177,335,120430,1,0,0:0:0:0:
216,271,120566,2,0,L|328:262,1,100
458,326,121520,1,0,0:0:0:0:
421,200,121793,2,0,L|379:237,3,50
328,279,122066,5,0,0:0:0:0:
313,282,122134,1,0,0:0:0:0:
298,286,122202,1,0,0:0:0:0:
283,287,122270,1,0,0:0:0:0:
232,314,122339,5,0,0:0:0:0:
254,275,122407,1,0,0:0:0:0:
266,231,122475,1,0,0:0:0:0:
271,186,122543,1,0,0:0:0:0:
274,138,122611,6,0,P|238:117|99:99,1,100
18,82,122748,2,0,P|54:103|193:121,1,100
245,35,122884,2,0,P|280:52|313:78,1,50
378,213,123020,1,0,0:0:0:0:
504,177,123157,2,0,P|473:154|462:142,1,50
355,18,123293,1,0,0:0:0:0:
504,177,123430,1,0,0:0:0:0:
355,18,123566,1,0,0:0:0:0:
463,205,123702,6,0,P|446:253|390:301,1,100
177,291,123975,2,0,P|211:261|268:233,1,100
383,196,124111,1,0,0:0:0:0:
194,315,124248,2,0,P|233:297|286:254,1,100
360,119,124384,2,0,P|332:177|326:244,1,100
410,357,124520,2,0,P|448:273|375:127,1,200
299,57,124793,6,0,L|176:80,1,100
32,266,125066,2,0,P|64:262|94:245,1,50
249,133,125202,2,0,P|214:152|182:189,1,50
179,334,125339,1,0,0:0:0:0:
135,90,125475,2,0,P|131:148|145:207,1,100
179,334,125611,1,0,0:0:0:0:
135,90,125748,2,0,P|128:121|179:120,1,100
307,92,125884,6,0,P|355:123|378:144,1,89.9999972534181
451,222,126020,2,0,P|411:211|390:203,1,50
251,148,126157,2,0,P|306:167|342:196,1,100
443,287,126293,2,0,P|390:269|365:250,1,50
254,211,126430,2,0,P|290:253|332:286,1,69.9999978637696
403,343,126566,2,0,P|360:324|349:318,1,34.9999989318848
236,297,126702,2,0,P|251:310|273:327,1,40
328,384,126839,2,0,P|317:379|304:376,1,14.9999995422363
229,380,126975,6,0,P|165:353|119:326,1,100
30,223,127111,2,0,P|94:250|140:277,1,100
80,376,127248,2,0,P|77:348|77:313,1,50
122,118,127384,2,0,P|131:175|133:203,1,50
189,285,127520,2,0,L|305:274,1,100
435,306,127793,2,0,L|353:317,1,50
203,351,127930,2,0,L|293:342,1,50
468,229,128066,6,0,L|450:104,1,100
349,53,128339,2,0,P|241:84|224:83,1,100
96,73,128475,2,0,P|204:42|221:43,1,100
389,117,128611,2,0,P|372:139|364:164,1,50
337,342,128748,2,0,P|338:301|327:266,1,50
287,124,128884,1,0,0:0:0:0:
263,131,128952,1,0,0:0:0:0:
237,138,129020,1,0,0:0:0:0:
71,184,129157,5,0,0:0:0:0:
48,107,129293,2,0,P|65:173|133:242,1,150
229,273,129566,1,0,0:0:0:0:
168,344,129702,2,0,P|222:287|238:176,1,150
242,105,129975,1,0,0:0:0:0:
136,22,130111,2,0,L|85:40,1,50
65,152,130248,5,0,0:0:0:0:
132,300,130384,1,0,0:0:0:0:
125,96,130520,1,0,0:0:0:0:
48,353,130657,2,0,P|51:333|66:302,1,50
191,192,130793,5,0,0:0:0:0:
196,200,130861,1,0,0:0:0:0:
202,205,130930,2,0,P|238:217|264:214,1,50
389,90,131066,2,0,P|360:115|350:139,1,50
403,306,131202,2,0,P|395:268|379:247,1,50
238,138,131339,6,0,P|274:117|413:99,1,100
494,82,131476,2,0,P|458:103|319:121,1,100
267,35,131612,2,0,P|232:52|199:78,1,50
134,213,131748,1,0,0:0:0:0:
8,177,131885,2,0,P|39:154|50:142,1,50
157,18,132021,1,0,0:0:0:0:
8,177,132158,1,0,0:0:0:0:
157,18,132294,1,0,0:0:0:0:
49,205,132430,6,0,P|66:253|122:301,1,100
335,291,132703,2,0,P|301:261|244:233,1,100
129,196,132839,1,0,0:0:0:0:
318,315,132976,2,0,P|279:297|226:254,1,100
152,119,133112,2,0,P|180:177|186:244,1,100
102,357,133248,2,0,P|64:273|137:127,1,200
213,57,133521,6,0,L|336:80,1,100
480,266,133794,2,0,P|448:262|418:245,1,50
263,133,133930,2,0,P|298:152|330:189,1,50
333,334,134067,1,0,0:0:0:0:
195,215,134202,1,0,0:0:0:0:
333,334,134339,1,0,0:0:0:0:
265,94,134475,1,0,0:0:0:0:
230,80,134543,1,0,0:0:0:0:
199,88,134611,5,0,0:0:0:0:
61,221,134748,1,0,0:0:0:0:
261,148,134885,2,0,P|206:167|170:196,1,100
69,287,135021,2,0,P|122:269|147:250,1,50
258,211,135158,2,0,P|222:253|180:286,1,69.9999978637696
109,343,135294,2,0,P|152:324|163:318,1,34.9999989318848
276,297,135430,2,0,L|289:316,1,20
283,380,135703,6,0,P|347:353|393:326,1,100
482,223,135839,2,0,P|418:250|372:277,1,100
276,297,135976,2,0,P|279:269|272:170,1,100
176,94,136111,1,0,0:0:0:0:
345,21,136248,6,0,P|448:35|490:126,1,200
489,114,136520,6,0,P|439:26|354:11,1,189.999994926453
358,10,136793,6,0,P|444:34|481:101,1,160
479,90,137066,6,0,P|444:29|380:1,1,129.999994049073
393,3,137339,6,0,P|443:33|465:67,1,100
465,67,137611,6,0,P|440:24|405:2,1,69.9999978637696
425,11,137884,6,0,P|443:34|454:54,1,50
453,53,138157,6,0,P|441:31|430:18,1,29.9999990844727
438,27,138430,6,0,P|446:39|449:49,1,20
448,44,138702,6,0,L|442:35,1,10
442,35,138975,5,0,0:0:0:0:
211,41,139111,2,0,L|182:182,1,125
171,263,139520,5,0,0:0:0:0:
212,326,139589,1,0,0:0:0:0:
284,344,139657,1,0,0:0:0:0:
355,323,139725,1,0,0:0:0:0:
388,256,139793,1,0,0:0:0:0:
360,252,139861,1,0,0:0:0:0:
332,248,139930,1,0,0:0:0:0:
304,245,139998,1,0,0:0:0:0:
276,242,140066,5,0,0:0:0:0:
335,0,140202,1,0,0:0:0:0:
441,78,140339,1,0,0:0:0:0:
197,26,140475,1,0,0:0:0:0:
52,100,140611,5,0,0:0:0:0:
52,100,140680,1,0,0:0:0:0:
52,100,140748,1,0,0:0:0:0:
52,100,140816,2,0,P|35:141|30:164,1,50
30,344,140952,1,0,0:0:0:0:
30,344,141020,2,0,P|38:329|50:280,1,50
106,157,141157,5,0,0:0:0:0:
342,211,141293,2,0,P|309:220|286:238,1,50
233,272,141430,1,0,0:0:0:0:
306,42,141566,1,0,0:0:0:0:
443,112,141702,6,0,P|390:146|383:158,1,50
381,316,141839,6,0,P|347:263|335:256,1,50
183,253,141975,6,0,P|236:219|247:160,1,100
245,49,142112,6,0,P|279:102|291:109,1,50
358,272,142248,6,0,L|279:381,1,100
139,353,142520,1,0,0:0:0:0:
271,153,142657,1,0,0:0:0:0:
83,169,142793,2,0,L|158:68,1,100
212,248,143066,1,0,0:0:0:0:
344,48,143203,1,0,0:0:0:0:
366,201,143339,6,0,P|384:241|398:261,1,50
498,305,143475,1,0,0:0:0:0:
498,305,143543,1,0,0:0:0:0:
498,305,143611,2,0,P|449:290|418:271,1,50
366,201,143748,1,0,0:0:0:0:
366,201,143816,1,0,0:0:0:0:
366,201,143884,6,0,P|384:241|398:261,1,50
498,305,144020,1,0,0:0:0:0:
498,305,144088,1,0,0:0:0:0:
498,305,144157,2,0,P|461:277|423:204,1,100
424,80,144293,1,0,0:0:0:0:
303,23,144430,5,0,0:0:0:0:
62,126,144566,1,0,0:0:0:0:
124,14,144702,1,0,0:0:0:0:
215,250,144839,1,0,0:0:0:0:
83,229,144975,6,0,P|112:219|134:222,1,50
285,331,145111,1,0,0:0:0:0:
285,331,145180,2,0,P|266:355|244:369,1,50
254,140,145316,1,0,0:0:0:0:
254,140,145384,2,0,P|283:159|296:175,1,50
365,330,145520,5,0,0:0:0:0:
467,83,145657,2,0,P|455:126|433:155,1,50
315,71,145793,2,0,B|267:52|262:29|281:26|281:26|281:58|215:20|208:87,1,150
135,133,146066,6,0,P|149:184|118:229,1,100
197,313,146202,2,0,P|246:308|292:326,1,100
377,251,146339,2,0,P|361:190|391:155,1,100
315,71,146475,2,0,P|266:80|208:59,1,100
109,16,146611,5,0,0:0:0:0:
61,240,146748,1,0,0:0:0:0:
0,133,146884,1,0,0:0:0:0:
224,181,147021,1,0,0:0:0:0:
255,297,147157,6,0,L|319:284,1,50
407,62,147293,2,0,L|359:75,1,50
261,102,147430,2,0,L|320:87,1,50
496,254,147566,2,0,L|434:272,1,50
298,336,147702,6,0,P|263:345|236:348,1,50
84,358,147839,2,0,P|124:363|189:346,1,100
249,282,147975,2,0,P|203:268|159:269,1,75.0000028610231
83,286,148111,2,0,P|132:293|164:290,1,59.9999981689454
207,198,148248,2,0,P|166:203|126:222,1,44.999998626709
93,219,148384,2,0,P|98:193|108:177,1,29.9999990844727
145,131,148520,6,0,L|211:109,1,50
247,90,148793,5,0,0:0:0:0:
207,300,148930,1,0,0:0:0:0:
309,41,149066,2,0,L|450:11,1,100
495,136,149339,2,0,P|431:156|382:193,1,100
323,322,149475,1,0,0:0:0:0:
323,322,149543,2,0,P|286:295|204:281,1,100
71,320,149680,1,0,0:0:0:0:
71,320,149748,2,0,P|78:263|64:200,1,100
32,88,149884,5,0,0:0:0:0:
227,209,150020,2,0,P|195:172|143:141,1,100
3,149,150157,2,0,B|106:177|91:52|146:93,1,150
217,114,150430,6,0,B|231:134|231:134|267:117|323:119,1,100
486,64,150566,2,0,B|472:44|472:44|436:61|380:59,1,100
280,248,150702,2,0,B|300:261|300:261|327:232|380:212,1,100
510,101,150838,2,0,B|489:87|489:87|462:116|409:136,1,100
336,363,150975,6,0,L|206:328,1,100
182,187,151247,1,0,0:0:0:0:
416,239,151384,1,0,0:0:0:0:
334,69,151520,2,0,L|455:103,1,100
306,218,151793,1,0,0:0:0:0:
177,28,151930,2,0,L|153:91,1,50
81,256,152066,5,0,0:0:0:0:
77,252,152134,1,0,0:0:0:0:
74,247,152202,1,0,0:0:0:0:
73,242,152270,1,0,0:0:0:0:
73,236,152339,1,0,0:0:0:0:
73,231,152407,1,0,0:0:0:0:
73,226,152475,1,0,0:0:0:0:
74,221,152543,1,0,0:0:0:0:
76,216,152611,1,0,0:0:0:0:
79,212,152680,1,0,0:0:0:0:
83,209,152748,1,0,0:0:0:0:
87,206,152816,1,0,0:0:0:0:
138,210,152884,5,0,0:0:0:0:
120,298,153157,5,0,0:0:0:0:
247,27,153293,1,0,0:0:0:0:
63,133,153430,2,0,L|6:226,1,100
7,351,153702,6,0,P|43:324|109:322,1,100
218,360,153839,1,0,0:0:0:0:
218,360,153907,2,0,P|224:301|264:262,1,100
415,261,154043,1,0,0:0:0:0:
415,261,154111,2,0,P|362:225|347:182,1,100
460,70,154248,5,0,0:0:0:0:
432,123,154316,1,0,0:0:0:0:
373,136,154384,1,0,0:0:0:0:
317,114,154452,1,0,0:0:0:0:
281,65,154520,1,0,0:0:0:0:
220,63,154589,1,0,0:0:0:0:
186,112,154657,1,0,0:0:0:0:
189,171,154725,1,0,0:0:0:0:
219,222,154793,1,0,0:0:0:0:
267,256,154861,1,0,0:0:0:0:
278,315,154930,1,0,0:0:0:0:
249,367,154998,1,0,0:0:0:0:
190,377,155066,5,0,0:0:0:0:
59,364,155339,6,0,B|40:332|40:332|41:288,1,75.0000028610231
44,185,155612,1,0,0:0:0:0:
128,242,155748,1,0,0:0:0:0:
136,242,155816,1,0,0:0:0:0:
144,242,155884,1,0,0:0:0:0:
152,242,155953,1,0,0:0:0:0:
160,242,156021,1,0,0:0:0:0:
168,242,156089,1,0,0:0:0:0:
207,241,156157,1,0,0:0:0:0:
331,234,156293,2,0,B|334:236|301:211,1,37.5000014305115
201,141,156430,5,0,0:0:0:0:
67,141,156566,2,0,L|67:97,1,37.5000014305115
136,33,156703,2,0,L|176:34,1,37.5000014305115
262,35,156839,1,0,0:0:0:0:
264,125,156975,1,0,0:0:0:0:
354,129,157112,2,0,B|384:161|384:161|384:211,1,75.0000028610231
256,192,157520,12,0,161884,0:0:0:0:
256,192,161952,12,0,165975,0:0:0:0:
255,192,166248,6,0,B|256:144|256:144|288:160|320:144|320:144|304:112|320:81|320:81|272:48|224:80|224:80|169:112|112:81|112:81|128:144|112:208|112:208|49:112|112:16|112:16|159:32|207:16|207:16|160:136|209:257|209:257|280:239|352:256|352:256|368:233|352:209|352:209|432:225|512:207|512:207|479:112|512:17|512:17|447:0|399:16|399:16|465:200|401:383|401:383|456:369|513:385|513:385|496:352|512:320|512:320|392:352|272:320|272:320|272:385|272:385|136:336|0:384|0:384|0:337|0:337|80:304|160:336|160:336|160:289|160:289|80:256|0:288|0:288|0:240|0:240|28:223|56:240|56:240|3:160|20:69,1,3574.99983634949
46,0,173884,6,0,P|19:79|20:156,3,139.999995727539
