osu file format v14

[General]
AudioFilename: audio.mp3
AudioLeadIn: 0
PreviewTime: 77050
Countdown: 0
SampleSet: None
StackLeniency: 0.7
Mode: 3
LetterboxInBreaks: 0
SpecialStyle: 0
WidescreenStoryboard: 1

[Editor]
DistanceSpacing: 1
BeatDivisor: 4
GridSize: 32
TimelineZoom: 1.4

[Metadata]
Title:Absolute Domination
TitleUnicode:Absolute Domination
Artist:Laur
ArtistUnicode:Laur
Creator:Fresh Chicken
Version:BASIC
Source:SOUND VOLTEX IV HEAVENLY HAVEN
Tags:
BeatmapID:1749644
BeatmapSetID:834779

[Difficulty]
HPDrainRate:7
CircleSize:4
OverallDifficulty:7
ApproachRate:5
SliderMultiplier:1.4
SliderTickRate:1

[Events]
//Background and Video events
0,0,"Tonic water.png",0,0
//Break Periods
2,61287,68694
//Storyboard Layer 0 (Background)
//Storyboard Layer 1 (Fail)
//Storyboard Layer 2 (Pass)
//Storyboard Layer 3 (Foreground)
//Storyboard Sound Samples

[TimingPoints]
1638,275.229357798165,4,1,0,0,1,0
78702,-100,4,1,0,0,0,1
91913,-100,4,1,0,0,0,0
96316,-100,4,1,0,0,0,1
104849,-100,4,1,0,0,0,0
105124,-100,4,1,0,0,0,1
115032,-100,4,1,0,0,0,0

[HitObjects]
448,192,1638,5,0,0:0:0:0:
64,192,1638,1,0,0:0:0:0:
192,192,2188,1,0,0:0:0:0:
320,192,2738,1,0,0:0:0:0:
448,192,3289,128,0,3839:0:0:0:0:
64,192,3839,1,0,0:0:0:0:
448,192,4390,1,0,0:0:0:0:
320,192,4940,1,0,0:0:0:0:
192,192,5491,1,0,0:0:0:0:
64,192,6041,1,0,0:0:0:0:
320,192,6592,1,0,0:0:0:0:
192,192,7142,1,0,0:0:0:0:
64,192,7693,128,0,8243:0:0:0:0:
448,192,8243,1,0,0:0:0:0:
192,192,8793,1,0,0:0:0:0:
320,192,9344,1,0,0:0:0:0:
448,192,9894,1,0,0:0:0:0:
64,192,10445,1,0,0:0:0:0:
448,192,10720,1,0,0:0:0:0:
64,192,10995,1,0,0:0:0:0:
448,192,11271,1,0,0:0:0:0:
192,192,11546,1,0,0:0:0:0:
320,192,11821,1,0,0:0:0:0:
192,192,12096,1,0,0:0:0:0:
448,192,12371,1,0,0:0:0:0:
64,192,12647,1,0,0:0:0:0:
448,192,12922,1,0,0:0:0:0:
64,192,13197,1,0,0:0:0:0:
448,192,13472,1,0,0:0:0:0:
192,192,13748,1,0,0:0:0:0:
320,192,14023,1,0,0:0:0:0:
192,192,14298,128,0,14573:0:0:0:0:
448,192,14573,1,0,0:0:0:0:
64,192,14849,1,0,0:0:0:0:
64,192,15124,1,0,0:0:0:0:
320,192,15399,1,0,0:0:0:0:
320,192,15674,1,0,0:0:0:0:
192,192,15949,1,0,0:0:0:0:
192,192,16225,1,0,0:0:0:0:
448,192,16500,128,0,16775:0:0:0:0:
320,192,16775,1,0,0:0:0:0:
192,192,17050,128,0,18151:0:0:0:0:
448,192,18151,128,0,19252:0:0:0:0:
64,192,19252,1,0,0:0:0:0:
320,192,20353,128,0,20904:0:0:0:0:
192,192,20904,128,0,21454:0:0:0:0:
448,192,21454,1,0,0:0:0:0:
192,192,22555,128,0,23105:0:0:0:0:
320,192,23105,128,0,23656:0:0:0:0:
64,192,23656,1,0,0:0:0:0:
448,192,24757,128,0,25307:0:0:0:0:
320,192,25307,128,0,25858:0:0:0:0:
192,192,25858,1,0,0:0:0:0:
320,192,26408,1,0,0:0:0:0:
448,192,26959,1,0,0:0:0:0:
64,192,27509,1,0,0:0:0:0:
448,192,28060,1,0,0:0:0:0:
64,192,28060,1,0,0:0:0:0:
192,192,28335,1,0,0:0:0:0:
320,192,28472,1,0,0:0:0:0:
448,192,28610,1,0,0:0:0:0:
320,192,28885,1,0,0:0:0:0:
64,192,29160,1,0,0:0:0:0:
320,192,29436,1,0,0:0:0:0:
192,192,29573,1,0,0:0:0:0:
64,192,29711,1,0,0:0:0:0:
320,192,29986,1,0,0:0:0:0:
64,192,30124,1,0,0:0:0:0:
448,192,30261,1,0,0:0:0:0:
192,192,30537,1,0,0:0:0:0:
320,192,30812,1,0,0:0:0:0:
320,192,31087,1,0,0:0:0:0:
192,192,31362,1,0,0:0:0:0:
64,192,31637,1,0,0:0:0:0:
448,192,31913,1,0,0:0:0:0:
64,192,32463,1,0,0:0:0:0:
448,192,32463,1,0,0:0:0:0:
320,192,32738,1,0,0:0:0:0:
192,192,32876,1,0,0:0:0:0:
64,192,33014,1,0,0:0:0:0:
192,192,33289,1,0,0:0:0:0:
448,192,33564,1,0,0:0:0:0:
192,192,33839,1,0,0:0:0:0:
320,192,33977,1,0,0:0:0:0:
448,192,34115,1,0,0:0:0:0:
192,192,34390,1,0,0:0:0:0:
448,192,34527,1,0,0:0:0:0:
64,192,34665,1,0,0:0:0:0:
320,192,34940,1,0,0:0:0:0:
192,192,35215,1,0,0:0:0:0:
192,192,35491,1,0,0:0:0:0:
448,192,35628,1,0,0:0:0:0:
64,192,35766,1,0,0:0:0:0:
320,192,35904,1,0,0:0:0:0:
64,192,36041,1,0,0:0:0:0:
192,192,36179,1,0,0:0:0:0:
320,192,36316,1,0,0:0:0:0:
448,192,36592,128,0,36867:0:0:0:0:
64,192,36867,1,0,0:0:0:0:
192,192,37968,1,0,0:0:0:0:
320,192,39069,1,0,0:0:0:0:
448,192,40170,1,0,0:0:0:0:
64,192,41271,128,0,41546:0:0:0:0:
192,192,41546,128,0,41821:0:0:0:0:
320,192,41821,128,0,42096:0:0:0:0:
448,192,42096,128,0,42371:0:0:0:0:
64,192,42371,128,0,42647:0:0:0:0:
192,192,42647,128,0,42922:0:0:0:0:
320,192,42922,128,0,43197:0:0:0:0:
448,192,43197,128,0,43472:0:0:0:0:
64,192,43472,1,0,0:0:0:0:
448,192,43748,1,0,0:0:0:0:
64,192,44023,1,0,0:0:0:0:
320,192,44298,1,0,0:0:0:0:
192,192,44573,1,0,0:0:0:0:
320,192,44849,1,0,0:0:0:0:
64,192,45124,1,0,0:0:0:0:
448,192,45399,1,0,0:0:0:0:
192,192,45674,1,0,0:0:0:0:
64,192,45949,1,0,0:0:0:0:
448,192,46225,1,0,0:0:0:0:
192,192,46500,1,0,0:0:0:0:
320,192,46775,1,0,0:0:0:0:
320,192,47050,1,0,0:0:0:0:
192,192,47326,1,0,0:0:0:0:
192,192,47601,1,0,0:0:0:0:
320,192,47738,1,0,0:0:0:0:
448,192,47876,1,0,0:0:0:0:
64,192,48151,1,0,0:0:0:0:
192,192,48426,1,0,0:0:0:0:
320,192,48702,1,0,0:0:0:0:
448,192,48839,1,0,0:0:0:0:
64,192,48977,1,0,0:0:0:0:
320,192,49252,1,0,0:0:0:0:
192,192,49390,1,0,0:0:0:0:
448,192,49527,1,0,0:0:0:0:
320,192,49665,1,0,0:0:0:0:
192,192,49803,128,0,50078:0:0:0:0:
448,192,50078,1,0,0:0:0:0:
448,192,50353,1,0,0:0:0:0:
192,192,50628,1,0,0:0:0:0:
192,192,50904,1,0,0:0:0:0:
448,192,51179,1,0,0:0:0:0:
64,192,51454,1,0,0:0:0:0:
192,192,51729,1,0,0:0:0:0:
320,192,52004,1,0,0:0:0:0:
64,192,52280,1,0,0:0:0:0:
64,192,52555,1,0,0:0:0:0:
320,192,52830,1,0,0:0:0:0:
320,192,53105,1,0,0:0:0:0:
192,192,53381,1,0,0:0:0:0:
448,192,53656,1,0,0:0:0:0:
320,192,53931,1,0,0:0:0:0:
192,192,54206,1,0,0:0:0:0:
448,192,54482,1,0,0:0:0:0:
448,192,54757,1,0,0:0:0:0:
64,192,55032,1,0,0:0:0:0:
64,192,55307,1,0,0:0:0:0:
320,192,55582,1,0,0:0:0:0:
448,192,55858,1,0,0:0:0:0:
192,192,56133,1,0,0:0:0:0:
64,192,56408,1,0,0:0:0:0:
192,192,56546,1,0,0:0:0:0:
448,192,56683,1,0,0:0:0:0:
64,192,56959,1,0,0:0:0:0:
320,192,57234,1,0,0:0:0:0:
192,192,57509,1,0,0:0:0:0:
448,192,57784,1,0,0:0:0:0:
448,192,58060,1,0,0:0:0:0:
64,192,58335,128,0,58610:0:0:0:0:
320,192,58610,128,0,58885:0:0:0:0:
64,192,58885,1,0,0:0:0:0:
320,192,59160,1,0,0:0:0:0:
320,192,59436,1,0,0:0:0:0:
320,192,59711,1,0,0:0:0:0:
320,192,59986,1,0,0:0:0:0:
320,192,60261,1,0,0:0:0:0:
64,192,60537,1,0,0:0:0:0:
192,192,61087,1,0,0:0:0:0:
448,192,61087,1,0,0:0:0:0:
448,192,69894,5,0,0:0:0:0:
64,192,69894,1,0,0:0:0:0:
320,192,70995,1,0,0:0:0:0:
192,192,72096,1,0,0:0:0:0:
64,192,73197,1,0,0:0:0:0:
448,192,74298,1,0,0:0:0:0:
192,192,75399,1,0,0:0:0:0:
320,192,76500,1,0,0:0:0:0:
448,192,77601,128,0,78426:0:0:0:0:
64,192,78702,1,0,0:0:0:0:
448,192,78839,1,0,0:0:0:0:
64,192,78977,1,0,0:0:0:0:
448,192,79252,1,0,0:0:0:0:
192,192,79527,1,0,0:0:0:0:
320,192,79665,1,0,0:0:0:0:
64,192,79803,1,0,0:0:0:0:
320,192,80078,1,0,0:0:0:0:
192,192,80215,1,0,0:0:0:0:
448,192,80491,1,0,0:0:0:0:
64,192,80766,1,0,0:0:0:0:
320,192,80904,1,0,0:0:0:0:
192,192,81041,1,0,0:0:0:0:
320,192,81179,1,0,0:0:0:0:
64,192,81454,1,0,0:0:0:0:
320,192,81729,1,0,0:0:0:0:
192,192,81867,1,0,0:0:0:0:
448,192,82004,1,0,0:0:0:0:
192,192,82280,1,0,0:0:0:0:
320,192,82417,1,0,0:0:0:0:
448,192,82555,1,0,0:0:0:0:
448,192,82830,1,0,0:0:0:0:
64,192,82968,1,0,0:0:0:0:
192,192,83105,1,0,0:0:0:0:
320,192,83381,1,0,0:0:0:0:
64,192,83656,1,0,0:0:0:0:
192,192,83931,1,0,0:0:0:0:
448,192,84206,1,0,0:0:0:0:
192,192,84482,1,0,0:0:0:0:
320,192,84619,1,0,0:0:0:0:
448,192,84894,1,0,0:0:0:0:
320,192,85032,1,0,0:0:0:0:
192,192,85170,1,0,0:0:0:0:
64,192,85307,1,0,0:0:0:0:
448,192,85582,1,0,0:0:0:0:
320,192,85858,1,0,0:0:0:0:
64,192,86133,1,0,0:0:0:0:
448,192,86271,1,0,0:0:0:0:
192,192,86408,1,0,0:0:0:0:
320,192,86683,1,0,0:0:0:0:
64,192,86821,1,0,0:0:0:0:
448,192,87096,1,0,0:0:0:0:
192,192,87371,1,0,0:0:0:0:
448,192,87509,1,0,0:0:0:0:
64,192,87647,1,0,0:0:0:0:
448,192,87784,1,0,0:0:0:0:
64,192,88060,1,0,0:0:0:0:
320,192,88335,1,0,0:0:0:0:
192,192,88472,1,0,0:0:0:0:
448,192,88610,1,0,0:0:0:0:
192,192,88885,1,0,0:0:0:0:
320,192,89023,1,0,0:0:0:0:
64,192,89298,1,0,0:0:0:0:
448,192,89573,1,0,0:0:0:0:
192,192,89711,1,0,0:0:0:0:
320,192,89849,1,0,0:0:0:0:
192,192,89986,1,0,0:0:0:0:
448,192,90261,1,0,0:0:0:0:
192,192,90537,1,0,0:0:0:0:
320,192,90674,1,0,0:0:0:0:
64,192,90812,1,0,0:0:0:0:
448,192,91087,1,0,0:0:0:0:
320,192,91225,1,0,0:0:0:0:
64,192,91362,1,0,0:0:0:0:
192,192,91500,1,0,0:0:0:0:
320,192,91637,128,0,91913:0:0:0:0:
64,192,91913,1,0,0:0:0:0:
192,192,92463,1,0,0:0:0:0:
320,192,93014,1,0,0:0:0:0:
448,192,93564,1,0,0:0:0:0:
64,192,94115,1,0,0:0:0:0:
64,192,94665,1,0,0:0:0:0:
192,192,95215,1,0,0:0:0:0:
320,192,95766,1,0,0:0:0:0:
64,192,96316,1,0,0:0:0:0:
64,192,96592,1,0,0:0:0:0:
320,192,96867,1,0,0:0:0:0:
320,192,97142,1,0,0:0:0:0:
64,192,97417,1,0,0:0:0:0:
448,192,97693,1,0,0:0:0:0:
320,192,97968,1,0,0:0:0:0:
192,192,98243,1,0,0:0:0:0:
448,192,98518,1,0,0:0:0:0:
448,192,98793,1,0,0:0:0:0:
192,192,99069,1,0,0:0:0:0:
192,192,99344,1,0,0:0:0:0:
320,192,99619,1,0,0:0:0:0:
64,192,99894,1,0,0:0:0:0:
192,192,100170,1,0,0:0:0:0:
320,192,100445,1,0,0:0:0:0:
64,192,100720,1,0,0:0:0:0:
64,192,100995,1,0,0:0:0:0:
448,192,101271,1,0,0:0:0:0:
448,192,101546,1,0,0:0:0:0:
192,192,101821,1,0,0:0:0:0:
64,192,102096,1,0,0:0:0:0:
320,192,102371,1,0,0:0:0:0:
448,192,102647,1,0,0:0:0:0:
320,192,102784,1,0,0:0:0:0:
64,192,102922,1,0,0:0:0:0:
448,192,103197,1,0,0:0:0:0:
192,192,103472,1,0,0:0:0:0:
320,192,103748,1,0,0:0:0:0:
64,192,104023,1,0,0:0:0:0:
64,192,104298,1,0,0:0:0:0:
448,192,104573,128,0,104849:0:0:0:0:
192,192,104849,128,0,105124:0:0:0:0:
448,192,105124,1,0,0:0:0:0:
64,192,105399,1,0,0:0:0:0:
320,192,105674,1,0,0:0:0:0:
192,192,105949,1,0,0:0:0:0:
448,192,106225,1,0,0:0:0:0:
320,192,106500,1,0,0:0:0:0:
192,192,106775,1,0,0:0:0:0:
448,192,107050,1,0,0:0:0:0:
64,192,107326,1,0,0:0:0:0:
192,192,107601,1,0,0:0:0:0:
448,192,107876,1,0,0:0:0:0:
320,192,108151,1,0,0:0:0:0:
192,192,108426,1,0,0:0:0:0:
64,192,108702,1,0,0:0:0:0:
320,192,108977,1,0,0:0:0:0:
192,192,109252,128,0,109527:0:0:0:0:
448,192,109527,1,0,0:0:0:0:
448,192,109803,1,0,0:0:0:0:
64,192,110078,1,0,0:0:0:0:
192,192,110353,1,0,0:0:0:0:
320,192,110628,1,0,0:0:0:0:
64,192,110904,1,0,0:0:0:0:
448,192,111179,1,0,0:0:0:0:
320,192,111454,1,0,0:0:0:0:
192,192,111592,1,0,0:0:0:0:
448,192,111729,1,0,0:0:0:0:
320,192,111867,1,0,0:0:0:0:
192,192,112004,1,0,0:0:0:0:
64,192,112280,1,0,0:0:0:0:
192,192,112555,1,0,0:0:0:0:
448,192,112693,1,0,0:0:0:0:
64,192,112830,1,0,0:0:0:0:
64,192,113105,1,0,0:0:0:0:
320,192,113381,1,0,0:0:0:0:
320,192,113656,1,0,0:0:0:0:
64,192,113931,1,0,0:0:0:0:
192,192,114069,1,0,0:0:0:0:
320,192,114206,1,0,0:0:0:0:
448,192,114344,1,0,0:0:0:0:
192,192,114482,128,0,115032:0:0:0:0:
448,192,115032,1,0,0:0:0:0:
192,192,116683,1,0,0:0:0:0:
320,192,116959,128,0,117234:0:0:0:0:
64,192,117234,1,0,0:0:0:0:
448,192,117509,1,0,0:0:0:0:
192,192,117647,1,0,0:0:0:0:
320,192,117922,1,0,0:0:0:0:
192,192,118060,1,0,0:0:0:0:
64,192,118335,1,0,0:0:0:0:
320,192,118472,1,0,0:0:0:0:
192,192,118748,1,0,0:0:0:0:
320,192,118885,1,0,0:0:0:0:
64,192,119160,1,0,0:0:0:0:
192,192,119436,1,0,0:0:0:0:
320,192,119436,128,0,122738:0:0:0:0:
