osu file format v14

[General]
AudioFilename: audio.mp3
AudioLeadIn: 0
PreviewTime: 79301
Countdown: 0
SampleSet: Soft
StackLeniency: 0.7
Mode: 3
LetterboxInBreaks: 0
SpecialStyle: 0
WidescreenStoryboard: 0

[Editor]
DistanceSpacing: 1
BeatDivisor: 4
GridSize: 4
TimelineZoom: 1.999999

[Metadata]
Title:Absolute Domination
TitleUnicode:Absolute Domination
Artist:Laur
ArtistUnicode:Laur
Creator:-Ziel-
Version:NOVICE
Source:SOUND VOLTEX IV HEAVENLY HAVEN
Tags:[ping] famoss Ω omega dimension unlock konami bemani rhythm video game electronic hardcore
BeatmapID:1905638
BeatmapSetID:892380

[Difficulty]
HPDrainRate:7.2
CircleSize:4
OverallDifficulty:7.2
ApproachRate:5
SliderMultiplier:1.4
SliderTickRate:1

[Events]
//Background and Video events
0,0,"180808_04.jpg",0,0
//Break Periods
//Storyboard Layer 0 (Background)
//Storyboard Layer 1 (Fail)
//Storyboard Layer 2 (Pass)
//Storyboard Layer 3 (Foreground)
//Storyboard Layer 4 (Overlay)
//Storyboard Sound Samples

[TimingPoints]
2237,275.229357798165,4,2,1,20,1,0
11044,-100,4,2,1,30,0,0
28659,-100,4,2,1,40,0,0
37535,-100,4,2,1,20,0,0
44071,-100,4,2,1,30,0,0
46273,-100,4,2,1,40,0,0
61755,-100,4,2,1,20,0,0
70493,-100,4,2,1,30,0,0
79301,-100,4,2,1,40,0,1
92512,-100,4,2,1,40,0,0
92581,-100,4,2,1,20,0,0
94714,-100,4,2,1,30,0,0
96915,-100,4,2,1,40,0,0

[HitObjects]
64,192,1136,128,0,2237:0:0:0:0:
320,192,2237,1,2,0:0:0:0:
448,192,2237,1,4,0:0:0:0:
192,192,2512,1,0,0:0:0:0:
64,192,2787,1,0,0:0:0:0:
320,192,3062,1,0,0:0:0:0:
448,192,3337,1,0,0:0:0:0:
64,192,3613,1,0,0:0:0:0:
192,192,3888,1,0,0:0:0:0:
320,192,4163,1,0,0:0:0:0:
448,192,4438,1,0,0:0:0:0:
320,192,4714,1,0,0:0:0:0:
64,192,4989,1,0,0:0:0:0:
192,192,5264,1,0,0:0:0:0:
448,192,5539,1,0,0:0:0:0:
320,192,5814,1,0,0:0:0:0:
192,192,6090,1,0,0:0:0:0:
64,192,6365,1,0,0:0:0:0:
320,192,6640,1,0,0:0:0:0:
192,192,6915,1,0,0:0:0:0:
64,192,7191,1,0,0:0:0:0:
192,192,7466,1,0,0:0:0:0:
448,192,7741,1,0,0:0:0:0:
320,192,8016,1,0,0:0:0:0:
64,192,8292,1,0,0:0:0:0:
192,192,8567,1,0,0:0:0:0:
320,192,8842,1,0,0:0:0:0:
64,192,9117,1,0,0:0:0:0:
320,192,9392,1,0,0:0:0:0:
448,192,9668,1,0,0:0:0:0:
192,192,9943,1,0,0:0:0:0:
64,192,10218,1,0,0:0:0:0:
448,192,10493,1,0,0:0:0:0:
320,192,10769,1,0,0:0:0:0:
64,192,11044,1,4,0:0:0:0:
448,192,11044,1,0,0:0:0:20:S.wav
64,192,11319,1,0,0:0:0:20:S.wav
192,192,11594,1,0,0:0:0:20:S.wav
192,192,11870,1,0,0:0:0:20:S.wav
320,192,12145,1,0,0:0:0:20:S.wav
320,192,12420,1,0,0:0:0:20:S.wav
448,192,12695,1,0,0:0:0:20:S.wav
448,192,12970,1,0,0:0:0:20:S.wav
320,192,13154,1,0,0:0:0:20:S.wav
192,192,13246,1,0,0:0:0:20:S.wav
192,192,13521,1,0,0:0:0:20:S.wav
64,192,13796,1,0,0:0:0:20:S.wav
64,192,14071,1,0,0:0:0:20:S.wav
192,192,14255,1,0,0:0:0:20:S.wav
448,192,14347,1,0,0:0:0:20:S.wav
448,192,14622,1,0,0:0:0:20:S.wav
64,192,14805,1,0,0:0:0:20:S.wav
320,192,14897,128,0,15172:0:0:0:20:S.wav
192,192,15172,1,0,0:0:0:20:S.wav
320,192,15356,1,0,0:0:0:20:S.wav
64,192,15448,1,0,0:0:0:20:S.wav
448,192,15631,1,0,0:0:0:20:S.wav
192,192,15723,1,0,0:0:0:20:S.wav
64,192,15906,1,0,0:0:0:20:S.wav
320,192,15998,1,0,0:0:0:20:S.wav
192,192,16181,1,0,0:0:0:20:S.wav
448,192,16273,1,0,0:0:0:20:S.wav
320,192,16457,1,0,0:0:0:20:S.wav
64,192,16548,1,0,0:0:0:20:S.wav
448,192,16732,1,0,0:0:0:20:S.wav
192,192,16824,1,0,0:0:0:20:S.wav
64,192,17007,1,0,0:0:0:20:S.wav
320,192,17099,128,0,17374:0:0:0:20:S.wav
64,192,17374,1,0,0:0:0:20:S.wav
448,192,17558,1,0,0:0:0:20:S.wav
192,192,17649,128,0,17925:0:0:0:20:S.wav
320,192,17925,128,0,18200:0:0:0:20:S.wav
448,192,18200,128,0,18475:0:0:0:20:S.wav
192,192,18475,128,0,18750:0:0:0:20:S.wav
320,192,18750,128,0,19851:0:0:0:20:S.wav
448,192,19301,128,0,19851:0:0:0:20:S.wav
64,192,19851,1,4,0:0:0:0:
192,192,19851,1,0,0:0:0:0:
320,192,20126,1,0,0:0:0:0:
64,192,20402,1,0,0:0:0:0:
192,192,20677,1,0,0:0:0:0:
448,192,20952,1,0,0:0:0:0:
320,192,21503,1,0,0:0:0:0:
64,192,21778,1,0,0:0:0:0:
192,192,22053,1,4,0:0:0:0:
448,192,22053,1,0,0:0:0:0:
320,192,22328,1,0,0:0:0:0:
64,192,22603,1,0,0:0:0:0:
192,192,22879,1,0,0:0:0:0:
320,192,23154,1,0,0:0:0:0:
448,192,23704,1,0,0:0:0:0:
192,192,23980,1,0,0:0:0:0:
64,192,24255,1,4,0:0:0:0:
320,192,24255,1,0,0:0:0:0:
448,192,24530,1,0,0:0:0:0:
64,192,24805,1,0,0:0:0:0:
192,192,25081,1,0,0:0:0:0:
320,192,25356,1,0,0:0:0:0:
448,192,25906,1,0,0:0:0:0:
192,192,26457,1,4,0:0:0:0:
320,192,26457,1,0,0:0:0:0:
64,192,26732,1,0,0:0:0:0:
320,192,27007,1,4,0:0:0:0:
448,192,27007,1,0,0:0:0:0:
64,192,27558,1,2,0:0:0:0:
448,192,27558,1,4,0:0:0:0:
64,192,28108,1,4,0:0:0:0:
192,192,28108,1,2,0:0:0:0:
320,192,28659,1,2,0:0:0:0:
448,192,28659,1,4,0:0:0:0:
192,192,28934,1,8,0:0:0:0:
64,192,29071,1,0,0:0:0:0:
448,192,29209,1,2,0:0:0:0:
320,192,29347,1,0,0:0:0:0:
192,192,29484,1,8,0:0:0:0:
64,192,29622,1,0,0:0:0:0:
192,192,29759,1,2,0:0:0:0:
448,192,29759,1,0,0:0:0:0:
320,192,30035,1,8,0:0:0:0:
64,192,30172,1,0,0:0:0:0:
192,192,30310,1,2,0:0:0:0:
320,192,30448,1,0,0:0:0:0:
448,192,30585,1,8,0:0:0:0:
320,192,30723,128,2,30860:0:0:0:0:
64,192,30860,1,2,0:0:0:0:
192,192,30860,1,0,0:0:0:0:
320,192,31136,1,8,0:0:0:0:
192,192,31273,1,0,0:0:0:0:
64,192,31411,1,2,0:0:0:0:
448,192,31411,1,0,0:0:0:0:
320,192,31686,1,8,0:0:0:0:
448,192,31686,1,0,0:0:0:0:
192,192,31824,1,0,0:0:0:0:
64,192,31961,1,2,0:0:0:0:
448,192,31961,1,0,0:0:0:0:
192,192,32236,1,8,0:0:0:0:
320,192,32236,1,0,0:0:0:0:
448,192,32374,1,0,0:0:0:0:
64,192,32512,1,2,0:0:0:0:
192,192,32512,1,0,0:0:0:0:
448,192,32787,128,0,33062:0:0:0:0:
64,192,33062,1,2,0:0:0:0:
320,192,33062,1,4,0:0:0:0:
448,192,33337,1,8,0:0:0:0:
320,192,33475,1,0,0:0:0:0:
192,192,33613,1,2,0:0:0:0:
64,192,33750,1,0,0:0:0:0:
192,192,33888,1,8,0:0:0:0:
320,192,34025,1,0,0:0:0:0:
64,192,34163,1,2,0:0:0:0:
448,192,34163,1,0,0:0:0:0:
192,192,34438,1,8,0:0:0:0:
64,192,34576,1,0,0:0:0:0:
448,192,34714,1,2,0:0:0:0:
320,192,34851,1,0,0:0:0:0:
192,192,34989,1,8,0:0:0:0:
64,192,35126,128,2,35264:0:0:0:0:
192,192,35264,1,2,0:0:0:0:
320,192,35264,1,0,0:0:0:0:
448,192,35539,1,8,0:0:0:0:
320,192,35677,1,0,0:0:0:0:
64,192,35814,1,2,0:0:0:0:
192,192,35814,1,0,0:0:0:0:
64,192,36090,1,8,0:0:0:0:
448,192,36090,1,0,0:0:0:0:
192,192,36227,1,2,0:0:0:0:
320,192,36365,1,2,0:0:0:0:
448,192,36365,1,0,0:0:0:0:
64,192,36503,128,2,36640:0:0:0:0:
192,192,36640,1,8,0:0:0:0:
320,192,36640,1,0,0:0:0:0:
448,192,36778,128,2,36915:0:0:0:0:
64,192,36915,1,2,0:0:0:0:
320,192,36915,1,0,0:0:0:0:
64,192,37191,128,0,37466:0:0:0:0:
192,192,37466,1,4,0:0:0:0:
448,192,37466,1,2,0:0:0:0:
320,192,37741,1,0,0:0:0:0:
64,192,38016,1,0,0:0:0:0:
192,192,38292,1,0,0:0:0:0:
448,192,38567,1,0,0:0:0:0:
320,192,38842,1,0,0:0:0:0:
192,192,39117,1,0,0:0:0:0:
64,192,39392,1,0,0:0:0:0:
192,192,39668,1,0,0:0:0:0:
320,192,39943,1,0,0:0:0:0:
192,192,40218,1,0,0:0:0:0:
64,192,40493,1,0,0:0:0:0:
320,192,40769,1,0,0:0:0:0:
448,192,41044,1,0,0:0:0:0:
320,192,41319,1,0,0:0:0:0:
192,192,41594,1,0,0:0:0:0:
64,192,41870,1,0,0:0:0:0:
192,192,42145,1,0,0:0:0:0:
320,192,42420,1,0,0:0:0:0:
192,192,42695,1,0,0:0:0:0:
448,192,42970,1,0,0:0:0:0:
320,192,43246,1,0,0:0:0:0:
192,192,43521,1,0,0:0:0:0:
64,192,43796,1,0,0:0:0:0:
320,192,44071,1,2,0:0:0:0:
448,192,44071,128,4,45172:0:0:0:0:
64,192,45172,128,0,46273:0:0:0:0:
320,192,46273,1,2,0:0:0:0:
448,192,46273,1,4,0:0:0:0:
192,192,46548,1,8,0:0:0:0:
320,192,46686,1,0,0:0:0:0:
448,192,46824,1,2,0:0:0:0:
192,192,46961,1,0,0:0:0:0:
320,192,47099,1,8,0:0:0:0:
448,192,47236,1,0,0:0:0:0:
64,192,47374,1,2,0:0:0:0:
192,192,47512,1,0,0:0:0:0:
448,192,47649,1,8,0:0:0:0:
448,192,47787,1,0,0:0:0:0:
192,192,47925,1,2,0:0:0:0:
192,192,48062,1,0,0:0:0:0:
320,192,48200,1,8,0:0:0:0:
320,192,48337,1,2,0:0:0:0:
64,192,48475,1,2,0:0:0:0:
448,192,48750,1,8,0:0:0:0:
320,192,48888,1,0,0:0:0:0:
192,192,49025,1,2,0:0:0:0:
448,192,49163,1,0,0:0:0:0:
320,192,49301,1,8,0:0:0:0:
192,192,49438,1,2,0:0:0:0:
64,192,49576,1,2,0:0:0:0:
192,192,49714,1,0,0:0:0:0:
320,192,49851,1,8,0:0:0:0:
448,192,49989,1,2,0:0:0:0:
64,192,50126,128,2,50402:0:0:0:0:
192,192,50264,128,2,50402:0:0:0:0:
448,192,50402,1,2,0:0:0:0:
320,192,50539,128,2,50677:0:0:0:0:
64,192,50677,1,2,0:0:0:0:
192,192,50814,1,0,0:0:0:0:
320,192,50952,1,8,0:0:0:0:
448,192,51090,1,0,0:0:0:0:
64,192,51227,1,2,0:0:0:0:
192,192,51365,1,0,0:0:0:0:
320,192,51503,1,8,0:0:0:0:
448,192,51640,1,0,0:0:0:0:
192,192,51778,1,2,0:0:0:0:
64,192,51915,1,0,0:0:0:0:
192,192,52053,1,8,0:0:0:0:
320,192,52191,1,0,0:0:0:0:
448,192,52328,1,2,0:0:0:0:
64,192,52466,1,0,0:0:0:0:
320,192,52603,1,8,0:0:0:0:
192,192,52741,1,2,0:0:0:0:
64,192,52879,1,2,0:0:0:0:
192,192,53016,1,0,0:0:0:0:
320,192,53154,1,8,0:0:0:0:
448,192,53292,1,0,0:0:0:0:
320,192,53429,1,2,0:0:0:0:
192,192,53567,1,0,0:0:0:0:
64,192,53704,1,8,0:0:0:0:
192,192,53842,1,0,0:0:0:0:
448,192,53980,1,2,0:0:0:0:
320,192,54163,1,0,0:0:0:0:
192,192,54255,1,8,0:0:0:0:
64,192,54438,1,0,0:0:0:0:
192,192,54530,1,2,0:0:0:0:
320,192,54530,1,4,0:0:0:0:
448,192,54714,1,8,0:0:0:0:
64,192,54805,128,0,55081:0:0:0:70:S.wav
192,192,54805,1,0,0:0:0:0:
320,192,55081,1,2,0:0:0:0:
448,192,55081,1,4,0:0:0:0:
192,192,55218,1,0,0:0:0:0:
320,192,55356,1,8,0:0:0:0:
192,192,55493,1,0,0:0:0:0:
448,192,55631,1,2,0:0:0:0:
64,192,55769,1,0,0:0:0:0:
448,192,55906,1,8,0:0:0:0:
64,192,56044,1,0,0:0:0:0:
320,192,56181,1,2,0:0:0:0:
448,192,56319,1,0,0:0:0:0:
192,192,56457,1,8,0:0:0:0:
64,192,56594,1,0,0:0:0:0:
448,192,56732,1,2,0:0:0:0:
320,192,56870,1,0,0:0:0:0:
64,192,57007,1,8,0:0:0:0:
192,192,57145,1,2,0:0:0:0:
320,192,57282,1,2,0:0:0:0:
448,192,57282,1,4,0:0:0:0:
192,192,57466,1,0,0:0:0:0:
448,192,57558,1,12,0:0:0:0:
320,192,57741,1,0,0:0:0:0:
64,192,57833,1,2,0:0:0:0:
192,192,58016,1,0,0:0:0:0:
448,192,58108,1,8,0:0:0:0:
320,192,58292,1,0,0:0:0:0:
64,192,58383,1,6,0:0:0:0:
192,192,58567,1,2,0:0:0:0:
448,192,58659,1,12,0:0:0:0:
320,192,58842,1,2,0:0:0:0:
64,192,58934,128,6,59209:0:0:0:0:
448,192,59209,128,6,59484:0:0:0:0:
64,192,59484,1,6,0:0:0:0:
448,192,59759,128,2,61136:0:0:0:0:
64,192,61136,1,6,0:0:0:0:
64,192,61686,1,2,0:0:0:0:
448,192,61686,1,4,0:0:0:0:
448,192,61961,1,0,0:0:0:0:
448,192,62099,1,0,0:0:0:0:
64,192,62374,1,0,0:0:0:0:
64,192,62512,1,0,0:0:0:0:
192,192,62649,1,0,0:0:0:0:
320,192,62787,1,0,0:0:0:0:
448,192,63062,1,0,0:0:0:0:
320,192,63200,1,0,0:0:0:0:
192,192,63475,1,0,0:0:0:0:
64,192,63750,128,0,63888:0:0:0:0:
320,192,63888,1,0,0:0:0:0:
320,192,64163,1,0,0:0:0:0:
320,192,64301,1,0,0:0:0:0:
64,192,64576,1,0,0:0:0:0:
64,192,64714,1,0,0:0:0:0:
192,192,64851,1,0,0:0:0:0:
448,192,64989,1,0,0:0:0:0:
320,192,65264,1,0,0:0:0:0:
192,192,65402,1,0,0:0:0:0:
320,192,65677,1,0,0:0:0:0:
192,192,65952,128,0,66090:0:0:0:0:
448,192,66090,1,0,0:0:0:0:
320,192,66227,1,0,0:0:0:0:
64,192,66365,1,0,0:0:0:0:
64,192,66503,1,0,0:0:0:0:
192,192,66778,1,0,0:0:0:0:
192,192,66915,1,0,0:0:0:0:
320,192,67053,1,0,0:0:0:0:
448,192,67191,1,0,0:0:0:0:
192,192,67466,1,0,0:0:0:0:
448,192,67603,1,0,0:0:0:0:
320,192,67879,1,0,0:0:0:0:
192,192,68016,1,0,0:0:0:0:
320,192,68292,1,0,0:0:0:0:
320,192,68567,1,0,0:0:0:0:
320,192,68704,1,0,0:0:0:0:
192,192,68980,1,0,0:0:0:0:
448,192,69117,1,0,0:0:0:0:
320,192,69255,1,0,0:0:0:0:
64,192,69392,1,0,0:0:0:0:
192,192,69668,1,0,0:0:0:0:
448,192,69805,1,0,0:0:0:0:
320,192,70081,1,0,0:0:0:0:
64,192,70356,1,0,0:0:0:0:
192,192,70493,128,4,71319:0:0:0:0:
448,192,70493,1,0,0:0:0:0:
320,192,71319,128,0,71594:0:0:0:0:
64,192,71594,128,0,72145:0:0:0:0:
192,192,72145,128,0,72695:0:0:0:0:
448,192,72695,128,0,73796:0:0:0:0:
320,192,73796,128,0,74347:0:0:0:0:
192,192,74347,128,0,74897:0:0:0:0:
64,192,74897,128,0,75723:0:0:0:0:
448,192,75723,1,0,0:0:0:0:
448,192,75860,128,0,77099:0:0:0:0:
64,192,77099,1,0,0:0:0:0:
192,192,77099,1,0,0:0:0:0:
320,192,77374,1,0,0:0:0:0:
64,192,77649,128,0,77925:0:0:0:0:
192,192,77925,128,0,78200:0:0:0:0:
448,192,78200,128,0,79025:0:0:0:0:
320,192,78475,128,0,79025:0:0:0:0:
64,192,79301,1,2,0:0:0:0:
448,192,79301,1,4,0:0:0:0:
320,192,79438,1,2,0:0:0:0:
192,192,79576,1,8,0:0:0:0:
448,192,79714,1,0,0:0:0:0:
320,192,79851,1,2,0:0:0:0:
64,192,79989,1,0,0:0:0:0:
192,192,80126,1,8,0:0:0:0:
320,192,80264,1,0,0:0:0:0:
64,192,80402,1,2,0:0:0:0:
192,192,80539,1,0,0:0:0:0:
448,192,80677,1,8,0:0:0:0:
320,192,80814,1,0,0:0:0:0:
64,192,80952,1,2,0:0:0:0:
192,192,81090,1,0,0:0:0:0:
320,192,81227,1,8,0:0:0:0:
448,192,81365,128,2,81503:0:0:0:0:
64,192,81503,1,2,0:0:0:0:
192,192,81640,1,2,0:0:0:0:
320,192,81778,1,8,0:0:0:0:
64,192,81915,1,0,0:0:0:0:
192,192,82053,1,2,0:0:0:0:
320,192,82191,1,0,0:0:0:0:
448,192,82328,1,8,0:0:0:0:
320,192,82466,1,0,0:0:0:0:
192,192,82603,1,2,0:0:0:0:
64,192,82741,1,0,0:0:0:0:
448,192,82879,1,8,0:0:0:0:
320,192,83016,1,0,0:0:0:0:
64,192,83154,1,2,0:0:0:0:
448,192,83292,1,2,0:0:0:0:
320,192,83429,1,8,0:0:0:0:
192,192,83567,128,2,83704:0:0:0:0:
448,192,83704,1,2,0:0:0:0:
320,192,83842,1,2,0:0:0:0:
64,192,83980,128,8,84255:0:0:0:0:
448,192,84255,1,2,0:0:0:0:
320,192,84392,1,0,0:0:0:0:
64,192,84530,1,8,0:0:0:0:
192,192,84668,1,0,0:0:0:0:
448,192,84805,1,2,0:0:0:0:
320,192,84943,1,0,0:0:0:0:
192,192,85081,1,8,0:0:0:0:
448,192,85218,1,0,0:0:0:0:
320,192,85356,1,2,0:0:0:0:
192,192,85493,1,0,0:0:0:0:
64,192,85631,1,8,0:0:0:0:
192,192,85769,128,2,85906:0:0:0:0:
448,192,85906,1,2,0:0:0:0:
320,192,86044,1,2,0:0:0:0:
192,192,86181,1,8,0:0:0:0:
448,192,86319,1,0,0:0:0:0:
320,192,86457,1,2,0:0:0:0:
64,192,86594,1,0,0:0:0:0:
192,192,86732,1,8,0:0:0:0:
320,192,86870,128,2,87007:0:0:0:0:
64,192,87007,1,2,0:0:0:0:
448,192,87007,1,4,0:0:0:0:
64,192,87282,1,8,0:0:0:0:
192,192,87282,1,4,0:0:0:0:
448,192,87420,1,4,0:0:0:0:
320,192,87420,1,2,0:0:0:0:
64,192,87695,128,6,87833:0:0:0:0:
192,192,87833,1,12,0:0:0:0:
448,192,87970,128,6,88108:0:0:0:0:
64,192,88108,1,2,0:0:0:0:
320,192,88108,1,4,0:0:0:0:
192,192,88246,128,2,88383:0:0:0:0:
448,192,88383,1,8,0:0:0:0:
320,192,88521,1,0,0:0:0:0:
192,192,88659,1,2,0:0:0:0:
64,192,88796,1,0,0:0:0:0:
192,192,88934,1,8,0:0:0:0:
320,192,89071,1,0,0:0:0:0:
448,192,89209,1,2,0:0:0:0:
64,192,89347,1,0,0:0:0:0:
448,192,89484,1,8,0:0:0:0:
320,192,89622,1,0,0:0:0:0:
64,192,89759,1,2,0:0:0:0:
192,192,89897,1,0,0:0:0:0:
320,192,90035,1,8,0:0:0:0:
64,192,90172,128,2,90310:0:0:0:0:
448,192,90310,1,6,0:0:0:0:
320,192,90448,128,2,90585:0:0:0:0:
192,192,90585,1,12,0:0:0:0:
448,192,90723,1,0,0:0:0:0:
320,192,90860,1,6,0:0:0:0:
64,192,90998,1,0,0:0:0:0:
192,192,91136,1,8,0:0:0:0:
320,192,91273,128,2,91411:0:0:0:0:
448,192,91411,1,6,0:0:0:0:
64,192,91548,1,2,0:0:0:0:
192,192,91686,1,8,0:0:0:0:
320,192,91824,1,2,0:0:0:0:
448,192,91961,128,2,92512:0:0:0:0:
192,192,92236,128,12,92512:0:0:0:0:
64,192,92512,128,4,93613:0:0:0:0:
320,192,92512,1,2,0:0:0:0:
448,192,93613,128,0,94714:0:0:0:0:
64,192,94714,1,2,0:0:0:0:
192,192,94714,1,4,0:0:0:0:
64,192,95264,1,4,0:0:0:0:
192,192,95264,1,2,0:0:0:0:
64,192,95814,1,2,0:0:0:0:
320,192,95814,1,4,0:0:0:0:
192,192,96365,1,4,0:0:0:0:
448,192,96365,1,2,0:0:0:0:
320,192,96915,1,2,0:0:0:0:
448,192,96915,1,4,0:0:0:0:
64,192,97053,1,0,0:0:0:0:
320,192,97191,1,8,0:0:0:0:
192,192,97328,1,0,0:0:0:0:
448,192,97466,1,2,0:0:0:0:
64,192,97603,1,0,0:0:0:0:
192,192,97741,1,8,0:0:0:0:
320,192,97879,1,0,0:0:0:0:
448,192,98016,1,2,0:0:0:0:
320,192,98154,1,0,0:0:0:0:
192,192,98292,1,8,0:0:0:0:
64,192,98429,1,0,0:0:0:0:
448,192,98567,1,2,0:0:0:0:
320,192,98704,1,0,0:0:0:0:
192,192,98842,1,8,0:0:0:0:
64,192,98980,1,2,0:0:0:0:
192,192,99117,1,2,0:0:0:0:
320,192,99255,1,0,0:0:0:0:
64,192,99392,1,8,0:0:0:0:
192,192,99530,1,0,0:0:0:0:
320,192,99668,1,2,0:0:0:0:
448,192,99805,1,0,0:0:0:0:
192,192,99943,1,8,0:0:0:0:
320,192,100081,1,0,0:0:0:0:
448,192,100218,1,2,0:0:0:0:
320,192,100402,1,0,0:0:0:0:
192,192,100493,1,8,0:0:0:0:
448,192,100677,1,0,0:0:0:0:
64,192,100769,1,2,0:0:0:0:
320,192,100769,1,4,0:0:0:0:
192,192,100952,1,8,0:0:0:0:
320,192,101044,1,0,0:0:0:70:S.wav
448,192,101044,128,0,101319:0:0:0:0:
64,192,101319,1,2,0:0:0:0:
192,192,101319,1,4,0:0:0:0:
320,192,101457,1,0,0:0:0:0:
64,192,101594,1,8,0:0:0:0:
320,192,101732,1,0,0:0:0:0:
192,192,101870,1,2,0:0:0:0:
448,192,102007,1,0,0:0:0:0:
192,192,102145,1,8,0:0:0:0:
448,192,102282,1,0,0:0:0:0:
320,192,102420,1,2,0:0:0:0:
192,192,102558,1,0,0:0:0:0:
448,192,102695,1,8,0:0:0:0:
320,192,102833,1,0,0:0:0:0:
192,192,102970,1,2,0:0:0:0:
64,192,103108,1,0,0:0:0:0:
320,192,103246,1,8,0:0:0:0:
192,192,103383,1,2,0:0:0:0:
64,192,103521,1,2,0:0:0:0:
448,192,103521,1,4,0:0:0:0:
192,192,103704,1,0,0:0:0:0:
320,192,103796,1,8,0:0:0:0:
448,192,103980,1,0,0:0:0:0:
64,192,104071,1,2,0:0:0:0:
192,192,104255,1,0,0:0:0:0:
320,192,104347,1,8,0:0:0:0:
448,192,104530,1,0,0:0:0:0:
64,192,104622,1,6,0:0:0:0:
192,192,104805,1,2,0:0:0:0:
320,192,104897,1,12,0:0:0:0:
448,192,105081,1,2,0:0:0:0:
64,192,105172,128,6,105448:0:0:0:0:
320,192,105448,1,2,0:0:0:0:
448,192,105448,1,4,0:0:0:0:
64,192,105723,1,4,0:0:0:0:
448,192,105723,1,2,0:0:0:0:
192,192,105860,1,0,0:0:0:0:
320,192,105998,1,8,0:0:0:0:
192,192,106136,1,0,0:0:0:0:
448,192,106273,1,2,0:0:0:0:
320,192,106411,1,0,0:0:0:0:
192,192,106548,1,8,0:0:0:0:
64,192,106686,1,0,0:0:0:0:
320,192,106824,1,2,0:0:0:0:
64,192,106961,1,0,0:0:0:0:
192,192,107099,1,8,0:0:0:0:
320,192,107236,1,0,0:0:0:0:
448,192,107374,1,2,0:0:0:0:
192,192,107512,1,0,0:0:0:0:
64,192,107649,1,8,0:0:0:0:
320,192,107787,128,2,107925:0:0:0:0:
448,192,107925,1,2,0:0:0:0:
192,192,108062,1,0,0:0:0:0:
64,192,108200,1,8,0:0:0:0:
320,192,108337,1,0,0:0:0:0:
64,192,108475,1,2,0:0:0:0:
192,192,108613,1,0,0:0:0:0:
320,192,108750,1,8,0:0:0:0:
448,192,108888,1,0,0:0:0:0:
192,192,109025,1,2,0:0:0:0:
320,192,109163,1,0,0:0:0:0:
64,192,109301,1,8,0:0:0:0:
448,192,109438,1,0,0:0:0:0:
192,192,109576,1,6,0:0:0:0:
64,192,109714,128,0,110126:0:0:0:0:
448,192,110126,1,6,0:0:0:0:
192,192,110264,1,0,0:0:0:0:
320,192,110402,1,8,0:0:0:0:
64,192,110539,1,0,0:0:0:0:
192,192,110677,1,2,0:0:0:0:
320,192,110814,1,0,0:0:0:0:
64,192,110952,1,8,0:0:0:0:
192,192,111090,1,0,0:0:0:0:
448,192,111227,1,2,0:0:0:0:
64,192,111365,1,0,0:0:0:0:
320,192,111503,1,8,0:0:0:0:
192,192,111640,1,0,0:0:0:0:
448,192,111778,1,2,0:0:0:0:
320,192,111915,1,0,0:0:0:0:
192,192,112053,1,8,0:0:0:0:
64,192,112191,1,2,0:0:0:0:
192,192,112328,1,6,0:0:0:0:
448,192,112466,128,2,112603:0:0:0:0:
64,192,112603,1,8,0:0:0:0:
192,192,112741,1,0,0:0:0:0:
320,192,112879,1,2,0:0:0:0:
448,192,113016,1,0,0:0:0:0:
192,192,113154,1,8,0:0:0:0:
320,192,113292,1,2,0:0:0:0:
64,192,113429,1,4,0:0:0:0:
448,192,113429,1,2,0:0:0:0:
64,192,113567,1,2,0:0:0:0:
320,192,113704,1,12,0:0:0:0:
320,192,113842,1,2,0:0:0:0:
192,192,113980,1,6,0:0:0:0:
192,192,114117,1,2,0:0:0:0:
448,192,114255,1,12,0:0:0:0:
448,192,114392,1,2,0:0:0:0:
64,192,114530,128,2,115081:0:0:0:0:
192,192,114530,1,4,0:0:0:0:
320,192,115081,128,2,115631:0:0:0:0:
64,192,115631,1,2,0:0:0:0:
192,192,115631,1,4,0:0:0:0:
448,192,115906,128,0,116457:0:0:0:0:
192,192,116457,128,0,116732:0:0:0:0:
64,192,116732,128,0,117282:0:0:0:0:
448,192,117282,128,0,117558:0:0:0:0:
64,192,117558,128,0,117833:0:0:0:0:
320,192,117833,1,2,0:0:0:0:
448,192,117833,1,4,0:0:0:0:
64,192,118108,1,2,0:0:0:0:
192,192,118108,1,4,0:0:0:0:
320,192,118246,1,4,0:0:0:0:
448,192,118246,1,2,0:0:0:0:
64,192,118521,1,6,0:0:0:0:
192,192,118590,1,6,0:0:0:0:
320,192,118659,1,2,0:0:0:0:
448,192,118659,1,4,0:0:0:0:
320,192,118934,1,2,0:0:0:0:
448,192,118934,1,4,0:0:0:0:
64,192,119071,1,2,0:0:0:0:
192,192,119071,1,4,0:0:0:0:
64,192,119347,1,6,0:0:0:0:
192,192,119415,1,6,0:0:0:0:
320,192,119484,1,2,0:0:0:0:
448,192,119484,1,4,0:0:0:0:
320,192,119759,1,2,0:0:0:0:
448,192,119759,1,4,0:0:0:0:
64,192,120035,128,2,123337:0:0:0:0:
192,192,120035,128,4,123337:0:0:0:0:
