osu file format v14

[General]
AudioFilename: audio.mp3
AudioLeadIn: 0
PreviewTime: 29424
Countdown: 0
SampleSet: Soft
StackLeniency: 0.7
Mode: 3
LetterboxInBreaks: 0
SpecialStyle: 0
WidescreenStoryboard: 1

[Editor]
DistanceSpacing: 1.6
BeatDivisor: 4
GridSize: 8
TimelineZoom: 2.5

[Metadata]
Title:A Lasting Promise
TitleUnicode:A Lasting Promise
Artist:Laur
ArtistUnicode:Laur
Creator:Leniane
Version:Heavenly
Source:SOUND VOLTEX IV HEAVENLY HAVEN
Tags:sdvx 4 オリジナル楽曲コンテスト 最優秀賞品 蒼弐 the 7th konami arcade championship kac Ωdimension Curiossity
BeatmapID:1560242
BeatmapSetID:739412

[Difficulty]
HPDrainRate:9
CircleSize:4
OverallDifficulty:9
ApproachRate:5
SliderMultiplier:1.4
SliderTickRate:1

[Events]
//Background and Video events
0,0,"ALastingPromise-LaurBG.jpg",0,0
//Break Periods
//Storyboard Layer 0 (Background)
//Storyboard Layer 1 (Fail)
//Storyboard Layer 2 (Pass)
//Storyboard Layer 3 (Foreground)
//Storyboard Sound Samples

[TimingPoints]
980,222.222222222222,4,2,0,20,1,0
16979,-100,4,2,0,15,0,0
20535,-100,4,2,0,10,0,0
22313,-100,4,2,0,20,0,0
31202,-100,4,2,0,30,0,1
45424,-100,4,2,0,20,0,0
59646,444.444444444444,4,2,0,10,1,0
59646,-50,4,2,0,10,0,0
66757,222.222222222222,4,2,0,20,1,0
88090,-100,4,2,0,30,0,1
97423,-100,4,2,0,20,0,0
104090,-100,4,2,0,30,0,1
117423,-100,4,2,0,20,0,0

[HitObjects]
64,192,980,5,0,0:0:0:0:
320,192,980,1,0,0:0:0:0:
448,192,980,1,0,0:0:0:0:
448,192,1202,128,0,1646:0:0:0:0:
64,192,1202,128,0,1424:0:0:0:0:
320,192,1646,128,0,1868:0:0:0:0:
64,192,1646,128,0,1757:0:0:0:0:
192,192,1868,128,0,2313:0:0:0:0:
448,192,1868,128,0,2091:0:0:0:0:
64,192,2313,128,0,2757:0:0:0:0:
320,192,2313,128,0,2535:0:0:0:0:
448,192,2757,1,0,0:0:0:0:
64,192,2979,128,0,3202:0:0:0:0:
192,192,2979,128,0,3424:0:0:0:0:
320,192,3424,128,0,3646:0:0:0:0:
448,192,3424,128,0,3535:0:0:0:0:
448,192,3646,128,0,4091:0:0:0:0:
64,192,3646,128,0,3868:0:0:0:0:
192,192,4091,128,0,4313:0:0:0:0:
320,192,4091,128,0,4202:0:0:0:0:
320,192,4313,128,0,4535:0:0:0:0:
64,192,4313,128,0,4757:0:0:0:0:
320,192,4757,128,0,4979:0:0:0:0:
448,192,4757,128,0,5202:0:0:0:0:
64,192,5202,128,0,5424:0:0:0:0:
192,192,5202,128,0,5313:0:0:0:0:
192,192,5424,128,0,5868:0:0:0:0:
320,192,5424,128,0,5646:0:0:0:0:
448,192,5868,128,0,6091:0:0:0:0:
320,192,5868,128,0,5979:0:0:0:0:
64,192,6091,128,0,6313:0:0:0:0:
192,192,6091,128,0,6202:0:0:0:0:
448,192,6313,1,0,0:0:0:0:
192,192,6535,128,0,6757:0:0:0:0:
320,192,6535,128,0,6979:0:0:0:0:
448,192,6979,128,0,7202:0:0:0:0:
64,192,6979,128,0,7091:0:0:0:0:
64,192,7202,128,0,7646:0:0:0:0:
192,192,7202,128,0,7424:0:0:0:0:
320,192,7646,128,0,7868:0:0:0:0:
448,192,7646,128,0,8091:0:0:0:0:
64,192,8091,1,0,0:0:0:0:
192,192,8091,1,0,0:0:0:0:
320,192,8091,1,0,0:0:0:0:
320,192,8202,1,0,0:0:0:0:
448,192,8202,1,0,0:0:0:0:
192,192,8257,1,0,0:0:0:0:
64,192,8257,1,0,0:0:0:0:
320,192,8313,1,0,0:0:0:0:
448,192,8313,1,0,0:0:0:0:
192,192,8424,1,0,0:0:0:0:
448,192,8424,1,0,0:0:0:0:
64,192,8535,1,0,0:0:0:0:
448,192,8646,128,0,8757:0:0:0:0:
192,192,8646,1,0,0:0:0:0:
192,192,8757,1,0,0:0:0:0:
64,192,8757,1,0,0:0:0:0:
320,192,8757,1,0,0:0:0:0:
64,192,8868,128,0,8979:0:0:0:0:
192,192,8979,1,0,0:0:0:0:
320,192,8979,1,0,0:0:0:0:
448,192,8979,1,0,0:0:0:0:
64,192,9091,1,0,0:0:0:0:
192,192,9091,1,0,0:0:0:0:
320,192,9146,1,0,0:0:0:0:
448,192,9146,1,0,0:0:0:0:
192,192,9202,1,0,0:0:0:0:
64,192,9202,1,0,0:0:0:0:
192,192,9313,128,0,9424:0:0:0:0:
320,192,9424,1,0,0:0:0:0:
64,192,9424,1,0,0:0:0:0:
448,192,9424,1,0,0:0:0:0:
448,192,9646,1,0,0:0:0:0:
64,192,9646,1,0,0:0:0:0:
192,192,9646,128,0,9702:0:0:0:0:
320,192,9702,128,0,9757:0:0:0:0:
192,192,9757,1,0,0:0:0:0:
64,192,9757,128,0,9813:0:0:0:0:
448,192,9757,1,0,0:0:0:0:
320,192,9813,128,0,9868:0:0:0:0:
192,192,9868,1,0,0:0:0:0:
64,192,9868,1,0,0:0:0:0:
448,192,9868,128,0,9979:0:0:0:0:
192,192,9979,1,0,0:0:0:0:
64,192,9979,1,0,0:0:0:0:
320,192,10035,1,0,0:0:0:0:
448,192,10035,1,0,0:0:0:0:
192,192,10091,1,0,0:0:0:0:
64,192,10091,1,0,0:0:0:0:
448,192,10202,1,0,0:0:0:0:
64,192,10202,1,0,0:0:0:0:
320,192,10202,1,0,0:0:0:0:
192,192,10313,128,0,10424:0:0:0:0:
320,192,10424,1,0,0:0:0:0:
448,192,10424,1,0,0:0:0:0:
64,192,10535,1,0,0:0:0:0:
192,192,10535,128,0,10757:0:0:0:0:
448,192,10535,128,0,10646:0:0:0:0:
64,192,10757,1,0,0:0:0:0:
320,192,10757,1,0,0:0:0:0:
448,192,10757,1,0,0:0:0:0:
64,192,10868,1,0,0:0:0:0:
192,192,10924,1,0,0:0:0:0:
320,192,10979,1,0,0:0:0:0:
448,192,10979,1,0,0:0:0:0:
64,192,10979,1,0,0:0:0:0:
192,192,11091,1,0,0:0:0:0:
64,192,11091,1,0,0:0:0:0:
320,192,11146,1,0,0:0:0:0:
448,192,11146,1,0,0:0:0:0:
192,192,11202,128,0,11424:0:0:0:0:
64,192,11202,128,0,11313:0:0:0:0:
448,192,11424,128,0,11479:0:0:0:0:
64,192,11424,1,0,0:0:0:0:
320,192,11424,1,0,0:0:0:0:
192,192,11479,128,0,11535:0:0:0:0:
320,192,11535,128,0,11646:0:0:0:0:
64,192,11646,1,0,0:0:0:0:
192,192,11646,1,0,0:0:0:0:
448,192,11757,1,0,0:0:0:0:
320,192,11813,1,0,0:0:0:0:
192,192,11868,1,0,0:0:0:0:
64,192,11868,1,0,0:0:0:0:
448,192,11868,1,0,0:0:0:0:
320,192,11979,1,0,0:0:0:0:
448,192,11979,1,0,0:0:0:0:
64,192,12091,1,0,0:0:0:0:
192,192,12091,1,0,0:0:0:0:
192,192,12202,1,0,0:0:0:0:
448,192,12202,1,0,0:0:0:0:
320,192,12202,1,0,0:0:0:0:
64,192,12313,1,0,0:0:0:0:
320,192,12313,1,0,0:0:0:0:
192,192,12368,1,0,0:0:0:0:
320,192,12424,1,0,0:0:0:0:
448,192,12424,1,0,0:0:0:0:
64,192,12479,1,0,0:0:0:0:
192,192,12535,1,0,0:0:0:0:
448,192,12535,1,0,0:0:0:0:
320,192,12535,1,0,0:0:0:0:
64,192,12646,1,0,0:0:0:0:
320,192,12702,1,0,0:0:0:0:
192,192,12757,1,0,0:0:0:0:
64,192,12757,1,0,0:0:0:0:
448,192,12757,1,0,0:0:0:0:
320,192,12868,1,0,0:0:0:0:
448,192,12868,1,0,0:0:0:0:
64,192,12979,1,0,0:0:0:0:
320,192,12979,128,0,13091:0:0:0:0:
448,192,12979,128,0,13202:0:0:0:0:
64,192,13202,1,0,0:0:0:0:
192,192,13202,1,0,0:0:0:0:
320,192,13313,1,0,0:0:0:0:
448,192,13313,1,0,0:0:0:0:
192,192,13424,1,0,0:0:0:0:
320,192,13424,1,0,0:0:0:0:
64,192,13424,1,0,0:0:0:0:
192,192,13646,1,0,0:0:0:0:
320,192,13646,1,0,0:0:0:0:
64,192,13646,1,0,0:0:0:0:
64,192,13868,1,0,0:0:0:0:
192,192,13868,1,0,0:0:0:0:
448,192,13868,1,0,0:0:0:0:
64,192,14091,5,0,0:0:0:0:
192,192,14091,1,0,0:0:0:0:
448,192,14091,1,0,0:0:0:0:
192,192,14313,1,0,0:0:0:0:
320,192,14313,1,0,0:0:0:0:
448,192,14313,1,0,0:0:0:0:
320,192,14535,1,0,0:0:0:0:
448,192,14535,1,0,0:0:0:0:
192,192,14591,1,0,0:0:0:0:
64,192,14591,1,0,0:0:0:0:
320,192,14646,1,0,0:0:0:0:
448,192,14646,1,0,0:0:0:0:
192,192,14702,1,0,0:0:0:0:
64,192,14702,1,0,0:0:0:0:
320,192,14757,128,0,15091:0:0:0:0:
448,192,14757,128,0,14979:0:0:0:0:
448,192,15202,5,0,0:0:0:0:
320,192,15276,1,0,0:0:0:0:
192,192,15350,1,0,0:0:0:0:
64,192,15424,1,0,0:0:0:0:
448,192,15498,1,0,0:0:0:0:
192,192,15572,1,0,0:0:0:0:
320,192,15646,1,0,0:0:0:0:
448,192,15720,1,0,0:0:0:0:
192,192,15794,1,0,0:0:0:0:
448,192,15868,1,0,0:0:0:0:
320,192,15942,1,0,0:0:0:0:
192,192,16017,1,0,0:0:0:0:
64,192,16091,1,0,0:0:0:0:
192,192,16165,1,0,0:0:0:0:
320,192,16239,1,0,0:0:0:0:
448,192,16313,1,0,0:0:0:0:
64,192,16387,1,0,0:0:0:0:
192,192,16461,1,0,0:0:0:0:
320,192,16535,1,0,0:0:0:0:
448,192,16609,1,0,0:0:0:0:
64,192,16683,1,0,0:0:0:0:
192,192,16757,1,0,0:0:0:0:
448,192,16831,1,0,0:0:0:0:
64,192,16905,1,0,0:0:0:0:
192,192,16979,1,0,0:0:0:0:
448,192,16979,1,0,0:0:0:0:
320,192,16993,1,0,0:0:0:0:
64,192,17146,1,0,0:0:0:0:
64,192,17229,1,0,0:0:0:0:
320,192,17313,128,0,17424:0:0:0:0:
64,192,17479,1,0,0:0:0:0:
64,192,17563,1,0,0:0:0:0:
192,192,17646,128,0,17785:0:0:0:0:
320,192,17785,128,0,17868:0:0:0:0:
64,192,17924,1,0,0:0:0:0:
448,192,17979,128,0,18091:0:0:0:0:
64,192,18146,1,0,0:0:0:0:
64,192,18229,1,0,0:0:0:0:
192,192,18313,128,0,18424:0:0:0:0:
64,192,18479,1,0,0:0:0:0:
448,192,18535,128,0,18674:0:0:0:0:
320,192,18674,128,0,18757:0:0:0:0:
64,192,18813,1,0,0:0:0:0:
64,192,18896,1,0,0:0:0:0:
320,192,18979,128,0,19091:0:0:0:0:
64,192,19146,1,0,0:0:0:0:
192,192,19202,128,0,19313:0:0:0:0:
64,192,19368,1,0,0:0:0:0:
192,192,19424,128,0,19563:0:0:0:0:
448,192,19563,128,0,19646:0:0:0:0:
64,192,19702,1,0,0:0:0:0:
320,192,19757,128,0,19868:0:0:0:0:
64,192,19924,1,0,0:0:0:0:
64,192,20007,1,0,0:0:0:0:
448,192,20091,128,0,20202:0:0:0:0:
64,192,20257,1,0,0:0:0:0:
192,192,20313,128,0,20452:0:0:0:0:
64,192,20452,128,0,20535:0:0:0:0:
320,192,20535,128,0,20646:0:0:0:0:
448,192,20702,1,0,0:0:0:0:
448,192,20785,1,0,0:0:0:0:
64,192,20868,128,0,20979:0:0:0:0:
448,192,21035,1,0,0:0:0:0:
448,192,21118,1,0,0:0:0:0:
192,192,21202,128,0,21313:0:0:0:0:
64,192,21313,128,0,21424:0:0:0:0:
448,192,21479,1,0,0:0:0:0:
320,192,21535,128,0,21646:0:0:0:0:
448,192,21702,1,0,0:0:0:0:
448,192,21785,1,0,0:0:0:0:
320,192,21868,128,0,21979:0:0:0:0:
448,192,22035,1,0,0:0:0:0:
192,192,22091,128,0,22202:0:0:0:0:
64,192,22202,128,0,22313:0:0:0:0:
320,192,22313,1,0,0:0:0:0:
448,192,22313,1,0,0:0:0:0:
320,192,22424,1,0,0:0:0:0:
448,192,22424,1,0,0:0:0:0:
192,192,22479,1,0,0:0:0:0:
64,192,22479,1,0,0:0:0:0:
448,192,22535,1,0,0:0:0:0:
320,192,22535,1,0,0:0:0:0:
64,192,22646,1,0,0:0:0:0:
192,192,22646,1,0,0:0:0:0:
64,192,22757,1,0,0:0:0:0:
192,192,22757,1,0,0:0:0:0:
192,192,22868,1,0,0:0:0:0:
320,192,22868,1,0,0:0:0:0:
448,192,22868,1,0,0:0:0:0:
64,192,22979,1,0,0:0:0:0:
320,192,23035,1,0,0:0:0:0:
64,192,23091,1,0,0:0:0:0:
448,192,23146,1,0,0:0:0:0:
192,192,23202,1,0,0:0:0:0:
320,192,23202,1,0,0:0:0:0:
64,192,23313,1,0,0:0:0:0:
448,192,23313,1,0,0:0:0:0:
320,192,23368,1,0,0:0:0:0:
192,192,23368,1,0,0:0:0:0:
64,192,23424,1,0,0:0:0:0:
448,192,23424,1,0,0:0:0:0:
64,192,23535,1,0,0:0:0:0:
192,192,23535,1,0,0:0:0:0:
320,192,23535,1,0,0:0:0:0:
192,192,23646,128,0,23868:0:0:0:0:
448,192,23646,128,0,23757:0:0:0:0:
448,192,23868,1,0,0:0:0:0:
320,192,23896,1,0,0:0:0:0:
192,192,23924,1,0,0:0:0:0:
64,192,23952,1,0,0:0:0:0:
320,192,23979,1,0,0:0:0:0:
448,192,24007,1,0,0:0:0:0:
192,192,24035,1,0,0:0:0:0:
64,192,24063,1,0,0:0:0:0:
320,192,24091,128,0,25646:0:0:0:0:
448,192,24091,128,0,25646:0:0:0:0:
64,192,25646,1,0,0:0:0:0:
192,192,25646,1,0,0:0:0:0:
320,192,25702,1,0,0:0:0:0:
448,192,25702,1,0,0:0:0:0:
192,192,25757,1,0,0:0:0:0:
64,192,25757,1,0,0:0:0:0:
320,192,25813,1,0,0:0:0:0:
448,192,25813,1,0,0:0:0:0:
192,192,25868,1,0,0:0:0:0:
64,192,25868,128,0,27424:0:0:0:0:
448,192,25868,128,0,27424:0:0:0:0:
192,192,27424,128,0,27646:0:0:0:0:
320,192,27424,128,0,27646:0:0:0:0:
64,192,27646,128,0,27868:0:0:0:0:
192,192,27757,128,0,27868:0:0:0:0:
448,192,27868,128,0,28091:0:0:0:0:
320,192,27979,128,0,28091:0:0:0:0:
64,192,28091,128,0,28313:0:0:0:0:
192,192,28091,128,0,28202:0:0:0:0:
448,192,28202,128,0,28313:0:0:0:0:
320,192,28313,128,0,28535:0:0:0:0:
192,192,28313,128,0,28424:0:0:0:0:
192,192,28535,5,0,0:0:0:0:
64,192,28535,1,0,0:0:0:0:
448,192,28535,1,0,0:0:0:0:
320,192,28591,5,0,0:0:0:0:
64,192,28646,5,0,0:0:0:0:
448,192,28646,1,0,0:0:0:0:
192,192,28702,5,0,0:0:0:0:
320,192,28757,1,0,0:0:0:0:
448,192,28757,1,0,0:0:0:0:
64,192,28813,5,0,0:0:0:0:
192,192,28868,5,0,0:0:0:0:
448,192,28868,1,0,0:0:0:0:
320,192,28924,5,0,0:0:0:0:
64,192,28979,5,0,0:0:0:0:
448,192,28979,1,0,0:0:0:0:
192,192,29035,5,0,0:0:0:0:
448,192,29091,5,0,0:0:0:0:
320,192,29091,1,0,0:0:0:0:
64,192,29146,5,0,0:0:0:0:
448,192,29202,1,0,0:0:0:0:
192,192,29202,1,0,0:0:0:0:
320,192,29257,5,0,0:0:0:0:
448,192,29313,5,0,0:0:0:0:
64,192,29313,1,0,0:0:0:0:
192,192,29368,5,0,0:0:0:0:
320,192,29424,5,0,0:0:0:0:
64,192,29868,1,0,0:0:0:0:
320,192,29868,1,0,0:0:0:0:
320,192,30313,1,0,0:0:0:0:
192,192,30313,1,0,0:0:0:0:
448,192,30313,1,0,0:0:0:0:
64,192,30757,128,0,30924:0:0:0:0:
448,192,30757,128,0,30924:0:0:0:0:
448,192,30979,128,0,31146:0:0:0:0:
64,192,30979,128,0,31146:0:0:0:0:
320,192,31202,1,0,0:0:0:0:
448,192,31202,1,0,0:0:0:0:
192,192,31257,1,0,0:0:0:0:
64,192,31257,1,0,0:0:0:0:
320,192,31313,1,0,0:0:0:0:
448,192,31313,1,0,0:0:0:0:
192,192,31368,1,0,0:0:0:0:
64,192,31368,1,0,0:0:0:0:
320,192,31424,1,0,0:0:0:0:
448,192,31424,1,0,0:0:0:0:
192,192,31479,1,0,0:0:0:0:
64,192,31479,1,0,0:0:0:0:
320,192,31535,1,0,0:0:0:0:
448,192,31535,1,0,0:0:0:0:
192,192,31591,1,0,0:0:0:0:
64,192,31591,1,0,0:0:0:0:
320,192,31646,1,0,0:0:0:0:
448,192,31646,1,0,0:0:0:0:
192,192,31702,1,0,0:0:0:0:
64,192,31702,1,0,0:0:0:0:
320,192,31757,1,0,0:0:0:0:
448,192,31757,1,0,0:0:0:0:
192,192,31813,1,0,0:0:0:0:
64,192,31813,1,0,0:0:0:0:
320,192,31868,1,0,0:0:0:0:
448,192,31868,1,0,0:0:0:0:
192,192,31924,1,0,0:0:0:0:
64,192,31924,1,0,0:0:0:0:
320,192,31979,1,0,0:0:0:0:
448,192,31979,1,0,0:0:0:0:
64,192,32035,1,0,0:0:0:0:
192,192,32035,1,0,0:0:0:0:
320,192,32091,128,0,32313:0:0:0:0:
448,192,32091,128,0,32202:0:0:0:0:
192,192,32313,1,0,0:0:0:0:
448,192,32313,1,0,0:0:0:0:
320,192,32368,1,0,0:0:0:0:
64,192,32368,1,0,0:0:0:0:
192,192,32424,1,0,0:0:0:0:
448,192,32424,1,0,0:0:0:0:
64,192,32535,1,0,0:0:0:0:
192,192,32535,1,0,0:0:0:0:
448,192,32535,1,0,0:0:0:0:
448,192,32646,1,0,0:0:0:0:
320,192,32674,1,0,0:0:0:0:
192,192,32702,1,0,0:0:0:0:
64,192,32729,1,0,0:0:0:0:
320,192,32757,128,0,32979:0:0:0:0:
448,192,32757,128,0,32868:0:0:0:0:
64,192,32979,1,0,0:0:0:0:
192,192,32979,1,0,0:0:0:0:
320,192,33035,1,0,0:0:0:0:
448,192,33035,1,0,0:0:0:0:
64,192,33091,1,0,0:0:0:0:
192,192,33091,1,0,0:0:0:0:
320,192,33146,1,0,0:0:0:0:
448,192,33146,1,0,0:0:0:0:
192,192,33202,1,0,0:0:0:0:
64,192,33202,1,0,0:0:0:0:
320,192,33257,1,0,0:0:0:0:
448,192,33257,1,0,0:0:0:0:
192,192,33313,1,0,0:0:0:0:
64,192,33313,1,0,0:0:0:0:
320,192,33368,1,0,0:0:0:0:
448,192,33368,1,0,0:0:0:0:
192,192,33424,1,0,0:0:0:0:
64,192,33424,1,0,0:0:0:0:
320,192,33479,1,0,0:0:0:0:
448,192,33479,1,0,0:0:0:0:
192,192,33535,1,0,0:0:0:0:
64,192,33535,1,0,0:0:0:0:
320,192,33591,1,0,0:0:0:0:
448,192,33591,1,0,0:0:0:0:
192,192,33646,1,0,0:0:0:0:
64,192,33646,1,0,0:0:0:0:
320,192,33702,1,0,0:0:0:0:
448,192,33702,1,0,0:0:0:0:
192,192,33757,1,0,0:0:0:0:
64,192,33757,1,0,0:0:0:0:
320,192,33813,1,0,0:0:0:0:
448,192,33813,1,0,0:0:0:0:
192,192,33868,128,0,34091:0:0:0:0:
64,192,33868,128,0,33979:0:0:0:0:
64,192,34091,1,0,0:0:0:0:
320,192,34091,1,0,0:0:0:0:
448,192,34091,1,0,0:0:0:0:
448,192,34313,1,0,0:0:0:0:
320,192,34341,1,0,0:0:0:0:
192,192,34368,1,0,0:0:0:0:
64,192,34396,1,0,0:0:0:0:
320,192,34424,1,0,0:0:0:0:
448,192,34424,1,0,0:0:0:0:
192,192,34479,1,0,0:0:0:0:
64,192,34479,1,0,0:0:0:0:
448,192,34535,1,0,0:0:0:0:
320,192,34563,1,0,0:0:0:0:
192,192,34591,1,0,0:0:0:0:
64,192,34618,1,0,0:0:0:0:
448,192,34646,1,0,0:0:0:0:
320,192,34646,1,0,0:0:0:0:
192,192,34702,1,0,0:0:0:0:
64,192,34702,1,0,0:0:0:0:
320,192,34757,1,0,0:0:0:0:
448,192,34757,1,0,0:0:0:0:
192,192,34813,1,0,0:0:0:0:
64,192,34813,1,0,0:0:0:0:
320,192,34868,1,0,0:0:0:0:
448,192,34868,1,0,0:0:0:0:
192,192,34924,1,0,0:0:0:0:
64,192,34924,1,0,0:0:0:0:
320,192,34979,1,0,0:0:0:0:
448,192,34979,1,0,0:0:0:0:
192,192,35035,1,0,0:0:0:0:
64,192,35035,1,0,0:0:0:0:
320,192,35091,1,0,0:0:0:0:
448,192,35091,1,0,0:0:0:0:
192,192,35146,1,0,0:0:0:0:
64,192,35146,1,0,0:0:0:0:
320,192,35202,1,0,0:0:0:0:
448,192,35202,1,0,0:0:0:0:
192,192,35257,1,0,0:0:0:0:
64,192,35257,1,0,0:0:0:0:
320,192,35313,1,0,0:0:0:0:
448,192,35313,1,0,0:0:0:0:
192,192,35368,1,0,0:0:0:0:
64,192,35368,1,0,0:0:0:0:
320,192,35424,1,0,0:0:0:0:
448,192,35424,1,0,0:0:0:0:
192,192,35479,1,0,0:0:0:0:
64,192,35479,1,0,0:0:0:0:
320,192,35535,1,0,0:0:0:0:
448,192,35535,1,0,0:0:0:0:
192,192,35591,1,0,0:0:0:0:
64,192,35591,1,0,0:0:0:0:
320,192,35646,128,0,35868:0:0:0:0:
448,192,35646,128,0,35757:0:0:0:0:
64,192,35868,1,0,0:0:0:0:
448,192,35868,1,0,0:0:0:0:
320,192,35924,1,0,0:0:0:0:
192,192,35924,1,0,0:0:0:0:
64,192,35979,1,0,0:0:0:0:
448,192,35979,1,0,0:0:0:0:
64,192,36091,1,0,0:0:0:0:
192,192,36091,1,0,0:0:0:0:
320,192,36091,1,0,0:0:0:0:
64,192,36202,1,0,0:0:0:0:
192,192,36229,1,0,0:0:0:0:
320,192,36257,1,0,0:0:0:0:
448,192,36285,1,0,0:0:0:0:
64,192,36313,128,0,36424:0:0:0:0:
192,192,36313,128,0,36535:0:0:0:0:
64,192,36535,1,0,0:0:0:0:
320,192,36535,128,0,36757:0:0:0:0:
448,192,36535,128,0,36646:0:0:0:0:
448,192,36757,1,0,0:0:0:0:
192,192,36757,128,0,36979:0:0:0:0:
64,192,36757,128,0,36868:0:0:0:0:
320,192,36979,128,0,37202:0:0:0:0:
64,192,36979,1,0,0:0:0:0:
448,192,36979,128,0,37091:0:0:0:0:
448,192,37202,1,0,0:0:0:0:
64,192,37202,1,0,0:0:0:0:
192,192,37202,1,0,0:0:0:0:
320,192,37313,1,0,0:0:0:0:
448,192,37313,1,0,0:0:0:0:
192,192,37368,1,0,0:0:0:0:
64,192,37368,1,0,0:0:0:0:
320,192,37424,1,0,0:0:0:0:
448,192,37424,1,0,0:0:0:0:
320,192,37535,1,0,0:0:0:0:
64,192,37535,128,0,37757:0:0:0:0:
192,192,37535,128,0,37646:0:0:0:0:
192,192,37757,1,0,0:0:0:0:
448,192,37757,1,0,0:0:0:0:
320,192,37757,1,0,0:0:0:0:
64,192,37868,1,0,0:0:0:0:
320,192,37868,1,0,0:0:0:0:
448,192,37868,128,0,37979:0:0:0:0:
64,192,37979,1,0,0:0:0:0:
192,192,38007,1,0,0:0:0:0:
320,192,38035,1,0,0:0:0:0:
448,192,38063,1,0,0:0:0:0:
64,192,38091,128,0,38202:0:0:0:0:
192,192,38091,128,0,38202:0:0:0:0:
320,192,38202,128,0,38313:0:0:0:0:
448,192,38202,128,0,38313:0:0:0:0:
64,192,38313,1,0,0:0:0:0:
192,192,38313,1,0,0:0:0:0:
448,192,38368,1,0,0:0:0:0:
320,192,38368,1,0,0:0:0:0:
64,192,38424,1,0,0:0:0:0:
192,192,38424,1,0,0:0:0:0:
448,192,38479,1,0,0:0:0:0:
320,192,38479,1,0,0:0:0:0:
64,192,38535,1,0,0:0:0:0:
192,192,38535,1,0,0:0:0:0:
448,192,38591,1,0,0:0:0:0:
320,192,38591,1,0,0:0:0:0:
64,192,38646,1,0,0:0:0:0:
192,192,38646,1,0,0:0:0:0:
448,192,38702,1,0,0:0:0:0:
320,192,38702,1,0,0:0:0:0:
64,192,38757,1,0,0:0:0:0:
192,192,38757,1,0,0:0:0:0:
448,192,38813,1,0,0:0:0:0:
320,192,38813,1,0,0:0:0:0:
64,192,38868,1,0,0:0:0:0:
192,192,38868,1,0,0:0:0:0:
448,192,38924,1,0,0:0:0:0:
320,192,38924,1,0,0:0:0:0:
64,192,38979,1,0,0:0:0:0:
192,192,38979,1,0,0:0:0:0:
448,192,39035,1,0,0:0:0:0:
320,192,39035,1,0,0:0:0:0:
64,192,39091,1,0,0:0:0:0:
192,192,39091,1,0,0:0:0:0:
320,192,39146,1,0,0:0:0:0:
448,192,39146,1,0,0:0:0:0:
64,192,39202,128,0,39424:0:0:0:0:
192,192,39202,128,0,39313:0:0:0:0:
192,192,39424,1,0,0:0:0:0:
320,192,39424,1,0,0:0:0:0:
448,192,39479,1,0,0:0:0:0:
64,192,39479,1,0,0:0:0:0:
192,192,39535,1,0,0:0:0:0:
320,192,39535,1,0,0:0:0:0:
64,192,39646,1,0,0:0:0:0:
320,192,39646,1,0,0:0:0:0:
448,192,39646,1,0,0:0:0:0:
64,192,39757,1,0,0:0:0:0:
192,192,39785,1,0,0:0:0:0:
448,192,39813,1,0,0:0:0:0:
320,192,39841,1,0,0:0:0:0:
64,192,39868,128,0,40091:0:0:0:0:
192,192,39868,128,0,39979:0:0:0:0:
320,192,40091,1,0,0:0:0:0:
448,192,40091,1,0,0:0:0:0:
64,192,40146,1,0,0:0:0:0:
192,192,40146,1,0,0:0:0:0:
320,192,40202,1,0,0:0:0:0:
448,192,40202,1,0,0:0:0:0:
64,192,40257,1,0,0:0:0:0:
192,192,40257,1,0,0:0:0:0:
448,192,40313,1,0,0:0:0:0:
320,192,40313,1,0,0:0:0:0:
64,192,40368,1,0,0:0:0:0:
192,192,40368,1,0,0:0:0:0:
448,192,40424,1,0,0:0:0:0:
320,192,40424,1,0,0:0:0:0:
64,192,40479,1,0,0:0:0:0:
192,192,40479,1,0,0:0:0:0:
448,192,40535,1,0,0:0:0:0:
320,192,40535,1,0,0:0:0:0:
64,192,40591,1,0,0:0:0:0:
192,192,40591,1,0,0:0:0:0:
448,192,40646,1,0,0:0:0:0:
320,192,40646,1,0,0:0:0:0:
64,192,40702,1,0,0:0:0:0:
192,192,40702,1,0,0:0:0:0:
448,192,40757,1,0,0:0:0:0:
320,192,40757,1,0,0:0:0:0:
64,192,40813,1,0,0:0:0:0:
192,192,40813,1,0,0:0:0:0:
448,192,40868,1,0,0:0:0:0:
320,192,40868,1,0,0:0:0:0:
64,192,40924,1,0,0:0:0:0:
192,192,40924,1,0,0:0:0:0:
448,192,40979,128,0,41202:0:0:0:0:
320,192,40979,128,0,41091:0:0:0:0:
64,192,41202,1,0,0:0:0:0:
192,192,41202,1,0,0:0:0:0:
320,192,41202,1,0,0:0:0:0:
64,192,41424,1,0,0:0:0:0:
192,192,41452,1,0,0:0:0:0:
320,192,41479,1,0,0:0:0:0:
448,192,41507,1,0,0:0:0:0:
64,192,41535,1,0,0:0:0:0:
192,192,41535,1,0,0:0:0:0:
448,192,41591,1,0,0:0:0:0:
320,192,41591,1,0,0:0:0:0:
64,192,41646,1,0,0:0:0:0:
192,192,41674,1,0,0:0:0:0:
320,192,41702,1,0,0:0:0:0:
448,192,41729,1,0,0:0:0:0:
192,192,41757,1,0,0:0:0:0:
64,192,41757,1,0,0:0:0:0:
448,192,41813,1,0,0:0:0:0:
320,192,41813,1,0,0:0:0:0:
64,192,41868,1,0,0:0:0:0:
192,192,41868,1,0,0:0:0:0:
448,192,41924,1,0,0:0:0:0:
320,192,41924,1,0,0:0:0:0:
64,192,41979,1,0,0:0:0:0:
192,192,41979,1,0,0:0:0:0:
448,192,42035,1,0,0:0:0:0:
320,192,42035,1,0,0:0:0:0:
64,192,42091,1,0,0:0:0:0:
192,192,42091,1,0,0:0:0:0:
448,192,42146,1,0,0:0:0:0:
320,192,42146,1,0,0:0:0:0:
64,192,42202,1,0,0:0:0:0:
192,192,42202,1,0,0:0:0:0:
448,192,42257,1,0,0:0:0:0:
320,192,42257,1,0,0:0:0:0:
64,192,42313,1,0,0:0:0:0:
192,192,42313,1,0,0:0:0:0:
448,192,42368,1,0,0:0:0:0:
320,192,42368,1,0,0:0:0:0:
64,192,42424,1,0,0:0:0:0:
192,192,42424,1,0,0:0:0:0:
448,192,42479,1,0,0:0:0:0:
320,192,42479,1,0,0:0:0:0:
64,192,42535,1,0,0:0:0:0:
192,192,42535,1,0,0:0:0:0:
448,192,42591,1,0,0:0:0:0:
320,192,42591,1,0,0:0:0:0:
64,192,42646,1,0,0:0:0:0:
192,192,42646,1,0,0:0:0:0:
448,192,42702,1,0,0:0:0:0:
320,192,42702,1,0,0:0:0:0:
64,192,42757,128,0,42979:0:0:0:0:
192,192,42757,128,0,42868:0:0:0:0:
192,192,42979,1,0,0:0:0:0:
448,192,42979,1,0,0:0:0:0:
320,192,43035,1,0,0:0:0:0:
64,192,43035,1,0,0:0:0:0:
192,192,43091,1,0,0:0:0:0:
448,192,43091,1,0,0:0:0:0:
192,192,43202,1,0,0:0:0:0:
320,192,43202,1,0,0:0:0:0:
448,192,43202,1,0,0:0:0:0:
448,192,43313,1,0,0:0:0:0:
320,192,43341,1,0,0:0:0:0:
192,192,43368,1,0,0:0:0:0:
64,192,43396,1,0,0:0:0:0:
320,192,43424,128,0,43646:0:0:0:0:
448,192,43424,128,0,43535:0:0:0:0:
448,192,43646,128,0,45202:0:0:0:0:
64,192,43646,128,0,45202:0:0:0:0:
192,192,44979,1,0,0:0:0:0:
320,192,44979,1,0,0:0:0:0:
192,192,45202,1,0,0:0:0:0:
320,192,45202,1,0,0:0:0:0:
64,192,45424,1,0,0:0:0:0:
192,192,45424,1,0,0:0:0:0:
448,192,45424,1,0,0:0:0:0:
64,192,45535,1,0,0:0:0:0:
320,192,45535,1,0,0:0:0:0:
448,192,45535,1,0,0:0:0:0:
448,192,45646,1,0,0:0:0:0:
320,192,45646,128,0,45868:0:0:0:0:
192,192,45646,128,0,45757:0:0:0:0:
192,192,45868,1,0,0:0:0:0:
64,192,45868,128,0,46091:0:0:0:0:
448,192,45868,128,0,45979:0:0:0:0:
320,192,46091,1,0,0:0:0:0:
448,192,46091,1,0,0:0:0:0:
192,192,46146,1,0,0:0:0:0:
64,192,46146,1,0,0:0:0:0:
320,192,46202,1,0,0:0:0:0:
448,192,46202,1,0,0:0:0:0:
64,192,46313,1,0,0:0:0:0:
192,192,46313,1,0,0:0:0:0:
320,192,46368,1,0,0:0:0:0:
448,192,46368,1,0,0:0:0:0:
192,192,46424,1,0,0:0:0:0:
64,192,46424,1,0,0:0:0:0:
320,192,46479,1,0,0:0:0:0:
448,192,46479,1,0,0:0:0:0:
192,192,46535,128,0,46757:0:0:0:0:
64,192,46535,128,0,46646:0:0:0:0:
448,192,46757,1,0,0:0:0:0:
64,192,46757,128,0,46979:0:0:0:0:
320,192,46757,128,0,46868:0:0:0:0:
192,192,46979,1,0,0:0:0:0:
448,192,46979,1,0,0:0:0:0:
320,192,46979,1,0,0:0:0:0:
320,192,47091,1,0,0:0:0:0:
64,192,47091,1,0,0:0:0:0:
192,192,47091,1,0,0:0:0:0:
64,192,47202,1,0,0:0:0:0:
448,192,47202,128,0,47313:0:0:0:0:
192,192,47202,128,0,47424:0:0:0:0:
320,192,47424,1,0,0:0:0:0:
448,192,47424,1,0,0:0:0:0:
192,192,47479,1,0,0:0:0:0:
64,192,47479,1,0,0:0:0:0:
448,192,47535,128,0,47757:0:0:0:0:
320,192,47535,128,0,47646:0:0:0:0:
192,192,47757,1,0,0:0:0:0:
64,192,47785,1,0,0:0:0:0:
320,192,47813,1,0,0:0:0:0:
448,192,47841,1,0,0:0:0:0:
64,192,47868,1,0,0:0:0:0:
192,192,47868,1,0,0:0:0:0:
448,192,47979,1,0,0:0:0:0:
320,192,47979,1,0,0:0:0:0:
192,192,48091,128,0,48535:0:0:0:0:
64,192,48091,128,0,48313:0:0:0:0:
448,192,48091,128,0,48202:0:0:0:0:
64,192,48535,1,0,0:0:0:0:
320,192,48535,1,0,0:0:0:0:
448,192,48535,1,0,0:0:0:0:
64,192,48757,1,0,0:0:0:0:
192,192,48757,1,0,0:0:0:0:
448,192,48757,128,0,48813:0:0:0:0:
320,192,48813,128,0,48868:0:0:0:0:
192,192,48868,128,0,48924:0:0:0:0:
64,192,48924,128,0,48979:0:0:0:0:
192,192,48979,1,0,0:0:0:0:
320,192,48979,128,0,49202:0:0:0:0:
448,192,48979,128,0,49091:0:0:0:0:
192,192,49202,1,0,0:0:0:0:
448,192,49202,128,0,49424:0:0:0:0:
64,192,49202,128,0,49313:0:0:0:0:
64,192,49424,1,0,0:0:0:0:
192,192,49424,128,0,49646:0:0:0:0:
320,192,49424,128,0,49535:0:0:0:0:
320,192,49646,1,0,0:0:0:0:
448,192,49646,1,0,0:0:0:0:
64,192,49646,1,0,0:0:0:0:
192,192,49757,1,0,0:0:0:0:
320,192,49757,1,0,0:0:0:0:
448,192,49757,1,0,0:0:0:0:
64,192,49868,1,0,0:0:0:0:
192,192,49868,1,0,0:0:0:0:
320,192,49924,1,0,0:0:0:0:
448,192,49924,1,0,0:0:0:0:
192,192,49979,1,0,0:0:0:0:
64,192,49979,1,0,0:0:0:0:
320,192,50035,1,0,0:0:0:0:
448,192,50035,1,0,0:0:0:0:
192,192,50091,128,0,50313:0:0:0:0:
64,192,50091,128,0,50202:0:0:0:0:
320,192,50313,1,0,0:0:0:0:
64,192,50313,128,0,50535:0:0:0:0:
448,192,50313,128,0,50424:0:0:0:0:
192,192,50535,1,0,0:0:0:0:
320,192,50535,1,0,0:0:0:0:
448,192,50535,1,0,0:0:0:0:
64,192,50646,1,0,0:0:0:0:
448,192,50646,1,0,0:0:0:0:
320,192,50646,1,0,0:0:0:0:
448,192,50757,128,0,51202:0:0:0:0:
192,192,50757,128,0,51054:0:0:0:0:
64,192,50757,128,0,50905:0:0:0:0:
64,192,51202,128,0,51313:0:0:0:0:
192,192,51202,128,0,51313:0:0:0:0:
320,192,51313,128,0,51424:0:0:0:0:
448,192,51313,128,0,51424:0:0:0:0:
64,192,51424,1,0,0:0:0:0:
192,192,51424,1,0,0:0:0:0:
320,192,51479,1,0,0:0:0:0:
448,192,51479,1,0,0:0:0:0:
64,192,51535,128,0,51646:0:0:0:0:
192,192,51535,128,0,51591:0:0:0:0:
448,192,51646,1,0,0:0:0:0:
320,192,51674,1,0,0:0:0:0:
192,192,51702,1,0,0:0:0:0:
64,192,51729,1,0,0:0:0:0:
448,192,51757,1,0,0:0:0:0:
320,192,51785,1,0,0:0:0:0:
192,192,51813,1,0,0:0:0:0:
64,192,51841,1,0,0:0:0:0:
448,192,51868,1,0,0:0:0:0:
320,192,51896,1,0,0:0:0:0:
192,192,51924,1,0,0:0:0:0:
64,192,51952,1,0,0:0:0:0:
448,192,51979,1,0,0:0:0:0:
320,192,52007,1,0,0:0:0:0:
192,192,52035,1,0,0:0:0:0:
64,192,52063,1,0,0:0:0:0:
320,192,52091,128,0,52313:0:0:0:0:
448,192,52091,128,0,52202:0:0:0:0:
192,192,52313,1,0,0:0:0:0:
64,192,52313,1,0,0:0:0:0:
448,192,52313,1,0,0:0:0:0:
64,192,52424,1,0,0:0:0:0:
320,192,52424,1,0,0:0:0:0:
448,192,52424,1,0,0:0:0:0:
320,192,52535,1,0,0:0:0:0:
192,192,52535,1,0,0:0:0:0:
448,192,52535,1,0,0:0:0:0:
64,192,52646,1,0,0:0:0:0:
320,192,52646,1,0,0:0:0:0:
448,192,52646,1,0,0:0:0:0:
448,192,52757,128,0,52979:0:0:0:0:
64,192,52757,1,0,0:0:0:0:
192,192,52757,128,0,52868:0:0:0:0:
320,192,52979,1,0,0:0:0:0:
192,192,52979,128,0,53202:0:0:0:0:
64,192,52979,128,0,53091:0:0:0:0:
320,192,53202,1,0,0:0:0:0:
448,192,53202,1,0,0:0:0:0:
192,192,53257,1,0,0:0:0:0:
64,192,53257,1,0,0:0:0:0:
320,192,53313,1,0,0:0:0:0:
448,192,53313,1,0,0:0:0:0:
64,192,53424,1,0,0:0:0:0:
192,192,53424,1,0,0:0:0:0:
320,192,53479,1,0,0:0:0:0:
448,192,53479,1,0,0:0:0:0:
192,192,53535,1,0,0:0:0:0:
64,192,53535,1,0,0:0:0:0:
320,192,53591,1,0,0:0:0:0:
448,192,53591,1,0,0:0:0:0:
64,192,53646,128,0,53868:0:0:0:0:
192,192,53646,128,0,53757:0:0:0:0:
320,192,53868,1,0,0:0:0:0:
192,192,53868,128,0,54091:0:0:0:0:
448,192,53868,128,0,53979:0:0:0:0:
64,192,54091,1,0,0:0:0:0:
320,192,54091,1,0,0:0:0:0:
448,192,54091,1,0,0:0:0:0:
192,192,54202,1,0,0:0:0:0:
320,192,54202,1,0,0:0:0:0:
448,192,54202,1,0,0:0:0:0:
192,192,54313,1,0,0:0:0:0:
448,192,54313,128,0,54535:0:0:0:0:
64,192,54313,128,0,54424:0:0:0:0:
64,192,54535,1,0,0:0:0:0:
192,192,54535,1,0,0:0:0:0:
320,192,54535,1,0,0:0:0:0:
320,192,54646,1,0,0:0:0:0:
192,192,54646,128,0,54868:0:0:0:0:
448,192,54646,128,0,54757:0:0:0:0:
320,192,54868,1,0,0:0:0:0:
448,192,54868,128,0,55091:0:0:0:0:
64,192,54868,128,0,54979:0:0:0:0:
64,192,55091,1,0,0:0:0:0:
192,192,55118,1,0,0:0:0:0:
320,192,55146,1,0,0:0:0:0:
448,192,55174,1,0,0:0:0:0:
64,192,55202,128,0,55646:0:0:0:0:
192,192,55202,128,0,55424:0:0:0:0:
448,192,55646,1,0,0:0:0:0:
192,192,55646,1,0,0:0:0:0:
320,192,55646,128,0,55868:0:0:0:0:
64,192,55757,1,0,0:0:0:0:
192,192,55868,1,0,0:0:0:0:
448,192,55868,1,0,0:0:0:0:
64,192,55868,128,0,56091:0:0:0:0:
320,192,55979,1,0,0:0:0:0:
192,192,56091,1,0,0:0:0:0:
320,192,56091,1,0,0:0:0:0:
448,192,56091,1,0,0:0:0:0:
64,192,56202,1,0,0:0:0:0:
192,192,56202,1,0,0:0:0:0:
448,192,56202,1,0,0:0:0:0:
64,192,56313,1,0,0:0:0:0:
192,192,56313,128,0,56535:0:0:0:0:
320,192,56313,128,0,56424:0:0:0:0:
320,192,56535,1,0,0:0:0:0:
64,192,56535,128,0,56757:0:0:0:0:
448,192,56535,128,0,56646:0:0:0:0:
320,192,56757,5,0,0:0:0:0:
448,192,56757,1,0,0:0:0:0:
192,192,56813,1,0,0:0:0:0:
64,192,56813,1,0,0:0:0:0:
320,192,56868,1,0,0:0:0:0:
448,192,56868,1,0,0:0:0:0:
320,192,56979,5,0,0:0:0:0:
448,192,56979,1,0,0:0:0:0:
192,192,57035,1,0,0:0:0:0:
64,192,57035,1,0,0:0:0:0:
320,192,57091,1,0,0:0:0:0:
448,192,57091,1,0,0:0:0:0:
192,192,57146,1,0,0:0:0:0:
64,192,57146,1,0,0:0:0:0:
320,192,57202,128,0,57424:0:0:0:0:
448,192,57202,128,0,57313:0:0:0:0:
448,192,57424,1,0,0:0:0:0:
64,192,57424,128,0,57646:0:0:0:0:
192,192,57424,128,0,57535:0:0:0:0:
192,192,57646,1,0,0:0:0:0:
320,192,57646,1,0,0:0:0:0:
448,192,57646,1,0,0:0:0:0:
64,192,57757,5,0,0:0:0:0:
192,192,57785,5,0,0:0:0:0:
320,192,57813,5,0,0:0:0:0:
448,192,57841,5,0,0:0:0:0:
64,192,57868,128,0,58757:0:0:0:0:
192,192,57868,1,0,0:0:0:0:
320,192,57924,1,0,0:0:0:0:
448,192,57979,1,0,0:0:0:0:
192,192,58035,1,0,0:0:0:0:
320,192,58091,1,0,0:0:0:0:
448,192,58146,1,0,0:0:0:0:
320,192,58202,1,0,0:0:0:0:
192,192,58257,1,0,0:0:0:0:
320,192,58313,1,0,0:0:0:0:
448,192,58368,1,0,0:0:0:0:
192,192,58424,1,0,0:0:0:0:
320,192,58479,1,0,0:0:0:0:
192,192,58535,1,0,0:0:0:0:
448,192,58591,1,0,0:0:0:0:
320,192,58646,1,0,0:0:0:0:
192,192,58702,1,0,0:0:0:0:
448,192,58757,128,0,59424:0:0:0:0:
320,192,58757,1,0,0:0:0:0:
64,192,58813,1,0,0:0:0:0:
192,192,58868,1,0,0:0:0:0:
320,192,58924,1,0,0:0:0:0:
192,192,58979,1,0,0:0:0:0:
64,192,59035,1,0,0:0:0:0:
192,192,59091,1,0,0:0:0:0:
64,192,59146,1,0,0:0:0:0:
320,192,59202,1,0,0:0:0:0:
192,192,59257,1,0,0:0:0:0:
320,192,59313,1,0,0:0:0:0:
64,192,59368,1,0,0:0:0:0:
192,192,59424,1,0,0:0:0:0:
320,192,59479,1,0,0:0:0:0:
192,192,59535,1,0,0:0:0:0:
448,192,59591,1,0,0:0:0:0:
192,192,59646,5,0,0:0:0:0:
64,192,59646,1,0,0:0:0:0:
320,192,59673,1,0,0:0:0:0:
448,192,59701,1,0,0:0:0:0:
64,192,60312,1,0,0:0:0:0:
192,192,60423,1,0,0:0:0:0:
448,192,60534,1,0,0:0:0:0:
320,192,60562,1,0,0:0:0:0:
192,192,60590,1,0,0:0:0:0:
320,192,60757,1,0,0:0:0:0:
448,192,60868,1,0,0:0:0:0:
320,192,61090,1,0,0:0:0:0:
64,192,61201,1,0,0:0:0:0:
320,192,61312,1,0,0:0:0:0:
192,192,61423,1,0,0:0:0:0:
64,192,61423,1,0,0:0:0:0:
64,192,61757,1,0,0:0:0:0:
320,192,61812,1,0,0:0:0:0:
448,192,61868,1,0,0:0:0:0:
320,192,62034,1,0,0:0:0:0:
192,192,62201,1,0,0:0:0:0:
448,192,62312,1,0,0:0:0:0:
320,192,62312,1,0,0:0:0:0:
192,192,62340,1,0,0:0:0:0:
64,192,62368,1,0,0:0:0:0:
64,192,62757,1,0,0:0:0:0:
448,192,62979,1,0,0:0:0:0:
320,192,63090,1,0,0:0:0:0:
448,192,63201,1,0,0:0:0:0:
192,192,63201,1,0,0:0:0:0:
64,192,63423,1,0,0:0:0:0:
64,192,63868,1,0,0:0:0:0:
192,192,63979,1,0,0:0:0:0:
448,192,64090,1,0,0:0:0:0:
320,192,64090,1,0,0:0:0:0:
64,192,64312,1,0,0:0:0:0:
192,192,64423,1,0,0:0:0:0:
448,192,64534,1,0,0:0:0:0:
64,192,64645,1,0,0:0:0:0:
320,192,64979,128,0,65868:0:0:0:0:
448,192,64979,128,0,65868:0:0:0:0:
192,192,65090,1,0,0:0:0:0:
64,192,65145,1,0,0:0:0:0:
64,192,65868,128,0,65923:0:0:0:0:
192,192,65923,128,0,65979:0:0:0:0:
320,192,65979,128,0,66034:0:0:0:0:
448,192,66034,128,0,66090:0:0:0:0:
64,192,66090,128,0,66146:0:0:0:0:
192,192,66146,128,0,66201:0:0:0:0:
448,192,66201,128,0,66257:0:0:0:0:
320,192,66257,128,0,66312:0:0:0:0:
192,192,66312,128,0,66368:0:0:0:0:
64,192,66368,128,0,66423:0:0:0:0:
448,192,66423,128,0,66479:0:0:0:0:
320,192,66479,128,0,66534:0:0:0:0:
64,192,66534,128,0,66590:0:0:0:0:
192,192,66590,128,0,66646:0:0:0:0:
448,192,66646,128,0,66701:0:0:0:0:
320,192,66701,128,0,66757:0:0:0:0:
448,192,66757,128,0,67423:0:0:0:0:
192,192,66757,128,0,67312:0:0:0:0:
64,192,66757,128,0,67201:0:0:0:0:
64,192,67423,128,0,67534:0:0:0:0:
192,192,67534,128,0,67645:0:0:0:0:
320,192,67645,128,0,68312:0:0:0:0:
64,192,67645,128,0,68201:0:0:0:0:
448,192,67645,128,0,68090:0:0:0:0:
192,192,68312,128,0,68423:0:0:0:0:
448,192,68423,128,0,68534:0:0:0:0:
192,192,68534,128,0,69201:0:0:0:0:
320,192,68534,128,0,68979:0:0:0:0:
64,192,68534,128,0,69090:0:0:0:0:
448,192,68868,128,0,69201:0:0:0:0:
320,192,69201,128,0,69312:0:0:0:0:
448,192,69312,128,0,69423:0:0:0:0:
64,192,69423,128,0,69868:0:0:0:0:
192,192,69423,128,0,69757:0:0:0:0:
320,192,69423,128,0,69645:0:0:0:0:
448,192,69868,1,0,0:0:0:0:
320,192,69868,1,0,0:0:0:0:
192,192,69923,1,0,0:0:0:0:
320,192,69979,1,0,0:0:0:0:
448,192,70034,1,0,0:0:0:0:
192,192,70090,1,0,0:0:0:0:
320,192,70090,1,0,0:0:0:0:
64,192,70090,128,0,70201:0:0:0:0:
448,192,70201,128,0,70312:0:0:0:0:
64,192,70312,1,0,0:0:0:0:
192,192,70312,1,0,0:0:0:0:
320,192,70312,1,0,0:0:0:0:
320,192,70423,1,0,0:0:0:0:
192,192,70423,1,0,0:0:0:0:
64,192,70423,1,0,0:0:0:0:
64,192,70534,1,0,0:0:0:0:
320,192,70534,1,0,0:0:0:0:
448,192,70534,128,0,70590:0:0:0:0:
192,192,70590,128,0,70645:0:0:0:0:
64,192,70645,128,0,70701:0:0:0:0:
320,192,70701,128,0,70757:0:0:0:0:
64,192,70757,1,0,0:0:0:0:
192,192,70757,1,0,0:0:0:0:
448,192,70757,128,0,70812:0:0:0:0:
320,192,70812,128,0,70868:0:0:0:0:
192,192,70868,128,0,70923:0:0:0:0:
64,192,70923,128,0,70979:0:0:0:0:
448,192,70979,1,0,0:0:0:0:
320,192,70979,1,0,0:0:0:0:
320,192,71090,1,0,0:0:0:0:
192,192,71090,1,0,0:0:0:0:
64,192,71201,1,0,0:0:0:0:
192,192,71201,1,0,0:0:0:0:
320,192,71257,1,0,0:0:0:0:
448,192,71257,1,0,0:0:0:0:
192,192,71312,1,0,0:0:0:0:
64,192,71312,1,0,0:0:0:0:
320,192,71368,1,0,0:0:0:0:
448,192,71368,1,0,0:0:0:0:
64,192,71423,1,0,0:0:0:0:
192,192,71423,128,0,71479:0:0:0:0:
320,192,71479,128,0,71534:0:0:0:0:
448,192,71534,128,0,71590:0:0:0:0:
64,192,71590,128,0,71645:0:0:0:0:
448,192,71645,1,0,0:0:0:0:
320,192,71645,1,0,0:0:0:0:
192,192,71701,1,0,0:0:0:0:
64,192,71701,1,0,0:0:0:0:
320,192,71757,1,0,0:0:0:0:
448,192,71757,1,0,0:0:0:0:
64,192,71812,1,0,0:0:0:0:
192,192,71812,1,0,0:0:0:0:
320,192,71868,1,0,0:0:0:0:
448,192,71868,1,0,0:0:0:0:
192,192,71923,1,0,0:0:0:0:
64,192,71923,1,0,0:0:0:0:
320,192,71979,1,0,0:0:0:0:
448,192,71979,1,0,0:0:0:0:
64,192,72034,1,0,0:0:0:0:
192,192,72034,1,0,0:0:0:0:
448,192,72090,128,0,72757:0:0:0:0:
320,192,72090,128,0,72757:0:0:0:0:
192,192,72757,128,0,72979:0:0:0:0:
320,192,72979,128,0,73201:0:0:0:0:
448,192,72979,128,0,73201:0:0:0:0:
64,192,72979,1,0,0:0:0:0:
64,192,73201,128,0,73312:0:0:0:0:
192,192,73201,128,0,73312:0:0:0:0:
320,192,73312,128,0,73423:0:0:0:0:
192,192,73423,128,0,73645:0:0:0:0:
448,192,73423,128,0,73645:0:0:0:0:
320,192,73645,128,0,73757:0:0:0:0:
64,192,73645,128,0,73757:0:0:0:0:
64,192,73868,1,0,0:0:0:0:
448,192,73868,1,0,0:0:0:0:
320,192,73868,1,0,0:0:0:0:
320,192,73979,1,0,0:0:0:0:
448,192,73979,1,0,0:0:0:0:
192,192,73979,1,0,0:0:0:0:
320,192,74090,1,0,0:0:0:0:
64,192,74090,1,0,0:0:0:0:
448,192,74090,128,0,74534:0:0:0:0:
64,192,74312,1,0,0:0:0:0:
192,192,74312,1,0,0:0:0:0:
320,192,74312,1,0,0:0:0:0:
64,192,74534,1,0,0:0:0:0:
192,192,74534,1,0,0:0:0:0:
320,192,74534,1,0,0:0:0:0:
320,192,74645,1,0,0:0:0:0:
448,192,74645,1,0,0:0:0:0:
192,192,74701,1,0,0:0:0:0:
64,192,74701,1,0,0:0:0:0:
320,192,74756,1,0,0:0:0:0:
448,192,74756,1,0,0:0:0:0:
64,192,74868,1,0,0:0:0:0:
192,192,74868,1,0,0:0:0:0:
448,192,74868,1,0,0:0:0:0:
192,192,74979,1,0,0:0:0:0:
448,192,74979,1,0,0:0:0:0:
320,192,74979,128,0,75423:0:0:0:0:
448,192,75201,1,0,0:0:0:0:
192,192,75201,1,0,0:0:0:0:
64,192,75201,1,0,0:0:0:0:
192,192,75423,1,0,0:0:0:0:
448,192,75423,1,0,0:0:0:0:
64,192,75423,1,0,0:0:0:0:
320,192,75534,1,0,0:0:0:0:
448,192,75534,1,0,0:0:0:0:
64,192,75534,1,0,0:0:0:0:
192,192,75645,1,0,0:0:0:0:
448,192,75645,1,0,0:0:0:0:
64,192,75645,128,0,75868:0:0:0:0:
320,192,75868,1,0,0:0:0:0:
448,192,75868,1,0,0:0:0:0:
192,192,75923,1,0,0:0:0:0:
64,192,75923,1,0,0:0:0:0:
320,192,75979,1,0,0:0:0:0:
448,192,75979,128,0,76201:0:0:0:0:
64,192,76201,1,0,0:0:0:0:
192,192,76201,1,0,0:0:0:0:
320,192,76256,1,0,0:0:0:0:
448,192,76256,1,0,0:0:0:0:
192,192,76312,1,0,0:0:0:0:
64,192,76312,1,0,0:0:0:0:
320,192,76423,1,0,0:0:0:0:
192,192,76423,1,0,0:0:0:0:
320,192,76534,1,0,0:0:0:0:
448,192,76534,128,0,76756:0:0:0:0:
64,192,76756,1,0,0:0:0:0:
192,192,76784,1,0,0:0:0:0:
320,192,76812,1,0,0:0:0:0:
448,192,76840,1,0,0:0:0:0:
64,192,76868,1,0,0:0:0:0:
192,192,76868,1,0,0:0:0:0:
320,192,76923,1,0,0:0:0:0:
448,192,76923,1,0,0:0:0:0:
192,192,76979,1,0,0:0:0:0:
64,192,76979,128,0,77201:0:0:0:0:
192,192,77201,1,0,0:0:0:0:
320,192,77201,1,0,0:0:0:0:
64,192,77256,1,0,0:0:0:0:
448,192,77256,1,0,0:0:0:0:
320,192,77312,1,0,0:0:0:0:
192,192,77312,1,0,0:0:0:0:
64,192,77423,1,0,0:0:0:0:
448,192,77423,128,0,77645:0:0:0:0:
64,192,77645,1,0,0:0:0:0:
192,192,77645,1,0,0:0:0:0:
320,192,77701,1,0,0:0:0:0:
448,192,77701,1,0,0:0:0:0:
192,192,77756,1,0,0:0:0:0:
64,192,77756,128,0,77868:0:0:0:0:
64,192,77979,1,0,0:0:0:0:
192,192,78006,1,0,0:0:0:0:
320,192,78034,1,0,0:0:0:0:
448,192,78062,1,0,0:0:0:0:
64,192,78090,1,0,0:0:0:0:
192,192,78090,128,0,78201:0:0:0:0:
320,192,78201,128,0,78312:0:0:0:0:
448,192,78312,1,0,0:0:0:0:
64,192,78312,128,0,78534:0:0:0:0:
192,192,78312,1,0,0:0:0:0:
448,192,78534,1,0,0:0:0:0:
320,192,78534,1,0,0:0:0:0:
192,192,78534,128,0,78645:0:0:0:0:
448,192,78645,128,0,78701:0:0:0:0:
320,192,78701,128,0,78756:0:0:0:0:
64,192,78756,1,0,0:0:0:0:
448,192,78756,1,0,0:0:0:0:
192,192,78756,128,0,78979:0:0:0:0:
64,192,78979,128,0,79090:0:0:0:0:
448,192,78979,128,0,79090:0:0:0:0:
320,192,79090,1,0,0:0:0:0:
192,192,79090,1,0,0:0:0:0:
192,192,79201,128,0,79423:0:0:0:0:
448,192,79201,1,0,0:0:0:0:
64,192,79201,1,0,0:0:0:0:
320,192,79423,1,0,0:0:0:0:
448,192,79423,1,0,0:0:0:0:
192,192,79479,1,0,0:0:0:0:
64,192,79479,1,0,0:0:0:0:
320,192,79534,1,0,0:0:0:0:
448,192,79534,128,0,79756:0:0:0:0:
320,192,79756,1,0,0:0:0:0:
192,192,79756,1,0,0:0:0:0:
64,192,79868,1,0,0:0:0:0:
192,192,79868,1,0,0:0:0:0:
320,192,79923,1,0,0:0:0:0:
448,192,79923,1,0,0:0:0:0:
192,192,79979,1,0,0:0:0:0:
64,192,79979,1,0,0:0:0:0:
320,192,80034,1,0,0:0:0:0:
448,192,80034,1,0,0:0:0:0:
192,192,80090,1,0,0:0:0:0:
64,192,80090,1,0,0:0:0:0:
448,192,80201,1,0,0:0:0:0:
320,192,80312,1,0,0:0:0:0:
448,192,80312,1,0,0:0:0:0:
64,192,80368,1,0,0:0:0:0:
192,192,80423,1,0,0:0:0:0:
448,192,80479,1,0,0:0:0:0:
320,192,80534,1,0,0:0:0:0:
64,192,80590,1,0,0:0:0:0:
192,192,80645,1,0,0:0:0:0:
448,192,80701,1,0,0:0:0:0:
320,192,80756,1,0,0:0:0:0:
192,192,80756,1,0,0:0:0:0:
64,192,80756,1,0,0:0:0:0:
448,192,80979,1,0,0:0:0:0:
320,192,80979,1,0,0:0:0:0:
64,192,80979,1,0,0:0:0:0:
64,192,81090,1,0,0:0:0:0:
192,192,81090,1,0,0:0:0:0:
448,192,81090,1,0,0:0:0:0:
448,192,81201,1,0,0:0:0:0:
320,192,81201,1,0,0:0:0:0:
64,192,81201,128,0,81645:0:0:0:0:
448,192,81423,1,0,0:0:0:0:
192,192,81423,1,0,0:0:0:0:
320,192,81423,1,0,0:0:0:0:
320,192,81645,1,0,0:0:0:0:
448,192,81645,1,0,0:0:0:0:
192,192,81645,1,0,0:0:0:0:
192,192,81756,1,0,0:0:0:0:
64,192,81756,1,0,0:0:0:0:
320,192,81812,1,0,0:0:0:0:
448,192,81812,1,0,0:0:0:0:
64,192,81868,1,0,0:0:0:0:
192,192,81868,1,0,0:0:0:0:
448,192,81979,1,0,0:0:0:0:
320,192,81979,1,0,0:0:0:0:
192,192,81979,1,0,0:0:0:0:
320,192,82090,1,0,0:0:0:0:
192,192,82090,128,0,82534:0:0:0:0:
64,192,82090,1,0,0:0:0:0:
320,192,82312,1,0,0:0:0:0:
64,192,82312,1,0,0:0:0:0:
448,192,82312,1,0,0:0:0:0:
320,192,82534,1,0,0:0:0:0:
448,192,82534,1,0,0:0:0:0:
320,192,82645,1,0,0:0:0:0:
192,192,82645,1,0,0:0:0:0:
192,192,82756,1,0,0:0:0:0:
64,192,82756,128,0,82979:0:0:0:0:
320,192,82979,1,0,0:0:0:0:
448,192,82979,1,0,0:0:0:0:
192,192,83034,1,0,0:0:0:0:
64,192,83034,1,0,0:0:0:0:
448,192,83090,1,0,0:0:0:0:
320,192,83090,128,0,83312:0:0:0:0:
64,192,83312,1,0,0:0:0:0:
192,192,83312,1,0,0:0:0:0:
320,192,83368,1,0,0:0:0:0:
448,192,83368,1,0,0:0:0:0:
192,192,83423,1,0,0:0:0:0:
64,192,83423,1,0,0:0:0:0:
320,192,83534,1,0,0:0:0:0:
448,192,83534,1,0,0:0:0:0:
64,192,83645,128,0,83868:0:0:0:0:
192,192,83645,1,0,0:0:0:0:
448,192,83868,1,0,0:0:0:0:
320,192,83895,1,0,0:0:0:0:
192,192,83923,1,0,0:0:0:0:
64,192,83951,1,0,0:0:0:0:
320,192,83979,1,0,0:0:0:0:
448,192,83979,1,0,0:0:0:0:
192,192,84034,1,0,0:0:0:0:
64,192,84034,1,0,0:0:0:0:
448,192,84090,1,0,0:0:0:0:
320,192,84090,128,0,84201:0:0:0:0:
448,192,84312,1,0,0:0:0:0:
192,192,84312,1,0,0:0:0:0:
320,192,84368,1,0,0:0:0:0:
64,192,84368,1,0,0:0:0:0:
192,192,84423,1,0,0:0:0:0:
448,192,84423,1,0,0:0:0:0:
64,192,84534,1,0,0:0:0:0:
448,192,84534,1,0,0:0:0:0:
192,192,84534,128,0,84756:0:0:0:0:
320,192,84756,1,0,0:0:0:0:
448,192,84756,1,0,0:0:0:0:
192,192,84812,1,0,0:0:0:0:
64,192,84812,1,0,0:0:0:0:
320,192,84868,1,0,0:0:0:0:
448,192,84868,1,0,0:0:0:0:
64,192,84868,128,0,85090:0:0:0:0:
448,192,85090,1,0,0:0:0:0:
320,192,85118,1,0,0:0:0:0:
192,192,85145,1,0,0:0:0:0:
64,192,85173,1,0,0:0:0:0:
448,192,85201,1,0,0:0:0:0:
320,192,85201,128,0,85423:0:0:0:0:
64,192,85423,1,0,0:0:0:0:
192,192,85423,1,0,0:0:0:0:
448,192,85423,128,0,85645:0:0:0:0:
192,192,85645,1,0,0:0:0:0:
320,192,85645,1,0,0:0:0:0:
64,192,85645,128,0,85756:0:0:0:0:
320,192,85756,128,0,85868:0:0:0:0:
192,192,85868,1,0,0:0:0:0:
448,192,85868,1,0,0:0:0:0:
64,192,85923,1,0,0:0:0:0:
320,192,85979,1,0,0:0:0:0:
448,192,86034,1,0,0:0:0:0:
64,192,86090,128,0,86312:0:0:0:0:
192,192,86090,128,0,86312:0:0:0:0:
320,192,86090,1,0,0:0:0:0:
320,192,86312,1,0,0:0:0:0:
448,192,86312,1,0,0:0:0:0:
192,192,86368,1,0,0:0:0:0:
64,192,86368,1,0,0:0:0:0:
320,192,86423,1,0,0:0:0:0:
448,192,86423,1,0,0:0:0:0:
192,192,86479,1,0,0:0:0:0:
64,192,86479,1,0,0:0:0:0:
320,192,86534,1,0,0:0:0:0:
448,192,86534,1,0,0:0:0:0:
192,192,86590,1,0,0:0:0:0:
64,192,86590,1,0,0:0:0:0:
320,192,86645,1,0,0:0:0:0:
448,192,86645,1,0,0:0:0:0:
192,192,86701,1,0,0:0:0:0:
64,192,86701,1,0,0:0:0:0:
320,192,86756,1,0,0:0:0:0:
448,192,86756,1,0,0:0:0:0:
192,192,86812,1,0,0:0:0:0:
64,192,86812,1,0,0:0:0:0:
320,192,86868,1,0,0:0:0:0:
448,192,86868,1,0,0:0:0:0:
192,192,86923,1,0,0:0:0:0:
64,192,86923,1,0,0:0:0:0:
320,192,86979,1,0,0:0:0:0:
448,192,86979,1,0,0:0:0:0:
192,192,87034,1,0,0:0:0:0:
64,192,87034,1,0,0:0:0:0:
320,192,87090,1,0,0:0:0:0:
448,192,87090,1,0,0:0:0:0:
192,192,87145,1,0,0:0:0:0:
64,192,87145,1,0,0:0:0:0:
320,192,87201,128,0,87423:0:0:0:0:
448,192,87201,128,0,87312:0:0:0:0:
448,192,87423,128,0,87479:0:0:0:0:
192,192,87479,128,0,87534:0:0:0:0:
320,192,87534,128,0,87590:0:0:0:0:
64,192,87590,128,0,87645:0:0:0:0:
448,192,87645,128,0,87701:0:0:0:0:
320,192,87701,128,0,87756:0:0:0:0:
192,192,87756,128,0,87812:0:0:0:0:
64,192,87812,128,0,87868:0:0:0:0:
320,192,87868,128,0,87923:0:0:0:0:
448,192,87923,128,0,87979:0:0:0:0:
192,192,87979,128,0,88034:0:0:0:0:
64,192,88034,128,0,88090:0:0:0:0:
448,192,88090,1,0,0:0:0:0:
320,192,88090,1,0,0:0:0:0:
192,192,88090,1,0,0:0:0:0:
320,192,88201,1,0,0:0:0:0:
448,192,88201,1,0,0:0:0:0:
64,192,88201,1,0,0:0:0:0:
448,192,88312,1,0,0:0:0:0:
64,192,88312,128,0,88534:0:0:0:0:
192,192,88312,128,0,88423:0:0:0:0:
320,192,88534,1,0,0:0:0:0:
192,192,88534,1,0,0:0:0:0:
448,192,88534,128,0,88590:0:0:0:0:
64,192,88590,128,0,88645:0:0:0:0:
320,192,88645,128,0,88701:0:0:0:0:
192,192,88701,128,0,88756:0:0:0:0:
320,192,88756,1,0,0:0:0:0:
448,192,88756,1,0,0:0:0:0:
192,192,88812,1,0,0:0:0:0:
64,192,88812,1,0,0:0:0:0:
320,192,88868,1,0,0:0:0:0:
448,192,88868,1,0,0:0:0:0:
192,192,88923,1,0,0:0:0:0:
64,192,88923,1,0,0:0:0:0:
320,192,88979,128,0,89201:0:0:0:0:
448,192,88979,1,0,0:0:0:0:
448,192,89201,1,0,0:0:0:0:
64,192,89201,128,0,89423:0:0:0:0:
192,192,89201,128,0,89312:0:0:0:0:
448,192,89423,1,0,0:0:0:0:
320,192,89423,128,0,89479:0:0:0:0:
192,192,89479,128,0,89534:0:0:0:0:
448,192,89534,128,0,89590:0:0:0:0:
320,192,89590,128,0,89645:0:0:0:0:
64,192,89645,1,0,0:0:0:0:
192,192,89645,1,0,0:0:0:0:
448,192,89701,1,0,0:0:0:0:
320,192,89701,1,0,0:0:0:0:
64,192,89756,1,0,0:0:0:0:
192,192,89756,1,0,0:0:0:0:
320,192,89812,1,0,0:0:0:0:
448,192,89812,1,0,0:0:0:0:
64,192,89868,1,0,0:0:0:0:
192,192,89868,128,0,89979:0:0:0:0:
64,192,89979,128,0,90090:0:0:0:0:
320,192,90090,1,0,0:0:0:0:
448,192,90090,1,0,0:0:0:0:
192,192,90145,1,0,0:0:0:0:
64,192,90145,1,0,0:0:0:0:
448,192,90201,1,0,0:0:0:0:
320,192,90201,128,0,90312:0:0:0:0:
448,192,90312,128,0,90423:0:0:0:0:
64,192,90423,1,0,0:0:0:0:
192,192,90451,1,0,0:0:0:0:
320,192,90479,1,0,0:0:0:0:
448,192,90506,1,0,0:0:0:0:
192,192,90534,1,0,0:0:0:0:
64,192,90534,128,0,90590:0:0:0:0:
320,192,90590,128,0,90645:0:0:0:0:
448,192,90645,128,0,90701:0:0:0:0:
192,192,90701,128,0,90756:0:0:0:0:
320,192,90756,128,0,90979:0:0:0:0:
448,192,90756,128,0,91201:0:0:0:0:
64,192,90979,1,0,0:0:0:0:
192,192,91034,1,0,0:0:0:0:
320,192,91090,1,0,0:0:0:0:
192,192,91201,128,0,91423:0:0:0:0:
64,192,91201,1,0,0:0:0:0:
320,192,91201,1,0,0:0:0:0:
320,192,91312,1,0,0:0:0:0:
448,192,91312,1,0,0:0:0:0:
320,192,91423,1,0,0:0:0:0:
448,192,91423,1,0,0:0:0:0:
64,192,91479,1,0,0:0:0:0:
192,192,91479,1,0,0:0:0:0:
320,192,91534,1,0,0:0:0:0:
448,192,91534,1,0,0:0:0:0:
320,192,91645,1,0,0:0:0:0:
64,192,91645,1,0,0:0:0:0:
448,192,91645,128,0,91868:0:0:0:0:
64,192,91868,1,0,0:0:0:0:
192,192,91868,1,0,0:0:0:0:
320,192,91868,128,0,92090:0:0:0:0:
64,192,92090,1,0,0:0:0:0:
448,192,92090,1,0,0:0:0:0:
192,192,92090,128,0,92201:0:0:0:0:
64,192,92201,128,0,92312:0:0:0:0:
192,192,92312,1,0,0:0:0:0:
320,192,92312,1,0,0:0:0:0:
448,192,92312,1,0,0:0:0:0:
64,192,92423,1,0,0:0:0:0:
320,192,92423,1,0,0:0:0:0:
448,192,92423,1,0,0:0:0:0:
64,192,92534,1,0,0:0:0:0:
192,192,92534,1,0,0:0:0:0:
448,192,92534,1,0,0:0:0:0:
320,192,92645,5,0,0:0:0:0:
448,192,92645,1,0,0:0:0:0:
64,192,92701,5,0,0:0:0:0:
192,192,92701,1,0,0:0:0:0:
448,192,92756,1,0,0:0:0:0:
320,192,92756,128,0,92868:0:0:0:0:
448,192,92868,128,0,92979:0:0:0:0:
64,192,92979,5,0,0:0:0:0:
192,192,92979,1,0,0:0:0:0:
320,192,93034,1,0,0:0:0:0:
448,192,93034,1,0,0:0:0:0:
192,192,93090,1,0,0:0:0:0:
64,192,93090,1,0,0:0:0:0:
320,192,93145,1,0,0:0:0:0:
448,192,93145,1,0,0:0:0:0:
192,192,93201,5,0,0:0:0:0:
64,192,93201,1,0,0:0:0:0:
320,192,93256,5,0,0:0:0:0:
448,192,93256,1,0,0:0:0:0:
192,192,93312,5,0,0:0:0:0:
64,192,93312,1,0,0:0:0:0:
320,192,93368,5,0,0:0:0:0:
448,192,93368,1,0,0:0:0:0:
64,192,93423,128,0,94312:0:0:0:0:
192,192,93423,128,0,94201:0:0:0:0:
448,192,94312,128,0,94368:0:0:0:0:
320,192,94368,128,0,94423:0:0:0:0:
64,192,94423,128,0,94479:0:0:0:0:
192,192,94479,128,0,94534:0:0:0:0:
320,192,94534,128,0,94590:0:0:0:0:
448,192,94590,128,0,94645:0:0:0:0:
320,192,94645,128,0,94701:0:0:0:0:
192,192,94701,128,0,94756:0:0:0:0:
64,192,94756,128,0,94812:0:0:0:0:
320,192,94812,128,0,94868:0:0:0:0:
448,192,94868,128,0,94923:0:0:0:0:
192,192,94923,128,0,94979:0:0:0:0:
320,192,94979,128,0,95034:0:0:0:0:
192,192,95034,128,0,95090:0:0:0:0:
64,192,95090,128,0,95145:0:0:0:0:
320,192,95145,128,0,95201:0:0:0:0:
192,192,95201,1,0,0:0:0:0:
448,192,95201,128,0,95256:0:0:0:0:
64,192,95256,128,0,95312:0:0:0:0:
192,192,95312,128,0,95368:0:0:0:0:
320,192,95368,128,0,95423:0:0:0:0:
448,192,95423,128,0,95479:0:0:0:0:
192,192,95479,128,0,95534:0:0:0:0:
64,192,95534,128,0,95590:0:0:0:0:
320,192,95590,128,0,95645:0:0:0:0:
192,192,95645,128,0,95701:0:0:0:0:
448,192,95701,128,0,95756:0:0:0:0:
320,192,95756,128,0,95812:0:0:0:0:
192,192,95812,128,0,95868:0:0:0:0:
320,192,95868,128,0,95923:0:0:0:0:
64,192,95923,128,0,95979:0:0:0:0:
192,192,95979,128,0,96034:0:0:0:0:
448,192,96034,128,0,96090:0:0:0:0:
64,192,96090,1,0,0:0:0:0:
320,192,96090,128,0,96145:0:0:0:0:
192,192,96145,128,0,96201:0:0:0:0:
64,192,96201,128,0,96256:0:0:0:0:
320,192,96256,128,0,96312:0:0:0:0:
448,192,96312,128,0,96368:0:0:0:0:
64,192,96368,128,0,96423:0:0:0:0:
192,192,96423,128,0,96479:0:0:0:0:
448,192,96479,128,0,96534:0:0:0:0:
320,192,96534,128,0,96590:0:0:0:0:
64,192,96590,128,0,96645:0:0:0:0:
192,192,96645,128,0,96701:0:0:0:0:
448,192,96701,128,0,96756:0:0:0:0:
320,192,96756,128,0,96812:0:0:0:0:
192,192,96812,128,0,96868:0:0:0:0:
64,192,96868,128,0,96923:0:0:0:0:
448,192,96923,128,0,96979:0:0:0:0:
192,192,96979,128,0,97423:0:0:0:0:
320,192,96979,128,0,97423:0:0:0:0:
64,192,97423,128,0,97534:0:0:0:0:
64,192,97645,128,0,97868:0:0:0:0:
192,192,97645,128,0,97868:0:0:0:0:
448,192,97868,128,0,98201:0:0:0:0:
320,192,97868,128,0,98201:0:0:0:0:
64,192,98201,128,0,98312:0:0:0:0:
192,192,98312,128,0,98534:0:0:0:0:
448,192,98312,128,0,98534:0:0:0:0:
320,192,98534,128,0,98756:0:0:0:0:
64,192,98534,128,0,98645:0:0:0:0:
64,192,98756,128,0,99090:0:0:0:0:
192,192,98756,128,0,99090:0:0:0:0:
448,192,99090,128,0,99201:0:0:0:0:
320,192,99201,128,0,99312:0:0:0:0:
192,192,99201,128,0,99312:0:0:0:0:
192,192,99423,128,0,99645:0:0:0:0:
320,192,99423,128,0,99645:0:0:0:0:
64,192,99645,128,0,99868:0:0:0:0:
448,192,99645,128,0,99868:0:0:0:0:
320,192,99979,128,0,100090:0:0:0:0:
448,192,99979,128,0,100090:0:0:0:0:
64,192,100090,1,0,0:0:0:0:
192,192,100090,1,0,0:0:0:0:
192,192,100201,1,0,0:0:0:0:
320,192,100201,1,0,0:0:0:0:
448,192,100312,1,0,0:0:0:0:
320,192,100312,1,0,0:0:0:0:
64,192,100534,1,0,0:0:0:0:
320,192,100534,1,0,0:0:0:0:
448,192,100534,1,0,0:0:0:0:
64,192,100756,128,0,100979:0:0:0:0:
448,192,100979,128,0,101090:0:0:0:0:
320,192,101090,128,0,101423:0:0:0:0:
64,192,101090,128,0,101312:0:0:0:0:
192,192,101423,128,0,101645:0:0:0:0:
448,192,101423,128,0,101534:0:0:0:0:
320,192,101645,128,0,101756:0:0:0:0:
64,192,101645,128,0,101868:0:0:0:0:
320,192,101868,128,0,101979:0:0:0:0:
448,192,101868,128,0,102090:0:0:0:0:
192,192,102090,128,0,102312:0:0:0:0:
64,192,102090,128,0,102201:0:0:0:0:
320,192,102312,1,0,0:0:0:0:
448,192,102312,1,0,0:0:0:0:
320,192,102423,1,0,0:0:0:0:
448,192,102423,1,0,0:0:0:0:
192,192,102479,1,0,0:0:0:0:
64,192,102479,1,0,0:0:0:0:
320,192,102534,1,0,0:0:0:0:
448,192,102534,1,0,0:0:0:0:
64,192,102645,1,0,0:0:0:0:
192,192,102645,1,0,0:0:0:0:
64,192,102756,1,0,0:0:0:0:
192,192,102756,1,0,0:0:0:0:
64,192,102868,1,0,0:0:0:0:
192,192,102868,1,0,0:0:0:0:
448,192,102868,1,0,0:0:0:0:
320,192,102979,5,0,0:0:0:0:
192,192,103034,1,0,0:0:0:0:
320,192,103090,1,0,0:0:0:0:
192,192,103145,1,0,0:0:0:0:
320,192,103201,1,0,0:0:0:0:
448,192,103201,1,0,0:0:0:0:
320,192,103312,1,0,0:0:0:0:
448,192,103312,1,0,0:0:0:0:
192,192,103368,1,0,0:0:0:0:
64,192,103368,1,0,0:0:0:0:
320,192,103423,1,0,0:0:0:0:
448,192,103423,1,0,0:0:0:0:
64,192,103534,1,0,0:0:0:0:
192,192,103534,1,0,0:0:0:0:
448,192,103534,1,0,0:0:0:0:
320,192,103645,1,0,0:0:0:0:
192,192,103645,1,0,0:0:0:0:
64,192,103756,1,0,0:0:0:0:
192,192,103868,128,0,104090:0:0:0:0:
64,192,103979,128,0,104090:0:0:0:0:
320,192,104090,5,0,0:0:0:0:
448,192,104090,1,0,0:0:0:0:
192,192,104145,1,0,0:0:0:0:
64,192,104145,1,0,0:0:0:0:
320,192,104201,1,0,0:0:0:0:
448,192,104201,1,0,0:0:0:0:
192,192,104256,1,0,0:0:0:0:
64,192,104256,1,0,0:0:0:0:
320,192,104312,1,0,0:0:0:0:
448,192,104312,1,0,0:0:0:0:
192,192,104368,1,0,0:0:0:0:
64,192,104368,1,0,0:0:0:0:
320,192,104423,1,0,0:0:0:0:
448,192,104423,1,0,0:0:0:0:
192,192,104479,1,0,0:0:0:0:
64,192,104479,1,0,0:0:0:0:
320,192,104534,1,0,0:0:0:0:
448,192,104534,1,0,0:0:0:0:
192,192,104590,1,0,0:0:0:0:
64,192,104590,1,0,0:0:0:0:
320,192,104645,1,0,0:0:0:0:
448,192,104645,1,0,0:0:0:0:
192,192,104701,1,0,0:0:0:0:
64,192,104701,1,0,0:0:0:0:
320,192,104756,1,0,0:0:0:0:
448,192,104756,1,0,0:0:0:0:
192,192,104812,1,0,0:0:0:0:
64,192,104812,1,0,0:0:0:0:
320,192,104868,1,0,0:0:0:0:
448,192,104868,1,0,0:0:0:0:
192,192,104923,1,0,0:0:0:0:
64,192,104923,1,0,0:0:0:0:
320,192,104979,1,0,0:0:0:0:
448,192,104979,1,0,0:0:0:0:
64,192,105034,1,0,0:0:0:0:
192,192,105034,1,0,0:0:0:0:
448,192,105090,1,0,0:0:0:0:
320,192,105090,1,0,0:0:0:0:
192,192,105145,1,0,0:0:0:0:
64,192,105145,1,0,0:0:0:0:
448,192,105201,1,0,0:0:0:0:
320,192,105201,1,0,0:0:0:0:
192,192,105256,1,0,0:0:0:0:
64,192,105256,1,0,0:0:0:0:
320,192,105312,1,0,0:0:0:0:
448,192,105312,1,0,0:0:0:0:
64,192,105368,1,0,0:0:0:0:
192,192,105368,1,0,0:0:0:0:
320,192,105423,1,0,0:0:0:0:
448,192,105423,1,0,0:0:0:0:
192,192,105479,1,0,0:0:0:0:
64,192,105479,1,0,0:0:0:0:
448,192,105534,1,0,0:0:0:0:
320,192,105534,1,0,0:0:0:0:
64,192,105590,1,0,0:0:0:0:
192,192,105590,1,0,0:0:0:0:
448,192,105645,1,0,0:0:0:0:
320,192,105645,1,0,0:0:0:0:
64,192,105701,1,0,0:0:0:0:
192,192,105701,1,0,0:0:0:0:
448,192,105756,1,0,0:0:0:0:
320,192,105756,1,0,0:0:0:0:
192,192,105812,1,0,0:0:0:0:
64,192,105812,1,0,0:0:0:0:
448,192,105868,1,0,0:0:0:0:
320,192,105868,1,0,0:0:0:0:
192,192,105923,1,0,0:0:0:0:
64,192,105923,1,0,0:0:0:0:
320,192,105979,1,0,0:0:0:0:
448,192,105979,1,0,0:0:0:0:
64,192,106034,1,0,0:0:0:0:
192,192,106034,1,0,0:0:0:0:
320,192,106090,1,0,0:0:0:0:
448,192,106090,1,0,0:0:0:0:
64,192,106145,1,0,0:0:0:0:
192,192,106145,1,0,0:0:0:0:
448,192,106201,1,0,0:0:0:0:
320,192,106201,1,0,0:0:0:0:
192,192,106256,1,0,0:0:0:0:
64,192,106256,1,0,0:0:0:0:
448,192,106312,1,0,0:0:0:0:
320,192,106312,1,0,0:0:0:0:
64,192,106368,1,0,0:0:0:0:
192,192,106368,1,0,0:0:0:0:
320,192,106423,1,0,0:0:0:0:
448,192,106423,1,0,0:0:0:0:
192,192,106479,1,0,0:0:0:0:
64,192,106479,1,0,0:0:0:0:
320,192,106534,1,0,0:0:0:0:
448,192,106534,1,0,0:0:0:0:
192,192,106590,1,0,0:0:0:0:
64,192,106590,1,0,0:0:0:0:
320,192,106645,1,0,0:0:0:0:
448,192,106645,1,0,0:0:0:0:
64,192,106701,1,0,0:0:0:0:
192,192,106701,1,0,0:0:0:0:
320,192,106756,128,0,106868:0:0:0:0:
448,192,106756,128,0,106979:0:0:0:0:
192,192,106979,128,0,107090:0:0:0:0:
64,192,106979,128,0,107201:0:0:0:0:
320,192,107201,1,0,0:0:0:0:
448,192,107201,1,0,0:0:0:0:
192,192,107256,1,0,0:0:0:0:
64,192,107256,1,0,0:0:0:0:
320,192,107312,1,0,0:0:0:0:
448,192,107312,1,0,0:0:0:0:
192,192,107368,1,0,0:0:0:0:
64,192,107368,1,0,0:0:0:0:
448,192,107423,128,0,107479:0:0:0:0:
320,192,107479,128,0,107534:0:0:0:0:
192,192,107534,128,0,107590:0:0:0:0:
64,192,107590,128,0,107645:0:0:0:0:
448,192,107645,1,0,0:0:0:0:
320,192,107645,1,0,0:0:0:0:
192,192,107701,1,0,0:0:0:0:
64,192,107701,1,0,0:0:0:0:
320,192,107756,1,0,0:0:0:0:
448,192,107756,1,0,0:0:0:0:
64,192,107812,1,0,0:0:0:0:
192,192,107812,1,0,0:0:0:0:
320,192,107868,1,0,0:0:0:0:
448,192,107868,1,0,0:0:0:0:
64,192,107923,1,0,0:0:0:0:
192,192,107923,1,0,0:0:0:0:
448,192,107979,1,0,0:0:0:0:
320,192,107979,1,0,0:0:0:0:
192,192,108034,1,0,0:0:0:0:
64,192,108034,1,0,0:0:0:0:
448,192,108090,1,0,0:0:0:0:
320,192,108090,1,0,0:0:0:0:
64,192,108145,1,0,0:0:0:0:
192,192,108145,1,0,0:0:0:0:
320,192,108201,1,0,0:0:0:0:
448,192,108201,1,0,0:0:0:0:
192,192,108256,1,0,0:0:0:0:
64,192,108256,1,0,0:0:0:0:
320,192,108312,1,0,0:0:0:0:
448,192,108312,1,0,0:0:0:0:
192,192,108368,1,0,0:0:0:0:
64,192,108368,1,0,0:0:0:0:
320,192,108423,1,0,0:0:0:0:
448,192,108423,1,0,0:0:0:0:
64,192,108479,1,0,0:0:0:0:
192,192,108479,1,0,0:0:0:0:
320,192,108534,1,0,0:0:0:0:
448,192,108534,1,0,0:0:0:0:
64,192,108590,1,0,0:0:0:0:
192,192,108590,1,0,0:0:0:0:
448,192,108645,1,0,0:0:0:0:
320,192,108645,1,0,0:0:0:0:
192,192,108701,1,0,0:0:0:0:
64,192,108701,1,0,0:0:0:0:
448,192,108756,1,0,0:0:0:0:
320,192,108756,1,0,0:0:0:0:
192,192,108812,1,0,0:0:0:0:
64,192,108812,1,0,0:0:0:0:
320,192,108868,1,0,0:0:0:0:
448,192,108868,1,0,0:0:0:0:
64,192,108923,1,0,0:0:0:0:
192,192,108923,1,0,0:0:0:0:
320,192,108979,1,0,0:0:0:0:
448,192,108979,1,0,0:0:0:0:
192,192,109034,1,0,0:0:0:0:
64,192,109034,1,0,0:0:0:0:
448,192,109090,1,0,0:0:0:0:
320,192,109090,1,0,0:0:0:0:
64,192,109145,1,0,0:0:0:0:
192,192,109145,1,0,0:0:0:0:
448,192,109201,1,0,0:0:0:0:
320,192,109201,1,0,0:0:0:0:
64,192,109256,1,0,0:0:0:0:
192,192,109256,1,0,0:0:0:0:
448,192,109312,1,0,0:0:0:0:
320,192,109312,1,0,0:0:0:0:
192,192,109368,1,0,0:0:0:0:
64,192,109368,1,0,0:0:0:0:
448,192,109423,1,0,0:0:0:0:
320,192,109423,1,0,0:0:0:0:
192,192,109479,1,0,0:0:0:0:
64,192,109479,1,0,0:0:0:0:
320,192,109534,1,0,0:0:0:0:
448,192,109534,1,0,0:0:0:0:
64,192,109590,1,0,0:0:0:0:
192,192,109590,1,0,0:0:0:0:
320,192,109645,1,0,0:0:0:0:
448,192,109645,1,0,0:0:0:0:
64,192,109701,1,0,0:0:0:0:
192,192,109701,1,0,0:0:0:0:
448,192,109756,1,0,0:0:0:0:
320,192,109756,1,0,0:0:0:0:
192,192,109812,1,0,0:0:0:0:
64,192,109812,1,0,0:0:0:0:
448,192,109868,1,0,0:0:0:0:
320,192,109868,1,0,0:0:0:0:
64,192,109923,1,0,0:0:0:0:
192,192,109923,1,0,0:0:0:0:
320,192,109979,1,0,0:0:0:0:
448,192,109979,1,0,0:0:0:0:
192,192,110034,1,0,0:0:0:0:
64,192,110034,1,0,0:0:0:0:
320,192,110090,1,0,0:0:0:0:
448,192,110090,1,0,0:0:0:0:
192,192,110145,1,0,0:0:0:0:
64,192,110145,1,0,0:0:0:0:
320,192,110201,1,0,0:0:0:0:
448,192,110201,1,0,0:0:0:0:
64,192,110256,1,0,0:0:0:0:
192,192,110256,1,0,0:0:0:0:
320,192,110312,1,0,0:0:0:0:
448,192,110312,1,0,0:0:0:0:
192,192,110423,1,0,0:0:0:0:
64,192,110423,1,0,0:0:0:0:
320,192,110534,128,0,110645:0:0:0:0:
448,192,110534,128,0,110756:0:0:0:0:
64,192,110756,128,0,110812:0:0:0:0:
192,192,110812,128,0,110868:0:0:0:0:
320,192,110868,128,0,110923:0:0:0:0:
448,192,110923,128,0,110979:0:0:0:0:
64,192,110979,128,0,111201:0:0:0:0:
192,192,110979,128,0,111090:0:0:0:0:
448,192,111201,1,0,0:0:0:0:
320,192,111201,1,0,0:0:0:0:
192,192,111201,1,0,0:0:0:0:
64,192,111423,1,0,0:0:0:0:
192,192,111423,1,0,0:0:0:0:
448,192,111423,1,0,0:0:0:0:
64,192,111534,1,0,0:0:0:0:
320,192,111534,1,0,0:0:0:0:
448,192,111534,1,0,0:0:0:0:
192,192,111756,1,0,0:0:0:0:
320,192,111756,1,0,0:0:0:0:
448,192,111756,1,0,0:0:0:0:
64,192,111868,1,0,0:0:0:0:
192,192,111868,1,0,0:0:0:0:
320,192,111868,1,0,0:0:0:0:
192,192,112090,128,0,112201:0:0:0:0:
64,192,112090,1,0,0:0:0:0:
448,192,112090,1,0,0:0:0:0:
320,192,112201,128,0,112312:0:0:0:0:
64,192,112312,128,0,112423:0:0:0:0:
448,192,112423,1,0,0:0:0:0:
192,192,112423,1,0,0:0:0:0:
320,192,112534,128,0,112645:0:0:0:0:
192,192,112645,1,0,0:0:0:0:
64,192,112645,1,0,0:0:0:0:
448,192,112645,1,0,0:0:0:0:
320,192,112756,128,0,112979:0:0:0:0:
192,192,112756,128,0,112868:0:0:0:0:
64,192,112979,1,0,0:0:0:0:
448,192,112979,1,0,0:0:0:0:
192,192,112979,1,0,0:0:0:0:
320,192,113201,5,0,0:0:0:0:
448,192,113201,1,0,0:0:0:0:
192,192,113256,1,0,0:0:0:0:
64,192,113256,1,0,0:0:0:0:
320,192,113312,1,0,0:0:0:0:
448,192,113312,1,0,0:0:0:0:
64,192,113534,1,0,0:0:0:0:
192,192,113534,1,0,0:0:0:0:
320,192,113590,1,0,0:0:0:0:
448,192,113590,1,0,0:0:0:0:
192,192,113645,1,0,0:0:0:0:
64,192,113645,1,0,0:0:0:0:
448,192,113868,128,0,113979:0:0:0:0:
64,192,113868,1,0,0:0:0:0:
320,192,113868,1,0,0:0:0:0:
192,192,113979,128,0,114090:0:0:0:0:
320,192,114090,128,0,114201:0:0:0:0:
64,192,114090,1,0,0:0:0:0:
192,192,114201,128,0,114423:0:0:0:0:
448,192,114201,1,0,0:0:0:0:
320,192,114312,1,0,0:0:0:0:
64,192,114423,128,0,114534:0:0:0:0:
320,192,114534,128,0,114590:0:0:0:0:
192,192,114534,1,0,0:0:0:0:
448,192,114590,128,0,114756:0:0:0:0:
64,192,114756,1,0,0:0:0:0:
192,192,114756,1,0,0:0:0:0:
320,192,114756,1,0,0:0:0:0:
64,192,114979,1,0,0:0:0:0:
192,192,115006,1,0,0:0:0:0:
320,192,115034,1,0,0:0:0:0:
448,192,115062,1,0,0:0:0:0:
64,192,115090,1,0,0:0:0:0:
192,192,115090,1,0,0:0:0:0:
448,192,115312,1,0,0:0:0:0:
320,192,115340,1,0,0:0:0:0:
192,192,115368,1,0,0:0:0:0:
64,192,115395,1,0,0:0:0:0:
320,192,115423,1,0,0:0:0:0:
448,192,115423,1,0,0:0:0:0:
64,192,115645,128,0,115756:0:0:0:0:
192,192,115645,1,0,0:0:0:0:
448,192,115645,1,0,0:0:0:0:
320,192,115756,128,0,115868:0:0:0:0:
192,192,115868,128,0,115979:0:0:0:0:
448,192,115868,1,0,0:0:0:0:
320,192,115979,1,0,0:0:0:0:
64,192,115979,1,0,0:0:0:0:
448,192,115979,1,0,0:0:0:0:
448,192,116090,128,0,116201:0:0:0:0:
192,192,116201,128,0,116312:0:0:0:0:
64,192,116201,1,0,0:0:0:0:
320,192,116312,128,0,116423:0:0:0:0:
64,192,116312,1,0,0:0:0:0:
448,192,116312,1,0,0:0:0:0:
448,192,116423,128,0,116534:0:0:0:0:
64,192,116534,1,0,0:0:0:0:
192,192,116534,1,0,0:0:0:0:
320,192,116534,1,0,0:0:0:0:
448,192,116756,5,0,0:0:0:0:
320,192,116784,1,0,0:0:0:0:
192,192,116812,1,0,0:0:0:0:
64,192,116840,1,0,0:0:0:0:
448,192,116868,1,0,0:0:0:0:
320,192,116895,1,0,0:0:0:0:
192,192,116923,1,0,0:0:0:0:
64,192,116951,1,0,0:0:0:0:
448,192,116979,1,0,0:0:0:0:
320,192,117006,1,0,0:0:0:0:
192,192,117034,1,0,0:0:0:0:
64,192,117062,1,0,0:0:0:0:
448,192,117090,1,0,0:0:0:0:
320,192,117118,1,0,0:0:0:0:
192,192,117145,1,0,0:0:0:0:
64,192,117173,1,0,0:0:0:0:
448,192,117201,1,0,0:0:0:0:
320,192,117229,1,0,0:0:0:0:
192,192,117256,1,0,0:0:0:0:
64,192,117284,1,0,0:0:0:0:
448,192,117312,1,0,0:0:0:0:
320,192,117340,1,0,0:0:0:0:
192,192,117368,1,0,0:0:0:0:
64,192,117395,1,0,0:0:0:0:
448,192,117423,128,0,117756:0:0:0:0:
320,192,117423,128,0,117868:0:0:0:0:
